osu file format v14

[General]
AudioFilename: audio.mp3
AudioLeadIn: 0
PreviewTime: 67636
Countdown: 0
SampleSet: Normal
StackLeniency: 0.7
Mode: 1
LetterboxInBreaks: 0
WidescreenStoryboard: 0

[Editor]
Bookmarks: 36997,47210,67636,88061
DistanceSpacing: 0.81
BeatDivisor: 3
GridSize: 32
TimelineZoom: 1.9

[Metadata]
Title:* Crow Solace *
TitleUnicode:* Crow Solace *
Artist:m108
ArtistUnicode:m108
Creator:Faputa
Version:* Inner Oni *
Source:THE BMS OF FIGHTERS 2012 -Ein neuer Heiliger Krieg-
Tags:13lade’s 13lades BOF2012 Epic Trancecore Zyon Zion Zaiyin 載音 载音 Nanjing AQUATRAX Yinling 音灵 INVAXION bilibili Featured Artist FA Mappers' Guild MG MPG Video Rhythm Game Electronic Instrumental
BeatmapID:3008027
BeatmapSetID:1450831

[Difficulty]
HPDrainRate:5.5
CircleSize:2
OverallDifficulty:6.5
ApproachRate:10
SliderMultiplier:1.4
SliderTickRate:1

[Events]
//Background and Video events
0,0,"axle.jpg",0,0
//Break Periods
//Storyboard Layer 0 (Background)
//Storyboard Layer 1 (Fail)
//Storyboard Layer 2 (Pass)
//Storyboard Layer 3 (Foreground)
//Storyboard Layer 4 (Overlay)
//Storyboard Sound Samples

[TimingPoints]
-23,319.148936170213,4,1,0,70,1,0
56,-111.111111111111,4,1,0,70,0,0
25588,-111.111111111111,4,1,0,40,0,0
26705,-100,4,1,0,80,0,0
26784,319.148936170213,4,1,0,80,1,0
34444,-100,4,1,0,80,0,0
34602,-99.2907660580474,4,1,0,80,0,0
34682,-98.9399572975144,4,1,0,80,0,0
34761,-98.5915215235151,4,1,0,80,0,0
34921,-97.9020568243118,4,1,0,80,0,0
35081,-97.2222627314984,4,1,0,80,0,0
35160,-96.8857997389896,4,1,0,80,0,0
35240,-96.5517507728968,4,1,0,80,0,0
35320,-96.2199048192702,4,1,0,80,0,0
35400,-95.8904240945786,4,1,0,80,0,0
35479,-95.5631007932693,4,1,0,80,0,0
35559,-95.2380952380952,4,1,0,80,0,0
35719,-94.594581811543,4,1,0,80,0,0
35799,-94.2761196703353,4,1,0,80,0,0
35878,-93.9597063195419,4,1,0,80,0,0
35958,-93.6454974776585,4,1,0,80,0,0
36038,-93.3332960000149,4,1,0,80,0,0
36118,-93.0232558139535,4,1,0,80,0,0
36198,-92.7152686285836,4,1,0,80,0,0
36277,-92.4092287248543,4,1,0,80,0,0
36357,-92.1052873961283,4,1,0,80,0,0
36410,-91.9037400227002,4,1,0,80,0,0
36463,-91.7030727865629,4,1,0,80,0,0
36517,-91.5032799350693,4,1,0,80,0,0
36596,-91.2051760761527,4,1,0,80,0,0
36676,-90.9090909090909,4,1,0,80,0,0
36836,-83.3333333333333,4,1,0,90,0,0
37155,-90.9090909090909,4,1,0,90,0,0
44655,-90.9090909090909,4,1,0,90,0,0
44815,-90.3954802259887,4,1,0,90,0,0
44894,-90.1408450704225,4,1,0,90,0,0
44974,-89.8876404494382,4,1,0,90,0,0
45134,-89.3854748603352,4,1,0,90,0,0
45293,-88.8888888888889,4,1,0,90,0,0
45373,-88.6426592797784,4,1,0,90,0,0
45453,-88.3977900552486,4,1,0,90,0,0
45533,-88.1542699724518,4,1,0,90,0,0
45612,-87.9120879120879,4,1,0,90,0,0
45692,-87.6712328767123,4,1,0,90,0,0
45772,-87.431693989071,4,1,0,90,0,0
45932,-86.9565217391304,4,1,0,90,0,0
46011,-86.7208672086721,4,1,0,90,0,0
46091,-86.4864864864865,4,1,0,90,0,0
46171,-86.2533692722372,4,1,0,90,0,0
46251,-86.0215053763441,4,1,0,90,0,0
46331,-85.7908847184987,4,1,0,90,0,0
46410,-85.5614973262032,4,1,0,90,0,0
46490,-85.3333333333333,4,1,0,90,0,0
46570,-85.1063829787234,4,1,0,90,0,0
46650,-84.8806366047745,4,1,0,90,0,0
46729,-84.6560846560847,4,1,0,90,0,0
46809,-84.4327176781003,4,1,0,90,0,0
46889,-84.2105263157895,4,1,0,90,0,0
46969,-83.989501312336,4,1,0,90,0,0
47049,-83.7696335078534,4,1,0,90,0,0
47208,-83.3333333333333,4,1,0,95,0,0
47368,-85.6807722922091,4,1,0,95,0,0
47421,-86.4929196895942,4,1,0,95,0,0
47474,-87.3206107203514,4,1,0,95,0,0
47527,-88.1642181993869,4,1,0,95,0,0
47687,-90.7960086074616,4,1,0,95,0,0
54868,-90.9090909090909,4,1,0,95,0,0
55027,-90.3954802259887,4,1,0,95,0,0
55187,-89.8876404494382,4,1,0,95,0,0
55267,-89.6358543417367,4,1,0,95,0,0
55346,-89.3854748603352,4,1,0,95,0,0
55426,-89.1364902506964,4,1,0,95,0,0
55506,-88.8888888888889,4,1,0,95,0,0
55666,-88.3977900552486,4,1,0,95,0,0
55825,-87.9120879120879,4,1,0,95,0,0
55905,-87.6712328767123,4,1,0,95,0,0
55985,-87.431693989071,4,1,0,95,0,0
56144,-86.9565217391304,4,1,0,95,0,0
56224,-86.7208672086721,4,1,0,95,0,0
56304,-86.4864864864865,4,1,0,95,0,0
56384,-86.2533692722372,4,1,0,95,0,0
56463,-86.0215053763441,4,1,0,95,0,0
56543,-85.7908847184987,4,1,0,95,0,0
56623,-85.5614973262032,4,1,0,95,0,0
56703,-85.3333333333333,4,1,0,95,0,0
56783,-85.1063829787234,4,1,0,95,0,0
56862,-84.8806366047745,4,1,0,95,0,0
56942,-84.6560846560847,4,1,0,95,0,0
57022,-84.4327176781003,4,1,0,95,0,0
57102,-84.2105263157895,4,1,0,95,0,0
57182,-83.989501312336,4,1,0,95,0,0
57261,-83.7696335078534,4,1,0,95,0,0
57421,-83.3333333333333,4,1,0,95,0,0
57581,-85.6807722922091,4,1,0,95,0,0
57634,-86.4929196895942,4,1,0,95,0,0
57687,-87.3206107203514,4,1,0,95,0,0
57740,-88.1642181993869,4,1,0,95,0,0
57900,-90.7960086074616,4,1,0,95,0,0
65081,-90.9090909090909,4,1,0,95,0,0
65160,-90.3954802259887,4,1,0,95,0,0
65240,-89.8876404494382,4,1,0,95,0,0
65320,-89.3854748603352,4,1,0,95,0,0
65400,-88.8888888888889,4,1,0,95,0,0
65559,-87.9120879120879,4,1,0,95,0,0
65719,-86.9565217391304,4,1,0,95,0,0
65799,-86.4864864864865,4,1,0,95,0,0
65878,-86.0215053763441,4,1,0,95,0,0
65958,-85.5614973262032,4,1,0,95,0,0
66038,-85.1063829787234,4,1,0,95,0,0
66118,-84.6560846560847,4,1,0,95,0,0
66198,-84.2105263157895,4,1,0,95,0,0
66357,-83.3333333333333,4,1,0,95,0,0
66437,-83.0449597107378,4,1,0,95,0,0
66517,-82.4742268041237,4,1,0,95,0,0
66596,-82.1917583036279,4,1,0,95,0,0
66676,-81.6326530612245,4,1,0,95,0,0
66756,-81.3559101407701,4,1,0,95,0,0
66836,-80.8080808080808,4,1,0,95,0,0
66916,-80.5368911310359,4,1,0,95,0,0
66995,-80,4,1,0,95,0,0
67075,-79.7341980772895,4,1,0,95,0,0
67155,-79.2079207920792,4,1,0,95,0,0
67235,-78.9473476454348,4,1,0,95,0,0
67315,-78.4313725490196,4,1,0,95,0,0
67394,-78.1758753939087,4,1,0,95,0,0
67474,-77.6699029126214,4,1,0,95,0,0
67635,-76.9230769230769,4,1,0,100,0,1
67793,-86.9565217391304,4,1,0,100,0,1
76570,-86.9565217391304,4,1,0,100,0,1
76650,-86.2533692722372,4,1,0,100,0,1
76729,-85.5614973262032,4,1,0,100,0,1
76809,-84.8806366047745,4,1,0,100,0,1
76889,-84.2105263157895,4,1,0,100,0,1
77049,-82.9015544041451,4,1,0,100,0,1
77368,-80.4020100502513,4,1,0,100,0,1
77448,-79.8004987531172,4,1,0,100,0,1
77527,-79.2079207920792,4,1,0,100,0,1
77607,-78.6240786240786,4,1,0,100,0,1
77687,-78.0487804878049,4,1,0,100,0,1
77846,-76.9230769230769,4,1,0,100,0,1
78006,-86.9565217391304,4,1,0,100,0,1
84229,-86.9565217391304,4,1,0,100,0,1
84309,-86.2570148517328,4,1,0,100,0,1
84389,-85.5685990623393,4,1,0,100,0,1
84469,-84.8911568033046,4,1,0,100,0,1
84549,-84.224285904392,4,1,0,100,0,1
84628,-83.5678805179872,4,1,0,100,0,1
84708,-82.9215586931231,4,1,0,100,0,1
84788,-82.2852252763755,4,1,0,100,0,1
84868,-81.6585838278441,4,1,0,100,0,1
84948,-81.0413489170445,4,1,0,100,0,1
85027,-80.4334397199629,4,1,0,100,0,1
85107,-79.8345190089981,4,1,0,100,0,1
85187,-79.2445144965953,4,1,0,100,0,1
85267,-78.6631048012813,4,1,0,100,0,1
85346,-78.0902254464809,4,1,0,100,0,1
85506,-76.9690807505717,4,1,0,100,0,1
85666,-86.9565217391304,4,1,0,100,0,1
85745,-86.5800865800866,4,1,0,100,0,1
85825,-86.2068965517241,4,1,0,100,0,1
85905,-85.8369098712446,4,1,0,100,0,1
85985,-85.4700854700855,4,1,0,100,0,1
86144,-84.7457627118644,4,1,0,100,0,1
86224,-84.3881856540084,4,1,0,100,0,1
86304,-84.0336134453782,4,1,0,100,0,1
86384,-83.6820083682008,4,1,0,100,0,1
86463,-83.3333333333333,4,1,0,100,0,1
86543,-82.9875518672199,4,1,0,100,0,1
86623,-82.6446280991736,4,1,0,100,0,1
86676,-82.4176050597816,4,1,0,100,0,1
86729,-82.1917583036279,4,1,0,100,0,1
86783,-81.9672131147541,4,1,0,100,0,1
87022,-80.9716599190283,4,1,0,100,0,1
87102,-80.6451612903226,4,1,0,100,0,1
87261,-80,4,1,0,100,0,1
87421,-79.3650793650794,4,1,0,100,0,1
87501,-79.0513833992095,4,1,0,100,0,1
87581,-78.740157480315,4,1,0,100,0,1
87660,-78.4313725490196,4,1,0,100,0,1
87740,-78.125,4,1,0,100,0,1
87820,-77.8210116731518,4,1,0,100,0,1
87902,-77.5193798449612,4,1,0,100,0,1
88060,-76.9230769230769,4,1,0,100,0,0
88221,-83.3333333333333,4,1,0,70,0,0
88859,-86.9565217391304,4,1,0,70,0,0
89497,-90.9090909090909,4,1,0,70,0,0
90136,-95.2380952380952,4,1,0,70,0,0
90774,-105.263157894737,4,1,0,70,0,0
92210,-104.712041884817,4,1,0,70,0,0
92848,-104.166666666667,4,1,0,70,0,0
93487,-103.626943005181,4,1,0,70,0,0
94763,-103.092783505155,4,1,0,70,0,0
96040,-102.564102564103,4,1,0,70,0,0
96678,-102.040816326531,4,1,0,70,0,0
97317,-101.522842639594,4,1,0,70,0,0
97955,-100,4,1,0,80,0,0
109444,-86.9565217391304,4,1,0,100,0,0
109762,319.148936170213,4,1,0,100,1,1
109762,-86.9565217391304,4,1,0,100,0,1
117421,-86.9565217391304,4,1,0,100,0,1
117527,-86.4864864864865,4,1,0,100,0,1
117634,-86.0215053763441,4,1,0,100,0,1
117740,-85.5614973262032,4,1,0,100,0,1
117846,-85.1063829787234,4,1,0,100,0,1
117953,-84.6560846560847,4,1,0,100,0,1
118059,-84.2105263157895,4,1,0,100,0,1
118166,-83.7696335078534,4,1,0,100,0,1
118272,-83.3333333333333,4,1,0,100,0,1
118378,-82.9015544041451,4,1,0,100,0,1
118485,-82.4742268041237,4,1,0,100,0,1
118591,-82.0512820512821,4,1,0,100,0,1
118698,-81.6326530612245,4,1,0,100,0,1
118777,-81.4249363867685,4,1,0,100,0,1
118857,-81.0126582278481,4,1,0,100,0,1
118937,-80.8080808080808,4,1,0,100,0,1
119017,-80.4020100502513,4,1,0,100,0,1
119096,-80.2005012531328,4,1,0,100,0,1
119176,-79.8004987531172,4,1,0,100,0,1
119256,-79.6019900497512,4,1,0,100,0,1
119336,-79.2079207920792,4,1,0,100,0,1
119416,-79.0123456790123,4,1,0,100,0,1
119495,-78.6240786240786,4,1,0,100,0,1
119575,-78.4313725490196,4,1,0,100,0,1
119655,-78.0487804878049,4,1,0,100,0,1
119735,-77.7642467988348,4,1,0,100,0,1
119817,-77.4818401937046,4,1,0,100,0,1
119974,-76.9230769230769,4,1,0,100,0,0
120134,-100,4,1,0,90,0,0
123166,-100,4,1,0,90,0,0
123325,-97.0873786407767,4,1,0,90,0,0
123405,-95.6937799043062,4,1,0,90,0,0
123485,-94.3396226415094,4,1,0,90,0,0
123565,-93.0232558139535,4,1,0,90,0,0
123644,-91.743119266055,4,1,0,90,0,0
123804,-89.2857142857143,4,1,0,90,0,0
123884,-88.1057268722467,4,1,0,90,0,0
123963,-86.9565217391304,4,1,0,90,0,0
124043,-85.8369098712446,4,1,0,90,0,0
124123,-84.7457627118644,4,1,0,90,0,0
124203,-83.6820083682008,4,1,0,90,0,0
124283,-82.6446280991736,4,1,0,90,0,0
124362,-81.6326530612245,4,1,0,90,0,0
124442,-80.6451612903226,4,1,0,90,0,0
124495,-80,4,1,0,90,0,0
124549,-79.3650793650794,4,1,0,90,0,0
124602,-78.740157480315,4,1,0,90,0,0
124761,-76.9230769230769,4,1,0,90,0,0
124921,-76.9230769230769,4,1,0,100,0,0
125081,-76.9230769230769,4,1,0,100,0,1
125240,-86.9565217391304,4,1,0,100,0,1
136570,-86.9565217391304,4,1,0,100,0,1
136650,-86.2533692722372,4,1,0,100,0,1
136729,-85.5614973262032,4,1,0,100,0,1
136809,-84.8806366047745,4,1,0,100,0,1
136889,-84.2105263157895,4,1,0,100,0,1
136969,-83.5509138381201,4,1,0,100,0,1
137049,-82.9015544041451,4,1,0,100,0,1
137128,-82.2622107969152,4,1,0,100,0,1
137208,-81.6326530612245,4,1,0,100,0,1
137288,-81.0126582278481,4,1,0,100,0,1
137368,-80.4020100502513,4,1,0,100,0,1
137448,-79.8004987531172,4,1,0,100,0,1
137527,-79.2079207920792,4,1,0,100,0,1
137607,-78.6240786240786,4,1,0,100,0,1
137687,-78.0487804878049,4,1,0,100,0,1
137846,-76.9230769230769,4,1,0,100,0,1
138006,-86.9565217391304,4,1,0,100,0,1
138086,-86.5811360484023,4,1,0,100,0,1
138166,-86.2089774580766,4,1,0,100,0,1
138245,-85.8400045323522,4,1,0,100,0,1
138325,-85.4741034834971,4,1,0,100,0,1
138485,-84.7517240619467,4,1,0,100,0,1
138565,-84.3950939443988,4,1,0,100,0,1
138644,-84.0414526060834,4,1,0,100,0,1
138724,-83.6907626320745,4,1,0,100,0,1
138804,-83.3429872293541,4,1,0,100,0,1
138963,-82.6559676782104,4,1,0,100,0,1
139123,-81.9802493183342,4,1,0,100,0,1
139283,-81.3154894623257,4,1,0,100,0,1
139362,-80.9870704142084,4,1,0,100,0,1
139442,-80.6613586115276,4,1,0,100,0,1
139602,-80.0177319293956,4,1,0,100,0,1
139655,-79.8054661956016,4,1,0,100,0,1
139708,-79.5943236512145,4,1,0,100,0,1
139761,-79.3842954048401,4,1,0,100,0,1
139868,-78.9675467073297,4,1,0,100,0,1
139974,-78.5550891128931,4,1,0,100,0,1
140081,-78.1469788377981,4,1,0,100,0,1
140187,-77.7430870846964,4,1,0,100,0,1
140293,-77.3433487813782,4,1,0,100,0,1
140400,-76.9477001871368,4,1,0,100,0,0
140481,-76.9477001871368,4,1,0,80,0,0
141838,-83.3333333333333,4,1,0,60,0,0
143114,-90.9090909090909,4,1,0,40,0,0

[HitObjects]
256,192,5083,5,12,0:0:0:0:
256,192,5721,1,0,0:0:0:0:
256,192,6359,1,8,0:0:0:0:
256,192,6998,1,8,0:0:0:0:
256,192,7078,1,8,0:0:0:0:
256,192,7636,1,0,0:0:0:0:
256,192,7716,1,8,0:0:0:0:
256,192,8274,1,8,0:0:0:0:
256,192,8913,1,0,0:0:0:0:
256,192,9551,1,8,0:0:0:0:
256,192,9711,1,0,0:0:0:0:
256,192,9870,1,0,0:0:0:0:
256,192,10030,1,8,0:0:0:0:
256,192,10109,1,8,0:0:0:0:
256,192,10189,1,8,0:0:0:0:
256,192,10508,1,0,0:0:0:0:
256,192,11147,1,0,0:0:0:0:
256,192,11466,1,0,0:0:0:0:
256,192,11785,1,8,0:0:0:0:
256,192,12104,1,8,0:0:0:0:
256,192,12423,1,8,0:0:0:0:
256,192,12742,1,0,0:0:0:0:
256,192,13062,1,8,0:0:0:0:
256,192,13381,1,8,0:0:0:0:
256,192,13700,1,0,0:0:0:0:
256,192,14019,1,8,0:0:0:0:
256,192,14338,1,0,0:0:0:0:
256,192,14657,1,8,0:0:0:0:
256,192,14817,1,0,0:0:0:0:
256,192,14977,1,8,0:0:0:0:
256,192,15136,1,8,0:0:0:0:
256,192,15296,1,4,0:0:0:0:
256,192,15615,1,0,0:0:0:0:
256,192,15934,1,8,0:0:0:0:
256,192,16253,1,0,0:0:0:0:
256,192,16413,1,8,0:0:0:0:
256,192,16572,1,0,0:0:0:0:
256,192,16732,1,8,0:0:0:0:
256,192,16891,1,0,0:0:0:0:
256,192,17211,1,8,0:0:0:0:
256,192,17530,1,0,0:0:0:0:
256,192,17849,1,8,0:0:0:0:
256,192,18168,1,0,0:0:0:0:
256,192,18487,1,8,0:0:0:0:
256,192,18647,1,0,0:0:0:0:
256,192,18966,1,0,0:0:0:0:
256,192,19125,1,8,0:0:0:0:
256,192,19604,1,8,0:0:0:0:
256,192,20083,1,0,0:0:0:0:
256,192,20402,1,8,0:0:0:0:
256,192,20482,1,8,0:0:0:0:
256,192,20562,1,0,0:0:0:0:
256,192,20721,1,8,0:0:0:0:
256,192,21040,1,0,0:0:0:0:
256,192,21200,1,0,0:0:0:0:
256,192,21359,1,8,0:0:0:0:
256,192,21679,1,0,0:0:0:0:
256,192,21838,1,0,0:0:0:0:
256,192,21998,1,8,0:0:0:0:
256,192,22157,1,0,0:0:0:0:
256,192,22477,1,0,0:0:0:0:
256,192,22636,1,8,0:0:0:0:
256,192,22955,1,0,0:0:0:0:
256,192,23274,1,8,0:0:0:0:
256,192,23434,1,0,0:0:0:0:
256,192,23753,1,0,0:0:0:0:
256,192,23913,1,8,0:0:0:0:
256,192,24072,1,0,0:0:0:0:
256,192,24232,1,8,0:0:0:0:
256,192,24471,1,8,0:0:0:0:
256,192,24551,1,0,0:0:0:0:
256,192,24711,1,8,0:0:0:0:
256,192,24950,1,8,0:0:0:0:
256,192,25030,1,0,0:0:0:0:
256,192,25189,1,8,0:0:0:0:
256,192,25349,1,8,0:0:0:0:
256,192,25508,1,0,0:0:0:0:
256,192,25668,12,0,26625,0:0:0:0:
256,192,26784,5,8,0:0:0:0:
256,192,26863,1,8,0:0:0:0:
256,192,26943,1,8,0:0:0:0:
256,192,27103,1,8,0:0:0:0:
256,192,27182,1,8,0:0:0:0:
256,192,27262,1,8,0:0:0:0:
256,192,27422,1,8,0:0:0:0:
256,192,27502,1,8,0:0:0:0:
256,192,27581,1,8,0:0:0:0:
256,192,28060,1,0,0:0:0:0:
256,192,28140,1,8,0:0:0:0:
256,192,28220,1,8,0:0:0:0:
256,192,28379,1,0,0:0:0:0:
256,192,28459,1,8,0:0:0:0:
256,192,28539,1,8,0:0:0:0:
256,192,28698,1,0,0:0:0:0:
256,192,28778,1,8,0:0:0:0:
256,192,28858,1,8,0:0:0:0:
256,192,29337,1,8,0:0:0:0:
256,192,29416,1,8,0:0:0:0:
256,192,29496,1,8,0:0:0:0:
256,192,29656,1,0,0:0:0:0:
256,192,29736,1,8,0:0:0:0:
256,192,29815,1,8,0:0:0:0:
256,192,29975,1,8,0:0:0:0:
256,192,30055,1,8,0:0:0:0:
256,192,30135,1,8,0:0:0:0:
256,192,30613,1,12,0:0:0:0:
256,192,30773,1,12,0:0:0:0:
256,192,31092,1,12,0:0:0:0:
256,192,31411,1,12,0:0:0:0:
256,192,31730,1,12,0:0:0:0:
256,192,31890,1,4,0:0:0:0:
256,192,32049,1,0,0:0:0:0:
256,192,32209,1,8,0:0:0:0:
256,192,32289,1,8,0:0:0:0:
256,192,32369,1,0,0:0:0:0:
256,192,32528,1,8,0:0:0:0:
256,192,32608,1,8,0:0:0:0:
256,192,32688,1,0,0:0:0:0:
256,192,32847,1,8,0:0:0:0:
256,192,33007,1,0,0:0:0:0:
256,192,33166,1,8,0:0:0:0:
256,192,33246,1,8,0:0:0:0:
256,192,33326,1,8,0:0:0:0:
256,192,33486,1,0,0:0:0:0:
256,192,33565,1,8,0:0:0:0:
256,192,33645,1,8,0:0:0:0:
256,192,33805,1,8,0:0:0:0:
256,192,33885,1,8,0:0:0:0:
256,192,33964,1,8,0:0:0:0:
256,192,34124,1,0,0:0:0:0:
256,192,34284,1,8,0:0:0:0:
256,192,34443,1,0,0:0:0:0:
256,192,34603,1,8,0:0:0:0:
256,192,34682,1,8,0:0:0:0:
256,192,34762,1,0,0:0:0:0:
256,192,34922,1,8,0:0:0:0:
256,192,35081,1,0,0:0:0:0:
256,192,35161,1,0,0:0:0:0:
256,192,35241,1,8,0:0:0:0:
256,192,35321,1,8,0:0:0:0:
256,192,35401,1,0,0:0:0:0:
256,192,35480,1,0,0:0:0:0:
256,192,35560,1,8,0:0:0:0:
256,192,35720,1,8,0:0:0:0:
256,192,35799,1,8,0:0:0:0:
256,192,35879,1,0,0:0:0:0:
256,192,35959,1,0,0:0:0:0:
256,192,36039,1,8,0:0:0:0:
256,192,36119,1,8,0:0:0:0:
256,192,36198,1,0,0:0:0:0:
256,192,36278,1,0,0:0:0:0:
256,192,36358,1,8,0:0:0:0:
256,192,36411,1,8,0:0:0:0:
256,192,36464,1,8,0:0:0:0:
256,192,36518,1,0,0:0:0:0:
256,192,36597,1,0,0:0:0:0:
256,192,36677,1,8,0:0:0:0:
256,192,36996,1,12,0:0:0:0:
256,192,37156,1,0,0:0:0:0:
256,192,37236,1,0,0:0:0:0:
256,192,37315,1,8,0:0:0:0:
256,192,37395,1,8,0:0:0:0:
256,192,37475,1,0,0:0:0:0:
256,192,37635,1,8,0:0:0:0:
256,192,37794,1,8,0:0:0:0:
256,192,37874,1,8,0:0:0:0:
256,192,37954,1,0,0:0:0:0:
256,192,38113,1,0,0:0:0:0:
256,192,38273,1,8,0:0:0:0:
256,192,38432,1,8,0:0:0:0:
256,192,38512,1,8,0:0:0:0:
256,192,38592,1,8,0:0:0:0:
256,192,38752,1,8,0:0:0:0:
256,192,38831,1,0,0:0:0:0:
256,192,38911,1,8,0:0:0:0:
256,192,39071,1,0,0:0:0:0:
256,192,39151,1,0,0:0:0:0:
256,192,39230,1,8,0:0:0:0:
256,192,39310,1,0,0:0:0:0:
256,192,39390,1,8,0:0:0:0:
256,192,39549,1,8,0:0:0:0:
256,192,39709,1,0,0:0:0:0:
256,192,39789,1,0,0:0:0:0:
256,192,39869,1,0,0:0:0:0:
256,192,40028,1,8,0:0:0:0:
256,192,40108,1,8,0:0:0:0:
256,192,40188,1,0,0:0:0:0:
256,192,40268,1,0,0:0:0:0:
256,192,40347,1,8,0:0:0:0:
256,192,40507,1,0,0:0:0:0:
256,192,40666,1,8,0:0:0:0:
256,192,40746,1,8,0:0:0:0:
256,192,40826,1,0,0:0:0:0:
256,192,40986,1,8,0:0:0:0:
256,192,41145,1,0,0:0:0:0:
256,192,41305,1,8,0:0:0:0:
256,192,41385,1,8,0:0:0:0:
256,192,41464,1,0,0:0:0:0:
256,192,41624,1,0,0:0:0:0:
256,192,41784,1,8,0:0:0:0:
256,192,41863,1,0,0:0:0:0:
256,192,41943,1,8,0:0:0:0:
256,192,42023,1,8,0:0:0:0:
256,192,42103,1,0,0:0:0:0:
256,192,42262,1,8,0:0:0:0:
256,192,42342,1,0,0:0:0:0:
256,192,42422,1,8,0:0:0:0:
256,192,42581,1,0,0:0:0:0:
256,192,42661,1,0,0:0:0:0:
256,192,42741,1,8,0:0:0:0:
256,192,42821,1,0,0:0:0:0:
256,192,42901,1,8,0:0:0:0:
256,192,42980,1,8,0:0:0:0:
256,192,43060,1,0,0:0:0:0:
256,192,43220,1,0,0:0:0:0:
256,192,43379,1,8,0:0:0:0:
256,192,43459,1,8,0:0:0:0:
256,192,43539,1,0,0:0:0:0:
256,192,43619,1,0,0:0:0:0:
256,192,43698,1,8,0:0:0:0:
256,192,43858,1,0,0:0:0:0:
256,192,43938,1,0,0:0:0:0:
256,192,44018,1,8,0:0:0:0:
256,192,44177,1,0,0:0:0:0:
256,192,44337,1,8,0:0:0:0:
256,192,44416,1,8,0:0:0:0:
256,192,44496,1,0,0:0:0:0:
256,192,44656,1,8,0:0:0:0:
256,192,44815,1,0,0:0:0:0:
256,192,44895,1,0,0:0:0:0:
256,192,44975,1,8,0:0:0:0:
256,192,45135,1,0,0:0:0:0:
256,192,45294,1,8,0:0:0:0:
256,192,45374,1,8,0:0:0:0:
256,192,45454,1,0,0:0:0:0:
256,192,45534,1,0,0:0:0:0:
256,192,45613,1,8,0:0:0:0:
256,192,45693,1,8,0:0:0:0:
256,192,45773,1,0,0:0:0:0:
256,192,45932,1,8,0:0:0:0:
256,192,46012,1,8,0:0:0:0:
256,192,46092,1,0,0:0:0:0:
256,192,46172,1,0,0:0:0:0:
256,192,46252,1,8,0:0:0:0:
256,192,46331,1,8,0:0:0:0:
256,192,46411,1,0,0:0:0:0:
256,192,46491,1,0,0:0:0:0:
256,192,46571,1,8,0:0:0:0:
256,192,46651,1,8,0:0:0:0:
256,192,46730,1,8,0:0:0:0:
256,192,46810,1,8,0:0:0:0:
256,192,46890,1,0,0:0:0:0:
256,192,46970,1,8,0:0:0:0:
256,192,47049,1,0,0:0:0:0:
256,192,47209,1,12,0:0:0:0:
256,192,47369,1,0,0:0:0:0:
256,192,47422,1,0,0:0:0:0:
256,192,47475,1,0,0:0:0:0:
256,192,47528,1,0,0:0:0:0:
256,192,47688,1,8,0:0:0:0:
256,192,47847,1,0,0:0:0:0:
256,192,47927,1,0,0:0:0:0:
256,192,48007,1,8,0:0:0:0:
256,192,48087,1,8,0:0:0:0:
256,192,48166,1,0,0:0:0:0:
256,192,48246,1,0,0:0:0:0:
256,192,48326,1,8,0:0:0:0:
256,192,48406,1,0,0:0:0:0:
256,192,48486,1,8,0:0:0:0:
256,192,48645,1,0,0:0:0:0:
256,192,48725,1,8,0:0:0:0:
256,192,48885,1,8,0:0:0:0:
256,192,48964,1,8,0:0:0:0:
256,192,49044,1,0,0:0:0:0:
256,192,49124,1,8,0:0:0:0:
256,192,49284,1,8,0:0:0:0:
256,192,49363,1,0,0:0:0:0:
256,192,49443,1,8,0:0:0:0:
256,192,49523,1,8,0:0:0:0:
256,192,49603,1,0,0:0:0:0:
256,192,49682,1,0,0:0:0:0:
256,192,49762,1,8,0:0:0:0:
256,192,49842,1,8,0:0:0:0:
256,192,50002,1,8,0:0:0:0:
256,192,50241,1,8,0:0:0:0:
256,192,50401,1,0,0:0:0:0:
256,192,50480,1,8,0:0:0:0:
256,192,50560,1,0,0:0:0:0:
256,192,50640,1,8,0:0:0:0:
256,192,50720,1,0,0:0:0:0:
256,192,50879,1,8,0:0:0:0:
256,192,51039,1,0,0:0:0:0:
256,192,51145,1,0,0:0:0:0:
256,192,51252,1,8,0:0:0:0:
256,192,51358,1,8,0:0:0:0:
256,192,51464,1,8,0:0:0:0:
256,192,51571,1,0,0:0:0:0:
256,192,51677,1,8,0:0:0:0:
256,192,51784,1,0,0:0:0:0:
256,192,51890,1,8,0:0:0:0:
256,192,51996,1,8,0:0:0:0:
256,192,52103,1,0,0:0:0:0:
256,192,52209,1,0,0:0:0:0:
256,192,52315,1,8,0:0:0:0:
256,192,52475,1,0,0:0:0:0:
256,192,52555,1,8,0:0:0:0:
256,192,52635,1,0,0:0:0:0:
256,192,52794,1,8,0:0:0:0:
256,192,52874,1,8,0:0:0:0:
256,192,52954,1,8,0:0:0:0:
256,192,53113,1,0,0:0:0:0:
256,192,53273,1,8,0:0:0:0:
256,192,53353,1,8,0:0:0:0:
256,192,53432,1,0,0:0:0:0:
256,192,53512,1,0,0:0:0:0:
256,192,53592,1,8,0:0:0:0:
256,192,53752,1,8,0:0:0:0:
256,192,53911,1,0,0:0:0:0:
256,192,54071,1,8,0:0:0:0:
256,192,54151,1,8,0:0:0:0:
256,192,54230,1,8,0:0:0:0:
256,192,54310,1,8,0:0:0:0:
256,192,54390,1,0,0:0:0:0:
256,192,54470,1,0,0:0:0:0:
256,192,54549,1,8,0:0:0:0:
256,192,54629,1,8,0:0:0:0:
256,192,54709,1,0,0:0:0:0:
256,192,54789,1,0,0:0:0:0:
256,192,54869,1,8,0:0:0:0:
256,192,55028,1,8,0:0:0:0:
256,192,55188,1,0,0:0:0:0:
256,192,55268,1,0,0:0:0:0:
256,192,55347,1,8,0:0:0:0:
256,192,55427,1,8,0:0:0:0:
256,192,55507,1,8,0:0:0:0:
256,192,55666,1,8,0:0:0:0:
256,192,55826,1,0,0:0:0:0:
256,192,55906,1,0,0:0:0:0:
256,192,55986,1,8,0:0:0:0:
256,192,56145,1,8,0:0:0:0:
256,192,56225,1,8,0:0:0:0:
256,192,56305,1,0,0:0:0:0:
256,192,56385,1,0,0:0:0:0:
256,192,56464,1,8,0:0:0:0:
256,192,56544,1,8,0:0:0:0:
256,192,56624,1,0,0:0:0:0:
256,192,56704,1,0,0:0:0:0:
256,192,56784,1,8,0:0:0:0:
256,192,56863,1,8,0:0:0:0:
256,192,56943,1,8,0:0:0:0:
256,192,57023,1,8,0:0:0:0:
256,192,57103,1,0,0:0:0:0:
256,192,57182,1,8,0:0:0:0:
256,192,57262,1,0,0:0:0:0:
256,192,57422,1,12,0:0:0:0:
256,192,57581,1,0,0:0:0:0:
256,192,57635,1,0,0:0:0:0:
256,192,57688,1,0,0:0:0:0:
256,192,57741,1,0,0:0:0:0:
256,192,57901,1,8,0:0:0:0:
256,192,58060,1,8,0:0:0:0:
256,192,58140,1,8,0:0:0:0:
256,192,58220,1,0,0:0:0:0:
256,192,58299,1,0,0:0:0:0:
256,192,58379,1,8,0:0:0:0:
256,192,58459,1,8,0:0:0:0:
256,192,58539,1,8,0:0:0:0:
256,192,58619,1,0,0:0:0:0:
256,192,58698,1,8,0:0:0:0:
256,192,58858,1,8,0:0:0:0:
256,192,58938,1,8,0:0:0:0:
256,192,59018,1,0,0:0:0:0:
256,192,59177,1,8,0:0:0:0:
256,192,59257,1,0,0:0:0:0:
256,192,59337,1,8,0:0:0:0:
256,192,59416,1,0,0:0:0:0:
256,192,59496,1,0,0:0:0:0:
256,192,59576,1,8,0:0:0:0:
256,192,59656,1,8,0:0:0:0:
256,192,59736,1,0,0:0:0:0:
256,192,59815,1,0,0:0:0:0:
256,192,59895,1,8,0:0:0:0:
256,192,59975,1,8,0:0:0:0:
256,192,60135,1,0,0:0:0:0:
256,192,60214,1,0,0:0:0:0:
256,192,60294,1,8,0:0:0:0:
256,192,60454,1,8,0:0:0:0:
256,192,60534,1,0,0:0:0:0:
256,192,60613,1,8,0:0:0:0:
256,192,60773,1,0,0:0:0:0:
256,192,60853,1,8,0:0:0:0:
256,192,60932,1,0,0:0:0:0:
256,192,61092,1,0,0:0:0:0:
256,192,61172,1,0,0:0:0:0:
256,192,61252,1,8,0:0:0:0:
256,192,61331,1,8,0:0:0:0:
256,192,61411,1,0,0:0:0:0:
256,192,61571,1,8,0:0:0:0:
256,192,61730,1,8,0:0:0:0:
256,192,61890,1,0,0:0:0:0:
256,192,61970,1,0,0:0:0:0:
256,192,62049,1,8,0:0:0:0:
256,192,62129,1,8,0:0:0:0:
256,192,62209,1,0,0:0:0:0:
256,192,62289,1,8,0:0:0:0:
256,192,62369,1,0,0:0:0:0:
256,192,62448,1,8,0:0:0:0:
256,192,62528,1,0,0:0:0:0:
256,192,62688,1,8,0:0:0:0:
256,192,62768,1,8,0:0:0:0:
256,192,62847,1,0,0:0:0:0:
256,192,63007,1,8,0:0:0:0:
256,192,63087,1,8,0:0:0:0:
256,192,63166,1,0,0:0:0:0:
256,192,63326,1,8,0:0:0:0:
256,192,63406,1,8,0:0:0:0:
256,192,63486,1,0,0:0:0:0:
256,192,63645,1,8,0:0:0:0:
256,192,63725,1,8,0:0:0:0:
256,192,63805,1,0,0:0:0:0:
256,192,63964,1,0,0:0:0:0:
256,192,64044,1,8,0:0:0:0:
256,192,64124,1,0,0:0:0:0:
256,192,64284,1,0,0:0:0:0:
256,192,64363,1,8,0:0:0:0:
256,192,64443,1,0,0:0:0:0:
256,192,64603,1,0,0:0:0:0:
256,192,64682,1,8,0:0:0:0:
256,192,64762,1,0,0:0:0:0:
256,192,64922,1,8,0:0:0:0:
256,192,65081,1,8,0:0:0:0:
256,192,65161,1,8,0:0:0:0:
256,192,65241,1,8,0:0:0:0:
256,192,65321,1,8,0:0:0:0:
256,192,65401,1,0,0:0:0:0:
256,192,65560,1,0,0:0:0:0:
256,192,65720,1,8,0:0:0:0:
256,192,65799,1,8,0:0:0:0:
256,192,65879,1,0,0:0:0:0:
256,192,65959,1,0,0:0:0:0:
256,192,66039,1,8,0:0:0:0:
256,192,66119,1,8,0:0:0:0:
256,192,66198,1,0,0:0:0:0:
256,192,66358,1,8,0:0:0:0:
256,192,66438,1,0,0:0:0:0:
256,192,66518,1,8,0:0:0:0:
256,192,66597,1,0,0:0:0:0:
256,192,66677,1,8,0:0:0:0:
256,192,66757,1,8,0:0:0:0:
256,192,66837,1,0,0:0:0:0:
256,192,66916,1,0,0:0:0:0:
256,192,66996,1,8,0:0:0:0:
256,192,67076,1,0,0:0:0:0:
256,192,67156,1,8,0:0:0:0:
256,192,67236,1,8,0:0:0:0:
256,192,67315,1,0,0:0:0:0:
256,192,67395,1,0,0:0:0:0:
256,192,67475,1,8,0:0:0:0:
256,192,67635,1,12,0:0:0:0:
256,192,67794,1,0,0:0:0:0:
256,192,67874,1,0,0:0:0:0:
256,192,67954,1,0,0:0:0:0:
256,192,68113,1,8,0:0:0:0:
256,192,68193,1,8,0:0:0:0:
256,192,68273,1,8,0:0:0:0:
256,192,68353,1,8,0:0:0:0:
256,192,68432,1,0,0:0:0:0:
256,192,68592,1,8,0:0:0:0:
256,192,68752,1,0,0:0:0:0:
256,192,68831,1,0,0:0:0:0:
256,192,68911,1,8,0:0:0:0:
256,192,69071,1,0,0:0:0:0:
256,192,69151,1,0,0:0:0:0:
256,192,69230,1,0,0:0:0:0:
256,192,69390,1,8,0:0:0:0:
256,192,69549,1,8,0:0:0:0:
256,192,69629,1,8,0:0:0:0:
256,192,69709,1,8,0:0:0:0:
256,192,69789,1,8,0:0:0:0:
256,192,69869,1,0,0:0:0:0:
256,192,69948,1,0,0:0:0:0:
256,192,70028,1,8,0:0:0:0:
256,192,70108,1,0,0:0:0:0:
256,192,70188,1,8,0:0:0:0:
256,192,70347,1,0,0:0:0:0:
256,192,70427,1,0,0:0:0:0:
256,192,70507,1,0,0:0:0:0:
256,192,70666,1,8,0:0:0:0:
256,192,70746,1,8,0:0:0:0:
256,192,70826,1,8,0:0:0:0:
256,192,70906,1,8,0:0:0:0:
256,192,70986,1,0,0:0:0:0:
256,192,71145,1,8,0:0:0:0:
256,192,71305,1,0,0:0:0:0:
256,192,71385,1,0,0:0:0:0:
256,192,71464,1,8,0:0:0:0:
256,192,71624,1,8,0:0:0:0:
256,192,71704,1,8,0:0:0:0:
256,192,71784,1,0,0:0:0:0:
256,192,71863,1,0,0:0:0:0:
256,192,71943,1,8,0:0:0:0:
256,192,72103,1,8,0:0:0:0:
256,192,72182,1,8,0:0:0:0:
256,192,72262,1,8,0:0:0:0:
256,192,72342,1,8,0:0:0:0:
256,192,72422,1,0,0:0:0:0:
256,192,72502,1,0,0:0:0:0:
256,192,72581,1,8,0:0:0:0:
256,192,72661,1,0,0:0:0:0:
256,192,72741,1,8,0:0:0:0:
256,192,72901,1,0,0:0:0:0:
256,192,72980,1,0,0:0:0:0:
256,192,73060,1,8,0:0:0:0:
256,192,73220,1,0,0:0:0:0:
256,192,73299,1,0,0:0:0:0:
256,192,73379,1,8,0:0:0:0:
256,192,73459,1,8,0:0:0:0:
256,192,73539,1,0,0:0:0:0:
256,192,73698,1,8,0:0:0:0:
256,192,73778,1,8,0:0:0:0:
256,192,73858,1,0,0:0:0:0:
256,192,74018,1,8,0:0:0:0:
256,192,74177,1,0,0:0:0:0:
256,192,74257,1,0,0:0:0:0:
256,192,74337,1,8,0:0:0:0:
256,192,74496,1,8,0:0:0:0:
256,192,74576,1,0,0:0:0:0:
256,192,74656,1,8,0:0:0:0:
256,192,74815,1,0,0:0:0:0:
256,192,74895,1,0,0:0:0:0:
256,192,74975,1,8,0:0:0:0:
256,192,75055,1,0,0:0:0:0:
256,192,75135,1,8,0:0:0:0:
256,192,75294,1,8,0:0:0:0:
256,192,75454,1,0,0:0:0:0:
256,192,75534,1,0,0:0:0:0:
256,192,75613,1,0,0:0:0:0:
256,192,75773,1,8,0:0:0:0:
256,192,75853,1,8,0:0:0:0:
256,192,75932,1,0,0:0:0:0:
256,192,76012,1,0,0:0:0:0:
256,192,76092,1,8,0:0:0:0:
256,192,76252,1,0,0:0:0:0:
256,192,76331,1,0,0:0:0:0:
256,192,76411,1,8,0:0:0:0:
256,192,76491,1,0,0:0:0:0:
256,192,76571,1,8,0:0:0:0:
256,192,76651,1,8,0:0:0:0:
256,192,76730,1,8,0:0:0:0:
256,192,76810,1,8,0:0:0:0:
256,192,76890,1,0,0:0:0:0:
256,192,77049,1,8,0:0:0:0:
256,192,77369,1,8,0:0:0:0:
256,192,77448,1,0,0:0:0:0:
256,192,77528,1,8,0:0:0:0:
256,192,77608,1,8,0:0:0:0:
256,192,77688,1,0,0:0:0:0:
256,192,77847,1,12,0:0:0:0:
256,192,78007,1,0,0:0:0:0:
256,192,78087,1,0,0:0:0:0:
256,192,78166,1,8,0:0:0:0:
256,192,78326,1,0,0:0:0:0:
256,192,78486,1,8,0:0:0:0:
256,192,78565,1,0,0:0:0:0:
256,192,78645,1,8,0:0:0:0:
256,192,78805,1,0,0:0:0:0:
256,192,78885,1,0,0:0:0:0:
256,192,78964,1,8,0:0:0:0:
256,192,79124,1,8,0:0:0:0:
256,192,79204,1,8,0:0:0:0:
256,192,79284,1,0,0:0:0:0:
256,192,79363,1,8,0:0:0:0:
256,192,79443,1,8,0:0:0:0:
256,192,79523,1,0,0:0:0:0:
256,192,79603,1,8,0:0:0:0:
256,192,79762,1,0,0:0:0:0:
256,192,79842,1,8,0:0:0:0:
256,192,79922,1,0,0:0:0:0:
256,192,80002,1,0,0:0:0:0:
256,192,80081,1,8,0:0:0:0:
256,192,80161,1,0,0:0:0:0:
256,192,80241,1,8,0:0:0:0:
256,192,80321,1,8,0:0:0:0:
256,192,80401,1,0,0:0:0:0:
256,192,80560,1,0,0:0:0:0:
256,192,80640,1,0,0:0:0:0:
256,192,80720,1,8,0:0:0:0:
256,192,80879,1,8,0:0:0:0:
256,192,81039,1,0,0:0:0:0:
256,192,81198,1,8,0:0:0:0:
256,192,81278,1,0,0:0:0:0:
256,192,81358,1,8,0:0:0:0:
256,192,81438,1,8,0:0:0:0:
256,192,81518,1,0,0:0:0:0:
256,192,81677,1,8,0:0:0:0:
256,192,81837,1,8,0:0:0:0:
256,192,81916,1,8,0:0:0:0:
256,192,81996,1,0,0:0:0:0:
256,192,82076,1,0,0:0:0:0:
256,192,82156,1,8,0:0:0:0:
256,192,82315,1,0,0:0:0:0:
256,192,82395,1,0,0:0:0:0:
256,192,82475,1,8,0:0:0:0:
256,192,82555,1,0,0:0:0:0:
256,192,82635,1,8,0:0:0:0:
256,192,82794,1,8,0:0:0:0:
256,192,82954,1,0,0:0:0:0:
256,192,83113,1,8,0:0:0:0:
256,192,83193,1,0,0:0:0:0:
256,192,83273,1,8,0:0:0:0:
256,192,83432,1,0,0:0:0:0:
256,192,83592,1,8,0:0:0:0:
256,192,83672,1,0,0:0:0:0:
256,192,83752,1,8,0:0:0:0:
256,192,83831,1,8,0:0:0:0:
256,192,83911,1,0,0:0:0:0:
256,192,83991,1,0,0:0:0:0:
256,192,84071,1,8,0:0:0:0:
256,192,84151,1,0,0:0:0:0:
256,192,84230,1,8,0:0:0:0:
256,192,84310,1,8,0:0:0:0:
256,192,84390,1,0,0:0:0:0:
256,192,84470,1,0,0:0:0:0:
256,192,84549,1,8,0:0:0:0:
256,192,84629,1,8,0:0:0:0:
256,192,84709,1,0,0:0:0:0:
256,192,84789,1,0,0:0:0:0:
256,192,84869,1,8,0:0:0:0:
256,192,84948,1,8,0:0:0:0:
256,192,85028,1,8,0:0:0:0:
256,192,85108,1,8,0:0:0:0:
256,192,85188,1,0,0:0:0:0:
256,192,85268,1,8,0:0:0:0:
256,192,85347,1,0,0:0:0:0:
256,192,85507,1,12,0:0:0:0:
256,192,85666,1,0,0:0:0:0:
256,192,85746,1,0,0:0:0:0:
256,192,85826,1,0,0:0:0:0:
256,192,85906,1,0,0:0:0:0:
256,192,85986,1,8,0:0:0:0:
256,192,86145,1,0,0:0:0:0:
256,192,86225,1,0,0:0:0:0:
256,192,86305,1,0,0:0:0:0:
256,192,86385,1,0,0:0:0:0:
256,192,86464,1,8,0:0:0:0:
256,192,86544,1,8,0:0:0:0:
256,192,86624,1,0,0:0:0:0:
256,192,86677,1,0,0:0:0:0:
256,192,86730,1,0,0:0:0:0:
256,192,86784,1,8,0:0:0:0:
256,192,87023,1,8,0:0:0:0:
256,192,87103,1,0,0:0:0:0:
256,192,87262,1,8,0:0:0:0:
256,192,87422,1,0,0:0:0:0:
256,192,87502,1,8,0:0:0:0:
256,192,87581,1,0,0:0:0:0:
256,192,87661,1,0,0:0:0:0:
256,192,87741,1,8,0:0:0:0:
256,192,87821,1,8,0:0:0:0:
256,192,87901,1,0,0:0:0:0:
256,192,88060,1,12,0:0:0:0:
256,192,88698,1,8,0:0:0:0:
256,192,89337,1,8,0:0:0:0:
256,192,89975,1,0,0:0:0:0:
256,192,90613,1,8,0:0:0:0:
256,192,91890,1,0,0:0:0:0:
256,192,92528,1,0,0:0:0:0:
256,192,93166,1,8,0:0:0:0:
256,192,94443,1,8,0:0:0:0:
256,192,95720,1,0,0:0:0:0:
256,192,96358,1,8,0:0:0:0:
256,192,96996,1,0,0:0:0:0:
256,192,98273,1,8,0:0:0:0:
256,192,98911,1,0,0:0:0:0:
256,192,99549,1,8,0:0:0:0:
256,192,100188,1,0,0:0:0:0:
256,192,100826,1,8,0:0:0:0:
256,192,101464,1,0,0:0:0:0:
256,192,102103,1,8,0:0:0:0:
256,192,102422,1,0,0:0:0:0:
256,192,102502,1,0,0:0:0:0:
256,192,102581,1,0,0:0:0:0:
256,192,102661,1,0,0:0:0:0:
256,192,102741,1,8,0:0:0:0:
256,192,102901,1,0,0:0:0:0:
256,192,103060,1,8,0:0:0:0:
256,192,103220,1,8,0:0:0:0:
256,192,103379,1,0,0:0:0:0:
256,192,103698,1,0,0:0:0:0:
256,192,104018,1,8,0:0:0:0:
256,192,104337,1,0,0:0:0:0:
256,192,104656,1,8,0:0:0:0:
256,192,104975,1,8,0:0:0:0:
256,192,105294,1,0,0:0:0:0:
256,192,105613,1,8,0:0:0:0:
256,192,105932,1,0,0:0:0:0:
256,192,106252,1,8,0:0:0:0:
256,192,106571,1,0,0:0:0:0:
256,192,106890,1,0,0:0:0:0:
256,192,107209,1,8,0:0:0:0:
256,192,107528,1,0,0:0:0:0:
256,192,107847,1,8,0:0:0:0:
256,192,108166,1,8,0:0:0:0:
256,192,109603,1,0,0:0:0:0:
256,192,109762,1,12,0:0:0:0:
256,192,109921,1,0,0:0:0:0:
256,192,110001,1,0,0:0:0:0:
256,192,110081,1,8,0:0:0:0:
256,192,110240,1,0,0:0:0:0:
256,192,110320,1,0,0:0:0:0:
256,192,110400,1,8,0:0:0:0:
256,192,110480,1,8,0:0:0:0:
256,192,110559,1,8,0:0:0:0:
256,192,110639,1,0,0:0:0:0:
256,192,110719,1,8,0:0:0:0:
256,192,110879,1,0,0:0:0:0:
256,192,111038,1,8,0:0:0:0:
256,192,111198,1,8,0:0:0:0:
256,192,111277,1,8,0:0:0:0:
256,192,111357,1,0,0:0:0:0:
256,192,111517,1,8,0:0:0:0:
256,192,111597,1,0,0:0:0:0:
256,192,111676,1,0,0:0:0:0:
256,192,111756,1,0,0:0:0:0:
256,192,111836,1,8,0:0:0:0:
256,192,111916,1,8,0:0:0:0:
256,192,111996,1,0,0:0:0:0:
256,192,112155,1,8,0:0:0:0:
256,192,112315,1,0,0:0:0:0:
256,192,112474,1,8,0:0:0:0:
256,192,112554,1,0,0:0:0:0:
256,192,112634,1,8,0:0:0:0:
256,192,112793,1,0,0:0:0:0:
256,192,112953,1,8,0:0:0:0:
256,192,113033,1,8,0:0:0:0:
256,192,113113,1,0,0:0:0:0:
256,192,113192,1,0,0:0:0:0:
256,192,113272,1,8,0:0:0:0:
256,192,113352,1,0,0:0:0:0:
256,192,113432,1,8,0:0:0:0:
256,192,113512,1,0,0:0:0:0:
256,192,113591,1,8,0:0:0:0:
256,192,113751,1,0,0:0:0:0:
256,192,113831,1,0,0:0:0:0:
256,192,113910,1,8,0:0:0:0:
256,192,114070,1,0,0:0:0:0:
256,192,114150,1,0,0:0:0:0:
256,192,114230,1,8,0:0:0:0:
256,192,114389,1,8,0:0:0:0:
256,192,114469,1,0,0:0:0:0:
256,192,114549,1,8,0:0:0:0:
256,192,114708,1,8,0:0:0:0:
256,192,114788,1,0,0:0:0:0:
256,192,114868,1,8,0:0:0:0:
256,192,114948,1,8,0:0:0:0:
256,192,115027,1,0,0:0:0:0:
256,192,115107,1,0,0:0:0:0:
256,192,115187,1,8,0:0:0:0:
256,192,115347,1,8,0:0:0:0:
256,192,115426,1,8,0:0:0:0:
256,192,115506,1,0,0:0:0:0:
256,192,115586,1,8,0:0:0:0:
256,192,115666,1,0,0:0:0:0:
256,192,115746,1,0,0:0:0:0:
256,192,115825,1,8,0:0:0:0:
256,192,115985,1,0,0:0:0:0:
256,192,116144,1,8,0:0:0:0:
256,192,116224,1,8,0:0:0:0:
256,192,116304,1,0,0:0:0:0:
256,192,116384,1,0,0:0:0:0:
256,192,116464,1,8,0:0:0:0:
256,192,116623,1,0,0:0:0:0:
256,192,116703,1,0,0:0:0:0:
256,192,116783,1,8,0:0:0:0:
256,192,116863,1,8,0:0:0:0:
256,192,116942,1,0,0:0:0:0:
256,192,117022,1,0,0:0:0:0:
256,192,117102,1,8,0:0:0:0:
256,192,117262,1,8,0:0:0:0:
256,192,117421,1,0,0:0:0:0:
256,192,117527,1,0,0:0:0:0:
256,192,117634,1,8,0:0:0:0:
256,192,117740,1,8,0:0:0:0:
256,192,117847,1,0,0:0:0:0:
256,192,117953,1,0,0:0:0:0:
256,192,118059,1,8,0:0:0:0:
256,192,118166,1,0,0:0:0:0:
256,192,118272,1,8,0:0:0:0:
256,192,118379,1,8,0:0:0:0:
256,192,118485,1,0,0:0:0:0:
256,192,118591,1,0,0:0:0:0:
256,192,118698,1,8,0:0:0:0:
256,192,118777,1,0,0:0:0:0:
256,192,118857,1,8,0:0:0:0:
256,192,118937,1,0,0:0:0:0:
256,192,119017,1,8,0:0:0:0:
256,192,119097,1,8,0:0:0:0:
256,192,119176,1,0,0:0:0:0:
256,192,119256,1,0,0:0:0:0:
256,192,119336,1,8,0:0:0:0:
256,192,119416,1,0,0:0:0:0:
256,192,119496,1,8,0:0:0:0:
256,192,119575,1,0,0:0:0:0:
256,192,119655,1,8,0:0:0:0:
256,192,119735,1,8,0:0:0:0:
256,192,119815,1,0,0:0:0:0:
256,192,119974,1,12,0:0:0:0:
256,192,120293,1,8,0:0:0:0:
256,192,120613,1,0,0:0:0:0:
256,192,120772,1,8,0:0:0:0:
256,192,120852,1,8,0:0:0:0:
256,192,120932,1,0,0:0:0:0:
256,192,121091,1,8,0:0:0:0:
256,192,121251,1,0,0:0:0:0:
256,192,121570,1,8,0:0:0:0:
256,192,121730,1,0,0:0:0:0:
256,192,121889,1,8,0:0:0:0:
256,192,121969,1,0,0:0:0:0:
256,192,122049,1,8,0:0:0:0:
256,192,122208,1,0,0:0:0:0:
256,192,122288,1,0,0:0:0:0:
256,192,122368,1,8,0:0:0:0:
256,192,122527,1,0,0:0:0:0:
256,192,122847,1,8,0:0:0:0:
256,192,123006,1,0,0:0:0:0:
256,192,123166,1,8,0:0:0:0:
256,192,123325,1,0,0:0:0:0:
256,192,123405,1,0,0:0:0:0:
256,192,123485,1,8,0:0:0:0:
256,192,123565,1,8,0:0:0:0:
256,192,123644,1,0,0:0:0:0:
256,192,123804,1,8,0:0:0:0:
256,192,123884,1,8,0:0:0:0:
256,192,123964,1,8,0:0:0:0:
256,192,124043,1,8,0:0:0:0:
256,192,124123,1,8,0:0:0:0:
256,192,124203,1,8,0:0:0:0:
256,192,124283,1,8,0:0:0:0:
256,192,124363,1,8,0:0:0:0:
256,192,124442,1,0,0:0:0:0:
256,192,124496,1,0,0:0:0:0:
256,192,124549,1,0,0:0:0:0:
256,192,124602,1,0,0:0:0:0:
256,192,124762,1,12,0:0:0:0:
256,192,125081,1,4,0:0:0:0:
256,192,125240,1,8,0:0:0:0:
256,192,125320,1,0,0:0:0:0:
256,192,125400,1,8,0:0:0:0:
256,192,125559,1,0,0:0:0:0:
256,192,125639,1,0,0:0:0:0:
256,192,125719,1,8,0:0:0:0:
256,192,125879,1,8,0:0:0:0:
256,192,125958,1,0,0:0:0:0:
256,192,126038,1,8,0:0:0:0:
256,192,126198,1,0,0:0:0:0:
256,192,126277,1,0,0:0:0:0:
256,192,126357,1,8,0:0:0:0:
256,192,126517,1,0,0:0:0:0:
256,192,126597,1,0,0:0:0:0:
256,192,126676,1,8,0:0:0:0:
256,192,126756,1,0,0:0:0:0:
256,192,126836,1,8,0:0:0:0:
256,192,126996,1,8,0:0:0:0:
256,192,127075,1,8,0:0:0:0:
256,192,127155,1,0,0:0:0:0:
256,192,127235,1,0,0:0:0:0:
256,192,127315,1,8,0:0:0:0:
256,192,127394,1,8,0:0:0:0:
256,192,127474,1,0,0:0:0:0:
256,192,127634,1,8,0:0:0:0:
256,192,127714,1,8,0:0:0:0:
256,192,127793,1,8,0:0:0:0:
256,192,127873,1,8,0:0:0:0:
256,192,127953,1,0,0:0:0:0:
256,192,128113,1,8,0:0:0:0:
256,192,128272,1,0,0:0:0:0:
256,192,128352,1,0,0:0:0:0:
256,192,128432,1,8,0:0:0:0:
256,192,128512,1,0,0:0:0:0:
256,192,128591,1,8,0:0:0:0:
256,192,128751,1,0,0:0:0:0:
256,192,128910,1,8,0:0:0:0:
256,192,128990,1,8,0:0:0:0:
256,192,129070,1,0,0:0:0:0:
256,192,129150,1,0,0:0:0:0:
256,192,129230,1,8,0:0:0:0:
256,192,129389,1,8,0:0:0:0:
256,192,129469,1,8,0:0:0:0:
256,192,129549,1,0,0:0:0:0:
256,192,129629,1,8,0:0:0:0:
256,192,129708,1,0,0:0:0:0:
256,192,129788,1,0,0:0:0:0:
256,192,129868,1,8,0:0:0:0:
256,192,129948,1,8,0:0:0:0:
256,192,130027,1,0,0:0:0:0:
256,192,130187,1,12,0:0:0:0:
256,192,130347,1,0,0:0:0:0:
256,192,130506,1,8,0:0:0:0:
256,192,130586,1,8,0:0:0:0:
256,192,130666,1,0,0:0:0:0:
256,192,130746,1,0,0:0:0:0:
256,192,130825,1,8,0:0:0:0:
256,192,130985,1,8,0:0:0:0:
256,192,131065,1,8,0:0:0:0:
256,192,131144,1,0,0:0:0:0:
256,192,131304,1,8,0:0:0:0:
256,192,131464,1,8,0:0:0:0:
256,192,131543,1,8,0:0:0:0:
256,192,131623,1,0,0:0:0:0:
256,192,131703,1,8,0:0:0:0:
256,192,131783,1,8,0:0:0:0:
256,192,131863,1,0,0:0:0:0:
256,192,131942,1,8,0:0:0:0:
256,192,132102,1,0,0:0:0:0:
256,192,132182,1,8,0:0:0:0:
256,192,132262,1,8,0:0:0:0:
256,192,132341,1,0,0:0:0:0:
256,192,132421,1,8,0:0:0:0:
256,192,132581,1,8,0:0:0:0:
256,192,132660,1,8,0:0:0:0:
256,192,132740,1,0,0:0:0:0:
256,192,132900,1,0,0:0:0:0:
256,192,133059,1,8,0:0:0:0:
256,192,133139,1,8,0:0:0:0:
256,192,133219,1,0,0:0:0:0:
256,192,133299,1,0,0:0:0:0:
256,192,133379,1,8,0:0:0:0:
256,192,133538,1,8,0:0:0:0:
256,192,133618,1,0,0:0:0:0:
256,192,133698,1,8,0:0:0:0:
256,192,133857,1,8,0:0:0:0:
256,192,133937,1,8,0:0:0:0:
256,192,134017,1,0,0:0:0:0:
256,192,134176,1,8,0:0:0:0:
256,192,134256,1,8,0:0:0:0:
256,192,134336,1,0,0:0:0:0:
256,192,134416,1,8,0:0:0:0:
256,192,134496,1,0,0:0:0:0:
256,192,134655,1,8,0:0:0:0:
256,192,134735,1,8,0:0:0:0:
256,192,134815,1,0,0:0:0:0:
256,192,134894,1,0,0:0:0:0:
256,192,134974,1,8,0:0:0:0:
256,192,135134,1,0,0:0:0:0:
256,192,135293,1,12,0:0:0:0:
256,192,135453,1,0,0:0:0:0:
256,192,135533,1,0,0:0:0:0:
256,192,135613,1,8,0:0:0:0:
256,192,135772,1,0,0:0:0:0:
256,192,135932,1,8,0:0:0:0:
256,192,136012,1,0,0:0:0:0:
256,192,136091,1,8,0:0:0:0:
256,192,136171,1,0,0:0:0:0:
256,192,136251,1,8,0:0:0:0:
256,192,136331,1,8,0:0:0:0:
256,192,136410,1,0,0:0:0:0:
256,192,136570,1,8,0:0:0:0:
256,192,136650,1,8,0:0:0:0:
256,192,136730,1,8,0:0:0:0:
256,192,136809,1,8,0:0:0:0:
256,192,136889,1,0,0:0:0:0:
256,192,136969,1,0,0:0:0:0:
256,192,137049,1,0,0:0:0:0:
256,192,137129,1,0,0:0:0:0:
256,192,137208,1,8,0:0:0:0:
256,192,137288,1,0,0:0:0:0:
256,192,137368,1,8,0:0:0:0:
256,192,137448,1,0,0:0:0:0:
256,192,137527,1,8,0:0:0:0:
256,192,137607,1,8,0:0:0:0:
256,192,137687,1,0,0:0:0:0:
256,192,137847,1,12,0:0:0:0:
256,192,138006,1,0,0:0:0:0:
256,192,138086,1,0,0:0:0:0:
256,192,138166,1,0,0:0:0:0:
256,192,138246,1,0,0:0:0:0:
256,192,138325,1,8,0:0:0:0:
256,192,138485,1,0,0:0:0:0:
256,192,138565,1,0,0:0:0:0:
256,192,138644,1,0,0:0:0:0:
256,192,138724,1,0,0:0:0:0:
256,192,138804,1,8,0:0:0:0:
256,192,138964,1,0,0:0:0:0:
256,192,139123,1,12,0:0:0:0:
256,192,139283,1,8,0:0:0:0:
256,192,139363,1,8,0:0:0:0:
256,192,139442,1,0,0:0:0:0:
256,192,139602,1,8,0:0:0:0:
256,192,139655,1,8,0:0:0:0:
256,192,139708,1,8,0:0:0:0:
256,192,139762,1,8,0:0:0:0:
256,192,139868,1,0,0:0:0:0:
256,192,139974,1,8,0:0:0:0:
256,192,140081,1,8,0:0:0:0:
256,192,140187,1,0,0:0:0:0:
256,192,140293,1,0,0:0:0:0:
256,192,140400,1,12,0:0:0:0:
256,192,140559,12,12,144150,0:0:0:0:
