osu file format v14

[General]
AudioFilename: Crow Solace.mp3
AudioLeadIn: 0
PreviewTime: 109890
Countdown: 0
SampleSet: Soft
StackLeniency: 0.7
Mode: 3
LetterboxInBreaks: 0
SpecialStyle: 0
WidescreenStoryboard: 0

[Editor]
DistanceSpacing: 1.1
BeatDivisor: 4
GridSize: 4
TimelineZoom: 2.299997

[Metadata]
Title:* Crow Solace *
TitleUnicode:* Crow Solace *
Artist:m108
ArtistUnicode:m108
Creator:Critical_Star
Version:KK's 7K Extra
Source:BMS
Tags:THE BMS OF FIGHTERS 2012 EPIC TRANCECORE - Ein neuer Heiliger - [_A_v_a_l_o_n_] Zan_- richardfeder Rizqy ExPew Kuo Kyoka Raymond
BeatmapID:972694
BeatmapSetID:354157

[Difficulty]
HPDrainRate:8.5
CircleSize:7
OverallDifficulty:8.5
ApproachRate:5
SliderMultiplier:1.4
SliderTickRate:1

[Events]
//Background and Video events
0,0,"BG.jpg",0,0
//Break Periods
2,88388,97201
//Storyboard Layer 0 (Background)
//Storyboard Layer 1 (Fail)
//Storyboard Layer 2 (Pass)
//Storyboard Layer 3 (Foreground)
//Storyboard Sound Samples
Sample,14944,0,"violin1.wav",70
Sample,15263,0,"violin3.wav",70
Sample,15422,0,"violin4.wav",70
Sample,16699,0,"violin5.wav",70
Sample,18933,0,"violin7.wav",70
Sample,19092,0,"violin8.wav",70
Sample,20050,0,"violin11.wav",70
Sample,20369,0,"violin12.wav",70
Sample,24358,0,"Kick.wav",70
Sample,24837,0,"Kick.wav",70
Sample,25316,0,"Short Crash.wav",70
Sample,30741,0,"A-Kick.wav",70
Sample,31220,0,"A-Kick.wav",70
Sample,31539,0,"A-Kick.wav",70
Sample,31858,0,"A-Kick.wav",70
Sample,36526,0,"Kick.wav",70
Sample,36606,0,"Kick.wav",70
Sample,50848,0,"A-Kick.wav",70
Sample,66805,0,"A-Kick.wav",70
Sample,72789,0,"A-Kick.wav",70
Sample,77896,0,"A-Kick.wav",70
Sample,83002,0,"A-Kick.wav",70
Sample,84678,0,"A-Kick.wav",70
Sample,119784,0,"A-Kick.wav",70
Sample,120422,0,"A-Kick.wav",70
Sample,121699,0,"A-Kick.wav",70
Sample,122337,0,"Clap.wav",70
Sample,122975,0,"Clap.wav",70
Sample,124013,0,"Kick.wav",70
Sample,124172,0,"Kick.wav",70
Sample,124332,0,"Kick.wav",70
Sample,124491,0,"Kick.wav",70
Sample,124611,0,"Kick.wav",70
Sample,124651,0,"Kick.wav",70
Sample,124691,0,"Kick.wav",70
Sample,124731,0,"Kick.wav",70
Sample,124771,0,"Kick.wav",70
Sample,124811,0,"Kick.wav",70
Sample,124850,0,"Kick.wav",70
Sample,124890,0,"Short Crash.wav",70
Sample,137018,0,"A-Kick.wav",70

[TimingPoints]
5210,319.148936170213,4,2,1,35,1,0
37124,-100,4,2,1,35,0,1
47337,-100,4,2,1,35,0,0
67763,-100,4,2,1,35,0,1
76699,-100,4,2,1,35,0,0
77975,-100,4,2,1,35,0,1
88188,-100,4,2,1,35,0,0
109890,-100,4,2,1,35,0,1
120103,-100,4,2,1,35,0,0
124890,-200,4,2,1,35,0,0
125050,-133.333333333333,4,2,1,35,0,0
125103,-100,4,2,1,35,0,0
125156,-66.6666666666667,4,2,1,35,0,0
125210,-100,4,2,1,35,0,1
139890,-200,4,2,1,35,0,1
139944,-66.6666666666667,4,2,1,35,0,1
139997,-200,4,2,1,35,0,1
140051,-66.6666666666667,4,2,1,35,0,1
140103,-200,4,2,1,35,0,1
140157,-66.6666666666667,4,2,1,35,0,1
140210,-200,4,2,1,35,0,1
140264,-66.6666666666667,4,2,1,35,0,1
140316,-200,4,2,1,35,0,1
140370,-66.6666666666667,4,2,1,35,0,1
140422,-200,4,2,1,35,0,1
140476,-66.6666666666667,4,2,1,35,0,1
140529,-100,4,2,1,35,0,0

[HitObjects]
182,192,5210,128,0,7763:0:0:0:70:Cymbal.wav
475,192,5210,1,0,0:0:0:0:
402,192,5263,1,0,0:0:0:0:
329,192,5316,1,0,0:0:0:0:
329,192,5848,1,0,0:0:0:0:
402,192,6486,1,0,0:0:0:0:
475,192,7124,1,0,0:0:0:0:
329,192,7204,1,0,0:0:0:0:
36,192,7763,128,0,10316:0:0:0:0:
329,192,7763,1,0,0:0:0:0:
402,192,7803,1,0,0:0:0:0:
475,192,7842,1,0,0:0:0:0:
329,192,8401,1,0,0:0:0:0:
256,192,9039,1,0,0:0:0:0:
256,192,9678,128,0,9837:0:0:0:0:
475,192,9837,128,0,9997:0:0:0:0:
256,192,9997,128,0,10156:0:0:0:0:
475,192,10156,128,0,10316:0:0:0:0:
329,192,10316,128,0,12869:0:0:0:0:
182,192,10316,1,0,0:0:0:0:
36,192,10635,1,0,0:0:0:0:
36,192,11273,1,0,0:0:0:0:
36,192,11592,1,0,0:0:0:0:
109,192,11912,1,0,0:0:0:0:
182,192,12231,1,0,0:0:0:0:
256,192,12550,1,0,0:0:0:0:
475,192,12869,128,0,15422:0:0:0:0:
256,192,12869,1,0,0:0:0:0:
402,192,13188,1,0,0:0:0:0:
329,192,13507,1,0,0:0:0:0:
256,192,13827,1,0,0:0:0:0:
182,192,14146,1,0,0:0:0:0:
329,192,14465,1,0,0:0:0:0:
256,192,14784,1,0,0:0:0:0:
182,192,15103,1,0,0:0:0:70:violin2.wav
109,192,15422,1,0,0:0:0:70:Kick.wav
36,192,15422,128,0,16699:0:0:0:70:Cymbal.wav
109,192,15741,1,0,0:0:0:70:Kick.wav
329,192,16061,1,0,0:0:0:70:Snare.wav
475,192,16061,1,0,0:0:0:0:
109,192,16380,1,0,0:0:0:70:Kick.wav
329,192,16539,1,0,0:0:0:70:Snare.wav
475,192,16539,1,0,0:0:0:0:
182,192,16699,128,0,17975:0:0:0:70:Kick.wav
329,192,16858,1,0,0:0:0:70:Snare.wav
475,192,16858,1,0,0:0:0:0:
36,192,17018,1,0,0:0:0:70:Kick.wav
475,192,17337,1,0,0:0:0:70:Snare.wav
329,192,17337,1,0,0:0:0:0:
36,192,17656,1,0,0:0:0:70:Kick.wav
475,192,17975,128,0,19252:0:0:0:70:Kick.wav
36,192,17975,1,0,0:0:0:70:violin6.wav
36,192,18295,1,0,0:0:0:70:Kick.wav
402,192,18614,1,0,0:0:0:70:Snare.wav
256,192,18614,1,0,0:0:0:0:
36,192,18773,1,0,0:0:0:70:Kick.wav
36,192,19092,1,0,0:0:0:70:Kick.wav
182,192,19252,1,0,0:0:0:70:Kick.wav
329,192,19252,128,0,19571:0:0:0:70:violin9.wav
109,192,19731,1,0,0:0:0:70:Kick.wav
256,192,19731,128,0,20050:0:0:0:70:violin10.wav
36,192,20210,1,0,0:0:0:70:Kick.wav
182,192,20210,128,0,20529:0:0:0:0:
36,192,20529,1,0,0:0:0:70:Snare.wav
475,192,20529,128,0,23082:0:0:0:70:violin13.wav
182,192,20608,1,0,0:0:0:70:Snare.wav
36,192,20688,1,0,0:0:0:70:Kick.wav
256,192,20848,1,0,0:0:0:70:Snare.wav
402,192,20848,1,0,0:0:0:0:
109,192,21167,1,0,0:0:0:70:Kick.wav
109,192,21327,1,0,0:0:0:70:Kick.wav
256,192,21486,1,0,0:0:0:70:Snare.wav
402,192,21486,1,0,0:0:0:0:
329,192,21805,1,0,0:0:0:70:Kick.wav
329,192,21965,1,0,0:0:0:70:Kick.wav
182,192,22124,1,0,0:0:0:70:Snare.wav
36,192,22124,1,0,0:0:0:0:
329,192,22284,1,0,0:0:0:70:Kick.wav
109,192,22603,1,0,0:0:0:70:Kick.wav
256,192,22763,1,0,0:0:0:70:Snare.wav
402,192,22763,1,0,0:0:0:0:
36,192,23082,128,0,25635:0:0:0:70:Kick.wav
182,192,23082,1,0,0:0:0:70:violin14.wav
329,192,23401,1,0,0:0:0:70:Snare.wav
475,192,23401,1,0,0:0:0:0:
182,192,23561,1,0,0:0:0:70:Kick.wav
182,192,23880,1,0,0:0:0:70:Kick.wav
329,192,24039,1,0,0:0:0:70:Snare.wav
475,192,24039,1,0,0:0:0:0:
182,192,24199,1,0,0:0:0:70:Kick.wav
329,192,24358,128,0,24678:0:0:0:70:Short Crash.wav
109,192,24598,1,0,0:0:0:70:Snare.wav
256,192,24678,1,0,0:0:0:70:Snare.wav
402,192,24837,128,0,25156:0:0:0:70:Short Crash.wav
182,192,25077,1,0,0:0:0:70:Snare.wav
329,192,25156,1,0,0:0:0:70:Snare.wav
475,192,25316,1,0,0:0:0:70:Kick.wav
475,192,25475,1,0,0:0:0:70:Snare.wav
329,192,25635,1,0,0:0:0:70:Kick.wav
182,192,25635,1,0,0:0:0:70:Short Crash.wav
36,192,26912,1,0,0:0:0:70:Long Crash.wav
475,192,26912,1,0,0:0:0:70:A-Kick.wav
109,192,26991,1,0,0:0:0:0:
182,192,27071,1,0,0:0:0:0:
475,192,27231,1,0,0:0:0:70:A-Kick.wav
36,192,27231,1,0,0:0:0:0:
402,192,27311,1,0,0:0:0:0:
329,192,27390,1,0,0:0:0:0:
36,192,27550,1,0,0:0:0:70:A-Kick.wav
475,192,27550,1,0,0:0:0:0:
109,192,27630,1,0,0:0:0:0:
182,192,27710,1,0,0:0:0:0:
475,192,27869,1,0,0:0:0:0:
402,192,27949,1,0,0:0:0:0:
329,192,28029,1,0,0:0:0:0:
182,192,28188,1,0,0:0:0:70:A-Kick.wav
475,192,28188,1,0,0:0:0:0:
109,192,28268,1,0,0:0:0:0:
36,192,28348,1,0,0:0:0:0:
329,192,28507,1,0,0:0:0:70:A-Kick.wav
36,192,28507,1,0,0:0:0:0:
402,192,28587,1,0,0:0:0:0:
475,192,28667,1,0,0:0:0:0:
475,192,28827,1,0,0:0:0:70:A-Kick.wav
182,192,28827,1,0,0:0:0:0:
109,192,28906,1,0,0:0:0:0:
36,192,28986,1,0,0:0:0:0:
329,192,29146,1,0,0:0:0:0:
402,192,29225,1,0,0:0:0:0:
475,192,29305,1,0,0:0:0:0:
36,192,29465,1,0,0:0:0:70:A-Kick.wav
329,192,29465,1,0,0:0:0:0:
109,192,29545,1,0,0:0:0:0:
182,192,29624,1,0,0:0:0:0:
329,192,29784,1,0,0:0:0:70:A-Kick.wav
36,192,29784,1,0,0:0:0:0:
402,192,29864,1,0,0:0:0:0:
475,192,29944,1,0,0:0:0:0:
36,192,30103,1,0,0:0:0:70:A-Kick.wav
329,192,30103,1,0,0:0:0:0:
109,192,30183,1,0,0:0:0:0:
182,192,30263,1,0,0:0:0:0:
329,192,30422,1,0,0:0:0:0:
402,192,30502,1,0,0:0:0:0:
475,192,30582,1,0,0:0:0:0:
256,192,30741,1,0,0:0:0:70:Short Crash.wav
256,192,30901,1,0,0:0:0:70:Short Crash.wav
256,192,31220,1,0,0:0:0:70:Short Crash.wav
256,192,31539,1,0,0:0:0:70:Short Crash.wav
256,192,31858,1,0,0:0:0:70:Short Crash.wav
36,192,32018,1,0,0:0:0:70:Long Crash.wav
475,192,32018,1,0,0:0:0:70:A-Kick.wav
109,192,32098,1,0,0:0:0:0:
182,192,32178,1,0,0:0:0:0:
475,192,32337,1,0,0:0:0:70:Clap.wav
36,192,32337,1,0,0:0:0:70:A-Kick.wav
402,192,32417,1,0,0:0:0:0:
329,192,32497,1,0,0:0:0:0:
36,192,32656,1,0,0:0:0:70:A-Kick.wav
475,192,32656,1,0,0:0:0:0:
109,192,32736,1,0,0:0:0:0:
182,192,32816,1,0,0:0:0:0:
475,192,32975,1,0,0:0:0:70:Clap.wav
36,192,32975,1,0,0:0:0:70:A-Kick.wav
402,192,33055,1,0,0:0:0:0:
329,192,33135,1,0,0:0:0:0:
36,192,33295,1,0,0:0:0:70:A-Kick.wav
475,192,33295,1,0,0:0:0:0:
109,192,33374,1,0,0:0:0:0:
182,192,33454,1,0,0:0:0:0:
329,192,33614,1,0,0:0:0:70:Clap.wav
36,192,33614,1,0,0:0:0:70:A-Kick.wav
402,192,33694,1,0,0:0:0:0:
475,192,33773,1,0,0:0:0:0:
36,192,33933,1,0,0:0:0:70:A-Kick.wav
475,192,33933,1,0,0:0:0:0:
109,192,34013,1,0,0:0:0:0:
182,192,34092,1,0,0:0:0:0:
329,192,34252,1,0,0:0:0:70:A-Kick.wav
36,192,34252,1,0,0:0:0:70:Clap.wav
402,192,34332,1,0,0:0:0:0:
475,192,34412,1,0,0:0:0:0:
36,192,34571,1,0,0:0:0:70:A-Kick.wav
182,192,34571,1,0,0:0:0:0:
256,192,34651,1,0,0:0:0:0:
329,192,34731,1,0,0:0:0:70:A-Kick.wav
475,192,34731,1,0,0:0:0:0:
182,192,34890,1,0,0:0:0:70:Clap.wav
36,192,34890,1,0,0:0:0:70:A-Kick.wav
256,192,34970,1,0,0:0:0:0:
329,192,35050,1,0,0:0:0:70:A-Kick.wav
475,192,35050,1,0,0:0:0:0:
182,192,35210,1,0,0:0:0:70:A-Kick.wav
36,192,35210,1,0,0:0:0:0:
256,192,35289,1,0,0:0:0:0:
329,192,35369,1,0,0:0:0:70:A-Kick.wav
475,192,35369,1,0,0:0:0:0:
182,192,35529,1,0,0:0:0:70:Clap.wav
36,192,35529,1,0,0:0:0:70:A-Kick.wav
256,192,35608,1,0,0:0:0:0:
329,192,35688,1,0,0:0:0:70:A-Kick.wav
475,192,35688,1,0,0:0:0:0:
36,192,35848,1,0,0:0:0:70:Kick.wav
182,192,35848,1,0,0:0:0:0:
475,192,35848,1,0,0:0:0:0:
256,192,35928,1,0,0:0:0:70:Kick.wav
329,192,36007,1,0,0:0:0:70:Kick.wav
109,192,36007,1,0,0:0:0:0:
402,192,36087,1,0,0:0:0:70:Kick.wav
182,192,36167,1,0,0:0:0:70:Kick.wav
475,192,36167,1,0,0:0:0:0:
36,192,36167,1,0,0:0:0:0:
256,192,36247,1,0,0:0:0:70:Kick.wav
329,192,36327,1,0,0:0:0:70:Kick.wav
109,192,36327,1,0,0:0:0:0:
402,192,36406,1,0,0:0:0:70:Kick.wav
182,192,36486,1,0,0:0:0:70:Kick.wav
475,192,36486,1,0,0:0:0:0:
36,192,36486,1,0,0:0:0:0:
256,192,36566,1,0,0:0:0:70:Kick.wav
329,192,36646,1,0,0:0:0:70:Kick.wav
109,192,36646,1,0,0:0:0:0:
402,192,36725,1,0,0:0:0:70:Kick.wav
475,192,36805,1,0,0:0:0:70:Bell.wav
182,192,36805,128,0,37045:0:0:0:70:Kick.wav
36,192,36805,128,0,37045:0:0:0:0:
36,192,37124,1,0,0:0:0:70:A-Kick.wav
182,192,37124,128,0,37603:0:0:0:70:Long Crash.wav
475,192,37124,1,0,0:0:0:0:
402,192,37204,1,0,0:0:0:0:
329,192,37284,1,0,0:0:0:0:
256,192,37364,1,0,0:0:0:0:
36,192,37444,1,0,0:0:0:70:A-Kick.wav
475,192,37444,1,0,0:0:0:0:
402,192,37523,1,0,0:0:0:0:
329,192,37603,1,0,0:0:0:0:
109,192,37603,1,0,0:0:0:0:
402,192,37683,1,0,0:0:0:0:
182,192,37683,1,0,0:0:0:0:
256,192,37763,128,0,38082:0:0:0:70:A-Kick.wav
475,192,37763,1,0,0:0:0:0:
36,192,37763,1,0,0:0:0:0:
109,192,37842,1,0,0:0:0:0:
182,192,37922,1,0,0:0:0:0:
109,192,38002,1,0,0:0:0:0:
475,192,38082,128,0,38241:0:0:0:70:A-Kick.wav
36,192,38082,1,0,0:0:0:0:
329,192,38082,1,0,0:0:0:0:
256,192,38162,1,0,0:0:0:0:
402,192,38241,128,0,38401:0:0:0:0:
182,192,38241,1,0,0:0:0:0:
109,192,38321,1,0,0:0:0:0:
329,192,38401,128,0,38880:0:0:0:70:A-Kick.wav
36,192,38401,1,0,0:0:0:0:
182,192,38481,1,0,0:0:0:0:
109,192,38561,1,0,0:0:0:0:
182,192,38640,1,0,0:0:0:0:
36,192,38720,1,0,0:0:0:70:A-Kick.wav
475,192,38720,1,0,0:0:0:0:
109,192,38800,1,0,0:0:0:0:
182,192,38880,1,0,0:0:0:0:
402,192,38880,1,0,0:0:0:0:
109,192,38960,1,0,0:0:0:0:
329,192,38960,1,0,0:0:0:0:
256,192,39039,128,0,39358:0:0:0:70:A-Kick.wav
36,192,39039,1,0,0:0:0:0:
475,192,39039,1,0,0:0:0:0:
402,192,39119,1,0,0:0:0:0:
329,192,39199,1,0,0:0:0:0:
402,192,39279,1,0,0:0:0:0:
36,192,39358,128,0,39438:0:0:0:70:A-Kick.wav
475,192,39358,128,0,39438:0:0:0:0:
36,192,39518,128,0,39598:0:0:0:0:
475,192,39518,128,0,39598:0:0:0:0:
36,192,39678,128,0,40635:0:0:0:70:A-Kick.wav
475,192,39678,1,0,0:0:0:0:
256,192,39678,1,0,0:0:0:0:
402,192,39757,1,0,0:0:0:0:
329,192,39837,1,0,0:0:0:0:
256,192,39917,1,0,0:0:0:0:
109,192,39997,1,0,0:0:0:70:A-Kick.wav
402,192,39997,1,0,0:0:0:0:
182,192,40077,1,0,0:0:0:0:
256,192,40156,1,0,0:0:0:0:
329,192,40236,1,0,0:0:0:0:
475,192,40316,1,0,0:0:0:70:A-Kick.wav
182,192,40316,1,0,0:0:0:0:
256,192,40396,1,0,0:0:0:0:
329,192,40475,1,0,0:0:0:0:
402,192,40555,1,0,0:0:0:0:
256,192,40635,1,0,0:0:0:0:
475,192,40635,128,0,40874:0:0:0:70:A-Kick.wav
182,192,40715,1,0,0:0:0:0:
109,192,40795,1,0,0:0:0:0:
329,192,40874,1,0,0:0:0:0:
475,192,40954,128,0,41273:0:0:0:70:A-Kick.wav
256,192,40954,1,0,0:0:0:0:
36,192,40954,1,0,0:0:0:0:
182,192,41034,1,0,0:0:0:0:
402,192,41114,1,0,0:0:0:0:
329,192,41194,1,0,0:0:0:0:
256,192,41273,1,0,0:0:0:70:A-Kick.wav
36,192,41273,1,0,0:0:0:0:
109,192,41353,1,0,0:0:0:0:
182,192,41433,1,0,0:0:0:0:
402,192,41433,128,0,41752:0:0:0:0:
256,192,41513,1,0,0:0:0:0:
36,192,41592,1,0,0:0:0:70:A-Kick.wav
329,192,41592,1,0,0:0:0:0:
109,192,41672,1,0,0:0:0:0:
475,192,41752,1,0,0:0:0:0:
182,192,41752,1,0,0:0:0:0:
402,192,41832,1,0,0:0:0:0:
256,192,41832,1,0,0:0:0:0:
329,192,41912,128,0,42231:0:0:0:70:A-Kick.wav
36,192,41912,1,0,0:0:0:0:
109,192,41991,1,0,0:0:0:0:
182,192,42071,1,0,0:0:0:0:
109,192,42151,1,0,0:0:0:0:
36,192,42231,128,0,44624:0:0:0:70:A-Kick.wav
475,192,42231,1,0,0:0:0:0:
256,192,42231,1,0,0:0:0:0:
402,192,42311,1,0,0:0:0:0:
329,192,42390,1,0,0:0:0:0:
109,192,42470,1,0,0:0:0:0:
182,192,42550,1,0,0:0:0:70:A-Kick.wav
402,192,42550,1,0,0:0:0:0:
256,192,42630,1,0,0:0:0:0:
475,192,42710,1,0,0:0:0:0:
402,192,42789,1,0,0:0:0:0:
329,192,42869,1,0,0:0:0:70:A-Kick.wav
109,192,42869,1,0,0:0:0:0:
182,192,42949,1,0,0:0:0:0:
256,192,43029,1,0,0:0:0:0:
475,192,43108,1,0,0:0:0:0:
402,192,43188,1,0,0:0:0:70:A-Kick.wav
182,192,43188,1,0,0:0:0:0:
329,192,43268,1,0,0:0:0:0:
109,192,43348,1,0,0:0:0:0:
182,192,43428,1,0,0:0:0:0:
256,192,43507,1,0,0:0:0:70:A-Kick.wav
475,192,43507,1,0,0:0:0:0:
402,192,43587,1,0,0:0:0:0:
329,192,43667,1,0,0:0:0:0:
109,192,43747,1,0,0:0:0:0:
182,192,43827,1,0,0:0:0:70:A-Kick.wav
402,192,43827,1,0,0:0:0:0:
256,192,43906,1,0,0:0:0:0:
475,192,43986,1,0,0:0:0:0:
402,192,44066,1,0,0:0:0:0:
329,192,44146,1,0,0:0:0:70:A-Kick.wav
109,192,44146,1,0,0:0:0:0:
182,192,44225,1,0,0:0:0:0:
256,192,44305,1,0,0:0:0:0:
475,192,44385,1,0,0:0:0:0:
402,192,44465,1,0,0:0:0:70:A-Kick.wav
182,192,44465,1,0,0:0:0:0:
329,192,44545,1,0,0:0:0:0:
182,192,44624,1,0,0:0:0:0:
256,192,44704,1,0,0:0:0:0:
475,192,44784,128,0,47178:0:0:0:70:A-Kick.wav
329,192,44784,1,0,0:0:0:0:
36,192,44784,1,0,0:0:0:0:
109,192,44864,1,0,0:0:0:0:
182,192,44944,1,0,0:0:0:0:
402,192,45023,1,0,0:0:0:0:
329,192,45103,1,0,0:0:0:70:A-Kick.wav
109,192,45103,1,0,0:0:0:0:
256,192,45183,1,0,0:0:0:0:
36,192,45263,1,0,0:0:0:0:
109,192,45342,1,0,0:0:0:0:
182,192,45422,1,0,0:0:0:70:A-Kick.wav
402,192,45422,1,0,0:0:0:0:
329,192,45502,1,0,0:0:0:0:
256,192,45582,1,0,0:0:0:0:
36,192,45662,1,0,0:0:0:0:
109,192,45741,1,0,0:0:0:70:A-Kick.wav
329,192,45741,1,0,0:0:0:0:
182,192,45821,1,0,0:0:0:0:
402,192,45901,1,0,0:0:0:0:
329,192,45981,1,0,0:0:0:0:
256,192,46061,1,0,0:0:0:70:A-Kick.wav
36,192,46061,1,0,0:0:0:0:
109,192,46140,1,0,0:0:0:0:
182,192,46220,1,0,0:0:0:0:
402,192,46300,1,0,0:0:0:0:
329,192,46380,1,0,0:0:0:70:A-Kick.wav
109,192,46380,1,0,0:0:0:0:
256,192,46460,1,0,0:0:0:0:
36,192,46539,1,0,0:0:0:0:
109,192,46619,1,0,0:0:0:0:
182,192,46699,1,0,0:0:0:70:A-Kick.wav
402,192,46699,1,0,0:0:0:0:
329,192,46779,1,0,0:0:0:0:
256,192,46858,1,0,0:0:0:0:
36,192,46938,1,0,0:0:0:70:A-Kick.wav
182,192,46938,1,0,0:0:0:0:
36,192,47018,1,0,0:0:0:70:A-Kick.wav
329,192,47018,1,0,0:0:0:0:
182,192,47018,1,0,0:0:0:0:
182,192,47178,1,0,0:0:0:70:A-Kick.wav
329,192,47178,1,0,0:0:0:0:
36,192,47178,1,0,0:0:0:0:
182,192,47337,1,0,0:0:0:70:Long Crash.wav
475,192,47337,1,0,0:0:0:70:A-Kick.wav
36,192,47337,1,0,0:0:0:0:
402,192,47377,1,0,0:0:0:0:
329,192,47417,1,0,0:0:0:0:
256,192,47457,1,0,0:0:0:0:
475,192,47497,1,0,0:0:0:0:
182,192,47497,1,0,0:0:0:0:
402,192,47537,1,0,0:0:0:0:
329,192,47577,1,0,0:0:0:0:
256,192,47616,1,0,0:0:0:0:
475,192,47656,1,0,0:0:0:70:Clap.wav
182,192,47656,1,0,0:0:0:70:A-Kick.wav
36,192,47656,1,0,0:0:0:0:
402,192,47736,1,0,0:0:0:0:
329,192,47816,1,0,0:0:0:0:
256,192,47896,1,0,0:0:0:0:
182,192,47975,1,0,0:0:0:70:A-Kick.wav
36,192,47975,1,0,0:0:0:0:
256,192,48055,1,0,0:0:0:0:
329,192,48135,1,0,0:0:0:0:
402,192,48215,1,0,0:0:0:0:
256,192,48295,1,0,0:0:0:70:Clap.wav
36,192,48295,1,0,0:0:0:70:A-Kick.wav
475,192,48295,1,0,0:0:0:0:
109,192,48374,1,0,0:0:0:0:
182,192,48454,1,0,0:0:0:0:
256,192,48534,1,0,0:0:0:0:
475,192,48614,1,0,0:0:0:70:A-Kick.wav
329,192,48614,1,0,0:0:0:0:
36,192,48614,128,0,48694:0:0:0:0:
109,192,48694,128,0,48773:0:0:0:0:
256,192,48773,128,0,48853:0:0:0:0:
182,192,48853,128,0,48933:0:0:0:0:
475,192,48933,1,0,0:0:0:70:A-Kick.wav
402,192,48933,1,0,0:0:0:0:
36,192,48933,128,0,49013:0:0:0:70:Clap.wav
109,192,49013,128,0,49092:0:0:0:0:
256,192,49092,128,0,49172:0:0:0:0:
182,192,49172,128,0,49252:0:0:0:0:
475,192,49252,1,0,0:0:0:0:
329,192,49252,1,0,0:0:0:0:
36,192,49252,128,0,49332:0:0:0:70:A-Kick.wav
109,192,49332,128,0,49412:0:0:0:0:
329,192,49412,128,0,49491:0:0:0:0:
256,192,49491,128,0,49571:0:0:0:0:
475,192,49571,1,0,0:0:0:70:Clap.wav
36,192,49571,1,0,0:0:0:0:
109,192,49571,128,0,49651:0:0:0:70:A-Kick.wav
182,192,49651,128,0,49731:0:0:0:0:
402,192,49731,128,0,49811:0:0:0:0:
329,192,49811,128,0,49890:0:0:0:0:
475,192,49890,1,0,0:0:0:70:A-Kick.wav
256,192,49890,1,0,0:0:0:0:
36,192,49890,1,0,0:0:0:0:
36,192,49970,1,0,0:0:0:0:
475,192,49970,1,0,0:0:0:0:
36,192,50130,1,0,0:0:0:0:
475,192,50130,1,0,0:0:0:0:
182,192,50210,1,0,0:0:0:70:Clap.wav
329,192,50210,1,0,0:0:0:70:A-Kick.wav
36,192,50369,1,0,0:0:0:0:
475,192,50369,1,0,0:0:0:0:
36,192,50529,1,0,0:0:0:70:A-Kick.wav
256,192,50569,1,0,0:0:0:0:
475,192,50608,1,0,0:0:0:0:
36,192,50648,1,0,0:0:0:0:
256,192,50688,1,0,0:0:0:0:
475,192,50728,1,0,0:0:0:0:
36,192,50768,1,0,0:0:0:0:
256,192,50808,1,0,0:0:0:0:
475,192,50848,1,0,0:0:0:70:Clap.wav
329,192,51007,1,0,0:0:0:0:
182,192,51007,1,0,0:0:0:0:
402,192,51087,1,0,0:0:0:0:
109,192,51087,1,0,0:0:0:0:
36,192,51167,128,0,51273:0:0:0:70:A-Kick.wav
475,192,51167,1,0,0:0:0:0:
256,192,51167,1,0,0:0:0:0:
109,192,51273,128,0,51380:0:0:0:0:
182,192,51380,128,0,51486:0:0:0:0:
475,192,51486,128,0,51592:0:0:0:70:A-Kick.wav
36,192,51486,1,0,0:0:0:70:Clap.wav
256,192,51486,1,0,0:0:0:0:
402,192,51592,128,0,51699:0:0:0:0:
329,192,51699,128,0,51805:0:0:0:0:
109,192,51805,128,0,51912:0:0:0:70:A-Kick.wav
475,192,51805,1,0,0:0:0:0:
182,192,51912,128,0,52018:0:0:0:0:
256,192,52018,128,0,52124:0:0:0:0:
402,192,52124,128,0,52231:0:0:0:70:Clap.wav
36,192,52124,1,0,0:0:0:70:A-Kick.wav
475,192,52124,1,0,0:0:0:0:
329,192,52231,128,0,52337:0:0:0:0:
256,192,52337,128,0,52444:0:0:0:0:
475,192,52444,1,0,0:0:0:70:A-Kick.wav
182,192,52444,1,0,0:0:0:0:
36,192,52444,1,0,0:0:0:0:
402,192,52603,1,0,0:0:0:0:
329,192,52763,1,0,0:0:0:70:A-Kick.wav
109,192,52763,1,0,0:0:0:70:Clap.wav
182,192,52763,1,0,0:0:0:0:
402,192,52922,1,0,0:0:0:0:
36,192,53082,1,0,0:0:0:70:A-Kick.wav
475,192,53082,1,0,0:0:0:0:
256,192,53082,1,0,0:0:0:0:
109,192,53241,1,0,0:0:0:0:
329,192,53401,1,0,0:0:0:70:Clap.wav
402,192,53401,1,0,0:0:0:70:A-Kick.wav
182,192,53401,1,0,0:0:0:0:
109,192,53561,1,0,0:0:0:0:
36,192,53720,1,0,0:0:0:70:A-Kick.wav
256,192,53720,1,0,0:0:0:0:
475,192,53720,1,0,0:0:0:0:
402,192,53880,1,0,0:0:0:0:
329,192,54039,1,0,0:0:0:70:A-Kick.wav
182,192,54039,1,0,0:0:0:70:Clap.wav
36,192,54039,1,0,0:0:0:0:
256,192,54199,1,0,0:0:0:0:
36,192,54358,1,0,0:0:0:70:A-Kick.wav
402,192,54358,1,0,0:0:0:0:
109,192,54518,1,0,0:0:0:0:
182,192,54678,1,0,0:0:0:70:Clap.wav
475,192,54678,1,0,0:0:0:70:A-Kick.wav
329,192,54678,1,0,0:0:0:0:
256,192,54837,1,0,0:0:0:0:
329,192,54997,1,0,0:0:0:70:A-Kick.wav
36,192,54997,1,0,0:0:0:0:
475,192,54997,1,0,0:0:0:0:
36,192,55156,1,0,0:0:0:0:
329,192,55156,1,0,0:0:0:0:
475,192,55316,1,0,0:0:0:70:A-Kick.wav
402,192,55316,1,0,0:0:0:70:Clap.wav
182,192,55316,1,0,0:0:0:0:
329,192,55475,128,0,57231:0:0:0:0:
36,192,55475,1,0,0:0:0:0:
475,192,55635,1,0,0:0:0:70:A-Kick.wav
36,192,55635,1,0,0:0:0:0:
182,192,55795,1,0,0:0:0:0:
475,192,55954,1,0,0:0:0:70:Clap.wav
402,192,55954,1,0,0:0:0:70:A-Kick.wav
109,192,56114,1,0,0:0:0:0:
475,192,56273,1,0,0:0:0:70:A-Kick.wav
109,192,56273,1,0,0:0:0:0:
256,192,56433,1,0,0:0:0:0:
475,192,56592,1,0,0:0:0:70:A-Kick.wav
402,192,56592,1,0,0:0:0:70:Clap.wav
109,192,56752,1,0,0:0:0:0:
475,192,56912,1,0,0:0:0:70:A-Kick.wav
109,192,56912,1,0,0:0:0:0:
256,192,57071,1,0,0:0:0:0:
475,192,57231,1,0,0:0:0:70:Clap.wav
402,192,57231,1,0,0:0:0:70:A-Kick.wav
36,192,57550,1,0,0:0:0:70:Long Crash.wav
329,192,57550,1,0,0:0:0:70:A-Kick.wav
475,192,57550,1,0,0:0:0:0:
109,192,57590,1,0,0:0:0:0:
182,192,57630,1,0,0:0:0:0:
256,192,57670,1,0,0:0:0:0:
329,192,57710,1,0,0:0:0:0:
36,192,57710,1,0,0:0:0:0:
109,192,57749,1,0,0:0:0:0:
182,192,57789,1,0,0:0:0:0:
256,192,57829,1,0,0:0:0:0:
329,192,57869,1,0,0:0:0:70:Clap.wav
475,192,57869,1,0,0:0:0:70:A-Kick.wav
36,192,57869,1,0,0:0:0:0:
109,192,57949,1,0,0:0:0:0:
182,192,58029,1,0,0:0:0:0:
256,192,58108,1,0,0:0:0:0:
329,192,58188,1,0,0:0:0:70:A-Kick.wav
475,192,58188,1,0,0:0:0:0:
256,192,58268,1,0,0:0:0:0:
182,192,58348,1,0,0:0:0:0:
109,192,58428,1,0,0:0:0:0:
256,192,58507,1,0,0:0:0:70:A-Kick.wav
36,192,58507,1,0,0:0:0:70:Clap.wav
475,192,58507,1,0,0:0:0:0:
402,192,58587,1,0,0:0:0:0:
329,192,58667,1,0,0:0:0:0:
256,192,58747,1,0,0:0:0:0:
182,192,58827,1,0,0:0:0:70:A-Kick.wav
475,192,58827,1,0,0:0:0:0:
36,192,58827,128,0,58906:0:0:0:0:
109,192,58906,128,0,58986:0:0:0:0:
329,192,58986,128,0,59066:0:0:0:0:
256,192,59066,128,0,59146:0:0:0:0:
402,192,59146,1,0,0:0:0:70:A-Kick.wav
475,192,59146,1,0,0:0:0:0:
36,192,59146,128,0,59225:0:0:0:70:Clap.wav
109,192,59225,128,0,59305:0:0:0:0:
329,192,59305,128,0,59385:0:0:0:0:
256,192,59385,128,0,59465:0:0:0:0:
475,192,59465,1,0,0:0:0:0:
109,192,59465,128,0,59545:0:0:0:70:A-Kick.wav
182,192,59545,128,0,59624:0:0:0:0:
402,192,59624,128,0,59704:0:0:0:0:
329,192,59704,128,0,59784:0:0:0:0:
36,192,59784,1,0,0:0:0:70:Clap.wav
475,192,59784,1,0,0:0:0:0:
182,192,59784,128,0,59864:0:0:0:70:A-Kick.wav
256,192,59864,128,0,59944:0:0:0:0:
475,192,59944,128,0,60023:0:0:0:0:
402,192,60023,128,0,60103:0:0:0:0:
329,192,60103,1,0,0:0:0:70:A-Kick.wav
109,192,60103,1,0,0:0:0:0:
36,192,60103,1,0,0:0:0:0:
182,192,60183,1,0,0:0:0:0:
402,192,60263,1,0,0:0:0:0:
329,192,60342,1,0,0:0:0:0:
36,192,60422,1,0,0:0:0:70:Clap.wav
256,192,60422,1,0,0:0:0:70:A-Kick.wav
475,192,60422,1,0,0:0:0:0:
109,192,60502,1,0,0:0:0:0:
475,192,60582,1,0,0:0:0:0:
402,192,60662,1,0,0:0:0:0:
182,192,60741,1,0,0:0:0:70:A-Kick.wav
36,192,60741,1,0,0:0:0:0:
109,192,60821,1,0,0:0:0:0:
329,192,60901,1,0,0:0:0:0:
402,192,60981,1,0,0:0:0:0:
109,192,61061,1,0,0:0:0:70:A-Kick.wav
256,192,61061,1,0,0:0:0:70:Clap.wav
475,192,61061,1,0,0:0:0:0:
36,192,61140,1,0,0:0:0:0:
402,192,61220,1,0,0:0:0:0:
475,192,61300,1,0,0:0:0:0:
329,192,61380,1,0,0:0:0:70:A-Kick.wav
182,192,61380,1,0,0:0:0:0:
36,192,61460,1,0,0:0:0:0:
256,192,61539,1,0,0:0:0:0:
475,192,61619,1,0,0:0:0:0:
182,192,61699,1,0,0:0:0:70:Clap.wav
36,192,61699,1,0,0:0:0:70:A-Kick.wav
402,192,61779,1,0,0:0:0:0:
256,192,61858,1,0,0:0:0:0:
109,192,61938,1,0,0:0:0:0:
329,192,62018,1,0,0:0:0:70:A-Kick.wav
475,192,62018,1,0,0:0:0:0:
36,192,62098,1,0,0:0:0:0:
256,192,62178,1,0,0:0:0:0:
475,192,62257,1,0,0:0:0:0:
182,192,62337,1,0,0:0:0:70:A-Kick.wav
36,192,62337,1,0,0:0:0:70:Clap.wav
402,192,62417,1,0,0:0:0:0:
256,192,62497,1,0,0:0:0:0:
109,192,62577,1,0,0:0:0:0:
475,192,62656,1,0,0:0:0:0:
329,192,62656,128,0,62896:0:0:0:70:A-Kick.wav
182,192,62736,128,0,62896:0:0:0:0:
36,192,62816,128,0,62896:0:0:0:0:
475,192,62975,1,0,0:0:0:70:A-Kick.wav
329,192,62975,128,0,63215:0:0:0:70:Clap.wav
182,192,63055,128,0,63215:0:0:0:0:
36,192,63135,128,0,63215:0:0:0:0:
475,192,63295,1,0,0:0:0:0:
329,192,63295,128,0,63534:0:0:0:70:A-Kick.wav
182,192,63374,128,0,63534:0:0:0:0:
36,192,63454,128,0,63534:0:0:0:0:
475,192,63614,1,0,0:0:0:70:Clap.wav
329,192,63614,128,0,63853:0:0:0:70:A-Kick.wav
182,192,63694,128,0,63853:0:0:0:0:
36,192,63773,128,0,63853:0:0:0:0:
36,192,63933,1,0,0:0:0:0:
182,192,63933,128,0,64172:0:0:0:70:A-Kick.wav
329,192,64013,128,0,64172:0:0:0:0:
475,192,64092,128,0,64172:0:0:0:0:
36,192,64252,1,0,0:0:0:70:A-Kick.wav
182,192,64252,128,0,64491:0:0:0:70:Clap.wav
329,192,64332,128,0,64491:0:0:0:0:
475,192,64412,128,0,64491:0:0:0:0:
36,192,64571,1,0,0:0:0:0:
182,192,64571,128,0,64811:0:0:0:70:A-Kick.wav
329,192,64651,128,0,64811:0:0:0:0:
475,192,64731,128,0,64811:0:0:0:0:
36,192,64890,1,0,0:0:0:70:Clap.wav
182,192,64890,128,0,65130:0:0:0:70:A-Kick.wav
329,192,64970,128,0,65130:0:0:0:0:
475,192,65050,128,0,65130:0:0:0:0:
182,192,65210,1,0,0:0:0:70:A-Kick.wav
475,192,65210,1,0,0:0:0:0:
36,192,65289,1,0,0:0:0:0:
182,192,65369,1,0,0:0:0:0:
36,192,65449,1,0,0:0:0:0:
182,192,65529,1,0,0:0:0:70:Clap.wav
329,192,65529,1,0,0:0:0:70:A-Kick.wav
475,192,65529,1,0,0:0:0:0:
36,192,65608,1,0,0:0:0:0:
182,192,65688,1,0,0:0:0:0:
36,192,65768,1,0,0:0:0:0:
182,192,65848,1,0,0:0:0:70:A-Kick.wav
475,192,65848,1,0,0:0:0:0:
36,192,65928,1,0,0:0:0:0:
182,192,66007,1,0,0:0:0:0:
36,192,66087,1,0,0:0:0:0:
182,192,66167,1,0,0:0:0:70:A-Kick.wav
329,192,66167,1,0,0:0:0:70:Clap.wav
475,192,66167,1,0,0:0:0:0:
36,192,66247,1,0,0:0:0:0:
182,192,66327,1,0,0:0:0:0:
36,192,66406,1,0,0:0:0:0:
182,192,66486,1,0,0:0:0:70:A-Kick.wav
475,192,66486,1,0,0:0:0:0:
402,192,66526,1,0,0:0:0:0:
329,192,66566,1,0,0:0:0:0:
256,192,66606,1,0,0:0:0:0:
182,192,66646,1,0,0:0:0:0:
109,192,66686,1,0,0:0:0:0:
36,192,66725,1,0,0:0:0:0:
475,192,66765,1,0,0:0:0:0:
402,192,66805,1,0,0:0:0:70:Clap.wav
329,192,66845,1,0,0:0:0:0:
256,192,66885,1,0,0:0:0:0:
182,192,66925,1,0,0:0:0:0:
109,192,66965,1,0,0:0:0:0:
36,192,67005,1,0,0:0:0:0:
182,192,67045,1,0,0:0:0:0:
329,192,67085,1,0,0:0:0:0:
475,192,67124,1,0,0:0:0:0:
402,192,67164,1,0,0:0:0:0:
256,192,67204,1,0,0:0:0:0:
182,192,67244,1,0,0:0:0:0:
36,192,67284,1,0,0:0:0:0:
109,192,67324,1,0,0:0:0:0:
256,192,67364,1,0,0:0:0:0:
329,192,67404,1,0,0:0:0:0:
475,192,67444,1,0,0:0:0:70:Kick.wav
402,192,67483,1,0,0:0:0:0:
256,192,67523,1,0,0:0:0:0:
182,192,67563,1,0,0:0:0:0:
36,192,67603,1,0,0:0:0:0:
109,192,67643,1,0,0:0:0:0:
256,192,67683,1,0,0:0:0:0:
329,192,67723,1,0,0:0:0:0:
475,192,67763,1,0,0:0:0:70:A-Kick.wav
182,192,67763,1,0,0:0:0:70:Long Crash.wav
402,192,67763,1,0,0:0:0:0:
36,192,67763,128,0,68241:0:0:0:0:
182,192,67922,1,0,0:0:0:0:
256,192,68082,1,0,0:0:0:70:A-Kick.wav
402,192,68082,1,0,0:0:0:70:Clap.wav
109,192,68082,1,0,0:0:0:0:
475,192,68241,128,0,69039:0:0:0:0:
329,192,68241,1,0,0:0:0:0:
182,192,68401,1,0,0:0:0:70:A-Kick.wav
36,192,68401,1,0,0:0:0:0:
256,192,68561,1,0,0:0:0:0:
329,192,68720,128,0,69039:0:0:0:70:Clap.wav
109,192,68720,1,0,0:0:0:70:A-Kick.wav
36,192,68720,1,0,0:0:0:0:
182,192,68880,1,0,0:0:0:0:
109,192,69039,128,0,70316:0:0:0:70:A-Kick.wav
256,192,69039,1,0,0:0:0:0:
475,192,69199,1,0,0:0:0:0:
182,192,69358,1,0,0:0:0:70:A-Kick.wav
36,192,69358,1,0,0:0:0:70:Clap.wav
329,192,69358,1,0,0:0:0:0:
475,192,69518,1,0,0:0:0:0:
402,192,69678,128,0,70316:0:0:0:70:A-Kick.wav
256,192,69678,1,0,0:0:0:0:
36,192,69837,1,0,0:0:0:0:
329,192,69997,1,0,0:0:0:70:A-Kick.wav
475,192,69997,1,0,0:0:0:70:Clap.wav
182,192,69997,1,0,0:0:0:0:
36,192,70156,1,0,0:0:0:70:A-Kick.wav
256,192,70156,1,0,0:0:0:0:
256,192,70316,128,0,70795:0:0:0:70:A-Kick.wav
475,192,70316,1,0,0:0:0:0:
402,192,70475,1,0,0:0:0:0:
329,192,70635,1,0,0:0:0:70:Clap.wav
182,192,70635,1,0,0:0:0:70:A-Kick.wav
36,192,70635,1,0,0:0:0:0:
36,192,70795,128,0,71592:0:0:0:0:
402,192,70795,1,0,0:0:0:0:
475,192,70954,1,0,0:0:0:70:A-Kick.wav
109,192,70954,1,0,0:0:0:0:
329,192,71114,1,0,0:0:0:0:
182,192,71273,128,0,71592:0:0:0:70:A-Kick.wav
475,192,71273,1,0,0:0:0:70:Clap.wav
109,192,71273,1,0,0:0:0:0:
329,192,71433,1,0,0:0:0:0:
475,192,71592,128,0,72869:0:0:0:70:A-Kick.wav
329,192,71592,1,0,0:0:0:0:
256,192,71752,1,0,0:0:0:0:
182,192,71912,1,0,0:0:0:70:A-Kick.wav
36,192,71912,1,0,0:0:0:70:Clap.wav
402,192,71912,1,0,0:0:0:0:
256,192,72071,1,0,0:0:0:0:
329,192,72231,128,0,72869:0:0:0:70:A-Kick.wav
109,192,72231,1,0,0:0:0:0:
182,192,72390,1,0,0:0:0:0:
36,192,72550,128,0,72710:0:0:0:70:A-Kick.wav
256,192,72550,1,0,0:0:0:70:Clap.wav
402,192,72550,1,0,0:0:0:0:
182,192,72710,128,0,72869:0:0:0:0:
36,192,72869,128,0,73029:0:0:0:70:A-Kick.wav
402,192,72869,1,0,0:0:0:0:
475,192,73029,1,0,0:0:0:0:
36,192,73188,128,0,73348:0:0:0:70:A-Kick.wav
109,192,73188,1,0,0:0:0:70:Clap.wav
256,192,73188,1,0,0:0:0:0:
402,192,73188,1,0,0:0:0:0:
329,192,73348,1,0,0:0:0:0:
475,192,73507,128,0,73667:0:0:0:70:A-Kick.wav
402,192,73507,1,0,0:0:0:0:
182,192,73507,1,0,0:0:0:0:
109,192,73667,1,0,0:0:0:0:
475,192,73827,128,0,73986:0:0:0:70:A-Kick.wav
402,192,73827,1,0,0:0:0:70:Clap.wav
256,192,73827,1,0,0:0:0:0:
36,192,73827,1,0,0:0:0:0:
109,192,73986,1,0,0:0:0:0:
182,192,74146,128,0,74305:0:0:0:70:A-Kick.wav
475,192,74146,1,0,0:0:0:0:
329,192,74305,128,0,74465:0:0:0:0:
109,192,74465,128,0,74624:0:0:0:70:Clap.wav
256,192,74465,1,0,0:0:0:70:A-Kick.wav
475,192,74465,1,0,0:0:0:0:
36,192,74465,1,0,0:0:0:0:
402,192,74624,128,0,74784:0:0:0:0:
36,192,74784,128,0,75263:0:0:0:70:A-Kick.wav
182,192,74784,1,0,0:0:0:0:
475,192,74944,128,0,75263:0:0:0:0:
182,192,75103,128,0,75422:0:0:0:70:Clap.wav
109,192,75103,1,0,0:0:0:70:A-Kick.wav
402,192,75103,1,0,0:0:0:0:
256,192,75103,1,0,0:0:0:0:
329,192,75263,128,0,75422:0:0:0:70:A-Kick.wav
475,192,75422,1,0,0:0:0:70:A-Kick.wav
36,192,75422,128,0,76061:0:0:0:0:
256,192,75582,1,0,0:0:0:0:
329,192,75741,1,0,0:0:0:70:A-Kick.wav
109,192,75741,1,0,0:0:0:70:Clap.wav
475,192,75741,1,0,0:0:0:0:
182,192,75901,128,0,76380:0:0:0:0:
402,192,75901,1,0,0:0:0:0:
256,192,76061,1,0,0:0:0:70:A-Kick.wav
475,192,76061,1,0,0:0:0:0:
36,192,76220,128,0,76699:0:0:0:0:
329,192,76220,1,0,0:0:0:0:
402,192,76380,1,0,0:0:0:70:A-Kick.wav
109,192,76380,1,0,0:0:0:70:Clap.wav
475,192,76380,1,0,0:0:0:0:
182,192,76539,128,0,76699:0:0:0:70:A-Kick.wav
475,192,76699,1,0,0:0:0:70:Short Crash.wav
329,192,76699,1,0,0:0:0:70:A-Kick.wav
402,192,76699,1,0,0:0:0:0:
182,192,76779,1,0,0:0:0:70:A-Kick.wav
36,192,76779,1,0,0:0:0:70:Short Crash.wav
109,192,76779,1,0,0:0:0:0:
329,192,76858,1,0,0:0:0:70:A-Kick.wav
475,192,76858,1,0,0:0:0:70:Short Crash.wav
402,192,76858,1,0,0:0:0:0:
182,192,76938,1,0,0:0:0:70:Short Crash.wav
36,192,76938,1,0,0:0:0:70:A-Kick.wav
109,192,76938,1,0,0:0:0:0:
329,192,77018,1,0,0:0:0:70:A-Kick.wav
475,192,77018,1,0,0:0:0:70:Short Crash.wav
182,192,77018,1,0,0:0:0:0:
36,192,77018,1,0,0:0:0:0:
475,192,77178,1,0,0:0:0:70:A-Kick.wav
402,192,77178,1,0,0:0:0:70:Short Crash.wav
256,192,77178,1,0,0:0:0:0:
109,192,77178,1,0,0:0:0:0:
36,192,77178,1,0,0:0:0:0:
182,192,77497,1,0,0:0:0:70:A-Kick.wav
475,192,77497,1,0,0:0:0:70:Short Crash.wav
109,192,77577,1,0,0:0:0:70:A-Kick.wav
402,192,77577,1,0,0:0:0:0:
36,192,77656,128,0,77975:0:0:0:70:A-Kick.wav
329,192,77656,128,0,77975:0:0:0:0:
182,192,77816,128,0,77975:0:0:0:70:A-Kick.wav
475,192,77816,128,0,77975:0:0:0:70:Short Crash.wav
109,192,77975,1,0,0:0:0:70:A-Kick.wav
256,192,77975,1,0,0:0:0:70:Long Crash.wav
402,192,77975,1,0,0:0:0:0:
182,192,78135,1,0,0:0:0:0:
109,192,78215,1,0,0:0:0:0:
36,192,78295,128,0,78614:0:0:0:70:A-Kick.wav
256,192,78295,1,0,0:0:0:70:Clap.wav
475,192,78295,1,0,0:0:0:0:
402,192,78295,1,0,0:0:0:0:
329,192,78454,1,0,0:0:0:0:
475,192,78614,128,0,78773:0:0:0:70:A-Kick.wav
182,192,78614,1,0,0:0:0:0:
329,192,78773,128,0,78933:0:0:0:0:
109,192,78773,1,0,0:0:0:0:
475,192,78933,128,0,79092:0:0:0:70:A-Kick.wav
182,192,78933,1,0,0:0:0:70:Clap.wav
256,192,78933,1,0,0:0:0:0:
329,192,79092,128,0,79252:0:0:0:0:
109,192,79092,1,0,0:0:0:0:
475,192,79252,1,0,0:0:0:70:A-Kick.wav
36,192,79252,128,0,79412:0:0:0:0:
182,192,79252,1,0,0:0:0:0:
402,192,79332,1,0,0:0:0:0:
329,192,79412,1,0,0:0:0:0:
109,192,79491,128,0,79651:0:0:0:0:
256,192,79491,1,0,0:0:0:0:
475,192,79571,1,0,0:0:0:70:A-Kick.wav
36,192,79571,1,0,0:0:0:70:Clap.wav
182,192,79571,1,0,0:0:0:0:
402,192,79651,1,0,0:0:0:0:
182,192,79731,128,0,79890:0:0:0:0:
329,192,79731,1,0,0:0:0:0:
402,192,79811,1,0,0:0:0:0:
475,192,79890,128,0,79970:0:0:0:70:A-Kick.wav
36,192,79890,1,0,0:0:0:0:
109,192,79970,1,0,0:0:0:0:
402,192,80050,128,0,80130:0:0:0:0:
182,192,80050,1,0,0:0:0:0:
256,192,80130,1,0,0:0:0:0:
329,192,80210,128,0,80289:0:0:0:70:A-Kick.wav
36,192,80210,1,0,0:0:0:70:Clap.wav
475,192,80210,1,0,0:0:0:0:
109,192,80289,1,0,0:0:0:0:
256,192,80369,128,0,80449:0:0:0:70:A-Kick.wav
182,192,80369,1,0,0:0:0:0:
402,192,80369,1,0,0:0:0:0:
109,192,80449,1,0,0:0:0:0:
36,192,80529,128,0,81007:0:0:0:70:A-Kick.wav
329,192,80529,1,0,0:0:0:0:
475,192,80529,1,0,0:0:0:0:
329,192,80688,1,0,0:0:0:0:
256,192,80768,128,0,81007:0:0:0:0:
182,192,80848,1,0,0:0:0:70:A-Kick.wav
109,192,80848,1,0,0:0:0:70:Clap.wav
402,192,80848,1,0,0:0:0:0:
475,192,81007,1,0,0:0:0:0:
256,192,81167,1,0,0:0:0:70:A-Kick.wav
475,192,81167,128,0,81486:0:0:0:0:
256,192,81327,1,0,0:0:0:0:
109,192,81486,128,0,81965:0:0:0:70:A-Kick.wav
256,192,81486,1,0,0:0:0:70:Clap.wav
36,192,81486,1,0,0:0:0:0:
402,192,81646,128,0,81965:0:0:0:0:
475,192,81805,1,0,0:0:0:70:A-Kick.wav
256,192,81805,1,0,0:0:0:0:
256,192,81965,128,0,82124:0:0:0:0:
36,192,82124,128,0,82603:0:0:0:70:A-Kick.wav
402,192,82124,1,0,0:0:0:70:Clap.wav
182,192,82284,128,0,82763:0:0:0:0:
329,192,82444,128,0,82922:0:0:0:70:A-Kick.wav
475,192,82444,1,0,0:0:0:0:
475,192,82603,128,0,83082:0:0:0:0:
36,192,82763,128,0,82922:0:0:0:70:A-Kick.wav
256,192,82763,1,0,0:0:0:70:Clap.wav
402,192,82763,1,0,0:0:0:0:
182,192,82922,128,0,83082:0:0:0:0:
36,192,83082,128,0,83640:0:0:0:70:A-Kick.wav
329,192,83082,1,0,0:0:0:0:
329,192,83241,128,0,83561:0:0:0:0:
182,192,83401,128,0,83561:0:0:0:70:A-Kick.wav
256,192,83401,1,0,0:0:0:70:Clap.wav
109,192,83401,1,0,0:0:0:0:
475,192,83561,128,0,84039:0:0:0:0:
182,192,83720,128,0,84039:0:0:0:70:A-Kick.wav
36,192,83720,128,0,83800:0:0:0:0:
329,192,83800,128,0,83880:0:0:0:0:
36,192,83880,128,0,83960:0:0:0:0:
329,192,83960,128,0,84039:0:0:0:0:
36,192,84039,128,0,84279:0:0:0:70:A-Kick.wav
402,192,84039,1,0,0:0:0:70:Clap.wav
256,192,84039,1,0,0:0:0:0:
182,192,84119,128,0,84279:0:0:0:0:
475,192,84199,128,0,84358:0:0:0:0:
329,192,84279,128,0,84358:0:0:0:0:
36,192,84358,1,0,0:0:0:70:A-Kick.wav
182,192,84358,128,0,84438:0:0:0:0:
329,192,84438,128,0,84518:0:0:0:0:
475,192,84518,128,0,84598:0:0:0:0:
256,192,84598,128,0,84678:0:0:0:0:
402,192,84678,128,0,84757:0:0:0:0:
36,192,84678,1,0,0:0:0:70:Clap.wav
182,192,84757,128,0,84837:0:0:0:0:
329,192,84837,128,0,84917:0:0:0:0:
109,192,84917,128,0,84997:0:0:0:0:
475,192,84997,1,0,0:0:0:0:
256,192,84997,128,0,85077:0:0:0:70:A-Kick.wav
36,192,85077,128,0,85156:0:0:0:0:
329,192,85156,128,0,85236:0:0:0:0:
109,192,85236,128,0,85316:0:0:0:0:
36,192,85316,1,0,0:0:0:70:Clap.wav
329,192,85316,1,0,0:0:0:0:
402,192,85316,128,0,85396:0:0:0:70:A-Kick.wav
182,192,85396,128,0,85475:0:0:0:0:
109,192,85475,1,0,0:0:0:0:
402,192,85475,1,0,0:0:0:0:
475,192,85475,128,0,85555:0:0:0:70:A-Kick.wav
256,192,85555,128,0,85635:0:0:0:0:
182,192,85635,1,0,0:0:0:70:A-Kick.wav
36,192,85635,1,0,0:0:0:70:Long Crash.wav
475,192,85635,1,0,0:0:0:0:
182,192,85795,1,0,0:0:0:70:A-Kick.wav
475,192,85795,128,0,85874:0:0:0:0:
36,192,85795,1,0,0:0:0:0:
329,192,85874,128,0,85954:0:0:0:0:
475,192,85954,128,0,86034:0:0:0:70:A-Kick.wav
182,192,85954,1,0,0:0:0:0:
36,192,85954,1,0,0:0:0:0:
329,192,86034,128,0,86114:0:0:0:0:
182,192,86114,1,0,0:0:0:70:A-Kick.wav
36,192,86114,1,0,0:0:0:0:
475,192,86114,128,0,86194:0:0:0:0:
475,192,86273,128,0,86353:0:0:0:70:A-Kick.wav
36,192,86273,1,0,0:0:0:0:
182,192,86273,1,0,0:0:0:0:
329,192,86353,128,0,86433:0:0:0:70:A-Kick.wav
109,192,86353,1,0,0:0:0:0:
182,192,86433,1,0,0:0:0:70:A-Kick.wav
475,192,86433,128,0,86513:0:0:0:0:
36,192,86433,1,0,0:0:0:0:
329,192,86513,128,0,86592:0:0:0:70:A-Kick.wav
109,192,86513,1,0,0:0:0:0:
36,192,86592,1,0,0:0:0:70:A-Kick.wav
182,192,86592,1,0,0:0:0:0:
475,192,86592,128,0,86672:0:0:0:0:
109,192,86752,1,0,0:0:0:70:A-Kick.wav
182,192,86792,1,0,0:0:0:70:A-Kick.wav
256,192,86832,1,0,0:0:0:70:A-Kick.wav
329,192,86872,1,0,0:0:0:70:A-Kick.wav
402,192,86912,1,0,0:0:0:70:A-Kick.wav
36,192,86912,1,0,0:0:0:0:
475,192,86912,1,0,0:0:0:0:
36,192,87071,128,0,87151:0:0:0:0:
475,192,87151,1,0,0:0:0:70:A-Kick.wav
402,192,87151,1,0,0:0:0:0:
182,192,87151,128,0,87231:0:0:0:0:
36,192,87231,128,0,87311:0:0:0:70:A-Kick.wav
402,192,87231,1,0,0:0:0:0:
475,192,87231,1,0,0:0:0:0:
182,192,87311,128,0,87390:0:0:0:0:
36,192,87390,128,0,87470:0:0:0:0:
402,192,87470,1,0,0:0:0:70:A-Kick.wav
475,192,87470,1,0,0:0:0:0:
475,192,87550,1,0,0:0:0:70:A-Kick.wav
402,192,87550,1,0,0:0:0:0:
36,192,87550,128,0,87630:0:0:0:0:
182,192,87630,128,0,87710:0:0:0:0:
36,192,87710,128,0,87789:0:0:0:70:A-Kick.wav
329,192,87710,1,0,0:0:0:0:
402,192,87710,1,0,0:0:0:0:
182,192,87789,128,0,87869:0:0:0:0:
329,192,87869,1,0,0:0:0:70:A-Kick.wav
256,192,87869,1,0,0:0:0:0:
475,192,87869,1,0,0:0:0:0:
36,192,87869,128,0,87949:0:0:0:0:
256,192,88029,1,0,0:0:0:70:A-Kick.wav
182,192,88029,1,0,0:0:0:0:
329,192,88108,1,0,0:0:0:70:A-Kick.wav
182,192,88188,1,0,0:0:0:70:A-Kick.wav
109,192,88188,1,0,0:0:0:70:Long Crash.wav
402,192,88188,1,0,0:0:0:0:
475,192,88188,1,0,0:0:0:0:
36,192,88188,1,0,0:0:0:0:
36,192,98401,5,0,0:0:0:0:
475,192,98401,128,0,98720:0:0:0:0:
182,192,98561,1,0,0:0:0:0:
256,192,98880,1,0,0:0:0:0:
402,192,99039,128,0,99358:0:0:0:0:
109,192,99039,1,0,0:0:0:0:
256,192,99199,1,0,0:0:0:0:
182,192,99518,1,0,0:0:0:0:
329,192,99678,128,0,99997:0:0:0:0:
475,192,99678,1,0,0:0:0:0:
182,192,99837,1,0,0:0:0:0:
402,192,100156,1,0,0:0:0:0:
256,192,100316,128,0,100635:0:0:0:0:
109,192,100316,1,0,0:0:0:0:
402,192,100475,1,0,0:0:0:0:
36,192,100795,1,0,0:0:0:0:
182,192,100954,128,0,101273:0:0:0:0:
475,192,100954,1,0,0:0:0:0:
36,192,101114,1,0,0:0:0:0:
402,192,101433,1,0,0:0:0:0:
109,192,101592,128,0,101912:0:0:0:0:
256,192,101592,1,0,0:0:0:0:
402,192,101752,1,0,0:0:0:0:
329,192,102071,1,0,0:0:0:0:
36,192,102231,128,0,102550:0:0:0:0:
475,192,102231,1,0,0:0:0:0:
329,192,102390,1,0,0:0:0:0:
182,192,102710,1,0,0:0:0:0:
475,192,102869,128,0,103188:0:0:0:0:
36,192,102869,1,0,0:0:0:0:
182,192,103029,1,0,0:0:0:0:
329,192,103188,1,0,0:0:0:0:
475,192,103348,1,0,0:0:0:0:
36,192,103507,128,0,104784:0:0:0:0:
182,192,103507,128,0,103827:0:0:0:0:
475,192,103827,128,0,104146:0:0:0:0:
182,192,104146,128,0,104465:0:0:0:0:
475,192,104465,128,0,104784:0:0:0:0:
182,192,104784,128,0,106061:0:0:0:0:
329,192,104784,128,0,105103:0:0:0:0:
36,192,105103,128,0,105422:0:0:0:0:
329,192,105422,128,0,105741:0:0:0:0:
36,192,105741,128,0,106061:0:0:0:0:
475,192,106061,128,0,107337:0:0:0:0:
329,192,106061,128,0,106380:0:0:0:0:
36,192,106380,128,0,106699:0:0:0:0:
329,192,106699,128,0,107018:0:0:0:0:
36,192,107018,128,0,107337:0:0:0:0:
329,192,107337,128,0,108614:0:0:0:0:
182,192,107337,128,0,107656:0:0:0:0:
475,192,107656,128,0,107975:0:0:0:0:
182,192,107975,128,0,108295:0:0:0:0:
475,192,108295,128,0,108614:0:0:0:0:
182,192,109731,1,0,0:0:0:70:Kick.wav
329,192,109731,1,0,0:0:0:0:
182,192,109811,1,0,0:0:0:70:Kick.wav
329,192,109811,1,0,0:0:0:0:
475,192,109890,1,0,0:0:0:70:A-Kick.wav
329,192,109890,1,0,0:0:0:70:Long Crash.wav
182,192,109890,1,0,0:0:0:0:
36,192,109890,1,0,0:0:0:0:
256,192,109970,1,0,0:0:0:0:
402,192,110050,1,0,0:0:0:0:
109,192,110050,1,0,0:0:0:0:
182,192,110130,1,0,0:0:0:0:
329,192,110210,1,0,0:0:0:70:A-Kick.wav
475,192,110210,1,0,0:0:0:70:Clap.wav
36,192,110210,1,0,0:0:0:0:
109,192,110289,1,0,0:0:0:0:
402,192,110369,1,0,0:0:0:0:
256,192,110369,1,0,0:0:0:0:
182,192,110449,1,0,0:0:0:0:
329,192,110529,1,0,0:0:0:70:A-Kick.wav
36,192,110529,1,0,0:0:0:0:
475,192,110529,1,0,0:0:0:0:
109,192,110608,1,0,0:0:0:0:
256,192,110688,1,0,0:0:0:0:
402,192,110688,1,0,0:0:0:0:
182,192,110768,1,0,0:0:0:0:
329,192,110848,1,0,0:0:0:70:A-Kick.wav
475,192,110848,1,0,0:0:0:70:Clap.wav
36,192,110848,1,0,0:0:0:0:
109,192,110928,1,0,0:0:0:0:
182,192,111007,1,0,0:0:0:0:
402,192,111007,1,0,0:0:0:0:
329,192,111167,1,0,0:0:0:70:A-Kick.wav
36,192,111167,1,0,0:0:0:0:
475,192,111167,1,0,0:0:0:0:
182,192,111167,1,0,0:0:0:0:
256,192,111247,1,0,0:0:0:0:
402,192,111327,1,0,0:0:0:0:
109,192,111327,1,0,0:0:0:0:
329,192,111406,1,0,0:0:0:0:
475,192,111486,1,0,0:0:0:70:Clap.wav
182,192,111486,1,0,0:0:0:70:A-Kick.wav
36,192,111486,1,0,0:0:0:0:
402,192,111566,1,0,0:0:0:0:
256,192,111646,1,0,0:0:0:0:
109,192,111646,1,0,0:0:0:0:
329,192,111725,1,0,0:0:0:0:
475,192,111805,1,0,0:0:0:70:A-Kick.wav
36,192,111805,1,0,0:0:0:0:
182,192,111805,1,0,0:0:0:0:
402,192,111885,1,0,0:0:0:0:
256,192,111965,1,0,0:0:0:0:
109,192,111965,1,0,0:0:0:0:
329,192,112045,1,0,0:0:0:0:
475,192,112124,1,0,0:0:0:70:A-Kick.wav
182,192,112124,1,0,0:0:0:70:Clap.wav
36,192,112124,1,0,0:0:0:0:
402,192,112204,1,0,0:0:0:0:
256,192,112284,1,0,0:0:0:0:
109,192,112284,1,0,0:0:0:0:
329,192,112364,1,0,0:0:0:0:
475,192,112444,1,0,0:0:0:70:A-Kick.wav
182,192,112444,1,0,0:0:0:0:
36,192,112444,1,0,0:0:0:0:
402,192,112523,1,0,0:0:0:0:
329,192,112603,1,0,0:0:0:0:
109,192,112603,1,0,0:0:0:0:
256,192,112683,1,0,0:0:0:0:
402,192,112763,1,0,0:0:0:70:Clap.wav
182,192,112763,1,0,0:0:0:70:A-Kick.wav
36,192,112763,1,0,0:0:0:0:
109,192,112842,1,0,0:0:0:0:
475,192,112922,1,0,0:0:0:0:
256,192,112922,1,0,0:0:0:0:
402,192,113002,1,0,0:0:0:0:
329,192,113082,1,0,0:0:0:70:A-Kick.wav
182,192,113082,1,0,0:0:0:0:
36,192,113082,1,0,0:0:0:0:
109,192,113162,1,0,0:0:0:0:
256,192,113241,1,0,0:0:0:0:
402,192,113241,1,0,0:0:0:0:
329,192,113321,1,0,0:0:0:0:
182,192,113401,1,0,0:0:0:70:A-Kick.wav
36,192,113401,1,0,0:0:0:70:Clap.wav
475,192,113401,1,0,0:0:0:0:
402,192,113441,1,0,0:0:0:0:
329,192,113481,1,0,0:0:0:0:
256,192,113521,1,0,0:0:0:0:
182,192,113561,1,0,0:0:0:0:
475,192,113561,1,0,0:0:0:0:
402,192,113600,1,0,0:0:0:0:
329,192,113640,1,0,0:0:0:0:
256,192,113680,1,0,0:0:0:0:
182,192,113720,1,0,0:0:0:70:A-Kick.wav
36,192,113720,1,0,0:0:0:0:
475,192,113720,128,0,113800:0:0:0:0:
109,192,113800,1,0,0:0:0:0:
329,192,113880,1,0,0:0:0:0:
475,192,113880,1,0,0:0:0:0:
402,192,113960,1,0,0:0:0:0:
182,192,114039,1,0,0:0:0:70:Clap.wav
36,192,114039,1,0,0:0:0:70:A-Kick.wav
256,192,114039,1,0,0:0:0:0:
475,192,114039,128,0,114119:0:0:0:0:
109,192,114119,1,0,0:0:0:0:
256,192,114199,1,0,0:0:0:0:
402,192,114199,1,0,0:0:0:0:
329,192,114279,1,0,0:0:0:0:
182,192,114358,1,0,0:0:0:70:A-Kick.wav
36,192,114358,1,0,0:0:0:0:
475,192,114358,128,0,114438:0:0:0:0:
109,192,114438,1,0,0:0:0:0:
329,192,114518,1,0,0:0:0:0:
475,192,114518,1,0,0:0:0:0:
402,192,114598,1,0,0:0:0:0:
256,192,114678,1,0,0:0:0:70:A-Kick.wav
109,192,114678,1,0,0:0:0:70:Clap.wav
36,192,114678,1,0,0:0:0:0:
475,192,114678,128,0,114757:0:0:0:0:
182,192,114757,1,0,0:0:0:0:
329,192,114837,1,0,0:0:0:0:
475,192,114837,1,0,0:0:0:0:
402,192,114917,1,0,0:0:0:0:
36,192,114997,1,0,0:0:0:70:A-Kick.wav
329,192,114997,1,0,0:0:0:70:Long Crash.wav
475,192,114997,1,0,0:0:0:0:
109,192,115037,1,0,0:0:0:0:
182,192,115077,1,0,0:0:0:0:
256,192,115116,1,0,0:0:0:0:
329,192,115156,1,0,0:0:0:0:
36,192,115156,1,0,0:0:0:0:
109,192,115196,1,0,0:0:0:0:
182,192,115236,1,0,0:0:0:0:
256,192,115276,1,0,0:0:0:0:
329,192,115316,1,0,0:0:0:70:Clap.wav
475,192,115316,1,0,0:0:0:70:A-Kick.wav
36,192,115316,1,0,0:0:0:0:
109,192,115396,1,0,0:0:0:0:
256,192,115475,1,0,0:0:0:0:
402,192,115475,1,0,0:0:0:0:
182,192,115555,1,0,0:0:0:0:
36,192,115635,1,0,0:0:0:70:A-Kick.wav
329,192,115635,1,0,0:0:0:0:
475,192,115635,1,0,0:0:0:0:
109,192,115715,1,0,0:0:0:0:
329,192,115795,1,0,0:0:0:0:
182,192,115795,1,0,0:0:0:0:
256,192,115874,1,0,0:0:0:0:
36,192,115954,1,0,0:0:0:70:Clap.wav
475,192,115954,1,0,0:0:0:70:A-Kick.wav
402,192,115954,1,0,0:0:0:0:
109,192,116034,1,0,0:0:0:0:
402,192,116114,1,0,0:0:0:0:
182,192,116114,1,0,0:0:0:0:
329,192,116194,1,0,0:0:0:0:
256,192,116273,1,0,0:0:0:70:A-Kick.wav
475,192,116273,1,0,0:0:0:0:
36,192,116273,1,0,0:0:0:0:
402,192,116353,1,0,0:0:0:0:
182,192,116433,1,0,0:0:0:0:
109,192,116433,1,0,0:0:0:0:
256,192,116513,1,0,0:0:0:0:
402,192,116592,1,0,0:0:0:70:A-Kick.wav
475,192,116592,1,0,0:0:0:70:Clap.wav
36,192,116592,1,0,0:0:0:0:
329,192,116672,1,0,0:0:0:0:
109,192,116752,1,0,0:0:0:0:
256,192,116752,1,0,0:0:0:0:
182,192,116832,1,0,0:0:0:0:
329,192,116912,1,0,0:0:0:70:A-Kick.wav
36,192,116912,1,0,0:0:0:0:
475,192,116912,1,0,0:0:0:0:
402,192,116991,1,0,0:0:0:0:
36,192,117071,1,0,0:0:0:0:
256,192,117071,1,0,0:0:0:0:
109,192,117151,1,0,0:0:0:0:
182,192,117231,1,0,0:0:0:70:Clap.wav
329,192,117231,1,0,0:0:0:70:A-Kick.wav
475,192,117231,1,0,0:0:0:0:
109,192,117311,1,0,0:0:0:0:
36,192,117390,1,0,0:0:0:0:
256,192,117390,1,0,0:0:0:0:
182,192,117470,1,0,0:0:0:0:
109,192,117550,1,0,0:0:0:70:A-Kick.wav
329,192,117550,1,0,0:0:0:0:
475,192,117550,1,0,0:0:0:0:
402,192,117656,1,0,0:0:0:0:
256,192,117656,1,0,0:0:0:0:
329,192,117763,1,0,0:0:0:0:
475,192,117763,1,0,0:0:0:0:
182,192,117869,1,0,0:0:0:70:A-Kick.wav
36,192,117869,1,0,0:0:0:70:Clap.wav
256,192,117975,1,0,0:0:0:0:
109,192,117975,1,0,0:0:0:0:
182,192,118082,1,0,0:0:0:0:
36,192,118082,1,0,0:0:0:0:
329,192,118188,1,0,0:0:0:70:A-Kick.wav
475,192,118188,1,0,0:0:0:0:
402,192,118295,1,0,0:0:0:0:
256,192,118295,1,0,0:0:0:0:
329,192,118401,1,0,0:0:0:0:
475,192,118401,1,0,0:0:0:0:
182,192,118507,1,0,0:0:0:70:Clap.wav
36,192,118507,1,0,0:0:0:70:A-Kick.wav
256,192,118614,1,0,0:0:0:0:
109,192,118614,1,0,0:0:0:0:
182,192,118720,1,0,0:0:0:0:
36,192,118720,1,0,0:0:0:0:
475,192,118827,1,0,0:0:0:70:A-Kick.wav
402,192,118880,1,0,0:0:0:0:
329,192,118933,1,0,0:0:0:0:
256,192,118986,1,0,0:0:0:0:
182,192,119039,1,0,0:0:0:0:
109,192,119092,1,0,0:0:0:0:
36,192,119146,1,0,0:0:0:70:Clap.wav
475,192,119146,1,0,0:0:0:70:A-Kick.wav
402,192,119199,1,0,0:0:0:0:
329,192,119252,1,0,0:0:0:0:
256,192,119305,1,0,0:0:0:0:
182,192,119358,1,0,0:0:0:0:
109,192,119412,1,0,0:0:0:0:
36,192,119465,1,0,0:0:0:70:A-Kick.wav
182,192,119518,1,0,0:0:0:0:
256,192,119571,1,0,0:0:0:0:
402,192,119624,1,0,0:0:0:0:
475,192,119678,1,0,0:0:0:0:
329,192,119731,1,0,0:0:0:0:
256,192,119784,1,0,0:0:0:70:Clap.wav
109,192,119837,1,0,0:0:0:0:
36,192,119890,1,0,0:0:0:0:
182,192,119944,1,0,0:0:0:0:
256,192,119997,1,0,0:0:0:0:
402,192,120050,1,0,0:0:0:0:
475,192,120103,1,0,0:0:0:70:A-Kick.wav
36,192,120103,128,0,120422:0:0:0:70:Long Crash.wav
109,192,120103,1,0,0:0:0:0:
475,192,120422,1,0,0:0:0:70:Clap.wav
109,192,120582,128,0,120901:0:0:0:0:
475,192,120741,1,0,0:0:0:70:A-Kick.wav
182,192,121061,128,0,121380:0:0:0:70:A-Kick.wav
475,192,121061,1,0,0:0:0:70:Clap.wav
475,192,121380,128,0,122656:0:0:0:70:A-Kick.wav
36,192,121380,1,0,0:0:0:0:
36,192,121699,1,0,0:0:0:70:Clap.wav
329,192,122018,128,0,122656:0:0:0:70:A-Kick.wav
36,192,122018,1,0,0:0:0:0:
36,192,122337,1,0,0:0:0:70:A-Kick.wav
109,192,122656,128,0,122975:0:0:0:70:A-Kick.wav
36,192,122656,1,0,0:0:0:0:
475,192,122975,1,0,0:0:0:70:A-Kick.wav
182,192,123135,128,0,123454:0:0:0:0:
36,192,123295,1,0,0:0:0:70:A-Kick.wav
256,192,123614,128,0,123933:0:0:0:70:Clap.wav
475,192,123614,1,0,0:0:0:70:A-Kick.wav
475,192,123933,128,0,124890:0:0:0:70:Kick.wav
36,192,123933,1,0,0:0:0:0:
109,192,124092,1,0,0:0:0:70:Kick.wav
182,192,124252,1,0,0:0:0:70:Kick.wav
109,192,124412,1,0,0:0:0:70:Kick.wav
36,192,124571,128,0,124890:0:0:0:70:Kick.wav
256,192,124890,1,0,0:0:0:70:Kick.wav
36,192,125210,128,0,125369:0:0:0:70:A-Kick.wav
256,192,125210,1,0,0:0:0:70:Long Crash.wav
475,192,125210,1,0,0:0:0:0:
475,192,125369,128,0,125529:0:0:0:0:
182,192,125369,1,0,0:0:0:0:
36,192,125529,128,0,125688:0:0:0:70:Clap.wav
329,192,125529,1,0,0:0:0:70:A-Kick.wav
109,192,125529,1,0,0:0:0:0:
475,192,125688,128,0,125848:0:0:0:0:
256,192,125688,1,0,0:0:0:0:
182,192,125848,128,0,126007:0:0:0:70:A-Kick.wav
36,192,125848,1,0,0:0:0:0:
329,192,126007,128,0,126167:0:0:0:0:
475,192,126007,1,0,0:0:0:0:
182,192,126167,128,0,126327:0:0:0:70:A-Kick.wav
256,192,126167,1,0,0:0:0:70:Clap.wav
36,192,126167,1,0,0:0:0:0:
329,192,126327,128,0,126486:0:0:0:0:
475,192,126327,1,0,0:0:0:0:
36,192,126486,128,0,126646:0:0:0:70:A-Kick.wav
182,192,126486,1,0,0:0:0:0:
475,192,126486,1,0,0:0:0:0:
475,192,126646,128,0,126805:0:0:0:0:
256,192,126646,1,0,0:0:0:0:
36,192,126805,128,0,126965:0:0:0:70:Clap.wav
329,192,126805,1,0,0:0:0:70:A-Kick.wav
109,192,126805,1,0,0:0:0:0:
475,192,126965,128,0,127124:0:0:0:0:
402,192,126965,1,0,0:0:0:0:
109,192,127124,128,0,127284:0:0:0:70:A-Kick.wav
256,192,127124,1,0,0:0:0:0:
402,192,127284,128,0,127444:0:0:0:0:
475,192,127284,1,0,0:0:0:0:
182,192,127444,128,0,127763:0:0:0:70:A-Kick.wav
36,192,127444,1,0,0:0:0:70:Clap.wav
256,192,127444,1,0,0:0:0:0:
329,192,127603,128,0,127763:0:0:0:0:
475,192,127603,1,0,0:0:0:0:
36,192,127763,128,0,128401:0:0:0:70:A-Kick.wav
475,192,127763,1,0,0:0:0:0:
256,192,127922,1,0,0:0:0:0:
329,192,128082,1,0,0:0:0:70:Clap.wav
109,192,128082,1,0,0:0:0:70:A-Kick.wav
475,192,128082,1,0,0:0:0:0:
475,192,128241,128,0,128720:0:0:0:0:
182,192,128241,1,0,0:0:0:0:
256,192,128401,1,0,0:0:0:70:A-Kick.wav
402,192,128401,1,0,0:0:0:0:
36,192,128561,128,0,129039:0:0:0:0:
329,192,128561,1,0,0:0:0:0:
402,192,128720,1,0,0:0:0:70:A-Kick.wav
182,192,128720,1,0,0:0:0:70:Clap.wav
109,192,128720,1,0,0:0:0:0:
475,192,128880,128,0,129039:0:0:0:0:
256,192,128880,1,0,0:0:0:0:
182,192,129039,128,0,129199:0:0:0:70:A-Kick.wav
329,192,129039,1,0,0:0:0:0:
329,192,129199,128,0,129358:0:0:0:0:
36,192,129199,1,0,0:0:0:0:
182,192,129358,128,0,129518:0:0:0:70:Clap.wav
475,192,129358,1,0,0:0:0:70:A-Kick.wav
329,192,129518,128,0,129678:0:0:0:0:
36,192,129518,1,0,0:0:0:0:
109,192,129678,128,0,129837:0:0:0:70:A-Kick.wav
475,192,129678,1,0,0:0:0:0:
402,192,129837,128,0,129997:0:0:0:0:
182,192,129837,1,0,0:0:0:0:
36,192,129997,128,0,130316:0:0:0:70:A-Kick.wav
256,192,129997,1,0,0:0:0:70:Clap.wav
475,192,130156,128,0,130316:0:0:0:0:
329,192,130156,1,0,0:0:0:0:
402,192,130316,1,0,0:0:0:70:Long Crash.wav
182,192,130316,1,0,0:0:0:70:A-Kick.wav
329,192,130475,1,0,0:0:0:0:
475,192,130635,128,0,130954:0:0:0:70:Clap.wav
256,192,130635,1,0,0:0:0:70:A-Kick.wav
36,192,130635,1,0,0:0:0:0:
109,192,130635,1,0,0:0:0:0:
182,192,130795,1,0,0:0:0:0:
36,192,130954,128,0,131114:0:0:0:70:A-Kick.wav
329,192,130954,1,0,0:0:0:0:
182,192,131114,128,0,131273:0:0:0:0:
402,192,131114,1,0,0:0:0:0:
36,192,131273,128,0,131433:0:0:0:70:A-Kick.wav
329,192,131273,1,0,0:0:0:70:Clap.wav
256,192,131273,1,0,0:0:0:0:
182,192,131433,128,0,131592:0:0:0:0:
402,192,131433,1,0,0:0:0:0:
36,192,131592,1,0,0:0:0:70:A-Kick.wav
475,192,131592,128,0,131752:0:0:0:0:
329,192,131592,1,0,0:0:0:0:
109,192,131672,1,0,0:0:0:0:
182,192,131752,1,0,0:0:0:0:
402,192,131832,128,0,131991:0:0:0:0:
256,192,131832,1,0,0:0:0:0:
36,192,131912,1,0,0:0:0:70:Clap.wav
475,192,131912,1,0,0:0:0:70:A-Kick.wav
329,192,131912,1,0,0:0:0:0:
109,192,131991,1,0,0:0:0:0:
329,192,132071,128,0,132231:0:0:0:0:
182,192,132071,1,0,0:0:0:0:
109,192,132151,1,0,0:0:0:0:
36,192,132231,128,0,132311:0:0:0:70:A-Kick.wav
475,192,132231,1,0,0:0:0:0:
402,192,132311,1,0,0:0:0:0:
109,192,132390,128,0,132470:0:0:0:0:
329,192,132390,1,0,0:0:0:0:
256,192,132470,1,0,0:0:0:0:
182,192,132550,128,0,132630:0:0:0:70:A-Kick.wav
475,192,132550,1,0,0:0:0:70:Clap.wav
36,192,132550,1,0,0:0:0:0:
402,192,132630,1,0,0:0:0:0:
256,192,132710,128,0,132789:0:0:0:0:
329,192,132710,1,0,0:0:0:0:
109,192,132710,1,0,0:0:0:0:
402,192,132789,1,0,0:0:0:0:
475,192,132869,128,0,133348:0:0:0:70:A-Kick.wav
182,192,132869,1,0,0:0:0:0:
36,192,132869,1,0,0:0:0:0:
182,192,133029,1,0,0:0:0:0:
256,192,133108,128,0,133348:0:0:0:0:
329,192,133188,1,0,0:0:0:70:Clap.wav
402,192,133188,1,0,0:0:0:70:A-Kick.wav
109,192,133188,1,0,0:0:0:0:
36,192,133348,1,0,0:0:0:0:
329,192,133507,1,0,0:0:0:70:A-Kick.wav
36,192,133507,128,0,133827:0:0:0:0:
256,192,133667,1,0,0:0:0:0:
402,192,133827,128,0,134305:0:0:0:70:A-Kick.wav
182,192,133827,1,0,0:0:0:70:Clap.wav
475,192,133827,1,0,0:0:0:0:
109,192,133986,128,0,134305:0:0:0:0:
36,192,134146,1,0,0:0:0:70:A-Kick.wav
329,192,134146,1,0,0:0:0:0:
256,192,134305,128,0,134465:0:0:0:0:
475,192,134465,128,0,134944:0:0:0:70:Clap.wav
182,192,134465,1,0,0:0:0:70:A-Kick.wav
36,192,134465,1,0,0:0:0:0:
329,192,134624,128,0,135103:0:0:0:0:
182,192,134784,128,0,135263:0:0:0:70:A-Kick.wav
36,192,134784,1,0,0:0:0:0:
36,192,134944,128,0,135422:0:0:0:0:
475,192,135103,128,0,135263:0:0:0:70:A-Kick.wav
256,192,135103,1,0,0:0:0:70:Clap.wav
109,192,135103,1,0,0:0:0:0:
329,192,135263,128,0,135422:0:0:0:0:
475,192,135422,128,0,135981:0:0:0:70:A-Kick.wav
182,192,135422,1,0,0:0:0:70:Long Crash.wav
182,192,135582,128,0,135901:0:0:0:0:
329,192,135741,128,0,135901:0:0:0:70:A-Kick.wav
256,192,135741,1,0,0:0:0:70:Clap.wav
109,192,135741,1,0,0:0:0:0:
36,192,135901,128,0,136380:0:0:0:0:
329,192,136061,128,0,136380:0:0:0:70:A-Kick.wav
475,192,136061,128,0,136140:0:0:0:0:
182,192,136140,128,0,136220:0:0:0:0:
475,192,136220,128,0,136300:0:0:0:0:
182,192,136300,128,0,136380:0:0:0:0:
475,192,136380,128,0,136619:0:0:0:70:Clap.wav
109,192,136380,1,0,0:0:0:70:A-Kick.wav
256,192,136380,1,0,0:0:0:0:
329,192,136460,128,0,136619:0:0:0:0:
36,192,136539,128,0,136699:0:0:0:0:
182,192,136619,128,0,136699:0:0:0:0:
329,192,136699,128,0,136779:0:0:0:0:
475,192,136699,1,0,0:0:0:70:A-Kick.wav
182,192,136779,128,0,136858:0:0:0:0:
36,192,136858,128,0,136938:0:0:0:0:
256,192,136938,128,0,137018:0:0:0:0:
109,192,137018,128,0,137098:0:0:0:0:
475,192,137018,1,0,0:0:0:70:Clap.wav
329,192,137098,128,0,137178:0:0:0:0:
182,192,137178,128,0,137257:0:0:0:0:
402,192,137257,128,0,137337:0:0:0:0:
36,192,137337,1,0,0:0:0:0:
256,192,137337,128,0,137417:0:0:0:70:A-Kick.wav
475,192,137417,128,0,137497:0:0:0:0:
182,192,137497,128,0,137577:0:0:0:0:
402,192,137577,128,0,137656:0:0:0:0:
475,192,137656,1,0,0:0:0:70:Clap.wav
182,192,137656,1,0,0:0:0:0:
109,192,137656,128,0,137736:0:0:0:70:A-Kick.wav
329,192,137736,128,0,137816:0:0:0:0:
402,192,137816,1,0,0:0:0:0:
109,192,137816,1,0,0:0:0:0:
36,192,137816,128,0,137896:0:0:0:70:A-Kick.wav
256,192,137896,128,0,137975:0:0:0:0:
329,192,137975,1,0,0:0:0:70:A-Kick.wav
475,192,137975,1,0,0:0:0:70:Long Crash.wav
36,192,137975,128,0,138295:0:0:0:0:
182,192,137975,1,0,0:0:0:0:
256,192,138135,1,0,0:0:0:70:A-Kick.wav
402,192,138135,1,0,0:0:0:0:
256,192,138295,1,0,0:0:0:70:A-Kick.wav
402,192,138295,1,0,0:0:0:0:
36,192,138454,128,0,138773:0:0:0:70:A-Kick.wav
182,192,138454,1,0,0:0:0:70:Short Crash.wav
329,192,138454,1,0,0:0:0:0:
475,192,138454,1,0,0:0:0:0:
256,192,138614,1,0,0:0:0:70:A-Kick.wav
402,192,138614,1,0,0:0:0:0:
402,192,138773,1,0,0:0:0:70:A-Kick.wav
256,192,138773,1,0,0:0:0:0:
36,192,138933,128,0,139252:0:0:0:70:A-Kick.wav
182,192,138933,1,0,0:0:0:70:Short Crash.wav
329,192,138933,1,0,0:0:0:0:
475,192,138933,1,0,0:0:0:0:
182,192,139092,1,0,0:0:0:70:A-Kick.wav
329,192,139092,1,0,0:0:0:0:
329,192,139252,1,0,0:0:0:70:A-Kick.wav
475,192,139252,1,0,0:0:0:70:Long Crash.wav
402,192,139252,1,0,0:0:0:0:
182,192,139332,1,0,0:0:0:70:A-Kick.wav
36,192,139332,1,0,0:0:0:0:
109,192,139332,1,0,0:0:0:0:
329,192,139412,1,0,0:0:0:70:A-Kick.wav
475,192,139412,1,0,0:0:0:0:
402,192,139412,1,0,0:0:0:0:
182,192,139491,1,0,0:0:0:70:A-Kick.wav
109,192,139491,1,0,0:0:0:0:
36,192,139491,1,0,0:0:0:0:
475,192,139571,1,0,0:0:0:70:A-Kick.wav
402,192,139571,1,0,0:0:0:70:Short Crash.wav
329,192,139571,1,0,0:0:0:0:
36,192,139651,1,0,0:0:0:70:A-Kick.wav
109,192,139651,1,0,0:0:0:0:
182,192,139651,1,0,0:0:0:0:
475,192,139731,1,0,0:0:0:70:A-Kick.wav
402,192,139731,1,0,0:0:0:0:
329,192,139731,1,0,0:0:0:0:
256,192,139771,1,0,0:0:0:70:A-Kick.wav
182,192,139811,1,0,0:0:0:70:A-Kick.wav
109,192,139850,1,0,0:0:0:70:A-Kick.wav
36,192,139890,1,0,0:0:0:70:Short Crash.wav
475,192,139890,1,0,0:0:0:70:A-Kick.wav
329,192,139890,1,0,0:0:0:0:
329,192,139997,1,0,0:0:0:70:A-Kick.wav
475,192,139997,1,0,0:0:0:70:Short Crash.wav
182,192,140103,1,0,0:0:0:70:A-Kick.wav
36,192,140103,1,0,0:0:0:70:Short Crash.wav
182,192,140210,1,0,0:0:0:70:A-Kick.wav
36,192,140210,1,0,0:0:0:70:Short Crash.wav
329,192,140316,1,0,0:0:0:70:A-Kick.wav
475,192,140316,1,0,0:0:0:70:Short Crash.wav
475,192,140422,1,0,0:0:0:70:A-Kick.wav
329,192,140422,1,0,0:0:0:70:Short Crash.wav
182,192,140529,1,0,0:0:0:70:A-Kick.wav
109,192,140529,1,0,0:0:0:70:Long Crash.wav
36,192,140529,1,0,0:0:0:0:
