osu file format v14

[General]
AudioFilename: Crow Solace.mp3
AudioLeadIn: 0
PreviewTime: 109890
Countdown: 0
SampleSet: Soft
StackLeniency: 0.7
Mode: 3
LetterboxInBreaks: 0
SpecialStyle: 0
WidescreenStoryboard: 0

[Editor]
DistanceSpacing: 1.1
BeatDivisor: 4
GridSize: 4
TimelineZoom: 1.2

[Metadata]
Title:* Crow Solace *
TitleUnicode:* Crow Solace *
Artist:m108
ArtistUnicode:m108
Creator:Critical_Star
Version:7K Normal
Source:BMS
Tags:THE BMS OF FIGHTERS 2012 EPIC TRANCECORE - Ein neuer Heiliger - [_A_v_a_l_o_n_] Zan_- richardfeder Rizqy ExPew Kuo Kyoka Raymond
BeatmapID:851374
BeatmapSetID:354157

[Difficulty]
HPDrainRate:7
CircleSize:7
OverallDifficulty:7
ApproachRate:5
SliderMultiplier:1.4
SliderTickRate:1

[Events]
//Background and Video events
0,0,"BG.jpg",0,0
//Break Periods
//Storyboard Layer 0 (Background)
//Storyboard Layer 1 (Fail)
//Storyboard Layer 2 (Pass)
//Storyboard Layer 3 (Foreground)
//Storyboard Sound Samples
Sample,14944,0,"violin1.wav",70
Sample,15263,0,"violin3.wav",70
Sample,15422,0,"violin4.wav",70
Sample,15741,0,"Kick.wav",70
Sample,16061,0,"Snare.wav",70
Sample,16380,0,"Kick.wav",70
Sample,16539,0,"Snare.wav",70
Sample,16699,0,"violin5.wav",70
Sample,16858,0,"Snare.wav",70
Sample,17018,0,"Kick.wav",70
Sample,17337,0,"Snare.wav",70
Sample,17656,0,"Kick.wav",70
Sample,17975,0,"violin6.wav",70
Sample,18295,0,"Kick.wav",70
Sample,18614,0,"Snare.wav",70
Sample,18773,0,"Kick.wav",70
Sample,19092,0,"violin8.wav",70
Sample,19252,0,"violin9.wav",70
Sample,19731,0,"violin10.wav",70
Sample,20050,0,"violin11.wav",70
Sample,20369,0,"violin12.wav",70
Sample,20529,0,"violin13.wav",70
Sample,20608,0,"Snare.wav",70
Sample,20688,0,"Kick.wav",70
Sample,20848,0,"Snare.wav",70
Sample,21167,0,"Kick.wav",70
Sample,21327,0,"Kick.wav",70
Sample,21486,0,"Snare.wav",70
Sample,21805,0,"Kick.wav",70
Sample,21965,0,"Kick.wav",70
Sample,22124,0,"Snare.wav",70
Sample,22284,0,"Kick.wav",70
Sample,22603,0,"Kick.wav",70
Sample,22763,0,"Snare.wav",70
Sample,23082,0,"violin14.wav",70
Sample,23401,0,"Snare.wav",70
Sample,23561,0,"Kick.wav",70
Sample,23880,0,"Kick.wav",70
Sample,24039,0,"Snare.wav",70
Sample,24199,0,"Kick.wav",70
Sample,24598,0,"Snare.wav",70
Sample,24678,0,"Snare.wav",70
Sample,25077,0,"Snare.wav",70
Sample,25156,0,"Snare.wav",70
Sample,25475,0,"Snare.wav",70
Sample,32337,0,"Clap.wav",70
Sample,32337,0,"A-Kick.wav",70
Sample,32975,0,"A-Kick.wav",70
Sample,33614,0,"Clap.wav",70
Sample,33614,0,"A-Kick.wav",70
Sample,33933,0,"A-Kick.wav",70
Sample,34252,0,"Clap.wav",70
Sample,34731,0,"A-Kick.wav",70
Sample,34890,0,"Clap.wav",70
Sample,34890,0,"A-Kick.wav",70
Sample,35050,0,"A-Kick.wav",70
Sample,35210,0,"A-Kick.wav",70
Sample,35369,0,"A-Kick.wav",70
Sample,35529,0,"Clap.wav",70
Sample,35529,0,"A-Kick.wav",70
Sample,35688,0,"A-Kick.wav",70
Sample,35928,0,"Kick.wav",70
Sample,36007,0,"Kick.wav",70
Sample,36087,0,"Kick.wav",70
Sample,36167,0,"Kick.wav",70
Sample,36247,0,"Kick.wav",70
Sample,36406,0,"Kick.wav",70
Sample,36486,0,"Kick.wav",70
Sample,36526,0,"Kick.wav",70
Sample,36566,0,"Kick.wav",70
Sample,36606,0,"Kick.wav",70
Sample,36646,0,"Kick.wav",70
Sample,36725,0,"Kick.wav",70
Sample,36805,0,"Kick.wav",70
Sample,37444,0,"A-Kick.wav",70
Sample,38720,0,"A-Kick.wav",70
Sample,39997,0,"A-Kick.wav",70
Sample,40316,0,"A-Kick.wav",70
Sample,41273,0,"A-Kick.wav",70
Sample,41592,0,"A-Kick.wav",70
Sample,46938,0,"A-Kick.wav",70
Sample,47178,0,"A-Kick.wav",70
Sample,47656,0,"A-Kick.wav",70
Sample,48295,0,"A-Kick.wav",70
Sample,48933,0,"A-Kick.wav",70
Sample,49571,0,"Clap.wav",70
Sample,50210,0,"Clap.wav",70
Sample,50210,0,"A-Kick.wav",70
Sample,51486,0,"Clap.wav",70
Sample,52124,0,"A-Kick.wav",70
Sample,52763,0,"Clap.wav",70
Sample,53401,0,"A-Kick.wav",70
Sample,54039,0,"Clap.wav",70
Sample,54678,0,"A-Kick.wav",70
Sample,55316,0,"A-Kick.wav",70
Sample,55316,0,"Clap.wav",70
Sample,55635,0,"A-Kick.wav",70
Sample,55954,0,"Clap.wav",70
Sample,55954,0,"A-Kick.wav",70
Sample,56273,0,"A-Kick.wav",70
Sample,56592,0,"A-Kick.wav",70
Sample,56592,0,"Clap.wav",70
Sample,56912,0,"A-Kick.wav",70
Sample,57231,0,"A-Kick.wav",70
Sample,57869,0,"A-Kick.wav",70
Sample,58507,0,"Clap.wav",70
Sample,59146,0,"A-Kick.wav",70
Sample,59784,0,"Clap.wav",70
Sample,60422,0,"A-Kick.wav",70
Sample,61061,0,"Clap.wav",70
Sample,61699,0,"A-Kick.wav",70
Sample,62337,0,"Clap.wav",70
Sample,62975,0,"A-Kick.wav",70
Sample,63614,0,"Clap.wav",70
Sample,64252,0,"A-Kick.wav",70
Sample,64890,0,"Clap.wav",70
Sample,65529,0,"A-Kick.wav",70
Sample,66167,0,"Clap.wav",70
Sample,66805,0,"A-Kick.wav",70
Sample,68082,0,"Clap.wav",70
Sample,69358,0,"Clap.wav",70
Sample,69997,0,"Clap.wav",70
Sample,70635,0,"A-Kick.wav",70
Sample,71912,0,"Clap.wav",70
Sample,72550,0,"Clap.wav",70
Sample,72789,0,"A-Kick.wav",70
Sample,73188,0,"Clap.wav",70
Sample,73827,0,"Clap.wav",70
Sample,74465,0,"A-Kick.wav",70
Sample,75103,0,"A-Kick.wav",70
Sample,75741,0,"A-Kick.wav",70
Sample,75741,0,"Clap.wav",70
Sample,76061,0,"A-Kick.wav",70
Sample,76380,0,"Clap.wav",70
Sample,76779,0,"A-Kick.wav",70
Sample,76779,0,"Short Crash.wav",70
Sample,76858,0,"Short Crash.wav",70
Sample,76938,0,"Short Crash.wav",70
Sample,76938,0,"A-Kick.wav",70
Sample,77018,0,"Short Crash.wav",70
Sample,77178,0,"Short Crash.wav",70
Sample,77497,0,"Short Crash.wav",70
Sample,77577,0,"A-Kick.wav",70
Sample,77816,0,"Short Crash.wav",70
Sample,77896,0,"A-Kick.wav",70
Sample,78295,0,"Clap.wav",70
Sample,78933,0,"Clap.wav",70
Sample,79571,0,"Clap.wav",70
Sample,80210,0,"Clap.wav",70
Sample,81486,0,"Clap.wav",70
Sample,82763,0,"Clap.wav",70
Sample,83002,0,"A-Kick.wav",70
Sample,83401,0,"Clap.wav",70
Sample,84039,0,"Clap.wav",70
Sample,84678,0,"Clap.wav",70
Sample,85316,0,"Clap.wav",70
Sample,85795,0,"A-Kick.wav",70
Sample,85954,0,"A-Kick.wav",70
Sample,86273,0,"A-Kick.wav",70
Sample,86353,0,"A-Kick.wav",70
Sample,86433,0,"A-Kick.wav",70
Sample,86513,0,"A-Kick.wav",70
Sample,86752,0,"A-Kick.wav",70
Sample,86792,0,"A-Kick.wav",70
Sample,86832,0,"A-Kick.wav",70
Sample,86872,0,"A-Kick.wav",70
Sample,87151,0,"A-Kick.wav",70
Sample,87231,0,"A-Kick.wav",70
Sample,87470,0,"A-Kick.wav",70
Sample,87550,0,"A-Kick.wav",70
Sample,87710,0,"A-Kick.wav",70
Sample,88029,0,"A-Kick.wav",70
Sample,88108,0,"A-Kick.wav",70
Sample,109731,0,"Kick.wav",70
Sample,109811,0,"Kick.wav",70
Sample,110210,0,"Clap.wav",70
Sample,110848,0,"Clap.wav",70
Sample,111486,0,"A-Kick.wav",70
Sample,112124,0,"Clap.wav",70
Sample,112763,0,"A-Kick.wav",70
Sample,113401,0,"Clap.wav",70
Sample,115316,0,"A-Kick.wav",70
Sample,115954,0,"A-Kick.wav",70
Sample,116592,0,"Clap.wav",70
Sample,117231,0,"A-Kick.wav",70
Sample,117869,0,"Clap.wav",70
Sample,118507,0,"A-Kick.wav",70
Sample,119146,0,"A-Kick.wav",70
Sample,119784,0,"A-Kick.wav",70
Sample,120422,0,"Clap.wav",70
Sample,120422,0,"A-Kick.wav",70
Sample,120741,0,"A-Kick.wav",70
Sample,121061,0,"Clap.wav",70
Sample,121699,0,"Clap.wav",70
Sample,121699,0,"A-Kick.wav",70
Sample,122337,0,"A-Kick.wav",70
Sample,122337,0,"Clap.wav",70
Sample,122975,0,"A-Kick.wav",70
Sample,122975,0,"Clap.wav",70
Sample,123295,0,"A-Kick.wav",70
Sample,123614,0,"A-Kick.wav",70
Sample,124013,0,"Kick.wav",70
Sample,124092,0,"Kick.wav",70
Sample,124172,0,"Kick.wav",70
Sample,124252,0,"Kick.wav",70
Sample,124332,0,"Kick.wav",70
Sample,124412,0,"Kick.wav",70
Sample,124491,0,"Kick.wav",70
Sample,124611,0,"Kick.wav",70
Sample,124651,0,"Kick.wav",70
Sample,124691,0,"Kick.wav",70
Sample,124731,0,"Kick.wav",70
Sample,124771,0,"Kick.wav",70
Sample,124811,0,"Kick.wav",70
Sample,124850,0,"Kick.wav",70
Sample,124890,0,"Short Crash.wav",70
Sample,125529,0,"A-Kick.wav",70
Sample,126167,0,"Clap.wav",70
Sample,126805,0,"A-Kick.wav",70
Sample,127444,0,"Clap.wav",70
Sample,128082,0,"Clap.wav",70
Sample,128082,0,"A-Kick.wav",70
Sample,128401,0,"A-Kick.wav",70
Sample,128720,0,"A-Kick.wav",70
Sample,128720,0,"Clap.wav",70
Sample,129358,0,"A-Kick.wav",70
Sample,129997,0,"Clap.wav",70
Sample,130635,0,"A-Kick.wav",70
Sample,131273,0,"Clap.wav",70
Sample,131912,0,"A-Kick.wav",70
Sample,132550,0,"Clap.wav",70
Sample,133827,0,"Clap.wav",70
Sample,135103,0,"Clap.wav",70
Sample,135741,0,"Clap.wav",70
Sample,136380,0,"A-Kick.wav",70
Sample,137018,0,"A-Kick.wav",70
Sample,137656,0,"A-Kick.wav",70
Sample,138454,0,"Short Crash.wav",70
Sample,138933,0,"Short Crash.wav",70
Sample,139332,0,"A-Kick.wav",70
Sample,139412,0,"A-Kick.wav",70
Sample,139491,0,"A-Kick.wav",70
Sample,139571,0,"A-Kick.wav",70
Sample,139571,0,"Short Crash.wav",70
Sample,139651,0,"A-Kick.wav",70
Sample,139771,0,"A-Kick.wav",70
Sample,139811,0,"A-Kick.wav",70
Sample,139850,0,"A-Kick.wav",70
Sample,139890,0,"Short Crash.wav",70
Sample,139890,0,"A-Kick.wav",70
Sample,139997,0,"A-Kick.wav",70
Sample,139997,0,"Short Crash.wav",70
Sample,140103,0,"A-Kick.wav",70
Sample,140103,0,"Short Crash.wav",70
Sample,140210,0,"Short Crash.wav",70
Sample,140316,0,"A-Kick.wav",70
Sample,140316,0,"Short Crash.wav",70
Sample,140422,0,"A-Kick.wav",70
Sample,140422,0,"Short Crash.wav",70

[TimingPoints]
5210,319.148936170213,4,2,1,35,1,0
37124,-100,4,2,1,35,0,1
47337,-100,4,2,1,35,0,0
67763,-100,4,2,1,35,0,1
76699,-100,4,2,1,35,0,0
77975,-100,4,2,1,35,0,1
88188,-100,4,2,1,35,0,0
109890,-100,4,2,1,35,0,1
120103,-100,4,2,1,35,0,0
125210,-100,4,2,1,35,0,1
140529,-100,4,2,1,35,0,0

[HitObjects]
36,192,5210,5,0,0:0:0:70:Cymbal.wav
475,192,5210,1,0,0:0:0:0:
182,192,5848,1,0,0:0:0:0:
402,192,6486,1,0,0:0:0:0:
36,192,7124,1,0,0:0:0:0:
182,192,7204,1,0,0:0:0:0:
475,192,7763,1,0,0:0:0:0:
402,192,8401,1,0,0:0:0:0:
329,192,9039,1,0,0:0:0:0:
402,192,9678,1,0,0:0:0:0:
329,192,9837,1,0,0:0:0:0:
36,192,9997,1,0,0:0:0:0:
182,192,10156,1,0,0:0:0:0:
475,192,10316,1,0,0:0:0:0:
109,192,10635,1,0,0:0:0:0:
109,192,11273,1,0,0:0:0:0:
109,192,11592,1,0,0:0:0:0:
182,192,11912,1,0,0:0:0:0:
402,192,12231,1,0,0:0:0:0:
182,192,12550,1,0,0:0:0:0:
329,192,12869,1,0,0:0:0:0:
475,192,13188,1,0,0:0:0:0:
402,192,13507,1,0,0:0:0:0:
109,192,13827,1,0,0:0:0:0:
182,192,14146,1,0,0:0:0:0:
329,192,14465,1,0,0:0:0:0:
256,192,14784,1,0,0:0:0:0:
36,192,15103,1,0,0:0:0:70:violin2.wav
402,192,15422,128,0,16699:0:0:0:70:Kick.wav
109,192,15422,1,0,0:0:0:70:Cymbal.wav
182,192,16699,128,0,17975:0:0:0:70:Kick.wav
329,192,17975,128,0,18933:0:0:0:70:Kick.wav
182,192,18933,1,0,0:0:0:70:violin7.wav
402,192,19092,1,0,0:0:0:70:Kick.wav
109,192,19252,128,0,19731:0:0:0:70:Kick.wav
182,192,19731,128,0,20529:0:0:0:70:Kick.wav
329,192,20210,128,0,20529:0:0:0:70:Kick.wav
475,192,20529,128,0,23082:0:0:0:70:Snare.wav
256,192,23082,128,0,25635:0:0:0:70:Kick.wav
36,192,24358,1,0,0:0:0:70:Short Crash.wav
109,192,24358,1,0,0:0:0:70:Kick.wav
402,192,24837,1,0,0:0:0:70:Short Crash.wav
475,192,24837,1,0,0:0:0:70:Kick.wav
182,192,25316,1,0,0:0:0:70:Kick.wav
329,192,25316,1,0,0:0:0:70:Short Crash.wav
36,192,25635,1,0,0:0:0:70:Kick.wav
475,192,25635,1,0,0:0:0:70:Short Crash.wav
36,192,26912,1,0,0:0:0:70:Long Crash.wav
109,192,26912,1,0,0:0:0:70:A-Kick.wav
402,192,27231,1,0,0:0:0:70:A-Kick.wav
475,192,27231,1,0,0:0:0:0:
109,192,27550,1,0,0:0:0:70:A-Kick.wav
36,192,27550,1,0,0:0:0:0:
329,192,28188,1,0,0:0:0:70:A-Kick.wav
402,192,28188,1,0,0:0:0:0:
109,192,28507,1,0,0:0:0:70:A-Kick.wav
182,192,28507,1,0,0:0:0:0:
329,192,28827,1,0,0:0:0:70:A-Kick.wav
402,192,28827,1,0,0:0:0:0:
36,192,29465,1,0,0:0:0:70:A-Kick.wav
182,192,29465,1,0,0:0:0:0:
329,192,29784,1,0,0:0:0:70:A-Kick.wav
475,192,29784,1,0,0:0:0:0:
36,192,30103,1,0,0:0:0:70:A-Kick.wav
182,192,30103,1,0,0:0:0:0:
109,192,30741,1,0,0:0:0:70:Short Crash.wav
402,192,30741,1,0,0:0:0:70:A-Kick.wav
182,192,30901,1,0,0:0:0:70:Short Crash.wav
329,192,30901,1,0,0:0:0:0:
109,192,31220,1,0,0:0:0:70:Short Crash.wav
402,192,31220,1,0,0:0:0:70:A-Kick.wav
402,192,31539,1,0,0:0:0:70:Short Crash.wav
109,192,31539,1,0,0:0:0:70:A-Kick.wav
402,192,31858,1,0,0:0:0:70:Short Crash.wav
109,192,31858,1,0,0:0:0:70:A-Kick.wav
329,192,32018,128,0,32497:0:0:0:70:Long Crash.wav
36,192,32018,1,0,0:0:0:70:A-Kick.wav
475,192,32018,1,0,0:0:0:0:
109,192,32497,1,0,0:0:0:0:
182,192,32656,1,0,0:0:0:70:A-Kick.wav
329,192,32816,1,0,0:0:0:0:
256,192,32975,1,0,0:0:0:70:Clap.wav
402,192,33135,1,0,0:0:0:0:
182,192,33295,128,0,33773:0:0:0:70:A-Kick.wav
36,192,33773,128,0,34252:0:0:0:0:
109,192,34252,1,0,0:0:0:70:A-Kick.wav
182,192,34412,1,0,0:0:0:0:
329,192,34571,128,0,35848:0:0:0:70:A-Kick.wav
109,192,35848,128,0,36327:0:0:0:70:Kick.wav
402,192,36327,128,0,36805:0:0:0:70:Kick.wav
256,192,36805,1,0,0:0:0:70:Bell.wav
329,192,37124,1,0,0:0:0:70:A-Kick.wav
36,192,37124,1,0,0:0:0:70:Long Crash.wav
475,192,37124,128,0,37603:0:0:0:0:
182,192,37603,1,0,0:0:0:0:
329,192,37763,128,0,38082:0:0:0:70:A-Kick.wav
36,192,38082,1,0,0:0:0:70:A-Kick.wav
182,192,38241,1,0,0:0:0:0:
402,192,38401,128,0,38880:0:0:0:70:A-Kick.wav
329,192,38880,1,0,0:0:0:0:
109,192,39039,128,0,39358:0:0:0:70:A-Kick.wav
475,192,39358,1,0,0:0:0:70:A-Kick.wav
475,192,39518,1,0,0:0:0:0:
182,192,39678,128,0,40635:0:0:0:70:A-Kick.wav
402,192,40635,128,0,40954:0:0:0:70:A-Kick.wav
36,192,40954,128,0,41433:0:0:0:70:A-Kick.wav
329,192,41433,128,0,41912:0:0:0:0:
109,192,41912,128,0,42231:0:0:0:70:A-Kick.wav
475,192,42231,128,0,44784:0:0:0:70:A-Kick.wav
329,192,42231,1,0,0:0:0:0:
182,192,42550,1,0,0:0:0:70:A-Kick.wav
329,192,42869,1,0,0:0:0:70:A-Kick.wav
182,192,43188,1,0,0:0:0:70:A-Kick.wav
329,192,43507,1,0,0:0:0:70:A-Kick.wav
182,192,43827,1,0,0:0:0:70:A-Kick.wav
329,192,44146,1,0,0:0:0:70:A-Kick.wav
182,192,44465,1,0,0:0:0:70:A-Kick.wav
36,192,44784,128,0,47337:0:0:0:70:A-Kick.wav
329,192,44784,1,0,0:0:0:0:
475,192,45103,1,0,0:0:0:70:A-Kick.wav
329,192,45422,1,0,0:0:0:70:A-Kick.wav
475,192,45741,1,0,0:0:0:70:A-Kick.wav
329,192,46061,1,0,0:0:0:70:A-Kick.wav
475,192,46380,1,0,0:0:0:70:A-Kick.wav
329,192,46699,1,0,0:0:0:70:A-Kick.wav
475,192,47018,1,0,0:0:0:70:A-Kick.wav
256,192,47337,1,0,0:0:0:70:Long Crash.wav
182,192,47337,1,0,0:0:0:70:A-Kick.wav
475,192,47656,1,0,0:0:0:70:Clap.wav
329,192,47656,1,0,0:0:0:0:
109,192,47816,1,0,0:0:0:0:
256,192,47975,1,0,0:0:0:70:A-Kick.wav
402,192,48135,1,0,0:0:0:0:
36,192,48295,1,0,0:0:0:70:Clap.wav
182,192,48374,1,0,0:0:0:0:
329,192,48454,1,0,0:0:0:0:
475,192,48534,1,0,0:0:0:0:
36,192,48614,1,0,0:0:0:70:A-Kick.wav
182,192,48614,1,0,0:0:0:0:
402,192,48933,1,0,0:0:0:70:Clap.wav
109,192,48933,1,0,0:0:0:0:
256,192,49092,1,0,0:0:0:0:
109,192,49252,1,0,0:0:0:70:A-Kick.wav
329,192,49412,1,0,0:0:0:0:
182,192,49571,1,0,0:0:0:70:A-Kick.wav
402,192,49731,1,0,0:0:0:0:
36,192,49890,1,0,0:0:0:70:A-Kick.wav
182,192,49890,1,0,0:0:0:0:
329,192,49970,1,0,0:0:0:0:
475,192,49970,1,0,0:0:0:0:
36,192,50130,1,0,0:0:0:0:
182,192,50130,1,0,0:0:0:0:
36,192,50369,1,0,0:0:0:0:
182,192,50369,1,0,0:0:0:0:
475,192,50529,128,0,50848:0:0:0:70:A-Kick.wav
256,192,50848,1,0,0:0:0:70:A-Kick.wav
109,192,50848,1,0,0:0:0:70:Clap.wav
329,192,51167,1,0,0:0:0:70:A-Kick.wav
36,192,51486,1,0,0:0:0:70:A-Kick.wav
182,192,51486,1,0,0:0:0:0:
475,192,51805,1,0,0:0:0:70:A-Kick.wav
36,192,52124,128,0,52444:0:0:0:70:Clap.wav
182,192,52124,1,0,0:0:0:0:
329,192,52444,1,0,0:0:0:70:A-Kick.wav
475,192,52444,1,0,0:0:0:0:
256,192,52763,1,0,0:0:0:70:A-Kick.wav
182,192,53082,1,0,0:0:0:70:A-Kick.wav
36,192,53082,1,0,0:0:0:0:
256,192,53401,1,0,0:0:0:70:Clap.wav
402,192,53720,1,0,0:0:0:70:A-Kick.wav
109,192,53720,1,0,0:0:0:0:
182,192,54039,1,0,0:0:0:70:A-Kick.wav
475,192,54039,1,0,0:0:0:0:
109,192,54199,1,0,0:0:0:0:
329,192,54358,1,0,0:0:0:70:A-Kick.wav
256,192,54518,1,0,0:0:0:0:
475,192,54678,1,0,0:0:0:70:Clap.wav
182,192,54678,1,0,0:0:0:0:
402,192,54837,1,0,0:0:0:0:
329,192,54997,1,0,0:0:0:70:A-Kick.wav
36,192,54997,1,0,0:0:0:0:
36,192,55156,1,0,0:0:0:0:
329,192,55156,1,0,0:0:0:0:
329,192,55475,128,0,57550:0:0:0:0:
182,192,57231,128,0,57550:0:0:0:70:Clap.wav
36,192,57550,1,0,0:0:0:70:Long Crash.wav
475,192,57550,1,0,0:0:0:70:A-Kick.wav
329,192,57869,1,0,0:0:0:70:Clap.wav
109,192,57869,1,0,0:0:0:0:
402,192,58029,1,0,0:0:0:0:
182,192,58188,1,0,0:0:0:70:A-Kick.wav
256,192,58348,1,0,0:0:0:0:
475,192,58507,1,0,0:0:0:70:A-Kick.wav
329,192,58587,1,0,0:0:0:0:
182,192,58667,1,0,0:0:0:0:
36,192,58747,1,0,0:0:0:0:
475,192,58827,1,0,0:0:0:70:A-Kick.wav
329,192,58827,1,0,0:0:0:0:
182,192,59146,1,0,0:0:0:70:Clap.wav
402,192,59146,1,0,0:0:0:0:
109,192,59305,1,0,0:0:0:0:
329,192,59465,1,0,0:0:0:70:A-Kick.wav
256,192,59624,1,0,0:0:0:0:
475,192,59784,1,0,0:0:0:70:A-Kick.wav
182,192,59784,1,0,0:0:0:0:
402,192,59944,1,0,0:0:0:0:
36,192,60103,1,0,0:0:0:70:A-Kick.wav
329,192,60103,1,0,0:0:0:0:
182,192,60263,1,0,0:0:0:0:
475,192,60263,1,0,0:0:0:0:
36,192,60422,1,0,0:0:0:70:Clap.wav
329,192,60422,1,0,0:0:0:0:
402,192,60741,1,0,0:0:0:0:
109,192,60741,1,0,0:0:0:70:A-Kick.wav
329,192,61061,1,0,0:0:0:0:
182,192,61061,1,0,0:0:0:70:A-Kick.wav
402,192,61380,1,0,0:0:0:70:A-Kick.wav
329,192,61539,1,0,0:0:0:0:
182,192,61699,1,0,0:0:0:70:Clap.wav
475,192,61699,1,0,0:0:0:0:
109,192,61858,1,0,0:0:0:0:
402,192,62018,1,0,0:0:0:70:A-Kick.wav
329,192,62178,1,0,0:0:0:0:
475,192,62337,128,0,62656:0:0:0:70:A-Kick.wav
256,192,62337,1,0,0:0:0:0:
182,192,62656,1,0,0:0:0:70:A-Kick.wav
329,192,62816,1,0,0:0:0:0:
109,192,62975,1,0,0:0:0:70:Clap.wav
329,192,63135,1,0,0:0:0:0:
182,192,63295,1,0,0:0:0:70:A-Kick.wav
329,192,63454,1,0,0:0:0:0:
109,192,63614,1,0,0:0:0:70:A-Kick.wav
329,192,63773,1,0,0:0:0:0:
256,192,63933,1,0,0:0:0:70:A-Kick.wav
182,192,64092,1,0,0:0:0:0:
402,192,64252,1,0,0:0:0:70:Clap.wav
182,192,64412,1,0,0:0:0:0:
329,192,64571,1,0,0:0:0:70:A-Kick.wav
182,192,64731,1,0,0:0:0:0:
402,192,64890,1,0,0:0:0:70:A-Kick.wav
182,192,65050,1,0,0:0:0:0:
329,192,65210,128,0,65848:0:0:0:70:A-Kick.wav
36,192,65529,1,0,0:0:0:70:Clap.wav
109,192,65848,128,0,66486:0:0:0:70:A-Kick.wav
475,192,66167,1,0,0:0:0:70:A-Kick.wav
329,192,66486,128,0,67763:0:0:0:70:A-Kick.wav
182,192,66805,1,0,0:0:0:70:Clap.wav
36,192,67444,128,0,67763:0:0:0:70:Kick.wav
182,192,67763,128,0,68241:0:0:0:70:A-Kick.wav
475,192,67763,1,0,0:0:0:70:Long Crash.wav
329,192,68082,1,0,0:0:0:70:A-Kick.wav
109,192,68241,128,0,68720:0:0:0:0:
475,192,68401,1,0,0:0:0:70:A-Kick.wav
329,192,68720,128,0,69039:0:0:0:70:Clap.wav
36,192,68720,1,0,0:0:0:70:A-Kick.wav
182,192,69039,128,0,69678:0:0:0:70:A-Kick.wav
109,192,69039,1,0,0:0:0:0:
329,192,69358,1,0,0:0:0:70:A-Kick.wav
475,192,69678,128,0,70316:0:0:0:70:A-Kick.wav
402,192,69678,1,0,0:0:0:0:
329,192,69997,1,0,0:0:0:70:A-Kick.wav
256,192,70156,1,0,0:0:0:70:A-Kick.wav
109,192,70316,128,0,70795:0:0:0:70:A-Kick.wav
182,192,70316,1,0,0:0:0:0:
329,192,70635,1,0,0:0:0:70:Clap.wav
36,192,70795,128,0,71273:0:0:0:0:
475,192,70954,1,0,0:0:0:70:A-Kick.wav
182,192,71273,128,0,71592:0:0:0:70:A-Kick.wav
402,192,71273,1,0,0:0:0:70:Clap.wav
329,192,71592,128,0,72231:0:0:0:70:A-Kick.wav
36,192,71592,1,0,0:0:0:0:
182,192,71912,1,0,0:0:0:70:A-Kick.wav
475,192,72231,128,0,72550:0:0:0:70:A-Kick.wav
36,192,72231,1,0,0:0:0:0:
329,192,72550,1,0,0:0:0:70:A-Kick.wav
256,192,72710,1,0,0:0:0:0:
182,192,72869,1,0,0:0:0:70:A-Kick.wav
475,192,73029,1,0,0:0:0:0:
182,192,73188,1,0,0:0:0:70:A-Kick.wav
475,192,73348,1,0,0:0:0:0:
109,192,73507,1,0,0:0:0:70:A-Kick.wav
402,192,73667,1,0,0:0:0:0:
109,192,73827,1,0,0:0:0:70:A-Kick.wav
402,192,73986,1,0,0:0:0:0:
182,192,74146,128,0,74465:0:0:0:70:A-Kick.wav
329,192,74465,1,0,0:0:0:70:Clap.wav
109,192,74624,1,0,0:0:0:0:
256,192,74784,1,0,0:0:0:70:A-Kick.wav
402,192,74944,1,0,0:0:0:0:
182,192,75103,1,0,0:0:0:70:Clap.wav
36,192,75263,1,0,0:0:0:70:A-Kick.wav
329,192,75422,1,0,0:0:0:0:
475,192,75422,1,0,0:0:0:70:A-Kick.wav
109,192,75741,1,0,0:0:0:0:
256,192,76061,1,0,0:0:0:0:
475,192,76380,1,0,0:0:0:70:A-Kick.wav
329,192,76539,1,0,0:0:0:70:A-Kick.wav
475,192,76699,1,0,0:0:0:70:Short Crash.wav
36,192,76699,1,0,0:0:0:70:A-Kick.wav
182,192,76858,1,0,0:0:0:70:A-Kick.wav
329,192,77018,1,0,0:0:0:70:A-Kick.wav
109,192,77178,1,0,0:0:0:70:A-Kick.wav
402,192,77497,1,0,0:0:0:70:A-Kick.wav
109,192,77656,1,0,0:0:0:70:A-Kick.wav
329,192,77816,1,0,0:0:0:70:A-Kick.wav
475,192,77975,1,0,0:0:0:70:A-Kick.wav
182,192,77975,1,0,0:0:0:70:Long Crash.wav
36,192,77975,1,0,0:0:0:0:
329,192,78295,128,0,78614:0:0:0:70:A-Kick.wav
475,192,78614,1,0,0:0:0:70:A-Kick.wav
329,192,78773,1,0,0:0:0:0:
36,192,78933,1,0,0:0:0:70:A-Kick.wav
182,192,79092,1,0,0:0:0:0:
329,192,79252,1,0,0:0:0:70:A-Kick.wav
475,192,79252,1,0,0:0:0:0:
182,192,79412,1,0,0:0:0:0:
402,192,79571,1,0,0:0:0:70:A-Kick.wav
109,192,79731,1,0,0:0:0:0:
329,192,79890,1,0,0:0:0:70:A-Kick.wav
109,192,80050,1,0,0:0:0:0:
402,192,80210,1,0,0:0:0:70:A-Kick.wav
182,192,80369,1,0,0:0:0:70:A-Kick.wav
329,192,80529,1,0,0:0:0:70:A-Kick.wav
475,192,80529,1,0,0:0:0:0:
182,192,80848,1,0,0:0:0:70:A-Kick.wav
36,192,80848,1,0,0:0:0:70:Clap.wav
109,192,81167,1,0,0:0:0:70:A-Kick.wav
402,192,81327,1,0,0:0:0:0:
109,192,81486,1,0,0:0:0:70:A-Kick.wav
182,192,81646,1,0,0:0:0:0:
329,192,81805,1,0,0:0:0:70:A-Kick.wav
475,192,81805,1,0,0:0:0:0:
182,192,82124,1,0,0:0:0:70:A-Kick.wav
36,192,82124,1,0,0:0:0:70:Clap.wav
475,192,82444,1,0,0:0:0:70:A-Kick.wav
329,192,82603,1,0,0:0:0:0:
182,192,82763,1,0,0:0:0:70:A-Kick.wav
36,192,82922,1,0,0:0:0:0:
402,192,83082,1,0,0:0:0:70:A-Kick.wav
475,192,83082,1,0,0:0:0:0:
109,192,83241,1,0,0:0:0:0:
182,192,83401,1,0,0:0:0:70:A-Kick.wav
256,192,83561,1,0,0:0:0:0:
329,192,83720,128,0,84039:0:0:0:70:A-Kick.wav
475,192,84039,128,0,84358:0:0:0:70:A-Kick.wav
36,192,84358,1,0,0:0:0:70:A-Kick.wav
329,192,84358,1,0,0:0:0:0:
109,192,84518,1,0,0:0:0:0:
402,192,84678,1,0,0:0:0:70:A-Kick.wav
329,192,84837,1,0,0:0:0:0:
109,192,84997,1,0,0:0:0:70:A-Kick.wav
182,192,85156,1,0,0:0:0:0:
475,192,85316,1,0,0:0:0:70:A-Kick.wav
329,192,85475,1,0,0:0:0:70:A-Kick.wav
182,192,85635,1,0,0:0:0:70:A-Kick.wav
36,192,85635,1,0,0:0:0:70:Long Crash.wav
402,192,86114,1,0,0:0:0:70:A-Kick.wav
109,192,86114,1,0,0:0:0:0:
402,192,86592,1,0,0:0:0:70:A-Kick.wav
109,192,86592,1,0,0:0:0:0:
182,192,86912,1,0,0:0:0:70:A-Kick.wav
329,192,86912,1,0,0:0:0:0:
182,192,87390,1,0,0:0:0:0:
329,192,87390,1,0,0:0:0:0:
182,192,87869,1,0,0:0:0:70:A-Kick.wav
329,192,87869,1,0,0:0:0:0:
36,192,88188,1,0,0:0:0:70:Long Crash.wav
475,192,88188,1,0,0:0:0:70:A-Kick.wav
329,192,98401,1,0,0:0:0:0:
475,192,99039,1,0,0:0:0:0:
256,192,99678,1,0,0:0:0:0:
402,192,100316,1,0,0:0:0:0:
182,192,100954,1,0,0:0:0:0:
329,192,101592,1,0,0:0:0:0:
109,192,102231,1,0,0:0:0:0:
256,192,102869,1,0,0:0:0:0:
36,192,103507,128,0,104784:0:0:0:0:
182,192,104784,128,0,106061:0:0:0:0:
329,192,106061,128,0,107337:0:0:0:0:
475,192,107337,128,0,108614:0:0:0:0:
36,192,109890,1,0,0:0:0:70:A-Kick.wav
475,192,109890,1,0,0:0:0:70:Long Crash.wav
109,192,109890,1,0,0:0:0:0:
329,192,110050,1,0,0:0:0:0:
182,192,110210,1,0,0:0:0:70:A-Kick.wav
329,192,110369,1,0,0:0:0:0:
475,192,110529,1,0,0:0:0:70:A-Kick.wav
36,192,110688,1,0,0:0:0:0:
329,192,110848,1,0,0:0:0:70:A-Kick.wav
182,192,111007,1,0,0:0:0:0:
475,192,111167,1,0,0:0:0:70:A-Kick.wav
329,192,111327,1,0,0:0:0:0:
402,192,111486,1,0,0:0:0:70:Clap.wav
36,192,111646,1,0,0:0:0:0:
182,192,111805,1,0,0:0:0:70:A-Kick.wav
109,192,111965,1,0,0:0:0:0:
329,192,112124,1,0,0:0:0:70:A-Kick.wav
256,192,112284,1,0,0:0:0:0:
182,192,112444,1,0,0:0:0:70:A-Kick.wav
402,192,112603,1,0,0:0:0:0:
109,192,112763,1,0,0:0:0:70:Clap.wav
182,192,112922,1,0,0:0:0:0:
402,192,113082,1,0,0:0:0:70:A-Kick.wav
329,192,113241,1,0,0:0:0:0:
256,192,113401,128,0,113720:0:0:0:70:A-Kick.wav
182,192,113720,1,0,0:0:0:70:A-Kick.wav
36,192,113720,1,0,0:0:0:0:
182,192,114039,1,0,0:0:0:70:Clap.wav
36,192,114039,1,0,0:0:0:70:A-Kick.wav
329,192,114358,1,0,0:0:0:70:A-Kick.wav
475,192,114358,1,0,0:0:0:0:
329,192,114678,1,0,0:0:0:70:A-Kick.wav
475,192,114678,1,0,0:0:0:70:Clap.wav
36,192,114997,1,0,0:0:0:70:A-Kick.wav
256,192,114997,1,0,0:0:0:70:Long Crash.wav
475,192,114997,1,0,0:0:0:0:
329,192,115156,1,0,0:0:0:0:
182,192,115316,1,0,0:0:0:70:Clap.wav
402,192,115475,1,0,0:0:0:0:
109,192,115635,1,0,0:0:0:70:A-Kick.wav
329,192,115795,1,0,0:0:0:0:
182,192,115954,1,0,0:0:0:70:Clap.wav
402,192,116114,1,0,0:0:0:0:
36,192,116273,1,0,0:0:0:70:A-Kick.wav
329,192,116433,1,0,0:0:0:0:
182,192,116592,1,0,0:0:0:70:A-Kick.wav
475,192,116752,1,0,0:0:0:0:
36,192,116912,1,0,0:0:0:70:A-Kick.wav
329,192,117071,1,0,0:0:0:0:
182,192,117231,1,0,0:0:0:70:Clap.wav
475,192,117390,1,0,0:0:0:0:
109,192,117550,128,0,117869:0:0:0:70:A-Kick.wav
402,192,117869,128,0,118188:0:0:0:70:A-Kick.wav
182,192,118188,128,0,118507:0:0:0:70:A-Kick.wav
475,192,118507,128,0,118827:0:0:0:70:Clap.wav
402,192,118827,1,0,0:0:0:70:A-Kick.wav
329,192,118986,1,0,0:0:0:0:
182,192,119146,1,0,0:0:0:70:Clap.wav
109,192,119305,1,0,0:0:0:0:
329,192,119465,1,0,0:0:0:70:A-Kick.wav
402,192,119624,1,0,0:0:0:0:
109,192,119784,1,0,0:0:0:70:Clap.wav
182,192,119944,1,0,0:0:0:0:
475,192,120103,128,0,120582:0:0:0:70:A-Kick.wav
36,192,120103,1,0,0:0:0:70:Long Crash.wav
329,192,120103,1,0,0:0:0:0:
109,192,120582,128,0,121061:0:0:0:0:
256,192,121061,128,0,121380:0:0:0:70:A-Kick.wav
36,192,121380,128,0,122018:0:0:0:70:A-Kick.wav
475,192,122018,128,0,122656:0:0:0:70:A-Kick.wav
329,192,122656,128,0,123135:0:0:0:70:A-Kick.wav
36,192,123135,128,0,123614:0:0:0:0:
402,192,123614,128,0,123933:0:0:0:70:Clap.wav
182,192,123933,128,0,124571:0:0:0:70:Kick.wav
475,192,124571,128,0,124890:0:0:0:70:Kick.wav
329,192,124890,1,0,0:0:0:70:Kick.wav
256,192,125050,1,0,0:0:0:0:
36,192,125210,1,0,0:0:0:70:A-Kick.wav
182,192,125210,1,0,0:0:0:70:Long Crash.wav
402,192,125369,1,0,0:0:0:0:
329,192,125529,1,0,0:0:0:70:Clap.wav
109,192,125688,1,0,0:0:0:0:
182,192,125848,1,0,0:0:0:70:A-Kick.wav
256,192,126007,1,0,0:0:0:0:
475,192,126167,1,0,0:0:0:70:A-Kick.wav
329,192,126327,1,0,0:0:0:0:
182,192,126486,1,0,0:0:0:70:A-Kick.wav
36,192,126486,1,0,0:0:0:0:
329,192,126805,1,0,0:0:0:70:Clap.wav
402,192,126965,1,0,0:0:0:0:
109,192,127124,1,0,0:0:0:70:A-Kick.wav
182,192,127284,1,0,0:0:0:0:
402,192,127444,1,0,0:0:0:70:A-Kick.wav
329,192,127603,1,0,0:0:0:0:
109,192,127763,128,0,128241:0:0:0:70:A-Kick.wav
256,192,127763,1,0,0:0:0:0:
475,192,128241,128,0,128561:0:0:0:0:
329,192,128561,128,0,128880:0:0:0:0:
182,192,128880,1,0,0:0:0:0:
475,192,129039,1,0,0:0:0:70:A-Kick.wav
36,192,129039,1,0,0:0:0:0:
402,192,129199,1,0,0:0:0:0:
329,192,129358,1,0,0:0:0:70:Clap.wav
475,192,129518,1,0,0:0:0:0:
109,192,129678,1,0,0:0:0:70:A-Kick.wav
182,192,129837,1,0,0:0:0:0:
256,192,129997,1,0,0:0:0:70:A-Kick.wav
36,192,130156,1,0,0:0:0:0:
475,192,130316,1,0,0:0:0:70:A-Kick.wav
182,192,130316,1,0,0:0:0:70:Long Crash.wav
402,192,130316,1,0,0:0:0:0:
329,192,130635,128,0,130954:0:0:0:70:Clap.wav
109,192,130954,1,0,0:0:0:70:A-Kick.wav
182,192,131114,1,0,0:0:0:0:
402,192,131273,1,0,0:0:0:70:A-Kick.wav
329,192,131433,1,0,0:0:0:0:
36,192,131592,1,0,0:0:0:70:A-Kick.wav
475,192,131592,1,0,0:0:0:0:
182,192,131752,1,0,0:0:0:0:
329,192,131912,1,0,0:0:0:70:Clap.wav
109,192,132071,1,0,0:0:0:0:
256,192,132231,1,0,0:0:0:70:A-Kick.wav
402,192,132390,1,0,0:0:0:0:
182,192,132550,1,0,0:0:0:70:A-Kick.wav
329,192,132710,1,0,0:0:0:0:
475,192,132869,1,0,0:0:0:70:A-Kick.wav
36,192,132869,1,0,0:0:0:0:
182,192,133188,1,0,0:0:0:70:Clap.wav
329,192,133188,1,0,0:0:0:70:A-Kick.wav
402,192,133507,1,0,0:0:0:70:A-Kick.wav
182,192,133667,1,0,0:0:0:0:
402,192,133827,1,0,0:0:0:70:A-Kick.wav
329,192,133986,1,0,0:0:0:0:
182,192,134146,1,0,0:0:0:70:A-Kick.wav
36,192,134146,1,0,0:0:0:0:
475,192,134465,1,0,0:0:0:70:Clap.wav
329,192,134465,1,0,0:0:0:70:A-Kick.wav
402,192,134784,1,0,0:0:0:70:A-Kick.wav
329,192,134944,1,0,0:0:0:0:
182,192,135103,1,0,0:0:0:70:A-Kick.wav
109,192,135263,1,0,0:0:0:0:
475,192,135422,1,0,0:0:0:70:A-Kick.wav
329,192,135422,1,0,0:0:0:70:Long Crash.wav
36,192,135582,1,0,0:0:0:0:
182,192,135741,1,0,0:0:0:70:A-Kick.wav
329,192,135901,1,0,0:0:0:0:
475,192,136061,128,0,136380:0:0:0:70:A-Kick.wav
36,192,136380,128,0,136699:0:0:0:70:Clap.wav
109,192,136699,1,0,0:0:0:70:A-Kick.wav
256,192,136858,1,0,0:0:0:0:
402,192,137018,1,0,0:0:0:70:Clap.wav
182,192,137178,1,0,0:0:0:0:
329,192,137337,1,0,0:0:0:70:A-Kick.wav
475,192,137497,1,0,0:0:0:0:
256,192,137656,1,0,0:0:0:70:Clap.wav
256,192,137816,1,0,0:0:0:70:A-Kick.wav
402,192,137975,1,0,0:0:0:70:A-Kick.wav
109,192,137975,1,0,0:0:0:70:Long Crash.wav
182,192,138135,1,0,0:0:0:70:A-Kick.wav
329,192,138295,1,0,0:0:0:70:A-Kick.wav
182,192,138454,1,0,0:0:0:70:A-Kick.wav
329,192,138614,1,0,0:0:0:70:A-Kick.wav
182,192,138773,1,0,0:0:0:70:A-Kick.wav
329,192,138933,1,0,0:0:0:70:A-Kick.wav
182,192,139092,1,0,0:0:0:70:A-Kick.wav
475,192,139252,128,0,139571:0:0:0:70:A-Kick.wav
329,192,139252,1,0,0:0:0:70:Long Crash.wav
256,192,139731,128,0,140050:0:0:0:70:A-Kick.wav
36,192,140210,128,0,140529:0:0:0:70:A-Kick.wav
475,192,140529,1,0,0:0:0:70:A-Kick.wav
329,192,140529,1,0,0:0:0:70:Long Crash.wav
