osu file format v14

[General]
AudioFilename: Crow Solace.mp3
AudioLeadIn: 0
PreviewTime: 109890
Countdown: 0
SampleSet: Soft
StackLeniency: 0.7
Mode: 3
LetterboxInBreaks: 0
SpecialStyle: 0
WidescreenStoryboard: 0

[Editor]
DistanceSpacing: 1.1
BeatDivisor: 4
GridSize: 4
TimelineZoom: 1.6

[Metadata]
Title:* Crow Solace *
TitleUnicode:* Crow Solace *
Artist:m108
ArtistUnicode:m108
Creator:Critical_Star
Version:4K Claidheamh
Source:BMS
Tags:THE BMS OF FIGHTERS 2012 EPIC TRANCECORE - Ein neuer Heiliger - [_A_v_a_l_o_n_] Zan_- richardfeder Rizqy ExPew Kuo Kyoka Raymond
BeatmapID:784148
BeatmapSetID:354157

[Difficulty]
HPDrainRate:9
CircleSize:4
OverallDifficulty:8.5
ApproachRate:5
SliderMultiplier:1.4
SliderTickRate:1

[Events]
//Background and Video events
0,0,"BG.jpg",0,0
//Break Periods
//Storyboard Layer 0 (Background)
//Storyboard Layer 1 (Fail)
//Storyboard Layer 2 (Pass)
//Storyboard Layer 3 (Foreground)
//Storyboard Sound Samples
Sample,20369,0,"violin12.wav",70
Sample,23082,0,"violin14.wav",70
Sample,36526,0,"Kick.wav",70
Sample,36606,0,"Kick.wav",70
Sample,62337,0,"Clap.wav",70
Sample,75103,0,"A-Kick.wav",70

[TimingPoints]
5210,319.148936170213,4,2,1,35,1,0
5210,-117.647058823529,4,2,1,35,0,0
15422,-105.263157894737,4,2,1,35,0,0
25635,-200,4,2,1,35,0,0
26912,-100,4,2,1,35,0,0
30741,-66.6666666666667,4,2,1,35,0,0
30821,-200,4,2,1,35,0,0
30901,-66.6666666666667,4,2,1,35,0,0
31061,-200,4,2,1,35,0,0
31220,-66.6666666666667,4,2,1,35,0,0
31380,-200,4,2,1,35,0,0
31539,-66.6666666666667,4,2,1,35,0,0
31699,-200,4,2,1,35,0,0
31858,-66.6666666666667,4,2,1,35,0,0
31938,-200,4,2,1,35,0,0
32018,-100,4,2,1,35,0,0
36805,-50,4,2,1,35,0,0
36885,-200,4,2,1,35,0,0
37124,-100,4,2,1,35,0,1
47337,-100,4,2,1,35,0,0
67763,-100,4,2,1,35,0,1
76699,-100,4,2,1,35,0,0
77975,-100,4,2,1,35,0,1
88188,-111.111111111111,4,2,1,35,0,0
98401,-125,4,2,1,35,0,0
108614,-100,4,2,1,35,0,0
109890,-100,4,2,1,35,0,1
120103,-100,4,2,1,35,0,0
125210,-100,4,2,1,35,0,1
140529,-100,4,2,1,35,0,0

[HitObjects]
64,192,5210,5,0,0:0:0:70:Cymbal.wav
192,192,5210,1,0,0:0:0:0:
320,192,5263,1,0,0:0:0:0:
448,192,5316,1,0,0:0:0:0:
192,192,5848,1,0,0:0:0:0:
320,192,6486,1,0,0:0:0:0:
448,192,7124,1,0,0:0:0:0:
320,192,7204,1,0,0:0:0:0:
192,192,7763,1,0,0:0:0:0:
320,192,7803,1,0,0:0:0:0:
448,192,7842,1,0,0:0:0:0:
320,192,8401,1,0,0:0:0:0:
192,192,9039,1,0,0:0:0:0:
448,192,9678,1,0,0:0:0:0:
320,192,9837,1,0,0:0:0:0:
192,192,9997,1,0,0:0:0:0:
64,192,10156,1,0,0:0:0:0:
192,192,10210,1,0,0:0:0:0:
320,192,10263,1,0,0:0:0:0:
448,192,10316,1,0,0:0:0:0:
320,192,10635,1,0,0:0:0:0:
320,192,11273,1,0,0:0:0:0:
320,192,11592,1,0,0:0:0:0:
192,192,11912,1,0,0:0:0:0:
448,192,12231,1,0,0:0:0:0:
64,192,12550,1,0,0:0:0:0:
320,192,12869,1,0,0:0:0:0:
448,192,13188,1,0,0:0:0:0:
192,192,13507,1,0,0:0:0:0:
64,192,13827,1,0,0:0:0:0:
320,192,14146,1,0,0:0:0:0:
192,192,14465,1,0,0:0:0:0:
320,192,14784,1,0,0:0:0:0:
64,192,14944,128,0,15103:0:0:0:70:violin1.wav
192,192,15103,128,0,15263:0:0:0:70:violin2.wav
448,192,15103,1,0,0:0:0:0:
320,192,15263,128,0,15422:0:0:0:70:violin3.wav
448,192,15422,128,0,16699:0:0:0:70:Kick.wav
64,192,15422,1,0,0:0:0:70:Cymbal.wav
192,192,15422,1,0,0:0:0:70:violin4.wav
192,192,15741,1,0,0:0:0:70:Kick.wav
320,192,16061,1,0,0:0:0:70:Snare.wav
64,192,16061,1,0,0:0:0:0:
320,192,16380,1,0,0:0:0:70:Kick.wav
192,192,16539,1,0,0:0:0:70:Snare.wav
64,192,16539,1,0,0:0:0:0:
320,192,16699,1,0,0:0:0:70:Kick.wav
64,192,16699,128,0,17975:0:0:0:70:violin5.wav
192,192,16858,1,0,0:0:0:70:Snare.wav
448,192,16858,1,0,0:0:0:0:
320,192,17018,1,0,0:0:0:70:Kick.wav
320,192,17337,1,0,0:0:0:70:Snare.wav
192,192,17337,1,0,0:0:0:0:
192,192,17656,1,0,0:0:0:70:Kick.wav
320,192,17975,128,0,18933:0:0:0:70:Kick.wav
448,192,17975,1,0,0:0:0:70:violin6.wav
448,192,18295,1,0,0:0:0:70:Kick.wav
64,192,18614,1,0,0:0:0:70:Snare.wav
192,192,18614,1,0,0:0:0:0:
448,192,18773,1,0,0:0:0:70:Kick.wav
192,192,18933,128,0,19252:0:0:0:70:violin7.wav
448,192,19092,1,0,0:0:0:70:Kick.wav
320,192,19092,128,0,19252:0:0:0:70:violin8.wav
64,192,19252,128,0,19731:0:0:0:70:Kick.wav
448,192,19252,1,0,0:0:0:70:violin9.wav
320,192,19731,128,0,20529:0:0:0:70:Kick.wav
448,192,19731,1,0,0:0:0:70:violin10.wav
192,192,20050,128,0,20529:0:0:0:70:violin11.wav
64,192,20210,1,0,0:0:0:70:Kick.wav
448,192,20210,1,0,0:0:0:0:
448,192,20529,128,0,23082:0:0:0:70:Snare.wav
64,192,20529,1,0,0:0:0:70:violin13.wav
192,192,20608,1,0,0:0:0:70:Snare.wav
320,192,20688,1,0,0:0:0:70:Kick.wav
64,192,20848,1,0,0:0:0:70:Snare.wav
192,192,20848,1,0,0:0:0:0:
320,192,21167,1,0,0:0:0:70:Kick.wav
192,192,21327,1,0,0:0:0:70:Kick.wav
64,192,21486,1,0,0:0:0:70:Snare.wav
320,192,21486,1,0,0:0:0:0:
192,192,21805,1,0,0:0:0:70:Kick.wav
320,192,21965,1,0,0:0:0:70:Kick.wav
192,192,22124,1,0,0:0:0:70:Snare.wav
64,192,22124,1,0,0:0:0:0:
320,192,22284,1,0,0:0:0:70:Kick.wav
320,192,22603,1,0,0:0:0:70:Kick.wav
192,192,22763,1,0,0:0:0:70:Snare.wav
64,192,22763,1,0,0:0:0:0:
192,192,23082,1,0,0:0:0:70:Kick.wav
448,192,23401,1,0,0:0:0:70:Snare.wav
64,192,23401,1,0,0:0:0:0:
192,192,23561,1,0,0:0:0:70:Kick.wav
192,192,23880,1,0,0:0:0:70:Kick.wav
320,192,24039,1,0,0:0:0:70:Snare.wav
448,192,24039,1,0,0:0:0:0:
192,192,24199,1,0,0:0:0:70:Kick.wav
448,192,24358,1,0,0:0:0:70:Short Crash.wav
320,192,24358,1,0,0:0:0:70:Kick.wav
64,192,24358,1,0,0:0:0:0:
192,192,24598,1,0,0:0:0:70:Snare.wav
192,192,24678,1,0,0:0:0:70:Snare.wav
64,192,24837,1,0,0:0:0:70:Short Crash.wav
320,192,24837,1,0,0:0:0:70:Kick.wav
448,192,24837,1,0,0:0:0:0:
320,192,25077,1,0,0:0:0:70:Snare.wav
320,192,25156,1,0,0:0:0:70:Snare.wav
192,192,25316,1,0,0:0:0:70:Kick.wav
64,192,25316,1,0,0:0:0:70:Short Crash.wav
448,192,25316,1,0,0:0:0:0:
320,192,25475,1,0,0:0:0:70:Snare.wav
64,192,25635,1,0,0:0:0:70:Kick.wav
448,192,25635,1,0,0:0:0:70:Short Crash.wav
320,192,25635,1,0,0:0:0:0:
320,192,26912,1,0,0:0:0:70:Long Crash.wav
64,192,26912,1,0,0:0:0:70:A-Kick.wav
192,192,26991,1,0,0:0:0:0:
448,192,26991,1,0,0:0:0:0:
320,192,27071,1,0,0:0:0:0:
64,192,27071,1,0,0:0:0:0:
448,192,27231,1,0,0:0:0:70:A-Kick.wav
192,192,27231,1,0,0:0:0:0:
64,192,27311,1,0,0:0:0:0:
320,192,27311,1,0,0:0:0:0:
448,192,27390,1,0,0:0:0:0:
192,192,27390,1,0,0:0:0:0:
64,192,27550,1,0,0:0:0:70:A-Kick.wav
448,192,27550,1,0,0:0:0:0:
192,192,27630,1,0,0:0:0:0:
320,192,27630,1,0,0:0:0:0:
448,192,27710,1,0,0:0:0:0:
64,192,27710,1,0,0:0:0:0:
192,192,27869,1,0,0:0:0:0:
320,192,27949,1,0,0:0:0:0:
448,192,28029,1,0,0:0:0:0:
192,192,28188,1,0,0:0:0:70:A-Kick.wav
64,192,28188,1,0,0:0:0:0:
448,192,28268,1,0,0:0:0:0:
320,192,28268,1,0,0:0:0:0:
64,192,28348,1,0,0:0:0:0:
192,192,28348,1,0,0:0:0:0:
448,192,28507,1,0,0:0:0:70:A-Kick.wav
320,192,28507,1,0,0:0:0:0:
192,192,28587,1,0,0:0:0:0:
64,192,28587,1,0,0:0:0:0:
320,192,28667,1,0,0:0:0:0:
448,192,28667,1,0,0:0:0:0:
64,192,28827,1,0,0:0:0:70:A-Kick.wav
320,192,28827,1,0,0:0:0:0:
192,192,28906,1,0,0:0:0:0:
448,192,28906,1,0,0:0:0:0:
64,192,28986,1,0,0:0:0:0:
320,192,28986,1,0,0:0:0:0:
192,192,29146,1,0,0:0:0:0:
320,192,29225,1,0,0:0:0:0:
448,192,29305,1,0,0:0:0:0:
192,192,29465,1,0,0:0:0:70:A-Kick.wav
448,192,29465,1,0,0:0:0:0:
64,192,29545,1,0,0:0:0:0:
320,192,29545,1,0,0:0:0:0:
448,192,29624,1,0,0:0:0:0:
192,192,29624,1,0,0:0:0:0:
320,192,29784,1,0,0:0:0:70:A-Kick.wav
64,192,29784,1,0,0:0:0:0:
448,192,29864,1,0,0:0:0:0:
192,192,29864,1,0,0:0:0:0:
320,192,29944,1,0,0:0:0:0:
64,192,29944,1,0,0:0:0:0:
320,192,30103,1,0,0:0:0:70:A-Kick.wav
192,192,30103,1,0,0:0:0:0:
448,192,30183,1,0,0:0:0:0:
64,192,30183,1,0,0:0:0:0:
192,192,30263,1,0,0:0:0:0:
320,192,30263,1,0,0:0:0:0:
448,192,30422,1,0,0:0:0:0:
320,192,30502,1,0,0:0:0:0:
192,192,30582,1,0,0:0:0:0:
448,192,30741,1,0,0:0:0:70:Short Crash.wav
320,192,30741,1,0,0:0:0:70:A-Kick.wav
64,192,30741,1,0,0:0:0:0:
192,192,30901,1,0,0:0:0:70:Short Crash.wav
320,192,30901,1,0,0:0:0:0:
64,192,31220,1,0,0:0:0:70:Short Crash.wav
192,192,31220,1,0,0:0:0:70:A-Kick.wav
320,192,31220,1,0,0:0:0:0:
448,192,31539,1,0,0:0:0:70:Short Crash.wav
320,192,31539,1,0,0:0:0:70:A-Kick.wav
64,192,31539,1,0,0:0:0:0:
192,192,31858,1,0,0:0:0:70:Short Crash.wav
448,192,31858,1,0,0:0:0:70:A-Kick.wav
320,192,31858,1,0,0:0:0:0:
64,192,32018,1,0,0:0:0:70:Long Crash.wav
448,192,32018,1,0,0:0:0:70:A-Kick.wav
320,192,32018,1,0,0:0:0:0:
192,192,32098,1,0,0:0:0:0:
320,192,32178,1,0,0:0:0:0:
448,192,32337,1,0,0:0:0:70:Clap.wav
64,192,32337,1,0,0:0:0:70:A-Kick.wav
192,192,32337,1,0,0:0:0:0:
320,192,32417,1,0,0:0:0:0:
192,192,32497,1,0,0:0:0:0:
448,192,32656,1,0,0:0:0:70:A-Kick.wav
64,192,32656,1,0,0:0:0:0:
192,192,32736,1,0,0:0:0:0:
320,192,32816,1,0,0:0:0:0:
448,192,32975,1,0,0:0:0:70:Clap.wav
64,192,32975,1,0,0:0:0:70:A-Kick.wav
192,192,32975,1,0,0:0:0:0:
320,192,33055,1,0,0:0:0:0:
192,192,33135,1,0,0:0:0:0:
320,192,33295,1,0,0:0:0:70:A-Kick.wav
64,192,33295,1,0,0:0:0:0:
448,192,33374,1,0,0:0:0:0:
320,192,33454,1,0,0:0:0:0:
448,192,33614,1,0,0:0:0:70:Clap.wav
192,192,33614,1,0,0:0:0:70:A-Kick.wav
320,192,33614,1,0,0:0:0:0:
64,192,33694,1,0,0:0:0:0:
192,192,33773,1,0,0:0:0:0:
448,192,33933,1,0,0:0:0:70:A-Kick.wav
64,192,33933,1,0,0:0:0:0:
320,192,34013,1,0,0:0:0:0:
192,192,34092,1,0,0:0:0:0:
448,192,34252,1,0,0:0:0:70:A-Kick.wav
64,192,34252,1,0,0:0:0:70:Clap.wav
320,192,34252,1,0,0:0:0:0:
192,192,34332,1,0,0:0:0:0:
320,192,34412,1,0,0:0:0:0:
64,192,34571,1,0,0:0:0:70:A-Kick.wav
448,192,34571,1,0,0:0:0:0:
320,192,34651,1,0,0:0:0:0:
64,192,34731,1,0,0:0:0:70:A-Kick.wav
192,192,34731,1,0,0:0:0:0:
64,192,34890,1,0,0:0:0:70:Clap.wav
448,192,34890,1,0,0:0:0:70:A-Kick.wav
320,192,34890,1,0,0:0:0:0:
192,192,34970,1,0,0:0:0:0:
320,192,35050,1,0,0:0:0:70:A-Kick.wav
448,192,35050,1,0,0:0:0:0:
192,192,35210,1,0,0:0:0:70:A-Kick.wav
64,192,35210,1,0,0:0:0:0:
320,192,35289,1,0,0:0:0:0:
448,192,35369,1,0,0:0:0:70:A-Kick.wav
64,192,35369,1,0,0:0:0:0:
448,192,35529,1,0,0:0:0:70:Clap.wav
64,192,35529,1,0,0:0:0:70:A-Kick.wav
192,192,35529,1,0,0:0:0:0:
320,192,35608,1,0,0:0:0:0:
192,192,35688,1,0,0:0:0:70:A-Kick.wav
64,192,35688,1,0,0:0:0:0:
320,192,35848,1,0,0:0:0:70:Kick.wav
448,192,35848,1,0,0:0:0:0:
192,192,35928,1,0,0:0:0:70:Kick.wav
64,192,35928,1,0,0:0:0:0:
448,192,36007,1,0,0:0:0:70:Kick.wav
320,192,36007,1,0,0:0:0:0:
192,192,36087,1,0,0:0:0:70:Kick.wav
448,192,36167,1,0,0:0:0:70:Kick.wav
64,192,36167,1,0,0:0:0:0:
320,192,36247,1,0,0:0:0:70:Kick.wav
192,192,36247,1,0,0:0:0:0:
64,192,36327,1,0,0:0:0:70:Kick.wav
448,192,36327,1,0,0:0:0:0:
320,192,36406,1,0,0:0:0:70:Kick.wav
192,192,36486,1,0,0:0:0:70:Kick.wav
64,192,36486,1,0,0:0:0:0:
448,192,36566,1,0,0:0:0:70:Kick.wav
320,192,36566,1,0,0:0:0:0:
192,192,36646,1,0,0:0:0:70:Kick.wav
64,192,36646,1,0,0:0:0:0:
320,192,36725,1,0,0:0:0:70:Kick.wav
448,192,36805,1,0,0:0:0:70:Bell.wav
64,192,36805,1,0,0:0:0:70:Kick.wav
448,192,37124,1,0,0:0:0:70:A-Kick.wav
320,192,37124,1,0,0:0:0:70:Long Crash.wav
64,192,37124,1,0,0:0:0:0:
192,192,37204,1,0,0:0:0:0:
320,192,37284,1,0,0:0:0:0:
192,192,37364,1,0,0:0:0:0:
64,192,37444,1,0,0:0:0:70:A-Kick.wav
320,192,37444,1,0,0:0:0:0:
448,192,37523,1,0,0:0:0:0:
64,192,37603,1,0,0:0:0:0:
192,192,37603,1,0,0:0:0:0:
320,192,37683,1,0,0:0:0:0:
448,192,37683,1,0,0:0:0:0:
64,192,37763,1,0,0:0:0:70:A-Kick.wav
192,192,37763,1,0,0:0:0:0:
448,192,37842,1,0,0:0:0:0:
320,192,37922,1,0,0:0:0:0:
192,192,38002,1,0,0:0:0:0:
448,192,38082,1,0,0:0:0:70:A-Kick.wav
64,192,38082,1,0,0:0:0:0:
192,192,38162,1,0,0:0:0:0:
320,192,38241,1,0,0:0:0:0:
448,192,38241,1,0,0:0:0:0:
192,192,38321,1,0,0:0:0:0:
448,192,38401,1,0,0:0:0:70:A-Kick.wav
64,192,38401,1,0,0:0:0:0:
320,192,38481,1,0,0:0:0:0:
192,192,38561,1,0,0:0:0:0:
320,192,38640,1,0,0:0:0:0:
64,192,38720,1,0,0:0:0:70:A-Kick.wav
448,192,38720,1,0,0:0:0:0:
192,192,38800,1,0,0:0:0:0:
448,192,38880,1,0,0:0:0:0:
320,192,38880,1,0,0:0:0:0:
192,192,38960,1,0,0:0:0:0:
64,192,38960,1,0,0:0:0:0:
448,192,39039,1,0,0:0:0:70:A-Kick.wav
320,192,39039,1,0,0:0:0:0:
192,192,39119,1,0,0:0:0:0:
64,192,39199,1,0,0:0:0:0:
320,192,39279,1,0,0:0:0:0:
448,192,39358,1,0,0:0:0:70:A-Kick.wav
192,192,39358,1,0,0:0:0:0:
64,192,39438,1,0,0:0:0:0:
192,192,39518,1,0,0:0:0:0:
448,192,39518,1,0,0:0:0:0:
320,192,39598,1,0,0:0:0:0:
448,192,39678,1,0,0:0:0:70:A-Kick.wav
64,192,39678,1,0,0:0:0:0:
192,192,39757,1,0,0:0:0:0:
320,192,39837,1,0,0:0:0:0:
192,192,39917,1,0,0:0:0:0:
64,192,39997,1,0,0:0:0:70:A-Kick.wav
448,192,39997,1,0,0:0:0:0:
320,192,40077,1,0,0:0:0:0:
192,192,40156,1,0,0:0:0:0:
320,192,40236,1,0,0:0:0:0:
448,192,40316,1,0,0:0:0:70:A-Kick.wav
64,192,40316,1,0,0:0:0:0:
192,192,40396,1,0,0:0:0:0:
320,192,40475,1,0,0:0:0:0:
64,192,40555,1,0,0:0:0:0:
448,192,40635,1,0,0:0:0:70:A-Kick.wav
192,192,40635,1,0,0:0:0:0:
320,192,40715,1,0,0:0:0:0:
192,192,40795,1,0,0:0:0:0:
64,192,40874,1,0,0:0:0:0:
320,192,40954,1,0,0:0:0:70:A-Kick.wav
448,192,40954,1,0,0:0:0:0:
192,192,41034,1,0,0:0:0:0:
64,192,41114,1,0,0:0:0:0:
192,192,41194,1,0,0:0:0:0:
320,192,41273,1,0,0:0:0:70:A-Kick.wav
64,192,41273,1,0,0:0:0:0:
448,192,41353,1,0,0:0:0:0:
320,192,41433,1,0,0:0:0:0:
192,192,41433,1,0,0:0:0:0:
64,192,41513,1,0,0:0:0:0:
448,192,41592,1,0,0:0:0:70:A-Kick.wav
320,192,41592,1,0,0:0:0:0:
192,192,41672,1,0,0:0:0:0:
320,192,41752,1,0,0:0:0:0:
448,192,41832,1,0,0:0:0:0:
64,192,41912,1,0,0:0:0:70:A-Kick.wav
192,192,41912,1,0,0:0:0:0:
448,192,41991,1,0,0:0:0:0:
320,192,42071,1,0,0:0:0:0:
192,192,42151,1,0,0:0:0:0:
448,192,42231,128,0,44784:0:0:0:70:A-Kick.wav
320,192,42231,1,0,0:0:0:0:
64,192,42231,1,0,0:0:0:0:
192,192,42311,1,0,0:0:0:0:
64,192,42390,1,0,0:0:0:0:
320,192,42470,1,0,0:0:0:0:
64,192,42550,1,0,0:0:0:70:A-Kick.wav
192,192,42550,1,0,0:0:0:0:
320,192,42630,1,0,0:0:0:0:
64,192,42710,1,0,0:0:0:0:
192,192,42789,1,0,0:0:0:0:
320,192,42869,1,0,0:0:0:70:A-Kick.wav
64,192,42869,1,0,0:0:0:0:
192,192,42949,1,0,0:0:0:0:
320,192,43029,1,0,0:0:0:0:
192,192,43108,1,0,0:0:0:0:
64,192,43188,1,0,0:0:0:70:A-Kick.wav
320,192,43188,1,0,0:0:0:0:
192,192,43268,1,0,0:0:0:0:
64,192,43348,1,0,0:0:0:0:
192,192,43428,1,0,0:0:0:0:
320,192,43507,1,0,0:0:0:70:A-Kick.wav
64,192,43507,1,0,0:0:0:0:
192,192,43587,1,0,0:0:0:0:
320,192,43667,1,0,0:0:0:0:
192,192,43747,1,0,0:0:0:0:
64,192,43827,1,0,0:0:0:70:A-Kick.wav
320,192,43827,1,0,0:0:0:0:
192,192,43906,1,0,0:0:0:0:
64,192,43986,1,0,0:0:0:0:
192,192,44066,1,0,0:0:0:0:
320,192,44146,1,0,0:0:0:70:A-Kick.wav
64,192,44146,1,0,0:0:0:0:
192,192,44225,1,0,0:0:0:0:
320,192,44305,1,0,0:0:0:0:
192,192,44385,1,0,0:0:0:0:
64,192,44465,1,0,0:0:0:70:A-Kick.wav
320,192,44465,1,0,0:0:0:0:
192,192,44545,1,0,0:0:0:0:
64,192,44624,1,0,0:0:0:0:
192,192,44704,1,0,0:0:0:0:
320,192,44784,1,0,0:0:0:70:A-Kick.wav
64,192,44784,1,0,0:0:0:0:
192,192,44864,1,0,0:0:0:0:
320,192,44944,1,0,0:0:0:0:
448,192,44944,1,0,0:0:0:0:
192,192,45023,1,0,0:0:0:0:
64,192,45103,1,0,0:0:0:70:A-Kick.wav
448,192,45103,1,0,0:0:0:0:
320,192,45183,1,0,0:0:0:0:
192,192,45263,1,0,0:0:0:0:
64,192,45263,1,0,0:0:0:0:
320,192,45342,1,0,0:0:0:0:
448,192,45422,1,0,0:0:0:70:A-Kick.wav
64,192,45422,1,0,0:0:0:0:
320,192,45502,1,0,0:0:0:0:
192,192,45582,1,0,0:0:0:0:
448,192,45582,1,0,0:0:0:0:
64,192,45662,1,0,0:0:0:0:
320,192,45741,1,0,0:0:0:70:A-Kick.wav
448,192,45741,1,0,0:0:0:0:
192,192,45821,1,0,0:0:0:0:
320,192,45901,1,0,0:0:0:0:
64,192,45901,1,0,0:0:0:0:
448,192,45981,1,0,0:0:0:0:
64,192,46061,1,0,0:0:0:70:A-Kick.wav
320,192,46061,1,0,0:0:0:0:
192,192,46140,1,0,0:0:0:0:
320,192,46220,1,0,0:0:0:0:
448,192,46220,1,0,0:0:0:0:
192,192,46300,1,0,0:0:0:0:
64,192,46380,1,0,0:0:0:70:A-Kick.wav
448,192,46380,1,0,0:0:0:0:
320,192,46460,1,0,0:0:0:0:
192,192,46539,1,0,0:0:0:0:
64,192,46539,1,0,0:0:0:0:
320,192,46619,1,0,0:0:0:0:
448,192,46699,1,0,0:0:0:70:A-Kick.wav
64,192,46699,1,0,0:0:0:0:
320,192,46779,1,0,0:0:0:0:
192,192,46858,1,0,0:0:0:0:
320,192,46938,1,0,0:0:0:70:A-Kick.wav
448,192,46938,1,0,0:0:0:0:
192,192,47018,1,0,0:0:0:70:A-Kick.wav
64,192,47018,1,0,0:0:0:0:
320,192,47098,1,0,0:0:0:0:
448,192,47178,1,0,0:0:0:70:A-Kick.wav
64,192,47178,1,0,0:0:0:0:
192,192,47257,1,0,0:0:0:0:
448,192,47337,1,0,0:0:0:70:Long Crash.wav
64,192,47337,1,0,0:0:0:70:A-Kick.wav
320,192,47337,1,0,0:0:0:0:
192,192,47377,1,0,0:0:0:0:
320,192,47417,1,0,0:0:0:0:
448,192,47457,1,0,0:0:0:0:
64,192,47497,1,0,0:0:0:0:
192,192,47537,1,0,0:0:0:0:
448,192,47577,1,0,0:0:0:0:
320,192,47616,1,0,0:0:0:0:
64,192,47656,1,0,0:0:0:70:Clap.wav
192,192,47656,1,0,0:0:0:70:A-Kick.wav
448,192,47736,1,0,0:0:0:0:
192,192,47816,1,0,0:0:0:0:
320,192,47896,1,0,0:0:0:0:
64,192,47975,1,0,0:0:0:70:A-Kick.wav
448,192,47975,1,0,0:0:0:0:
192,192,48055,1,0,0:0:0:0:
448,192,48135,1,0,0:0:0:0:
320,192,48215,1,0,0:0:0:0:
64,192,48295,1,0,0:0:0:70:Clap.wav
192,192,48295,1,0,0:0:0:70:A-Kick.wav
448,192,48374,1,0,0:0:0:0:
64,192,48454,1,0,0:0:0:0:
320,192,48454,1,0,0:0:0:0:
448,192,48534,1,0,0:0:0:0:
192,192,48614,1,0,0:0:0:70:A-Kick.wav
320,192,48614,1,0,0:0:0:0:
64,192,48614,1,0,0:0:0:0:
448,192,48694,1,0,0:0:0:0:
192,192,48773,1,0,0:0:0:0:
320,192,48853,1,0,0:0:0:0:
64,192,48933,1,0,0:0:0:70:Clap.wav
448,192,48933,1,0,0:0:0:70:A-Kick.wav
192,192,49013,1,0,0:0:0:0:
320,192,49092,1,0,0:0:0:0:
192,192,49172,1,0,0:0:0:0:
64,192,49252,1,0,0:0:0:70:A-Kick.wav
448,192,49252,1,0,0:0:0:0:
320,192,49332,1,0,0:0:0:0:
64,192,49412,1,0,0:0:0:0:
192,192,49491,1,0,0:0:0:0:
320,192,49571,1,0,0:0:0:70:A-Kick.wav
448,192,49571,1,0,0:0:0:70:Clap.wav
64,192,49651,1,0,0:0:0:0:
192,192,49731,1,0,0:0:0:0:
320,192,49811,1,0,0:0:0:0:
64,192,49890,1,0,0:0:0:70:A-Kick.wav
192,192,49890,1,0,0:0:0:0:
448,192,49890,1,0,0:0:0:0:
192,192,49970,1,0,0:0:0:0:
64,192,49970,1,0,0:0:0:0:
448,192,49970,1,0,0:0:0:0:
192,192,50130,1,0,0:0:0:0:
64,192,50130,1,0,0:0:0:0:
448,192,50130,1,0,0:0:0:0:
320,192,50210,1,0,0:0:0:70:Clap.wav
192,192,50210,1,0,0:0:0:70:A-Kick.wav
64,192,50369,1,0,0:0:0:0:
448,192,50369,1,0,0:0:0:0:
320,192,50369,1,0,0:0:0:0:
448,192,50529,1,0,0:0:0:70:A-Kick.wav
320,192,50569,1,0,0:0:0:0:
64,192,50608,1,0,0:0:0:0:
192,192,50648,1,0,0:0:0:0:
320,192,50688,1,0,0:0:0:0:
448,192,50728,1,0,0:0:0:0:
64,192,50768,1,0,0:0:0:0:
192,192,50808,1,0,0:0:0:0:
448,192,50848,1,0,0:0:0:70:A-Kick.wav
320,192,50848,1,0,0:0:0:70:Clap.wav
192,192,51007,1,0,0:0:0:0:
320,192,51087,1,0,0:0:0:0:
448,192,51167,1,0,0:0:0:70:A-Kick.wav
64,192,51167,1,0,0:0:0:0:
320,192,51273,1,0,0:0:0:0:
192,192,51273,1,0,0:0:0:0:
448,192,51380,1,0,0:0:0:0:
320,192,51380,1,0,0:0:0:0:
64,192,51486,1,0,0:0:0:70:A-Kick.wav
192,192,51486,1,0,0:0:0:70:Clap.wav
320,192,51592,1,0,0:0:0:0:
448,192,51592,1,0,0:0:0:0:
192,192,51699,1,0,0:0:0:0:
320,192,51699,1,0,0:0:0:0:
192,192,51805,1,0,0:0:0:70:A-Kick.wav
64,192,51805,1,0,0:0:0:0:
448,192,51912,1,0,0:0:0:0:
320,192,51912,1,0,0:0:0:0:
192,192,52018,1,0,0:0:0:0:
64,192,52018,1,0,0:0:0:0:
64,192,52124,1,0,0:0:0:70:Clap.wav
448,192,52124,1,0,0:0:0:70:A-Kick.wav
320,192,52231,1,0,0:0:0:0:
192,192,52337,1,0,0:0:0:0:
320,192,52390,1,0,0:0:0:0:
64,192,52444,1,0,0:0:0:70:A-Kick.wav
448,192,52444,1,0,0:0:0:0:
192,192,52444,1,0,0:0:0:0:
320,192,52523,1,0,0:0:0:0:
192,192,52603,1,0,0:0:0:0:
448,192,52683,1,0,0:0:0:0:
320,192,52763,1,0,0:0:0:70:A-Kick.wav
64,192,52763,1,0,0:0:0:70:Clap.wav
448,192,52842,1,0,0:0:0:0:
192,192,52842,1,0,0:0:0:0:
320,192,52922,1,0,0:0:0:0:
192,192,53002,1,0,0:0:0:0:
64,192,53082,1,0,0:0:0:70:A-Kick.wav
320,192,53082,1,0,0:0:0:0:
448,192,53082,1,0,0:0:0:0:
192,192,53162,1,0,0:0:0:0:
448,192,53241,1,0,0:0:0:0:
320,192,53321,1,0,0:0:0:0:
192,192,53401,1,0,0:0:0:70:Clap.wav
64,192,53401,1,0,0:0:0:70:A-Kick.wav
448,192,53481,1,0,0:0:0:0:
192,192,53561,1,0,0:0:0:0:
320,192,53640,1,0,0:0:0:0:
448,192,53720,1,0,0:0:0:70:A-Kick.wav
192,192,53720,1,0,0:0:0:0:
64,192,53720,1,0,0:0:0:0:
320,192,53800,1,0,0:0:0:0:
192,192,53880,1,0,0:0:0:0:
448,192,53960,1,0,0:0:0:0:
320,192,54039,1,0,0:0:0:70:A-Kick.wav
64,192,54039,128,0,54119:0:0:0:70:Clap.wav
192,192,54119,128,0,54199:0:0:0:0:
320,192,54199,128,0,54279:0:0:0:0:
64,192,54279,128,0,54358:0:0:0:0:
448,192,54358,128,0,54438:0:0:0:70:A-Kick.wav
192,192,54358,1,0,0:0:0:0:
320,192,54438,128,0,54518:0:0:0:0:
192,192,54518,128,0,54598:0:0:0:0:
448,192,54598,128,0,54678:0:0:0:0:
64,192,54678,128,0,54757:0:0:0:70:Clap.wav
192,192,54678,1,0,0:0:0:70:A-Kick.wav
320,192,54757,128,0,54837:0:0:0:0:
192,192,54837,128,0,54917:0:0:0:0:
64,192,54917,128,0,54997:0:0:0:0:
448,192,54997,1,0,0:0:0:70:A-Kick.wav
320,192,54997,1,0,0:0:0:0:
192,192,54997,1,0,0:0:0:0:
320,192,55156,1,0,0:0:0:0:
448,192,55156,1,0,0:0:0:0:
448,192,55316,1,0,0:0:0:70:A-Kick.wav
64,192,55316,1,0,0:0:0:70:Clap.wav
64,192,55475,128,0,57231:0:0:0:0:
192,192,55475,1,0,0:0:0:0:
448,192,55635,1,0,0:0:0:70:A-Kick.wav
320,192,55635,1,0,0:0:0:0:
320,192,55795,1,0,0:0:0:0:
448,192,55954,1,0,0:0:0:70:Clap.wav
192,192,55954,1,0,0:0:0:70:A-Kick.wav
448,192,56114,1,0,0:0:0:0:
192,192,56273,1,0,0:0:0:70:A-Kick.wav
320,192,56273,1,0,0:0:0:0:
192,192,56433,1,0,0:0:0:0:
320,192,56592,1,0,0:0:0:70:A-Kick.wav
448,192,56592,1,0,0:0:0:70:Clap.wav
320,192,56752,1,0,0:0:0:0:
448,192,56912,1,0,0:0:0:70:A-Kick.wav
192,192,56912,1,0,0:0:0:0:
320,192,56991,1,0,0:0:0:0:
448,192,57071,1,0,0:0:0:0:
320,192,57151,1,0,0:0:0:0:
192,192,57231,1,0,0:0:0:70:Clap.wav
448,192,57231,1,0,0:0:0:70:A-Kick.wav
320,192,57311,1,0,0:0:0:0:
64,192,57390,1,0,0:0:0:0:
192,192,57470,1,0,0:0:0:0:
64,192,57550,1,0,0:0:0:70:Long Crash.wav
448,192,57550,1,0,0:0:0:70:A-Kick.wav
320,192,57550,1,0,0:0:0:0:
192,192,57590,1,0,0:0:0:0:
320,192,57630,1,0,0:0:0:0:
448,192,57670,1,0,0:0:0:0:
64,192,57710,1,0,0:0:0:0:
192,192,57749,1,0,0:0:0:0:
448,192,57789,1,0,0:0:0:0:
320,192,57829,1,0,0:0:0:0:
192,192,57869,1,0,0:0:0:70:Clap.wav
64,192,57869,1,0,0:0:0:70:A-Kick.wav
448,192,57949,1,0,0:0:0:0:
320,192,58029,1,0,0:0:0:0:
192,192,58108,1,0,0:0:0:0:
448,192,58188,1,0,0:0:0:70:A-Kick.wav
64,192,58188,1,0,0:0:0:0:
192,192,58268,1,0,0:0:0:0:
320,192,58348,1,0,0:0:0:0:
192,192,58428,1,0,0:0:0:0:
64,192,58507,1,0,0:0:0:70:A-Kick.wav
448,192,58507,1,0,0:0:0:70:Clap.wav
192,192,58587,1,0,0:0:0:0:
320,192,58667,1,0,0:0:0:0:
448,192,58747,1,0,0:0:0:0:
64,192,58827,1,0,0:0:0:70:A-Kick.wav
320,192,58827,1,0,0:0:0:0:
192,192,58827,1,0,0:0:0:0:
448,192,58906,1,0,0:0:0:0:
192,192,58986,1,0,0:0:0:0:
320,192,59066,1,0,0:0:0:0:
448,192,59146,1,0,0:0:0:70:Clap.wav
64,192,59146,1,0,0:0:0:70:A-Kick.wav
320,192,59225,1,0,0:0:0:0:
192,192,59305,1,0,0:0:0:0:
64,192,59385,1,0,0:0:0:0:
320,192,59465,1,0,0:0:0:70:A-Kick.wav
192,192,59465,1,0,0:0:0:0:
448,192,59545,1,0,0:0:0:0:
320,192,59624,1,0,0:0:0:0:
192,192,59704,1,0,0:0:0:0:
64,192,59784,1,0,0:0:0:70:A-Kick.wav
448,192,59784,1,0,0:0:0:70:Clap.wav
192,192,59864,1,0,0:0:0:0:
320,192,59944,1,0,0:0:0:0:
448,192,60023,1,0,0:0:0:0:
64,192,60103,1,0,0:0:0:70:A-Kick.wav
192,192,60103,1,0,0:0:0:0:
320,192,60103,1,0,0:0:0:0:
448,192,60183,1,0,0:0:0:0:
64,192,60263,1,0,0:0:0:0:
320,192,60263,1,0,0:0:0:0:
192,192,60342,1,0,0:0:0:0:
448,192,60422,1,0,0:0:0:70:Clap.wav
64,192,60422,1,0,0:0:0:70:A-Kick.wav
320,192,60502,1,0,0:0:0:0:
192,192,60582,1,0,0:0:0:0:
320,192,60662,1,0,0:0:0:0:
448,192,60741,1,0,0:0:0:70:A-Kick.wav
64,192,60741,1,0,0:0:0:0:
192,192,60821,1,0,0:0:0:0:
320,192,60901,1,0,0:0:0:0:
448,192,60981,1,0,0:0:0:0:
64,192,61061,1,0,0:0:0:70:A-Kick.wav
320,192,61061,1,0,0:0:0:70:Clap.wav
192,192,61140,1,0,0:0:0:0:
320,192,61220,1,0,0:0:0:0:
192,192,61300,1,0,0:0:0:0:
448,192,61380,1,0,0:0:0:70:A-Kick.wav
64,192,61380,1,0,0:0:0:0:
320,192,61460,1,0,0:0:0:0:
192,192,61539,1,0,0:0:0:0:
64,192,61619,1,0,0:0:0:0:
192,192,61699,1,0,0:0:0:70:Clap.wav
448,192,61699,1,0,0:0:0:70:A-Kick.wav
320,192,61779,1,0,0:0:0:0:
192,192,61858,1,0,0:0:0:0:
320,192,61938,1,0,0:0:0:0:
448,192,62018,1,0,0:0:0:70:A-Kick.wav
64,192,62018,1,0,0:0:0:0:
192,192,62098,1,0,0:0:0:0:
320,192,62178,1,0,0:0:0:0:
448,192,62257,1,0,0:0:0:0:
64,192,62337,1,0,0:0:0:70:A-Kick.wav
192,192,62377,1,0,0:0:0:0:
448,192,62417,1,0,0:0:0:0:
320,192,62457,1,0,0:0:0:0:
64,192,62497,1,0,0:0:0:0:
192,192,62537,1,0,0:0:0:0:
448,192,62577,1,0,0:0:0:0:
320,192,62616,1,0,0:0:0:0:
192,192,62656,1,0,0:0:0:70:A-Kick.wav
64,192,62656,1,0,0:0:0:0:
320,192,62736,1,0,0:0:0:0:
448,192,62816,128,0,62975:0:0:0:0:
64,192,62816,1,0,0:0:0:0:
192,192,62975,1,0,0:0:0:70:Clap.wav
64,192,62975,1,0,0:0:0:70:A-Kick.wav
320,192,63055,1,0,0:0:0:0:
64,192,63135,1,0,0:0:0:0:
448,192,63135,128,0,63295:0:0:0:0:
192,192,63295,1,0,0:0:0:70:A-Kick.wav
64,192,63295,1,0,0:0:0:0:
320,192,63374,1,0,0:0:0:0:
64,192,63454,1,0,0:0:0:0:
448,192,63454,128,0,63614:0:0:0:0:
192,192,63614,1,0,0:0:0:70:A-Kick.wav
64,192,63614,1,0,0:0:0:70:Clap.wav
320,192,63694,1,0,0:0:0:0:
448,192,63773,128,0,63933:0:0:0:0:
64,192,63933,1,0,0:0:0:70:A-Kick.wav
192,192,63933,1,0,0:0:0:0:
448,192,64013,1,0,0:0:0:0:
320,192,64013,1,0,0:0:0:0:
192,192,64092,1,0,0:0:0:0:
64,192,64092,1,0,0:0:0:0:
448,192,64172,1,0,0:0:0:0:
192,192,64252,1,0,0:0:0:70:Clap.wav
64,192,64252,1,0,0:0:0:70:A-Kick.wav
320,192,64332,1,0,0:0:0:0:
448,192,64332,1,0,0:0:0:0:
64,192,64412,1,0,0:0:0:0:
192,192,64412,1,0,0:0:0:0:
320,192,64491,1,0,0:0:0:0:
448,192,64571,1,0,0:0:0:70:A-Kick.wav
64,192,64571,1,0,0:0:0:0:
320,192,64651,1,0,0:0:0:0:
192,192,64651,1,0,0:0:0:0:
64,192,64731,1,0,0:0:0:0:
448,192,64731,1,0,0:0:0:0:
192,192,64811,1,0,0:0:0:0:
64,192,64890,1,0,0:0:0:70:A-Kick.wav
448,192,64890,1,0,0:0:0:70:Clap.wav
320,192,64970,1,0,0:0:0:0:
192,192,64970,1,0,0:0:0:0:
64,192,65050,1,0,0:0:0:0:
448,192,65050,1,0,0:0:0:0:
192,192,65130,1,0,0:0:0:0:
320,192,65210,1,0,0:0:0:70:A-Kick.wav
448,192,65210,128,0,65848:0:0:0:0:
64,192,65289,1,0,0:0:0:0:
192,192,65369,1,0,0:0:0:0:
320,192,65449,1,0,0:0:0:0:
192,192,65529,1,0,0:0:0:70:Clap.wav
64,192,65529,1,0,0:0:0:70:A-Kick.wav
320,192,65608,1,0,0:0:0:0:
64,192,65688,1,0,0:0:0:0:
192,192,65768,1,0,0:0:0:0:
64,192,65848,128,0,66486:0:0:0:70:A-Kick.wav
320,192,65848,1,0,0:0:0:0:
192,192,65928,1,0,0:0:0:0:
320,192,66007,1,0,0:0:0:0:
448,192,66087,1,0,0:0:0:0:
320,192,66167,1,0,0:0:0:70:A-Kick.wav
192,192,66167,1,0,0:0:0:70:Clap.wav
448,192,66247,1,0,0:0:0:0:
320,192,66327,1,0,0:0:0:0:
192,192,66406,1,0,0:0:0:0:
448,192,66486,1,0,0:0:0:70:A-Kick.wav
320,192,66526,1,0,0:0:0:0:
192,192,66566,1,0,0:0:0:0:
64,192,66606,1,0,0:0:0:0:
448,192,66646,1,0,0:0:0:0:
320,192,66686,1,0,0:0:0:0:
192,192,66725,1,0,0:0:0:0:
64,192,66765,1,0,0:0:0:0:
448,192,66805,1,0,0:0:0:70:Clap.wav
320,192,66805,1,0,0:0:0:70:A-Kick.wav
192,192,66845,1,0,0:0:0:0:
64,192,66885,1,0,0:0:0:0:
320,192,66925,1,0,0:0:0:0:
448,192,66965,1,0,0:0:0:0:
64,192,67005,1,0,0:0:0:0:
192,192,67045,1,0,0:0:0:0:
320,192,67085,1,0,0:0:0:0:
448,192,67124,1,0,0:0:0:0:
192,192,67164,1,0,0:0:0:0:
64,192,67204,1,0,0:0:0:0:
448,192,67244,1,0,0:0:0:0:
320,192,67284,1,0,0:0:0:0:
64,192,67324,1,0,0:0:0:0:
192,192,67364,1,0,0:0:0:0:
320,192,67404,1,0,0:0:0:0:
64,192,67444,1,0,0:0:0:70:Kick.wav
448,192,67444,1,0,0:0:0:0:
192,192,67483,1,0,0:0:0:0:
320,192,67523,1,0,0:0:0:0:
448,192,67563,1,0,0:0:0:0:
64,192,67603,1,0,0:0:0:0:
192,192,67643,1,0,0:0:0:0:
448,192,67683,1,0,0:0:0:0:
320,192,67723,1,0,0:0:0:0:
64,192,67763,1,0,0:0:0:70:A-Kick.wav
448,192,67763,1,0,0:0:0:70:Long Crash.wav
192,192,67763,1,0,0:0:0:0:
192,192,67922,1,0,0:0:0:0:
448,192,68082,1,0,0:0:0:70:A-Kick.wav
64,192,68082,1,0,0:0:0:70:Clap.wav
320,192,68162,1,0,0:0:0:0:
192,192,68241,1,0,0:0:0:0:
448,192,68321,1,0,0:0:0:0:
320,192,68401,1,0,0:0:0:70:A-Kick.wav
64,192,68401,1,0,0:0:0:0:
192,192,68481,1,0,0:0:0:0:
320,192,68561,1,0,0:0:0:0:
192,192,68640,1,0,0:0:0:0:
448,192,68720,1,0,0:0:0:70:Clap.wav
64,192,68720,1,0,0:0:0:70:A-Kick.wav
320,192,68800,1,0,0:0:0:0:
192,192,68880,1,0,0:0:0:0:
320,192,68960,1,0,0:0:0:0:
64,192,69039,1,0,0:0:0:70:A-Kick.wav
448,192,69039,1,0,0:0:0:0:
192,192,69039,1,0,0:0:0:0:
320,192,69199,1,0,0:0:0:0:
192,192,69358,1,0,0:0:0:70:A-Kick.wav
64,192,69358,1,0,0:0:0:70:Clap.wav
448,192,69438,1,0,0:0:0:0:
320,192,69438,1,0,0:0:0:0:
64,192,69518,128,0,69678:0:0:0:0:
192,192,69518,1,0,0:0:0:0:
448,192,69678,1,0,0:0:0:70:A-Kick.wav
320,192,69678,1,0,0:0:0:0:
64,192,69757,1,0,0:0:0:0:
192,192,69757,1,0,0:0:0:0:
448,192,69837,128,0,69997:0:0:0:0:
320,192,69837,1,0,0:0:0:0:
192,192,69997,1,0,0:0:0:70:A-Kick.wav
64,192,69997,1,0,0:0:0:70:Clap.wav
320,192,70077,1,0,0:0:0:0:
64,192,70156,128,0,70316:0:0:0:70:A-Kick.wav
448,192,70156,1,0,0:0:0:0:
192,192,70156,1,0,0:0:0:0:
448,192,70316,1,0,0:0:0:70:A-Kick.wav
320,192,70316,1,0,0:0:0:0:
192,192,70396,1,0,0:0:0:0:
64,192,70396,1,0,0:0:0:0:
448,192,70475,1,0,0:0:0:0:
320,192,70475,1,0,0:0:0:0:
64,192,70635,1,0,0:0:0:70:Clap.wav
320,192,70635,1,0,0:0:0:70:A-Kick.wav
448,192,70715,1,0,0:0:0:0:
192,192,70715,1,0,0:0:0:0:
64,192,70795,1,0,0:0:0:0:
320,192,70795,1,0,0:0:0:0:
448,192,70954,1,0,0:0:0:70:A-Kick.wav
320,192,70954,1,0,0:0:0:0:
192,192,71034,1,0,0:0:0:0:
448,192,71114,1,0,0:0:0:0:
64,192,71114,1,0,0:0:0:0:
320,192,71194,1,0,0:0:0:0:
64,192,71273,1,0,0:0:0:70:A-Kick.wav
192,192,71273,1,0,0:0:0:70:Clap.wav
320,192,71353,1,0,0:0:0:0:
64,192,71433,1,0,0:0:0:0:
448,192,71433,1,0,0:0:0:0:
320,192,71513,1,0,0:0:0:0:
64,192,71592,1,0,0:0:0:70:A-Kick.wav
448,192,71592,1,0,0:0:0:0:
192,192,71592,1,0,0:0:0:0:
320,192,71752,1,0,0:0:0:0:
448,192,71752,1,0,0:0:0:0:
64,192,71912,1,0,0:0:0:70:A-Kick.wav
192,192,71912,1,0,0:0:0:70:Clap.wav
320,192,71912,1,0,0:0:0:0:
192,192,72071,1,0,0:0:0:0:
448,192,72071,1,0,0:0:0:0:
64,192,72231,1,0,0:0:0:70:A-Kick.wav
320,192,72231,1,0,0:0:0:0:
448,192,72311,1,0,0:0:0:0:
192,192,72390,1,0,0:0:0:0:
320,192,72470,1,0,0:0:0:0:
192,192,72550,1,0,0:0:0:70:A-Kick.wav
64,192,72550,1,0,0:0:0:70:Clap.wav
320,192,72630,1,0,0:0:0:0:
64,192,72710,1,0,0:0:0:0:
448,192,72710,1,0,0:0:0:0:
192,192,72789,1,0,0:0:0:70:A-Kick.wav
320,192,72789,1,0,0:0:0:0:
448,192,72869,1,0,0:0:0:70:A-Kick.wav
64,192,72869,128,0,73348:0:0:0:0:
448,192,73029,128,0,73188:0:0:0:0:
192,192,73188,128,0,73667:0:0:0:70:A-Kick.wav
320,192,73188,1,0,0:0:0:70:Clap.wav
448,192,73348,128,0,73507:0:0:0:0:
64,192,73507,128,0,73986:0:0:0:70:A-Kick.wav
320,192,73507,1,0,0:0:0:0:
320,192,73667,128,0,73827:0:0:0:0:
448,192,73827,128,0,74305:0:0:0:70:A-Kick.wav
192,192,73827,1,0,0:0:0:70:Clap.wav
192,192,73986,128,0,74146:0:0:0:0:
64,192,74146,128,0,74944:0:0:0:70:A-Kick.wav
320,192,74146,1,0,0:0:0:0:
192,192,74305,128,0,74784:0:0:0:0:
320,192,74465,128,0,74624:0:0:0:70:Clap.wav
448,192,74465,1,0,0:0:0:70:A-Kick.wav
448,192,74624,128,0,75422:0:0:0:0:
320,192,74784,128,0,75263:0:0:0:70:A-Kick.wav
192,192,74944,128,0,75103:0:0:0:0:
64,192,75103,128,0,75263:0:0:0:70:Clap.wav
192,192,75263,128,0,75422:0:0:0:70:A-Kick.wav
64,192,75422,1,0,0:0:0:70:A-Kick.wav
320,192,75422,1,0,0:0:0:0:
320,192,75582,1,0,0:0:0:0:
192,192,75582,1,0,0:0:0:0:
64,192,75741,1,0,0:0:0:70:A-Kick.wav
448,192,75741,1,0,0:0:0:70:Clap.wav
192,192,75821,1,0,0:0:0:0:
320,192,75901,1,0,0:0:0:0:
448,192,75901,1,0,0:0:0:0:
64,192,75981,1,0,0:0:0:0:
448,192,76061,1,0,0:0:0:70:A-Kick.wav
192,192,76061,1,0,0:0:0:0:
320,192,76140,1,0,0:0:0:0:
192,192,76220,1,0,0:0:0:0:
64,192,76220,1,0,0:0:0:0:
448,192,76300,1,0,0:0:0:0:
320,192,76380,1,0,0:0:0:70:A-Kick.wav
64,192,76380,1,0,0:0:0:70:Clap.wav
192,192,76460,1,0,0:0:0:0:
448,192,76539,1,0,0:0:0:70:A-Kick.wav
64,192,76539,1,0,0:0:0:0:
320,192,76619,1,0,0:0:0:0:
64,192,76699,1,0,0:0:0:70:Short Crash.wav
192,192,76699,1,0,0:0:0:70:A-Kick.wav
448,192,76779,1,0,0:0:0:70:A-Kick.wav
320,192,76779,1,0,0:0:0:70:Short Crash.wav
192,192,76858,1,0,0:0:0:70:A-Kick.wav
64,192,76858,1,0,0:0:0:70:Short Crash.wav
448,192,76938,1,0,0:0:0:70:Short Crash.wav
320,192,76938,1,0,0:0:0:70:A-Kick.wav
192,192,77018,1,0,0:0:0:70:A-Kick.wav
64,192,77018,1,0,0:0:0:70:Short Crash.wav
448,192,77018,1,0,0:0:0:0:
64,192,77178,1,0,0:0:0:70:A-Kick.wav
448,192,77178,1,0,0:0:0:70:Short Crash.wav
320,192,77178,1,0,0:0:0:0:
320,192,77497,1,0,0:0:0:70:A-Kick.wav
192,192,77497,1,0,0:0:0:70:Short Crash.wav
64,192,77577,1,0,0:0:0:70:A-Kick.wav
448,192,77577,1,0,0:0:0:0:
320,192,77656,1,0,0:0:0:70:A-Kick.wav
192,192,77656,1,0,0:0:0:0:
448,192,77816,1,0,0:0:0:70:A-Kick.wav
320,192,77816,1,0,0:0:0:70:Short Crash.wav
64,192,77896,1,0,0:0:0:70:A-Kick.wav
192,192,77896,1,0,0:0:0:0:
448,192,77975,1,0,0:0:0:70:A-Kick.wav
320,192,77975,1,0,0:0:0:70:Long Crash.wav
64,192,77975,1,0,0:0:0:0:
192,192,77975,1,0,0:0:0:0:
320,192,78135,1,0,0:0:0:0:
192,192,78215,1,0,0:0:0:0:
320,192,78295,128,0,78614:0:0:0:70:A-Kick.wav
64,192,78295,1,0,0:0:0:70:Clap.wav
448,192,78295,1,0,0:0:0:0:
64,192,78614,128,0,78933:0:0:0:70:A-Kick.wav
192,192,78614,1,0,0:0:0:0:
192,192,78773,128,0,78933:0:0:0:0:
448,192,78933,128,0,79252:0:0:0:70:A-Kick.wav
320,192,78933,1,0,0:0:0:70:Clap.wav
320,192,79092,128,0,79252:0:0:0:0:
64,192,79252,128,0,79332:0:0:0:70:A-Kick.wav
192,192,79252,1,0,0:0:0:0:
320,192,79332,128,0,79412:0:0:0:0:
192,192,79412,128,0,79491:0:0:0:0:
448,192,79491,128,0,79571:0:0:0:0:
192,192,79571,128,0,79651:0:0:0:70:A-Kick.wav
64,192,79571,1,0,0:0:0:70:Clap.wav
320,192,79651,128,0,79731:0:0:0:0:
448,192,79731,128,0,79811:0:0:0:0:
320,192,79811,128,0,79890:0:0:0:0:
192,192,79890,128,0,79970:0:0:0:70:A-Kick.wav
448,192,79890,1,0,0:0:0:0:
64,192,79970,128,0,80050:0:0:0:0:
320,192,80050,128,0,80130:0:0:0:0:
192,192,80130,128,0,80210:0:0:0:0:
448,192,80210,128,0,80289:0:0:0:70:A-Kick.wav
64,192,80210,1,0,0:0:0:70:Clap.wav
320,192,80289,128,0,80369:0:0:0:0:
64,192,80369,128,0,80449:0:0:0:70:A-Kick.wav
192,192,80369,1,0,0:0:0:0:
448,192,80449,128,0,80529:0:0:0:0:
320,192,80529,1,0,0:0:0:70:A-Kick.wav
192,192,80529,1,0,0:0:0:0:
64,192,80529,1,0,0:0:0:0:
320,192,80688,1,0,0:0:0:0:
192,192,80688,1,0,0:0:0:0:
448,192,80848,1,0,0:0:0:70:A-Kick.wav
64,192,80848,1,0,0:0:0:70:Clap.wav
192,192,80848,1,0,0:0:0:0:
320,192,81007,1,0,0:0:0:0:
64,192,81007,1,0,0:0:0:0:
320,192,81167,1,0,0:0:0:70:A-Kick.wav
448,192,81167,1,0,0:0:0:0:
64,192,81247,1,0,0:0:0:0:
448,192,81327,1,0,0:0:0:0:
192,192,81327,1,0,0:0:0:0:
320,192,81406,1,0,0:0:0:0:
64,192,81486,1,0,0:0:0:70:A-Kick.wav
192,192,81486,1,0,0:0:0:70:Clap.wav
320,192,81566,1,0,0:0:0:0:
64,192,81646,1,0,0:0:0:0:
448,192,81646,1,0,0:0:0:0:
192,192,81725,1,0,0:0:0:0:
320,192,81805,1,0,0:0:0:70:A-Kick.wav
64,192,81805,1,0,0:0:0:0:
448,192,81805,128,0,82124:0:0:0:0:
320,192,81965,128,0,82124:0:0:0:0:
64,192,82124,128,0,82444:0:0:0:70:A-Kick.wav
192,192,82124,1,0,0:0:0:70:Clap.wav
448,192,82284,128,0,82444:0:0:0:0:
320,192,82444,1,0,0:0:0:70:A-Kick.wav
192,192,82444,1,0,0:0:0:0:
64,192,82523,1,0,0:0:0:0:
192,192,82603,1,0,0:0:0:0:
320,192,82683,1,0,0:0:0:0:
448,192,82763,1,0,0:0:0:70:A-Kick.wav
64,192,82763,1,0,0:0:0:70:Clap.wav
192,192,82842,1,0,0:0:0:0:
320,192,82922,1,0,0:0:0:0:
448,192,83002,1,0,0:0:0:70:A-Kick.wav
64,192,83002,1,0,0:0:0:0:
448,192,83082,1,0,0:0:0:70:A-Kick.wav
192,192,83082,1,0,0:0:0:0:
64,192,83082,1,0,0:0:0:0:
192,192,83241,1,0,0:0:0:0:
320,192,83241,1,0,0:0:0:0:
320,192,83401,1,0,0:0:0:70:A-Kick.wav
64,192,83401,1,0,0:0:0:70:Clap.wav
448,192,83561,1,0,0:0:0:0:
64,192,83561,1,0,0:0:0:0:
192,192,83720,1,0,0:0:0:70:A-Kick.wav
448,192,83720,1,0,0:0:0:0:
320,192,83800,1,0,0:0:0:0:
192,192,83880,1,0,0:0:0:0:
320,192,83960,1,0,0:0:0:0:
448,192,84039,1,0,0:0:0:70:A-Kick.wav
64,192,84039,1,0,0:0:0:70:Clap.wav
320,192,84119,1,0,0:0:0:0:
192,192,84199,1,0,0:0:0:0:
64,192,84279,1,0,0:0:0:0:
320,192,84358,1,0,0:0:0:70:A-Kick.wav
448,192,84358,1,0,0:0:0:0:
192,192,84358,1,0,0:0:0:0:
64,192,84438,1,0,0:0:0:0:
192,192,84518,1,0,0:0:0:0:
320,192,84598,1,0,0:0:0:0:
448,192,84678,1,0,0:0:0:70:A-Kick.wav
64,192,84678,1,0,0:0:0:70:Clap.wav
320,192,84757,1,0,0:0:0:0:
192,192,84837,1,0,0:0:0:0:
320,192,84917,1,0,0:0:0:0:
448,192,84997,1,0,0:0:0:70:A-Kick.wav
64,192,84997,1,0,0:0:0:0:
192,192,85077,1,0,0:0:0:0:
320,192,85156,1,0,0:0:0:0:
192,192,85236,1,0,0:0:0:0:
64,192,85316,1,0,0:0:0:70:A-Kick.wav
448,192,85316,1,0,0:0:0:70:Clap.wav
320,192,85396,1,0,0:0:0:0:
192,192,85475,1,0,0:0:0:70:A-Kick.wav
64,192,85475,1,0,0:0:0:0:
320,192,85555,1,0,0:0:0:0:
64,192,85635,1,0,0:0:0:70:A-Kick.wav
448,192,85635,1,0,0:0:0:70:Long Crash.wav
192,192,85635,1,0,0:0:0:0:
64,192,85795,1,0,0:0:0:70:A-Kick.wav
320,192,85795,1,0,0:0:0:0:
192,192,85874,1,0,0:0:0:0:
320,192,85954,1,0,0:0:0:70:A-Kick.wav
448,192,85954,1,0,0:0:0:0:
64,192,86034,1,0,0:0:0:0:
448,192,86114,1,0,0:0:0:70:A-Kick.wav
192,192,86114,1,0,0:0:0:0:
320,192,86194,1,0,0:0:0:0:
192,192,86273,1,0,0:0:0:70:A-Kick.wav
64,192,86273,1,0,0:0:0:0:
320,192,86353,1,0,0:0:0:70:A-Kick.wav
448,192,86353,1,0,0:0:0:0:
192,192,86433,1,0,0:0:0:70:A-Kick.wav
64,192,86433,1,0,0:0:0:0:
320,192,86513,1,0,0:0:0:70:A-Kick.wav
448,192,86513,1,0,0:0:0:0:
192,192,86592,1,0,0:0:0:70:A-Kick.wav
64,192,86592,1,0,0:0:0:0:
448,192,86752,1,0,0:0:0:70:A-Kick.wav
320,192,86792,1,0,0:0:0:70:A-Kick.wav
192,192,86832,1,0,0:0:0:70:A-Kick.wav
64,192,86872,1,0,0:0:0:70:A-Kick.wav
320,192,86912,1,0,0:0:0:70:A-Kick.wav
448,192,86912,1,0,0:0:0:0:
64,192,87071,1,0,0:0:0:0:
320,192,87151,1,0,0:0:0:70:A-Kick.wav
448,192,87151,1,0,0:0:0:0:
64,192,87231,1,0,0:0:0:70:A-Kick.wav
192,192,87231,1,0,0:0:0:0:
320,192,87311,1,0,0:0:0:0:
448,192,87390,1,0,0:0:0:0:
64,192,87470,1,0,0:0:0:70:A-Kick.wav
192,192,87470,1,0,0:0:0:0:
320,192,87550,1,0,0:0:0:70:A-Kick.wav
448,192,87550,1,0,0:0:0:0:
192,192,87630,1,0,0:0:0:0:
64,192,87710,1,0,0:0:0:70:A-Kick.wav
448,192,87710,1,0,0:0:0:0:
320,192,87789,1,0,0:0:0:0:
64,192,87869,1,0,0:0:0:70:A-Kick.wav
448,192,87869,1,0,0:0:0:0:
192,192,87869,1,0,0:0:0:0:
320,192,87949,1,0,0:0:0:0:
192,192,88029,1,0,0:0:0:70:A-Kick.wav
64,192,88029,1,0,0:0:0:0:
320,192,88108,1,0,0:0:0:70:A-Kick.wav
448,192,88108,1,0,0:0:0:0:
192,192,88188,128,0,88827:0:0:0:70:A-Kick.wav
448,192,88188,1,0,0:0:0:70:Long Crash.wav
64,192,88188,1,0,0:0:0:0:
320,192,88507,1,0,0:0:0:0:
64,192,88667,1,0,0:0:0:0:
320,192,88827,128,0,89465:0:0:0:0:
448,192,88827,1,0,0:0:0:0:
192,192,88986,1,0,0:0:0:0:
64,192,89146,1,0,0:0:0:0:
192,192,89305,1,0,0:0:0:0:
64,192,89465,128,0,90103:0:0:0:0:
448,192,89465,1,0,0:0:0:0:
320,192,89624,1,0,0:0:0:0:
192,192,89784,1,0,0:0:0:0:
320,192,89944,1,0,0:0:0:0:
192,192,90103,128,0,90741:0:0:0:0:
448,192,90103,1,0,0:0:0:0:
320,192,90263,1,0,0:0:0:0:
64,192,90422,1,0,0:0:0:0:
320,192,90582,1,0,0:0:0:0:
448,192,90741,128,0,92018:0:0:0:0:
64,192,90741,1,0,0:0:0:0:
192,192,90901,1,0,0:0:0:0:
320,192,91061,1,0,0:0:0:0:
192,192,91220,1,0,0:0:0:0:
192,192,91539,1,0,0:0:0:0:
320,192,91699,1,0,0:0:0:0:
192,192,91858,1,0,0:0:0:0:
64,192,92018,128,0,92656:0:0:0:0:
320,192,92018,1,0,0:0:0:0:
448,192,92178,1,0,0:0:0:0:
320,192,92337,1,0,0:0:0:0:
192,192,92497,1,0,0:0:0:0:
320,192,92656,128,0,93295:0:0:0:0:
448,192,92656,1,0,0:0:0:0:
192,192,92816,1,0,0:0:0:0:
64,192,92975,1,0,0:0:0:0:
448,192,93135,1,0,0:0:0:0:
192,192,93295,128,0,94571:0:0:0:0:
64,192,93295,1,0,0:0:0:0:
320,192,93454,1,0,0:0:0:0:
448,192,93614,1,0,0:0:0:0:
320,192,93773,1,0,0:0:0:0:
320,192,94092,1,0,0:0:0:0:
448,192,94252,1,0,0:0:0:0:
320,192,94412,1,0,0:0:0:0:
448,192,94571,128,0,95848:0:0:0:0:
64,192,94571,1,0,0:0:0:0:
320,192,94731,1,0,0:0:0:0:
64,192,94890,1,0,0:0:0:0:
192,192,95050,1,0,0:0:0:0:
320,192,95210,1,0,0:0:0:0:
64,192,95369,1,0,0:0:0:0:
192,192,95529,1,0,0:0:0:0:
64,192,95688,1,0,0:0:0:0:
320,192,95848,128,0,96486:0:0:0:0:
192,192,95848,1,0,0:0:0:0:
448,192,96007,1,0,0:0:0:0:
192,192,96167,1,0,0:0:0:0:
64,192,96327,1,0,0:0:0:0:
192,192,96486,128,0,97124:0:0:0:0:
448,192,96486,1,0,0:0:0:0:
320,192,96646,1,0,0:0:0:0:
64,192,96805,1,0,0:0:0:0:
320,192,96965,1,0,0:0:0:0:
64,192,97124,128,0,98401:0:0:0:0:
448,192,97124,1,0,0:0:0:0:
192,192,97284,1,0,0:0:0:0:
320,192,97444,1,0,0:0:0:0:
448,192,97603,1,0,0:0:0:0:
192,192,97763,1,0,0:0:0:0:
448,192,97922,1,0,0:0:0:0:
320,192,98082,1,0,0:0:0:0:
192,192,98241,1,0,0:0:0:0:
320,192,98401,1,0,0:0:0:0:
448,192,98401,1,0,0:0:0:0:
192,192,98561,1,0,0:0:0:0:
320,192,98880,1,0,0:0:0:0:
448,192,99039,1,0,0:0:0:0:
64,192,99039,1,0,0:0:0:0:
448,192,99199,1,0,0:0:0:0:
64,192,99199,1,0,0:0:0:0:
192,192,99518,1,0,0:0:0:0:
64,192,99678,1,0,0:0:0:0:
320,192,99678,1,0,0:0:0:0:
320,192,99837,1,0,0:0:0:0:
64,192,99837,1,0,0:0:0:0:
320,192,100156,1,0,0:0:0:0:
192,192,100316,1,0,0:0:0:0:
448,192,100316,1,0,0:0:0:0:
192,192,100475,1,0,0:0:0:0:
448,192,100475,1,0,0:0:0:0:
192,192,100795,1,0,0:0:0:0:
64,192,100954,1,0,0:0:0:0:
320,192,100954,1,0,0:0:0:0:
320,192,101114,1,0,0:0:0:0:
64,192,101114,1,0,0:0:0:0:
320,192,101433,1,0,0:0:0:0:
448,192,101592,1,0,0:0:0:0:
64,192,101592,1,0,0:0:0:0:
448,192,101752,1,0,0:0:0:0:
64,192,101752,1,0,0:0:0:0:
192,192,102071,1,0,0:0:0:0:
448,192,102231,1,0,0:0:0:0:
64,192,102231,1,0,0:0:0:0:
448,192,102390,1,0,0:0:0:0:
64,192,102390,1,0,0:0:0:0:
192,192,102550,1,0,0:0:0:0:
320,192,102630,1,0,0:0:0:0:
64,192,102710,1,0,0:0:0:0:
192,192,102789,1,0,0:0:0:0:
320,192,102869,1,0,0:0:0:0:
448,192,102869,1,0,0:0:0:0:
64,192,103029,1,0,0:0:0:0:
192,192,103188,1,0,0:0:0:0:
448,192,103188,1,0,0:0:0:0:
320,192,103348,1,0,0:0:0:0:
448,192,103507,1,0,0:0:0:0:
64,192,103507,128,0,104784:0:0:0:0:
320,192,103827,1,0,0:0:0:0:
192,192,104146,1,0,0:0:0:0:
320,192,104465,1,0,0:0:0:0:
192,192,104784,128,0,106061:0:0:0:0:
448,192,104784,1,0,0:0:0:0:
320,192,105103,1,0,0:0:0:0:
64,192,105422,1,0,0:0:0:0:
320,192,105741,1,0,0:0:0:0:
320,192,106061,128,0,107337:0:0:0:0:
448,192,106061,1,0,0:0:0:0:
64,192,106380,1,0,0:0:0:0:
448,192,106699,1,0,0:0:0:0:
192,192,107018,1,0,0:0:0:0:
448,192,107337,128,0,108614:0:0:0:0:
64,192,107337,1,0,0:0:0:0:
320,192,107656,1,0,0:0:0:0:
192,192,107975,1,0,0:0:0:0:
64,192,108295,1,0,0:0:0:0:
192,192,109731,1,0,0:0:0:70:Kick.wav
64,192,109731,1,0,0:0:0:0:
320,192,109811,1,0,0:0:0:70:Kick.wav
448,192,109811,1,0,0:0:0:0:
448,192,109890,1,0,0:0:0:70:A-Kick.wav
320,192,109890,1,0,0:0:0:70:Long Crash.wav
64,192,109890,1,0,0:0:0:0:
192,192,109970,1,0,0:0:0:0:
320,192,110050,1,0,0:0:0:0:
192,192,110130,1,0,0:0:0:0:
64,192,110210,1,0,0:0:0:70:A-Kick.wav
448,192,110210,1,0,0:0:0:70:Clap.wav
192,192,110289,1,0,0:0:0:0:
64,192,110369,1,0,0:0:0:0:
320,192,110369,1,0,0:0:0:0:
448,192,110449,1,0,0:0:0:0:
64,192,110529,1,0,0:0:0:70:A-Kick.wav
192,192,110529,1,0,0:0:0:0:
320,192,110608,1,0,0:0:0:0:
448,192,110688,1,0,0:0:0:0:
192,192,110688,1,0,0:0:0:0:
320,192,110768,1,0,0:0:0:0:
192,192,110848,1,0,0:0:0:70:A-Kick.wav
64,192,110848,1,0,0:0:0:70:Clap.wav
448,192,110928,1,0,0:0:0:0:
320,192,111007,1,0,0:0:0:0:
64,192,111007,1,0,0:0:0:0:
192,192,111087,1,0,0:0:0:0:
448,192,111167,1,0,0:0:0:70:A-Kick.wav
64,192,111167,1,0,0:0:0:0:
320,192,111247,1,0,0:0:0:0:
192,192,111327,1,0,0:0:0:0:
448,192,111327,1,0,0:0:0:0:
320,192,111406,1,0,0:0:0:0:
448,192,111486,1,0,0:0:0:70:Clap.wav
64,192,111486,1,0,0:0:0:70:A-Kick.wav
192,192,111566,1,0,0:0:0:0:
320,192,111646,1,0,0:0:0:0:
64,192,111646,1,0,0:0:0:0:
192,192,111725,1,0,0:0:0:0:
448,192,111805,1,0,0:0:0:70:A-Kick.wav
64,192,111805,1,0,0:0:0:0:
320,192,111885,1,0,0:0:0:0:
192,192,111965,1,0,0:0:0:0:
64,192,111965,1,0,0:0:0:0:
320,192,112045,1,0,0:0:0:0:
448,192,112124,1,0,0:0:0:70:A-Kick.wav
64,192,112124,1,0,0:0:0:70:Clap.wav
192,192,112204,1,0,0:0:0:0:
320,192,112284,1,0,0:0:0:0:
448,192,112284,1,0,0:0:0:0:
192,192,112364,1,0,0:0:0:0:
448,192,112444,1,0,0:0:0:70:A-Kick.wav
64,192,112444,1,0,0:0:0:0:
320,192,112523,1,0,0:0:0:0:
192,192,112603,1,0,0:0:0:0:
64,192,112603,1,0,0:0:0:0:
320,192,112683,1,0,0:0:0:0:
448,192,112763,1,0,0:0:0:70:Clap.wav
64,192,112763,1,0,0:0:0:70:A-Kick.wav
192,192,112842,1,0,0:0:0:0:
448,192,112922,1,0,0:0:0:0:
320,192,112922,1,0,0:0:0:0:
192,192,113002,1,0,0:0:0:0:
448,192,113082,1,0,0:0:0:70:A-Kick.wav
64,192,113082,1,0,0:0:0:0:
320,192,113162,1,0,0:0:0:0:
192,192,113241,1,0,0:0:0:0:
64,192,113241,1,0,0:0:0:0:
320,192,113321,1,0,0:0:0:0:
64,192,113401,1,0,0:0:0:70:A-Kick.wav
448,192,113401,1,0,0:0:0:70:Clap.wav
192,192,113441,1,0,0:0:0:0:
320,192,113481,1,0,0:0:0:0:
448,192,113521,1,0,0:0:0:0:
64,192,113561,1,0,0:0:0:0:
192,192,113600,1,0,0:0:0:0:
320,192,113640,1,0,0:0:0:0:
448,192,113680,1,0,0:0:0:0:
192,192,113720,1,0,0:0:0:70:A-Kick.wav
64,192,113720,1,0,0:0:0:0:
320,192,113800,1,0,0:0:0:0:
448,192,113800,1,0,0:0:0:0:
64,192,113880,1,0,0:0:0:0:
192,192,113880,1,0,0:0:0:0:
320,192,113960,1,0,0:0:0:0:
64,192,114039,1,0,0:0:0:70:Clap.wav
448,192,114039,1,0,0:0:0:70:A-Kick.wav
192,192,114119,1,0,0:0:0:0:
320,192,114119,1,0,0:0:0:0:
64,192,114199,1,0,0:0:0:0:
448,192,114199,1,0,0:0:0:0:
192,192,114279,1,0,0:0:0:0:
320,192,114358,1,0,0:0:0:70:A-Kick.wav
448,192,114358,1,0,0:0:0:0:
192,192,114438,1,0,0:0:0:0:
64,192,114438,1,0,0:0:0:0:
448,192,114518,1,0,0:0:0:0:
320,192,114518,1,0,0:0:0:0:
192,192,114598,1,0,0:0:0:0:
64,192,114678,1,0,0:0:0:70:A-Kick.wav
448,192,114678,1,0,0:0:0:70:Clap.wav
320,192,114757,1,0,0:0:0:0:
192,192,114757,1,0,0:0:0:0:
448,192,114837,1,0,0:0:0:0:
64,192,114837,1,0,0:0:0:0:
192,192,114917,1,0,0:0:0:0:
64,192,114997,1,0,0:0:0:70:A-Kick.wav
448,192,114997,1,0,0:0:0:70:Long Crash.wav
320,192,114997,1,0,0:0:0:0:
192,192,115037,1,0,0:0:0:0:
320,192,115077,1,0,0:0:0:0:
448,192,115116,1,0,0:0:0:0:
64,192,115156,1,0,0:0:0:0:
192,192,115196,1,0,0:0:0:0:
320,192,115236,1,0,0:0:0:0:
448,192,115276,1,0,0:0:0:0:
192,192,115316,1,0,0:0:0:70:Clap.wav
64,192,115316,1,0,0:0:0:70:A-Kick.wav
320,192,115396,1,0,0:0:0:0:
448,192,115475,1,0,0:0:0:0:
64,192,115475,1,0,0:0:0:0:
192,192,115555,1,0,0:0:0:0:
448,192,115635,1,0,0:0:0:70:A-Kick.wav
320,192,115635,1,0,0:0:0:0:
64,192,115715,1,0,0:0:0:0:
192,192,115795,1,0,0:0:0:0:
448,192,115795,1,0,0:0:0:0:
320,192,115874,1,0,0:0:0:0:
64,192,115954,1,0,0:0:0:70:Clap.wav
192,192,115954,1,0,0:0:0:70:A-Kick.wav
320,192,116034,1,0,0:0:0:0:
64,192,116114,1,0,0:0:0:0:
448,192,116114,1,0,0:0:0:0:
320,192,116194,1,0,0:0:0:0:
192,192,116273,1,0,0:0:0:70:A-Kick.wav
448,192,116273,1,0,0:0:0:0:
64,192,116353,1,0,0:0:0:0:
320,192,116433,1,0,0:0:0:0:
192,192,116433,1,0,0:0:0:0:
448,192,116513,1,0,0:0:0:0:
64,192,116592,1,0,0:0:0:70:A-Kick.wav
320,192,116592,1,0,0:0:0:70:Clap.wav
192,192,116672,1,0,0:0:0:0:
448,192,116752,1,0,0:0:0:0:
320,192,116752,1,0,0:0:0:0:
192,192,116832,1,0,0:0:0:0:
64,192,116912,1,0,0:0:0:70:A-Kick.wav
448,192,116912,1,0,0:0:0:0:
320,192,116991,1,0,0:0:0:0:
64,192,117071,1,0,0:0:0:0:
192,192,117071,1,0,0:0:0:0:
320,192,117151,1,0,0:0:0:0:
192,192,117231,1,0,0:0:0:70:Clap.wav
448,192,117231,1,0,0:0:0:70:A-Kick.wav
64,192,117311,1,0,0:0:0:0:
320,192,117390,1,0,0:0:0:0:
192,192,117390,1,0,0:0:0:0:
448,192,117470,1,0,0:0:0:0:
192,192,117550,1,0,0:0:0:70:A-Kick.wav
64,192,117550,1,0,0:0:0:0:
320,192,117550,1,0,0:0:0:0:
192,192,117656,1,0,0:0:0:0:
64,192,117656,1,0,0:0:0:0:
192,192,117763,1,0,0:0:0:0:
64,192,117763,1,0,0:0:0:0:
320,192,117869,1,0,0:0:0:70:A-Kick.wav
64,192,117869,1,0,0:0:0:70:Clap.wav
448,192,117869,1,0,0:0:0:0:
192,192,117975,1,0,0:0:0:0:
320,192,117975,1,0,0:0:0:0:
64,192,118082,1,0,0:0:0:0:
192,192,118082,1,0,0:0:0:0:
448,192,118188,1,0,0:0:0:70:A-Kick.wav
320,192,118188,1,0,0:0:0:0:
448,192,118295,1,0,0:0:0:0:
320,192,118295,1,0,0:0:0:0:
320,192,118401,1,0,0:0:0:0:
448,192,118401,1,0,0:0:0:0:
192,192,118507,1,0,0:0:0:70:Clap.wav
448,192,118507,1,0,0:0:0:70:A-Kick.wav
64,192,118507,1,0,0:0:0:0:
192,192,118614,1,0,0:0:0:0:
320,192,118614,1,0,0:0:0:0:
320,192,118720,1,0,0:0:0:0:
448,192,118720,1,0,0:0:0:0:
64,192,118827,1,0,0:0:0:70:A-Kick.wav
448,192,118827,1,0,0:0:0:0:
320,192,118880,1,0,0:0:0:0:
192,192,118933,1,0,0:0:0:0:
64,192,118986,1,0,0:0:0:0:
448,192,119039,1,0,0:0:0:0:
320,192,119092,1,0,0:0:0:0:
64,192,119146,1,0,0:0:0:70:Clap.wav
192,192,119146,1,0,0:0:0:70:A-Kick.wav
320,192,119199,1,0,0:0:0:0:
448,192,119252,1,0,0:0:0:0:
64,192,119305,1,0,0:0:0:0:
192,192,119358,1,0,0:0:0:0:
320,192,119412,1,0,0:0:0:0:
448,192,119465,1,0,0:0:0:70:A-Kick.wav
64,192,119465,1,0,0:0:0:0:
192,192,119518,1,0,0:0:0:0:
448,192,119571,1,0,0:0:0:0:
320,192,119624,1,0,0:0:0:0:
64,192,119678,1,0,0:0:0:0:
192,192,119731,1,0,0:0:0:0:
448,192,119784,1,0,0:0:0:70:Clap.wav
320,192,119784,1,0,0:0:0:70:A-Kick.wav
64,192,119837,1,0,0:0:0:0:
192,192,119890,1,0,0:0:0:0:
320,192,119944,1,0,0:0:0:0:
448,192,119997,1,0,0:0:0:0:
192,192,120050,1,0,0:0:0:0:
64,192,120103,1,0,0:0:0:70:A-Kick.wav
320,192,120103,1,0,0:0:0:70:Long Crash.wav
448,192,120103,1,0,0:0:0:0:
192,192,120183,1,0,0:0:0:0:
320,192,120263,1,0,0:0:0:0:
64,192,120422,1,0,0:0:0:70:Clap.wav
448,192,120422,1,0,0:0:0:70:A-Kick.wav
320,192,120502,1,0,0:0:0:0:
192,192,120582,1,0,0:0:0:0:
448,192,120741,1,0,0:0:0:70:A-Kick.wav
64,192,120741,1,0,0:0:0:0:
320,192,120821,1,0,0:0:0:0:
192,192,120901,1,0,0:0:0:0:
320,192,120981,1,0,0:0:0:0:
448,192,121061,1,0,0:0:0:70:A-Kick.wav
64,192,121061,1,0,0:0:0:70:Clap.wav
192,192,121140,1,0,0:0:0:0:
320,192,121220,1,0,0:0:0:0:
448,192,121300,1,0,0:0:0:0:
192,192,121380,1,0,0:0:0:70:A-Kick.wav
64,192,121380,1,0,0:0:0:0:
320,192,121539,1,0,0:0:0:0:
64,192,121699,1,0,0:0:0:70:Clap.wav
448,192,121699,1,0,0:0:0:70:A-Kick.wav
320,192,121779,1,0,0:0:0:0:
192,192,121858,128,0,122018:0:0:0:0:
448,192,122018,1,0,0:0:0:70:A-Kick.wav
64,192,122018,1,0,0:0:0:0:
320,192,122098,1,0,0:0:0:0:
192,192,122178,128,0,122337:0:0:0:0:
64,192,122337,1,0,0:0:0:70:A-Kick.wav
448,192,122337,1,0,0:0:0:70:Clap.wav
320,192,122417,1,0,0:0:0:0:
192,192,122497,128,0,122656:0:0:0:0:
448,192,122656,1,0,0:0:0:70:A-Kick.wav
320,192,122656,1,0,0:0:0:0:
192,192,122736,1,0,0:0:0:0:
64,192,122816,1,0,0:0:0:0:
448,192,122896,1,0,0:0:0:0:
192,192,122975,1,0,0:0:0:70:A-Kick.wav
64,192,122975,1,0,0:0:0:70:Clap.wav
320,192,123055,1,0,0:0:0:0:
448,192,123135,1,0,0:0:0:0:
64,192,123215,1,0,0:0:0:0:
448,192,123295,1,0,0:0:0:70:A-Kick.wav
320,192,123295,1,0,0:0:0:0:
192,192,123374,1,0,0:0:0:0:
320,192,123454,1,0,0:0:0:0:
448,192,123534,1,0,0:0:0:0:
64,192,123614,1,0,0:0:0:70:Clap.wav
192,192,123614,1,0,0:0:0:70:A-Kick.wav
448,192,123694,1,0,0:0:0:0:
192,192,123773,1,0,0:0:0:0:
320,192,123853,1,0,0:0:0:0:
64,192,123933,1,0,0:0:0:70:Kick.wav
448,192,123933,128,0,124571:0:0:0:0:
192,192,124013,1,0,0:0:0:70:Kick.wav
64,192,124092,1,0,0:0:0:70:Kick.wav
192,192,124172,1,0,0:0:0:70:Kick.wav
64,192,124252,1,0,0:0:0:70:Kick.wav
192,192,124332,1,0,0:0:0:70:Kick.wav
64,192,124412,1,0,0:0:0:70:Kick.wav
192,192,124491,1,0,0:0:0:70:Kick.wav
64,192,124571,1,0,0:0:0:70:Kick.wav
192,192,124611,1,0,0:0:0:70:Kick.wav
320,192,124651,1,0,0:0:0:70:Kick.wav
448,192,124691,1,0,0:0:0:70:Kick.wav
64,192,124731,1,0,0:0:0:70:Kick.wav
192,192,124771,1,0,0:0:0:70:Kick.wav
320,192,124811,1,0,0:0:0:70:Kick.wav
448,192,124850,1,0,0:0:0:70:Kick.wav
192,192,124890,1,0,0:0:0:70:Kick.wav
64,192,124890,1,0,0:0:0:70:Short Crash.wav
192,192,125050,1,0,0:0:0:0:
320,192,125050,1,0,0:0:0:0:
448,192,125210,1,0,0:0:0:70:A-Kick.wav
64,192,125210,1,0,0:0:0:70:Long Crash.wav
320,192,125210,1,0,0:0:0:0:
192,192,125289,1,0,0:0:0:0:
320,192,125369,1,0,0:0:0:0:
448,192,125369,1,0,0:0:0:0:
192,192,125449,1,0,0:0:0:0:
64,192,125529,1,0,0:0:0:70:Clap.wav
448,192,125529,1,0,0:0:0:70:A-Kick.wav
192,192,125608,1,0,0:0:0:0:
320,192,125688,1,0,0:0:0:0:
64,192,125688,1,0,0:0:0:0:
192,192,125768,1,0,0:0:0:0:
448,192,125848,1,0,0:0:0:70:A-Kick.wav
64,192,125848,1,0,0:0:0:0:
320,192,125928,1,0,0:0:0:0:
192,192,126007,1,0,0:0:0:0:
64,192,126007,1,0,0:0:0:0:
320,192,126087,1,0,0:0:0:0:
448,192,126167,1,0,0:0:0:70:A-Kick.wav
64,192,126167,1,0,0:0:0:70:Clap.wav
192,192,126247,1,0,0:0:0:0:
448,192,126327,1,0,0:0:0:0:
320,192,126327,1,0,0:0:0:0:
192,192,126406,1,0,0:0:0:0:
448,192,126486,1,0,0:0:0:70:A-Kick.wav
320,192,126486,1,0,0:0:0:0:
64,192,126486,1,0,0:0:0:0:
192,192,126566,1,0,0:0:0:0:
448,192,126646,1,0,0:0:0:0:
64,192,126646,1,0,0:0:0:0:
192,192,126725,1,0,0:0:0:0:
64,192,126805,1,0,0:0:0:70:Clap.wav
320,192,126805,1,0,0:0:0:70:A-Kick.wav
448,192,126885,1,0,0:0:0:0:
320,192,126965,1,0,0:0:0:0:
192,192,126965,1,0,0:0:0:0:
64,192,127045,1,0,0:0:0:0:
448,192,127124,1,0,0:0:0:70:A-Kick.wav
320,192,127124,1,0,0:0:0:0:
192,192,127204,1,0,0:0:0:0:
64,192,127284,1,0,0:0:0:0:
320,192,127284,1,0,0:0:0:0:
448,192,127364,1,0,0:0:0:0:
64,192,127444,1,0,0:0:0:70:A-Kick.wav
192,192,127444,1,0,0:0:0:70:Clap.wav
320,192,127523,1,0,0:0:0:0:
448,192,127603,1,0,0:0:0:0:
64,192,127603,1,0,0:0:0:0:
192,192,127683,1,0,0:0:0:0:
320,192,127763,1,0,0:0:0:70:A-Kick.wav
64,192,127763,1,0,0:0:0:0:
448,192,127763,128,0,128241:0:0:0:0:
192,192,127922,1,0,0:0:0:0:
64,192,128082,1,0,0:0:0:70:Clap.wav
320,192,128082,1,0,0:0:0:70:A-Kick.wav
64,192,128241,128,0,128561:0:0:0:0:
192,192,128241,1,0,0:0:0:0:
448,192,128401,1,0,0:0:0:70:A-Kick.wav
320,192,128401,1,0,0:0:0:0:
448,192,128561,128,0,128880:0:0:0:0:
192,192,128561,1,0,0:0:0:0:
64,192,128720,128,0,128880:0:0:0:70:A-Kick.wav
192,192,128720,128,0,128880:0:0:0:70:Clap.wav
320,192,128880,128,0,129039:0:0:0:0:
64,192,129039,1,0,0:0:0:70:A-Kick.wav
448,192,129039,1,0,0:0:0:0:
192,192,129039,1,0,0:0:0:0:
320,192,129119,1,0,0:0:0:0:
448,192,129199,1,0,0:0:0:0:
64,192,129199,1,0,0:0:0:0:
320,192,129279,1,0,0:0:0:0:
192,192,129358,1,0,0:0:0:70:Clap.wav
64,192,129358,1,0,0:0:0:70:A-Kick.wav
320,192,129438,1,0,0:0:0:0:
448,192,129518,1,0,0:0:0:0:
64,192,129518,1,0,0:0:0:0:
192,192,129598,1,0,0:0:0:0:
448,192,129678,1,0,0:0:0:70:A-Kick.wav
320,192,129678,1,0,0:0:0:0:
192,192,129757,1,0,0:0:0:0:
64,192,129837,1,0,0:0:0:0:
448,192,129837,1,0,0:0:0:0:
320,192,129917,1,0,0:0:0:0:
64,192,129997,1,0,0:0:0:70:A-Kick.wav
192,192,129997,1,0,0:0:0:70:Clap.wav
448,192,129997,1,0,0:0:0:0:
192,192,130156,1,0,0:0:0:0:
320,192,130156,1,0,0:0:0:0:
448,192,130316,1,0,0:0:0:70:A-Kick.wav
320,192,130316,1,0,0:0:0:70:Long Crash.wav
64,192,130316,1,0,0:0:0:0:
192,192,130396,1,0,0:0:0:0:
320,192,130475,1,0,0:0:0:0:
192,192,130555,1,0,0:0:0:0:
64,192,130635,1,0,0:0:0:70:Clap.wav
448,192,130635,128,0,130954:0:0:0:70:A-Kick.wav
320,192,130715,1,0,0:0:0:0:
192,192,130795,1,0,0:0:0:0:
64,192,130874,1,0,0:0:0:0:
320,192,130954,1,0,0:0:0:70:A-Kick.wav
192,192,130954,1,0,0:0:0:0:
448,192,131034,1,0,0:0:0:0:
64,192,131114,1,0,0:0:0:0:
320,192,131114,1,0,0:0:0:0:
192,192,131194,1,0,0:0:0:0:
448,192,131273,1,0,0:0:0:70:A-Kick.wav
320,192,131273,1,0,0:0:0:70:Clap.wav
192,192,131353,1,0,0:0:0:0:
64,192,131433,1,0,0:0:0:0:
448,192,131433,1,0,0:0:0:0:
320,192,131513,1,0,0:0:0:0:
192,192,131592,1,0,0:0:0:70:A-Kick.wav
448,192,131592,128,0,131672:0:0:0:0:
64,192,131592,128,0,131672:0:0:0:0:
320,192,131672,128,0,131752:0:0:0:0:
192,192,131752,128,0,131832:0:0:0:0:
448,192,131832,128,0,131912:0:0:0:0:
64,192,131912,128,0,131991:0:0:0:70:Clap.wav
320,192,131912,1,0,0:0:0:70:A-Kick.wav
192,192,131991,128,0,132071:0:0:0:0:
320,192,132071,128,0,132151:0:0:0:0:
448,192,132071,128,0,132151:0:0:0:0:
64,192,132151,128,0,132231:0:0:0:0:
448,192,132231,128,0,132311:0:0:0:70:A-Kick.wav
192,192,132231,1,0,0:0:0:0:
320,192,132311,128,0,132390:0:0:0:0:
192,192,132390,128,0,132470:0:0:0:0:
64,192,132390,128,0,132470:0:0:0:0:
448,192,132470,128,0,132550:0:0:0:0:
64,192,132550,128,0,132630:0:0:0:70:A-Kick.wav
320,192,132550,1,0,0:0:0:70:Clap.wav
192,192,132630,128,0,132710:0:0:0:0:
64,192,132710,128,0,132789:0:0:0:0:
320,192,132710,128,0,132789:0:0:0:0:
448,192,132789,128,0,132869:0:0:0:0:
192,192,132869,5,0,0:0:0:70:A-Kick.wav
64,192,132869,1,0,0:0:0:0:
320,192,132949,1,0,0:0:0:0:
448,192,132949,1,0,0:0:0:0:
64,192,133029,1,0,0:0:0:0:
192,192,133029,1,0,0:0:0:0:
64,192,133188,1,0,0:0:0:70:Clap.wav
448,192,133188,1,0,0:0:0:70:A-Kick.wav
320,192,133188,1,0,0:0:0:0:
192,192,133348,1,0,0:0:0:0:
320,192,133348,1,0,0:0:0:0:
448,192,133507,1,0,0:0:0:70:A-Kick.wav
320,192,133507,1,0,0:0:0:0:
192,192,133587,1,0,0:0:0:0:
64,192,133587,1,0,0:0:0:0:
320,192,133667,1,0,0:0:0:0:
448,192,133667,1,0,0:0:0:0:
64,192,133827,1,0,0:0:0:70:A-Kick.wav
448,192,133827,1,0,0:0:0:70:Clap.wav
192,192,133906,1,0,0:0:0:0:
320,192,133906,1,0,0:0:0:0:
64,192,133986,1,0,0:0:0:0:
448,192,133986,1,0,0:0:0:0:
64,192,134146,5,0,0:0:0:70:A-Kick.wav
320,192,134146,1,0,0:0:0:0:
448,192,134146,1,0,0:0:0:0:
192,192,134305,1,0,0:0:0:0:
448,192,134305,1,0,0:0:0:0:
64,192,134465,1,0,0:0:0:70:Clap.wav
448,192,134465,1,0,0:0:0:70:A-Kick.wav
320,192,134465,1,0,0:0:0:0:
64,192,134624,1,0,0:0:0:0:
320,192,134624,1,0,0:0:0:0:
64,192,134784,1,0,0:0:0:70:A-Kick.wav
448,192,134784,1,0,0:0:0:0:
320,192,134864,1,0,0:0:0:0:
64,192,134944,1,0,0:0:0:0:
192,192,134944,1,0,0:0:0:0:
320,192,135023,1,0,0:0:0:0:
448,192,135103,1,0,0:0:0:70:A-Kick.wav
64,192,135103,1,0,0:0:0:70:Clap.wav
192,192,135183,1,0,0:0:0:0:
320,192,135263,1,0,0:0:0:0:
448,192,135263,1,0,0:0:0:0:
192,192,135342,1,0,0:0:0:0:
64,192,135422,1,0,0:0:0:70:A-Kick.wav
448,192,135422,1,0,0:0:0:70:Long Crash.wav
320,192,135422,1,0,0:0:0:0:
192,192,135582,1,0,0:0:0:0:
320,192,135582,1,0,0:0:0:0:
320,192,135741,1,0,0:0:0:70:A-Kick.wav
448,192,135741,1,0,0:0:0:70:Clap.wav
192,192,135901,1,0,0:0:0:0:
64,192,135901,1,0,0:0:0:0:
448,192,136061,1,0,0:0:0:70:A-Kick.wav
320,192,136061,128,0,136140:0:0:0:0:
192,192,136140,128,0,136220:0:0:0:0:
320,192,136220,128,0,136300:0:0:0:0:
64,192,136220,128,0,136300:0:0:0:0:
192,192,136300,128,0,136380:0:0:0:0:
448,192,136380,128,0,136460:0:0:0:70:A-Kick.wav
64,192,136380,1,0,0:0:0:70:Clap.wav
320,192,136460,128,0,136539:0:0:0:0:
64,192,136539,128,0,136619:0:0:0:0:
448,192,136539,128,0,136619:0:0:0:0:
192,192,136619,128,0,136699:0:0:0:0:
320,192,136699,1,0,0:0:0:70:A-Kick.wav
448,192,136699,128,0,136779:0:0:0:0:
192,192,136779,128,0,136858:0:0:0:0:
64,192,136858,128,0,136938:0:0:0:0:
320,192,136858,128,0,136938:0:0:0:0:
448,192,136938,128,0,137018:0:0:0:0:
192,192,137018,128,0,137098:0:0:0:70:Clap.wav
320,192,137018,1,0,0:0:0:70:A-Kick.wav
64,192,137098,128,0,137178:0:0:0:0:
320,192,137178,128,0,137257:0:0:0:0:
448,192,137178,128,0,137257:0:0:0:0:
192,192,137257,128,0,137337:0:0:0:0:
448,192,137337,128,0,137417:0:0:0:70:A-Kick.wav
64,192,137337,1,0,0:0:0:0:
320,192,137417,128,0,137497:0:0:0:0:
64,192,137497,128,0,137577:0:0:0:0:
192,192,137497,128,0,137577:0:0:0:0:
320,192,137577,128,0,137656:0:0:0:0:
448,192,137656,128,0,137736:0:0:0:70:Clap.wav
64,192,137656,1,0,0:0:0:70:A-Kick.wav
192,192,137736,128,0,137816:0:0:0:0:
448,192,137816,1,0,0:0:0:70:A-Kick.wav
320,192,137816,128,0,137896:0:0:0:0:
64,192,137816,128,0,137896:0:0:0:0:
192,192,137896,128,0,137975:0:0:0:0:
448,192,137975,5,0,0:0:0:70:A-Kick.wav
64,192,137975,1,0,0:0:0:70:Long Crash.wav
320,192,137975,1,0,0:0:0:0:
192,192,138055,1,0,0:0:0:0:
448,192,138135,1,0,0:0:0:70:A-Kick.wav
320,192,138135,1,0,0:0:0:0:
64,192,138215,1,0,0:0:0:0:
448,192,138295,1,0,0:0:0:70:A-Kick.wav
192,192,138295,1,0,0:0:0:0:
320,192,138374,1,0,0:0:0:0:
192,192,138454,1,0,0:0:0:70:A-Kick.wav
64,192,138454,1,0,0:0:0:70:Short Crash.wav
448,192,138454,1,0,0:0:0:0:
320,192,138534,1,0,0:0:0:0:
64,192,138614,1,0,0:0:0:70:A-Kick.wav
448,192,138614,1,0,0:0:0:0:
192,192,138694,1,0,0:0:0:0:
320,192,138773,1,0,0:0:0:70:A-Kick.wav
448,192,138773,1,0,0:0:0:0:
192,192,138853,1,0,0:0:0:0:
448,192,138933,1,0,0:0:0:70:A-Kick.wav
64,192,138933,1,0,0:0:0:70:Short Crash.wav
320,192,138933,1,0,0:0:0:0:
192,192,139013,1,0,0:0:0:0:
320,192,139092,1,0,0:0:0:70:A-Kick.wav
64,192,139092,1,0,0:0:0:0:
448,192,139172,1,0,0:0:0:0:
192,192,139252,1,0,0:0:0:70:A-Kick.wav
64,192,139252,1,0,0:0:0:70:Long Crash.wav
448,192,139332,1,0,0:0:0:70:A-Kick.wav
320,192,139332,1,0,0:0:0:0:
64,192,139412,1,0,0:0:0:70:A-Kick.wav
192,192,139412,1,0,0:0:0:0:
320,192,139491,1,0,0:0:0:70:A-Kick.wav
448,192,139491,1,0,0:0:0:0:
64,192,139571,1,0,0:0:0:70:A-Kick.wav
192,192,139571,1,0,0:0:0:70:Short Crash.wav
320,192,139651,1,0,0:0:0:70:A-Kick.wav
448,192,139651,1,0,0:0:0:0:
64,192,139731,1,0,0:0:0:70:A-Kick.wav
192,192,139771,1,0,0:0:0:70:A-Kick.wav
320,192,139811,1,0,0:0:0:70:A-Kick.wav
448,192,139850,1,0,0:0:0:70:A-Kick.wav
64,192,139890,1,0,0:0:0:70:Short Crash.wav
192,192,139890,1,0,0:0:0:70:A-Kick.wav
192,192,139997,1,0,0:0:0:70:A-Kick.wav
320,192,139997,1,0,0:0:0:70:Short Crash.wav
448,192,140103,1,0,0:0:0:70:A-Kick.wav
320,192,140103,1,0,0:0:0:70:Short Crash.wav
64,192,140210,1,0,0:0:0:70:A-Kick.wav
192,192,140210,1,0,0:0:0:70:Short Crash.wav
192,192,140316,1,0,0:0:0:70:A-Kick.wav
320,192,140316,1,0,0:0:0:70:Short Crash.wav
448,192,140422,1,0,0:0:0:70:A-Kick.wav
320,192,140422,1,0,0:0:0:70:Short Crash.wav
64,192,140529,1,0,0:0:0:70:A-Kick.wav
192,192,140529,1,0,0:0:0:70:Long Crash.wav
448,192,140529,1,0,0:0:0:0:
320,192,140529,1,0,0:0:0:0:
