osu file format v14

[General]
AudioFilename: audio.mp3
AudioLeadIn: 0
PreviewTime: 218495
Countdown: 0
SampleSet: Soft
StackLeniency: 0.7
Mode: 0
LetterboxInBreaks: 0
WidescreenStoryboard: 0

[Editor]
Bookmarks: 53600,65838,76809,109724,168867,192009,197495,208467,263324,285267,351095
DistanceSpacing: 1.8
BeatDivisor: 4
GridSize: 4
TimelineZoom: 3.299999

[Metadata]
Title:miss you (DJ SEVEN PnB Refix)
TitleUnicode:miss you (DJ SEVEN PnB Refix)
Artist:m-flo loves melody. & yamamoto ryohei
ArtistUnicode:m-flo loves melody. & 山本領平
Creator:Seto Kousuke
Version:Koishii
Source:
Tags:DnB drum and bass W87ES Astromantic rhythm zone
BeatmapID:1255987
BeatmapSetID:593690

[Difficulty]
HPDrainRate:6
CircleSize:4
OverallDifficulty:8
ApproachRate:9.2
SliderMultiplier:1.6
SliderTickRate:1

[Events]
//Background and Video events
0,0,"yumiss.jpg",0,0
//Break Periods
2,164781,168811
//Storyboard Layer 0 (Background)
//Storyboard Layer 1 (Fail)
//Storyboard Layer 2 (Pass)
//Storyboard Layer 3 (Foreground)
//Storyboard Sound Samples

[TimingPoints]
43884,342.857142857143,4,2,0,30,1,0
43884,-100,4,2,0,30,0,0
49026,400,4,2,0,30,1,0
49426,320.855614973262,4,2,0,30,1,0
50610,333.333333333333,4,2,0,30,1,0
50610,-133.333333333333,4,2,0,30,0,0
50935,342.857142857143,4,2,0,30,1,0
50935,-133.333333333333,4,2,0,30,0,0
52160,338.983050847458,4,2,0,30,1,0
53143,338.983050847458,4,2,0,30,1,0
53344,338.983050847458,4,2,0,30,1,0
53673,342.857142857143,4,2,0,30,1,0
54867,342.857142857143,4,2,0,30,1,0
65838,-100,4,2,1,30,0,0
69952,-100,4,2,1,40,0,0
71324,-83.3333333333333,4,2,1,50,0,0
72009,-100,4,2,1,50,0,0
72695,-83.3333333333333,4,2,1,50,0,0
73381,-100,4,2,1,50,0,0
76809,-100,4,2,1,50,0,0
98409,-133.333333333333,4,2,1,40,0,0
98752,-100,4,2,1,40,0,0
142295,-117.647058823529,4,2,1,40,0,0
142638,-86.9565217391304,4,2,1,60,0,1
164581,-100,4,2,1,50,0,0
170067,-181.818181818181,4,2,1,60,0,0
171267,-100,4,2,1,60,0,0
171438,-66.6666666666667,4,2,1,60,0,0
175552,-83.3333333333333,4,2,1,60,0,0
179495,-100,4,2,1,60,0,0
179667,-83.3333333333333,4,2,1,60,0,0
182238,-100,4,2,1,60,0,0
182409,-83.3333333333333,4,2,1,60,0,0
190467,-100,4,2,1,60,0,0
190638,-83.3333333333333,4,2,1,60,0,0
192009,-133.333333333333,4,2,1,30,0,0
197152,-133.333333333333,4,2,1,50,0,0
197495,-100,4,2,1,50,0,0
219438,-86.9565217391304,4,2,1,60,0,1
241381,-117.647058823529,4,2,1,40,0,0
263324,-117.647058823529,4,2,1,50,0,0
264524,-100,4,2,1,50,0,0
264695,-66.6666666666667,4,2,1,50,0,0
268809,-117.647058823529,4,2,1,50,0,0
270009,-100,4,2,1,50,0,0
270181,-66.6666666666667,4,2,1,50,0,0
272067,-100,4,2,1,50,0,0
272238,-66.6666666666667,4,2,1,50,0,0
272752,-100,4,2,1,50,0,0
272924,-66.6666666666667,4,2,1,50,0,0
274295,-117.647058823529,4,2,1,50,0,0
275495,-100,4,2,1,50,0,0
275667,-66.6666666666667,4,2,1,50,0,0
277724,-76.9230769230769,4,2,1,50,0,0
277981,-55.5555555555556,4,2,1,50,0,0
279781,-117.647058823529,4,2,1,50,0,0
280981,-100,4,2,1,50,0,0
281152,-66.6666666666667,4,2,1,50,0,0
282181,-100,4,2,1,50,0,0
282524,-66.6666666666667,4,2,1,50,0,0
283038,-100,4,2,1,50,0,0
283209,-66.6666666666667,4,2,1,50,0,0
283724,-100,4,2,1,50,0,0
283895,-66.6666666666667,4,2,1,50,0,0
284924,-100,4,2,1,50,0,0
285267,-133.333333333333,4,2,0,35,0,0
305838,-100,4,2,1,45,0,0
307209,-83.3333333333333,4,2,1,60,0,1
328809,-105.263157894737,4,2,1,50,0,0
329152,-83.3333333333333,4,2,1,60,0,1
350752,-133.333333333333,4,2,1,50,0,0
351095,-83.3333333333333,4,2,1,60,0,1
373038,-100,4,2,1,40,0,0
389495,-100,4,2,1,30,0,0
393609,-100,4,2,1,35,0,0
395152,-100,4,2,1,15,0,0

[Colours]
Combo1 : 0,98,98
Combo2 : 21,181,89
Combo3 : 44,85,228
Combo4 : 128,128,192

[HitObjects]
392,96,43884,5,4,0:0:0:0:
256,192,43969,12,0,49026,0:0:0:0:
120,156,49426,5,0,0:0:0:0:
276,276,50067,1,0,0:0:0:0:
120,156,50610,5,0,0:0:0:0:
360,60,50935,1,0,0:0:0:0:
360,60,51106,1,0,0:0:0:0:
276,276,51449,1,0,0:0:0:0:
484,112,52160,5,0,0:0:0:0:
276,320,52837,1,0,0:0:0:0:
392,156,53344,5,0,0:0:0:0:
212,160,53673,5,0,0:0:0:0:
212,160,53844,1,2,0:0:0:0:
252,80,54015,5,0,0:0:0:0:
288,236,54187,1,2,0:0:0:0:
324,144,54358,1,0,0:0:0:0:
184,248,54530,1,2,0:0:0:0:
384,208,54701,1,0,0:0:0:0:
332,348,54867,6,0,L|236:348,1,80,6|0,0:0|0:0,0:0:0:0:
184,248,55209,1,0,0:0:0:0:
280,256,55381,1,0,0:0:0:0:
120,304,55552,2,0,P|103:267|99:227,1,80,2|0,0:0|0:0,0:0:0:0:
257,180,55895,2,0,P|275:215|279:255,1,80
99,227,56238,6,0,P|81:150|115:79,1,160,2|0,0:0|0:0,0:0:0:0:
216,48,56752,1,0,0:0:0:0:
180,164,56924,1,2,0:0:0:0:
144,4,57095,1,0,0:0:0:0:
276,140,57267,2,0,P|316:142|356:137,1,80,2|0,0:0|0:0,0:0:0:0:
476,24,57609,6,0,P|436:19|396:21,1,80,2|0,0:0|0:0,0:0:0:0:
308,56,57952,1,0,0:0:0:0:
436,108,58124,1,0,0:0:0:0:
288,48,58295,2,0,P|236:44|204:48,1,80,2|0,0:0|0:0,0:0:0:0:
252,220,58638,2,0,P|255:180|251:140,1,80
36,160,58981,6,0,P|99:203|177:187,1,160,2|0,0:0|0:0,0:0:0:0:
288,48,59495,1,0,0:0:0:0:
372,100,59667,2,0,P|413:107|460:96,2,80,2|0|2,0:0|0:0|0:0,0:0:0:0:
184,24,60181,1,0,0:0:0:0:
100,148,60352,6,0,L|119:195,1,40,2|0,0:0|0:0,0:0:0:0:
218,195,60524,2,0,L|204:158,1,40,2|0,0:0|0:0,0:0:0:0:
88,56,60695,5,2,0:0:0:0:
280,36,60867,1,0,0:0:0:0:
297,192,61038,2,0,P|260:198|193:188,1,80,2|0,0:0|0:0,0:0:0:0:
103,226,61381,2,0,P|96:186|100:146,1,80,2|0,0:0|0:0,0:0:0:0:
201,42,61724,6,0,P|240:34|280:36,1,80,2|0,0:0|0:0,0:0:0:0:
376,196,62066,1,0,0:0:0:0:
412,116,62238,1,0,0:0:0:0:
412,116,62409,2,0,P|377:113|327:121,1,80,2|0,0:0|0:0,0:0:0:0:
224,188,62752,2,0,P|189:191|139:183,1,80
56,31,63095,6,0,P|71:95|64:136,1,80,2|0,0:0|0:0,0:0:0:0:
20,268,63438,1,0,0:0:0:0:
4,172,63609,1,0,0:0:0:0:
112,288,63781,2,0,L|192:284,1,80,2|0,0:0|0:0,0:0:0:0:
224,140,64124,2,0,L|144:136,1,80,2|0,0:0|0:0,0:0:0:0:
288,228,64467,5,2,0:0:0:0:
200,64,64638,1,0,0:0:0:0:
75,204,64809,1,2,0:0:0:0:
116,32,64981,1,0,0:0:0:0:
240,156,65152,5,2,0:0:0:0:
70,108,65324,1,0,0:0:0:0:
284,88,65495,1,2,0:0:0:0:
116,32,65667,1,0,0:0:0:0:
312,168,65838,6,0,P|395:180|475:165,1,160,4|8,0:0|0:0,0:0:0:0:
504,280,66352,1,0,0:0:0:0:
504,280,66524,2,0,P|460:278|400:291,1,80,2|0,0:0|0:0,0:0:0:0:
314,340,66867,2,0,P|270:341|210:329,1,80,8|0,0:0|0:0,0:0:0:0:
168,160,67209,6,0,P|223:176|278:276,1,160,2|8,0:0|0:0,0:0:0:0:
76,200,67724,1,0,0:0:0:0:
107,75,67895,1,2,0:0:0:0:
17,118,68067,1,0,0:0:0:0:
168,160,68238,1,8,0:0:0:0:
28,32,68409,1,0,0:0:0:0:
196,40,68581,6,0,P|236:44|291:68,1,80,2|0,0:0|0:0,0:0:0:0:
408,172,68924,1,8,0:0:0:0:
368,76,69095,1,0,0:0:0:0:
416,192,69267,1,2,0:0:0:0:
352,56,69438,1,0,0:0:0:0:
512,152,69609,1,8,0:0:0:0:
484,48,69781,1,0,0:0:0:0:
496,272,69952,6,0,P|428:296|344:272,1,160,2|8,0:0|0:0,0:0:0:0:
184,220,70467,1,0,0:0:0:0:
189,312,70638,2,0,P|226:299|271:259,1,80,2|0,0:0|0:0,0:0:0:0:
244,52,70981,1,8,0:0:0:0:
312,156,71152,1,0,0:0:0:0:
184,220,71324,6,0,P|132:223|68:207,1,95.9999970703126,4|0,0:0|0:0,0:0:0:0:
28,28,71667,1,8,0:0:0:0:
216,88,71838,1,0,0:0:0:0:
139,151,72009,2,0,P|122:115|118:55,1,80,2|0,0:0|0:0,0:0:0:0:
264,24,72352,1,8,0:0:0:0:
220,176,72523,1,0,0:0:0:0:
380,152,72695,6,0,P|381:104|374:56,1,95.9999970703126,4|0,0:0|0:0,0:0:0:0:
184,12,73038,1,8,0:0:0:0:
139,151,73209,1,0,0:0:0:0:
264,24,73381,1,0,0:0:0:0:
84,92,73552,1,0,0:0:0:0:
176,260,73724,2,0,P|215:265|255:263,1,80,10|0,0:0|0:0,0:0:0:0:
380,136,74067,5,4,0:0:0:0:
380,136,74238,1,0,0:0:0:0:
384,312,74409,5,2,0:0:0:0:
384,312,74580,1,0,0:0:0:0:
232,156,74752,5,4,0:0:0:0:
232,156,74923,1,0,0:0:0:0:
412,56,75095,5,4,0:0:0:0:
382,53,75180,1,0,0:0:0:0:
353,59,75266,1,2,0:0:0:0:
324,61,75352,1,0,0:0:0:0:
294,55,75437,5,6,0:0:0:0:
256,192,75524,12,0,76295,0:0:0:0:
168,168,76467,5,8,0:0:0:0:
168,168,76809,5,4,0:0:0:0:
152,268,76981,1,0,0:0:0:0:
276,140,77152,1,8,0:0:0:0:
248,240,77324,1,0,0:0:0:0:
204,92,77495,1,2,0:0:0:0:
340,200,77667,1,0,0:0:0:0:
116,100,77838,2,0,P|76:95|37:103,1,80,8|0,0:0|0:0,0:0:0:0:
276,44,78181,5,2,0:0:0:0:
176,24,78352,1,0,0:0:0:0:
268,196,78524,1,8,0:0:0:0:
119,192,78695,2,0,P|182:169|274:201,1,160,2|2,0:0|0:0,0:0:0:0:
80,272,79209,2,0,P|52:241|29:191,1,80,8|0,0:0|0:0,0:0:0:0:
76,44,79552,5,2,0:0:0:0:
119,192,79724,1,0,0:0:0:0:
170,33,79895,1,8,0:0:0:0:
226,125,80067,1,0,0:0:0:0:
76,44,80238,5,2,0:0:0:0:
24,188,80409,1,0,0:0:0:0:
97,32,80581,1,8,0:0:0:0:
24,212,80752,1,0,0:0:0:0:
120,28,80924,6,0,P|158:28|221:52,1,80,2|0,0:0|0:0,0:0:0:0:
336,188,81267,1,8,0:0:0:0:
340,20,81438,1,0,0:0:0:0:
216,120,81609,6,0,P|212:144|216:164,1,40,2|0,0:0|0:0,0:0:0:0:
244,240,81781,1,0,0:0:0:0:
468,135,81952,2,0,P|410:127|356:151,1,120,8|0,0:0|0:0,0:0:0:0:
336,188,82295,6,0,P|339:137|314:82,1,80,2|0,0:0|0:0,0:0:0:0:
128,144,82638,1,8,0:0:0:0:
184,60,82809,1,0,0:0:0:0:
260,212,82981,2,0,P|264:251|254:290,1,80,2|0,0:0|0:0,0:0:0:0:
52,180,83324,2,0,P|48:140|58:102,1,80,8|0,0:0|0:0,0:0:0:0:
192,47,83667,5,2,0:0:0:0:
208,144,83838,1,0,0:0:0:0:
352,26,84009,1,8,0:0:0:0:
334,218,84181,2,0,P|259:206|203:124,1,160,2|2,0:0|0:0,0:0:0:0:
279,344,84695,1,8,0:0:0:0:
116,280,84867,1,0,0:0:0:0:
296,352,85038,6,0,P|339:355|395:347,1,80,2|0,0:0|0:0,0:0:0:0:
180,224,85381,1,8,0:0:0:0:
181,345,85552,1,0,0:0:0:0:
340,276,85724,2,0,P|344:231|340:171,1,80,2|0,0:0|0:0,0:0:0:0:
200,64,86067,2,0,P|152:64|108:88,1,80,8|0,0:0|0:0,0:0:0:0:
344,112,86409,6,0,P|352:75|344:31,1,80,2|0,0:0|0:0,0:0:0:0:
172,156,86752,2,0,L|160:248,1,80,8|0,0:0|0:0,0:0:0:0:
161,235,87009,2,0,P|219:231|251:239,1,80,8|0,0:0|0:0,0:0:0:0:
304,272,87267,1,2,0:0:0:0:
420,352,87438,1,8,0:0:0:0:
464,196,87609,1,0,0:0:0:0:
328,356,87781,6,0,P|287:353|235:331,1,80,4|0,0:0|0:0,0:0:0:0:
64,360,88124,1,8,0:0:0:0:
140,292,88295,1,0,0:0:0:0:
44,372,88467,2,0,L|-4:368,3,40,2|2|2|2,0:0|0:0|0:0|0:0,0:0:0:0:
143,371,88809,2,0,P|144:331|140:292,1,80,8|0,0:0|0:0,0:0:0:0:
124,112,89152,5,2,0:0:0:0:
216,248,89324,1,0,0:0:0:0:
260,160,89495,1,8,0:0:0:0:
250,340,89667,1,0,0:0:0:0:
376,241,89838,2,0,P|327:239|287:247,1,80,2|0,0:0|0:0,0:0:0:0:
459,328,90181,1,8,0:0:0:0:
450,144,90352,1,0,0:0:0:0:
296,244,90524,6,0,P|298:283|308:322,1,80,2|0,0:0|0:0,0:0:0:0:
284,124,90867,1,8,0:0:0:0:
212,200,91038,1,0,0:0:0:0:
296,112,91209,2,0,L|300:48,3,40,2|2|2|2,0:0|0:0|0:0|0:0,0:0:0:0:
384,124,91552,2,0,P|382:164|376:204,1,80,8|0,0:0|0:0,0:0:0:0:
272,312,91895,5,2,0:0:0:0:
129,199,92067,1,0,0:0:0:0:
176,300,92238,1,8,0:0:0:0:
168,104,92409,1,0,0:0:0:0:
336,120,92581,2,0,P|387:127|455:126,1,120,2|0,0:0|0:0,0:0:0:0:
455,126,92924,2,0,P|460:168|456:208,1,80,8|0,0:0|0:0,0:0:0:0:
356,364,93267,6,0,P|284:376|191:361,1,160,2|8,0:0|0:0,0:0:0:0:
80,212,93781,1,0,0:0:0:0:
32,300,93952,2,0,P|71:306|111:303,1,80,2|0,0:0|0:0,0:0:0:0:
120,124,94295,2,0,B|84:112|41:125,1,80,8|0,0:0|0:0,0:0:0:0:
228,292,94638,6,0,P|233:212|208:152,1,120,2|0,0:0|0:0,0:0:0:0:
212,135,94981,2,0,P|252:136|304:136,1,80,8|0,0:0|0:0,0:0:0:0:
408,244,95324,2,0,P|368:240|329:240,1,80,2|0,0:0|0:0,0:0:0:0:
336,44,95667,2,0,P|376:48|415:50,1,80,8|0,0:0|0:0,0:0:0:0:
212,135,96009,6,0,P|197:209|235:296,1,160,2|8,0:0|0:0,0:0:0:0:
381,287,96524,1,2,0:0:0:0:
393,282,96609,1,0,0:0:0:0:
404,276,96695,2,0,P|384:237|350:207,1,80,2|0,0:0|0:0,0:0:0:0:
224,371,97038,2,0,P|267:360|301:332,1,80,8|0,0:0|0:0,0:0:0:0:
372,132,97381,6,0,P|316:140|288:160,1,80,8|0,0:0|0:0,0:0:0:0:
296,152,97638,2,0,L|251:67,1,80,8|0,0:0|0:0,0:0:0:0:
192,48,97895,2,0,L|132:40,2,40,2|0|8,0:0|0:0|0:0,0:0:0:0:
448,72,98238,1,2,0:0:0:0:
352,208,98409,6,0,P|348:260|374:308,1,90.0000034332277,8|0,0:0|0:0,0:0:0:0:
392,332,98752,6,0,P|352:332|292:344,1,80,4|0,0:0|0:0,0:0:0:0:
96,300,99095,1,8,0:0:0:0:
184,356,99267,1,0,0:0:0:0:
184,356,99438,2,0,P|184:312|176:260,1,80,2|0,0:0|0:0,0:0:0:0:
60,128,99781,2,0,P|100:136|144:128,1,80,8|0,0:0|0:0,0:0:0:0:
264,12,100124,5,2,0:0:0:0:
291,181,100295,1,0,0:0:0:0:
384,84,100467,1,8,0:0:0:0:
228,108,100638,1,0,0:0:0:0:
396,83,100809,2,0,P|435:87|473:100,1,80,2|0,0:0|0:0,0:0:0:0:
472,308,101152,2,0,P|434:320|394:324,1,80,8|0,0:0|0:0,0:0:0:0:
248,176,101495,6,0,P|272:208|256:332,1,160,2|8,0:0|0:0,0:0:0:0:
112,284,102009,1,2,0:0:0:0:
117,296,102094,1,0,0:0:0:0:
123,307,102180,2,0,P|162:287|192:253,1,80,2|0,0:0|0:0,0:0:0:0:
156,28,102524,2,0,P|156:72|176:120,1,80,8|0,0:0|0:0,0:0:0:0:
402,174,102867,6,0,P|338:158|242:178,1,160,2|8,0:0|0:0,0:0:0:0:
304,352,103381,1,2,0:0:0:0:
316,353,103466,1,0,0:0:0:0:
329,355,103552,2,0,P|334:311|323:267,1,80,2|0,0:0|0:0,0:0:0:0:
164,188,103895,1,8,0:0:0:0:
344,168,104067,1,0,0:0:0:0:
240,312,104238,6,0,P|236:272|244:208,1,80,4|0,0:0|0:0,0:0:0:0:
328,56,104581,1,8,0:0:0:0:
416,112,104752,1,0,0:0:0:0:
312,52,104924,2,0,P|272:48|228:48,1,80,2|0,0:0|0:0,0:0:0:0:
64,144,105267,1,8,0:0:0:0:
104,52,105438,1,0,0:0:0:0:
88,232,105609,6,0,P|106:280|130:313,1,80,2|0,0:0|0:0,0:0:0:0:
336,312,105952,2,0,P|357:278|369:240,1,80,8|0,0:0|0:0,0:0:0:0:
232,64,106295,2,0,P|222:102|218:142,1,80,2|0,0:0|0:0,0:0:0:0:
228,308,106638,1,8,0:0:0:0:
328,144,106809,1,0,0:0:0:0:
379,333,106981,6,0,P|340:310|216:312,1,160,2|8,0:0|0:0,0:0:0:0:
70,245,107495,1,2,0:0:0:0:
70,245,107581,1,2,0:0:0:0:
70,245,107667,2,0,L|162:233,1,80,2|0,0:0|0:0,0:0:0:0:
312,132,108009,2,0,P|304:175|312:223,1,80,8|0,0:0|0:0,0:0:0:0:
432,344,108352,5,4,0:0:0:0:
212,280,108524,2,0,L|244:304,1,40,2|0,0:0|0:0,0:0:0:0:
272,328,108695,2,0,P|212:316|172:328,1,80,2|0,0:0|0:0,0:0:0:0:
108,364,108952,5,0,0:0:0:0:
108,364,109038,2,0,L|108:296,1,40,2|2,0:0|0:0,0:0:0:0:
44,192,109209,5,2,0:0:0:0:
42,219,109294,1,2,0:0:0:0:
41,247,109381,2,0,P|85:235|156:248,1,80,2|0,0:0|0:0,0:0:0:0:
320,336,109724,6,0,P|304:300|312:228,1,80,4|0,0:0|0:0,0:0:0:0:
336,56,110067,1,8,0:0:0:0:
408,164,110238,1,0,0:0:0:0:
256,108,110409,2,0,P|241:70|239:30,1,80,2|0,0:0|0:0,0:0:0:0:
512,36,110752,2,0,P|509:75|495:113,1,80,8|0,0:0|0:0,0:0:0:0:
302,259,111095,5,2,0:0:0:0:
490,187,111267,1,0,0:0:0:0:
371,329,111438,1,8,0:0:0:0:
496,280,111609,1,0,0:0:0:0:
300,156,111781,1,2,0:0:0:0:
192,292,111952,1,0,0:0:0:0:
72,132,112124,1,10,0:0:0:0:
23,312,112295,1,2,0:0:0:0:
23,312,112381,1,2,0:0:0:0:
23,312,112467,6,0,P|64:312|124:308,1,80,2|0,0:0|0:0,0:0:0:0:
272,312,112809,1,8,0:0:0:0:
196,228,112981,1,2,0:0:0:0:
352,228,113152,1,0,0:0:0:0:
104,228,113324,1,2,0:0:0:0:
360,312,113495,1,8,0:0:0:0:
184,312,113667,1,0,0:0:0:0:
352,228,113838,5,2,0:0:0:0:
176,140,114009,1,0,0:0:0:0:
428,160,114181,1,8,0:0:0:0:
272,88,114352,1,0,0:0:0:0:
268,256,114524,1,2,0:0:0:0:
192,56,114695,1,0,0:0:0:0:
184,312,114867,1,8,0:0:0:0:
184,148,115038,1,2,0:0:0:0:
184,148,115124,1,2,0:0:0:0:
184,148,115209,6,0,P|240:160|296:160,1,80,4|0,0:0|0:0,0:0:0:0:
456,128,115552,1,8,0:0:0:0:
276,64,115724,1,2,0:0:0:0:
454,49,115895,2,0,P|461:99|453:136,1,80,0|2,0:0|0:0,0:0:0:0:
247,239,116238,2,0,P|249:199|261:161,1,80,8|0,0:0|0:0,0:0:0:0:
412,348,116581,5,2,0:0:0:0:
324,212,116752,1,0,0:0:0:0:
240,356,116924,1,8,0:0:0:0:
412,256,117095,1,0,0:0:0:0:
220,364,117267,2,0,P|180:361|142:349,1,80,2|0,0:0|0:0,0:0:0:0:
8,160,117609,2,0,P|47:168|107:162,1,80,8|0,0:0|0:0,0:0:0:0:
204,24,117952,5,2,0:0:0:0:
43,43,118124,1,0,0:0:0:0:
200,140,118295,1,8,0:0:0:0:
124,8,118467,1,2,0:0:0:0:
333,99,118638,2,0,P|337:138|332:178,1,80,0|2,0:0|0:0,0:0:0:0:
85,244,118981,1,8,0:0:0:0:
116,132,119152,1,0,0:0:0:0:
276,324,119324,6,0,P|326:325|376:304,1,80,2|0,0:0|0:0,0:0:0:0:
436,96,119667,1,8,0:0:0:0:
255,111,119838,1,2,0:0:0:0:
456,296,120009,2,0,P|464:248|444:184,1,80
364,304,120352,1,8,0:0:0:0:
360,100,120524,1,2,0:0:0:0:
212,260,120695,6,0,P|288:243|331:178,1,160,4|8,0:0|0:0,0:0:0:0:
199,82,121209,1,2,0:0:0:0:
198,101,121294,1,0,0:0:0:0:
202,121,121380,1,2,0:0:0:0:
210,139,121466,1,0,0:0:0:0:
221,156,121551,1,2,0:0:0:0:
361,90,121724,2,0,P|319:88|283:100,1,80,8|0,0:0|0:0,0:0:0:0:
408,254,122067,6,0,P|423:209|423:157,1,80,2|0,0:0|0:0,0:0:0:0:
238,297,122409,1,8,0:0:0:0:
360,352,122581,1,0,0:0:0:0:
154,361,122752,2,0,P|107:348|75:325,1,80,2|0,0:0|0:0,0:0:0:0:
84,164,123095,1,8,0:0:0:0:
16,240,123267,1,0,0:0:0:0:
48,48,123438,6,0,P|90:42|200:110,1,160,2|8,0:0|0:0,0:0:0:0:
208,288,123952,1,2,0:0:0:0:
194,271,124037,1,2,0:0:0:0:
185,252,124123,1,2,0:0:0:0:
179,233,124209,1,2,0:0:0:0:
179,215,124294,1,2,0:0:0:0:
264,40,124467,2,0,P|303:37|364:50,1,80,8|0,0:0|0:0,0:0:0:0:
475,157,124809,6,0,P|437:154|383:162,1,80,2|0,0:0|0:0,0:0:0:0:
288,284,125152,1,8,0:0:0:0:
492,164,125324,1,0,0:0:0:0:
488,312,125495,1,2,0:0:0:0:
428,236,125667,1,2,0:0:0:0:
328,356,125838,2,0,P|290:361|237:354,1,80,8|0,0:0|0:0,0:0:0:0:
68,193,126181,5,2,0:0:0:0:
83,212,126524,5,8,0:0:0:0:
157,74,126695,1,2,0:0:0:0:
182,62,126780,1,0,0:0:0:0:
200,83,126866,1,2,0:0:0:0:
185,107,126952,1,0,0:0:0:0:
158,99,127037,1,2,0:0:0:0:
76,59,127209,2,0,P|71:113|84:141,1,80,8|0,0:0|0:0,0:0:0:0:
312,241,127552,5,2,0:0:0:0:
256,153,127724,1,0,0:0:0:0:
181,230,127895,1,8,0:0:0:0:
320,336,128067,1,2,0:0:0:0:
340,331,128152,1,2,0:0:0:0:
359,324,128238,1,2,0:0:0:0:
376,313,128324,1,2,0:0:0:0:
388,299,128409,1,2,0:0:0:0:
452,124,128581,1,8,0:0:0:0:
488,224,128752,1,0,0:0:0:0:
368,60,128924,6,0,P|294:36|212:51,1,160,2|8,0:0|0:0,0:0:0:0:
152,205,129438,1,0,0:0:0:0:
220,328,129609,2,0,P|260:332|299:323,1,80,2|0,0:0|0:0,0:0:0:0:
420,200,129952,2,0,P|382:208|342:204,1,80,8|0,0:0|0:0,0:0:0:0:
160,44,130295,5,8,0:0:0:0:
368,120,130467,2,0,L|312:100,1,40
136,32,130638,1,8,0:0:0:0:
408,144,130809,2,0,L|352:124,1,40
116,26,130981,1,8,0:0:0:0:
252,24,131152,1,2,0:0:0:0:
177,199,131324,5,8,0:0:0:0:
36,24,131495,1,0,0:0:0:0:
26,211,131667,6,0,P|75:188|198:212,1,160,4|8,0:0|0:0,0:0:0:0:
309,310,132181,1,2,0:0:0:0:
334,326,132266,1,0,0:0:0:0:
363,333,132352,1,2,0:0:0:0:
392,330,132438,1,0,0:0:0:0:
420,318,132523,1,2,0:0:0:0:
475,228,132695,2,0,P|474:172|461:129,1,80,8|0,0:0|0:0,0:0:0:0:
246,78,133038,6,0,P|315:101|404:72,1,160,2|8,0:0|0:0,0:0:0:0:
160,40,133552,1,2,0:0:0:0:
130,36,133637,1,0,0:0:0:0:
101,41,133723,1,2,0:0:0:0:
76,56,133809,1,0,0:0:0:0:
56,79,133894,1,2,0:0:0:0:
68,216,134067,1,8,0:0:0:0:
128,136,134238,1,0,0:0:0:0:
196,296,134409,6,0,P|251:324|274:328,1,80,2|0,0:0|0:0,0:0:0:0:
412,244,134752,1,8,0:0:0:0:
292,172,134924,1,2,0:0:0:0:
272,167,135009,1,2,0:0:0:0:
252,163,135095,1,2,0:0:0:0:
233,159,135181,1,2,0:0:0:0:
213,155,135266,1,2,0:0:0:0:
336,33,135438,2,0,P|374:35|413:50,1,80,8|0,0:0|0:0,0:0:0:0:
480,264,135781,6,0,P|488:224|483:185,1,80,2|0,0:0|0:0,0:0:0:0:
336,108,136124,1,8,0:0:0:0:
404,220,136295,1,0,0:0:0:0:
314,98,136467,2,0,P|264:92|226:99,1,80,2|0,0:0|0:0,0:0:0:0:
56,232,136809,2,0,P|115:215|184:251,1,120,8|0,0:0|0:0,0:0:0:0:
178,273,137152,6,0,P|176:223|195:192,1,80,2|0,0:0|0:0,0:0:0:0:
347,136,137495,1,8,0:0:0:0:
364,279,137667,1,2,0:0:0:0:
346,255,137752,1,0,0:0:0:0:
320,239,137838,1,2,0:0:0:0:
291,235,137924,1,0,0:0:0:0:
262,242,138009,1,2,0:0:0:0:
160,360,138181,2,0,P|174:322|176:282,1,80,8|0,0:0|0:0,0:0:0:0:
32,164,138524,5,2,0:0:0:0:
116,112,138695,1,0,0:0:0:0:
92,304,138867,1,8,0:0:0:0:
40,84,139038,1,0,0:0:0:0:
200,196,139209,2,0,P|240:203|279:195,1,80,2|0,0:0|0:0,0:0:0:0:
400,40,139552,1,8,0:0:0:0:
280,88,139724,1,0,0:0:0:0:
424,236,139895,6,0,P|428:196|422:156,1,80,2|0,0:0|0:0,0:0:0:0:
324,16,140238,1,8,0:0:0:0:
188,96,140409,1,2,0:0:0:0:
352,196,140580,1,0,0:0:0:0:
280,88,140751,1,2,0:0:0:0:
152,232,140924,2,0,P|111:235|72:228,1,80,8|0,0:0|0:0,0:0:0:0:
88,56,141267,5,2,0:0:0:0:
192,136,141438,2,0,L|152:145,1,40
118,157,141609,2,0,P|167:155|210:167,1,80,2|2,0:0|0:0,0:0:0:0:
262,205,141867,1,2,0:0:0:0:
262,205,141952,5,8,0:0:0:0:
376,108,142124,1,2,0:0:0:0:
340,240,142295,1,8,0:0:0:0:
276,32,142467,1,2,0:0:0:0:
132,132,142638,6,0,P|177:140|224:128,1,92.0000017547608,4|0,0:0|0:0,0:0:0:0:
388,28,142981,1,8,0:0:0:0:
480,176,143152,1,2,0:0:0:0:
480,176,143238,1,2,0:0:0:0:
480,176,143324,2,0,P|494:132|492:87,1,92.0000017547608
272,124,143667,2,0,P|264:169|269:214,1,92.0000017547608,8|0,0:0|0:0,0:0:0:0:
428,332,144009,5,2,0:0:0:0:
392,204,144181,1,0,0:0:0:0:
300,376,144352,1,8,0:0:0:0:
472,260,144524,1,2,0:0:0:0:
472,260,144610,1,2,0:0:0:0:
472,260,144695,1,2,0:0:0:0:
324,148,144866,1,0,0:0:0:0:
379,290,145038,2,0,P|397:249|391:202,1,92.0000017547608,8|0,0:0|0:0,0:0:0:0:
416,0,145381,6,0,P|398:57|460:168,1,184.000003509522,4|8,0:0|0:0,0:0:0:0:
500,260,145895,1,2,0:0:0:0:
308,108,146067,1,0,0:0:0:0:
492,72,146238,1,2,0:0:0:0:
405,237,146409,1,8,0:0:0:0:
400,72,146581,1,0,0:0:0:0:
288,220,146752,6,0,P|230:224|192:214,1,92.0000017547608,2|0,0:0|0:0,0:0:0:0:
28,124,147095,1,8,0:0:0:0:
152,112,147267,1,2,0:0:0:0:
152,112,147352,1,2,0:0:0:0:
152,112,147438,1,2,0:0:0:0:
100,20,147609,1,0,0:0:0:0:
92,192,147781,1,8,0:0:0:0:
244,32,147952,1,0,0:0:0:0:
312,111,148124,6,0,L|359:111,1,46.0000008773804,2|0,0:0|0:0,0:0:0:0:
324,212,148296,2,0,L|277:212,1,46.0000008773804,2|0,0:0|0:0,0:0:0:0:
200,257,148467,2,0,P|191:201|209:146,1,92.0000017547608,8|0,0:0|0:0,0:0:0:0:
348,30,148809,5,2,0:0:0:0:
478,218,148981,1,0,0:0:0:0:
444,29,149152,5,8,0:0:0:0:
327,216,149324,1,0,0:0:0:0:
167,85,149495,6,0,P|220:87|258:100,1,92.0000017547608,2|0,0:0|0:0,0:0:0:0:
376,308,149838,1,8,0:0:0:0:
376,124,150009,1,0,0:0:0:0:
245,244,150181,2,0,P|199:245|153:243,1,92.0000017547608,2|0,0:0|0:0,0:0:0:0:
400,208,150524,2,0,P|464:213|493:209,1,92.0000017547608,8|0,0:0|0:0,0:0:0:0:
242,65,150867,6,0,P|226:155|252:259,1,184.000003509522,2|8,0:0|0:0,0:0:0:0:
311,329,151381,1,0,0:0:0:0:
428,156,151552,5,2,0:0:0:0:
436,324,151724,1,0,0:0:0:0:
303,161,151895,5,8,0:0:0:0:
311,329,152067,1,0,0:0:0:0:
148,244,152238,6,0,P|200:240|262:243,1,92.0000017547608,2|0,0:0|0:0,0:0:0:0:
392,300,152581,1,8,0:0:0:0:
492,200,152752,1,2,0:0:0:0:
485,221,152837,1,2,0:0:0:0:
478,243,152923,1,8,0:0:0:0:
384,152,153095,1,0,0:0:0:0:
323,297,153267,2,0,P|266:300|214:283,1,92.0000017547608,8|0,0:0|0:0,0:0:0:0:
140,129,153609,6,0,P|198:124|279:219,1,184.000003509522,4|8,0:0|0:0,0:0:0:0:
170,355,154124,1,2,0:0:0:0:
153,325,154209,1,0,0:0:0:0:
148,291,154295,1,2,0:0:0:0:
155,257,154381,1,0,0:0:0:0:
174,228,154466,1,2,0:0:0:0:
355,262,154638,2,0,P|409:272|454:257,1,92.0000017547608,8|0,0:0|0:0,0:0:0:0:
442,43,154981,6,0,P|388:33|343:48,1,92.0000017547608,2|0,0:0|0:0,0:0:0:0:
278,209,155324,1,8,0:0:0:0:
256,80,155495,1,2,0:0:0:0:
256,80,155581,1,2,0:0:0:0:
256,80,155666,1,2,0:0:0:0:
346,131,155837,1,0,0:0:0:0:
216,288,156009,1,8,0:0:0:0:
192,192,156181,1,0,0:0:0:0:
304,328,156352,6,0,P|352:332|404:328,1,92.0000017547608,2|0,0:0|0:0,0:0:0:0:
484,169,156695,1,8,0:0:0:0:
348,235,156867,1,2,0:0:0:0:
484,320,157038,1,0,0:0:0:0:
392,152,157209,1,2,0:0:0:0:
232,260,157381,2,0,P|181:263|122:261,1,92.0000017547608,8|0,0:0|0:0,0:0:0:0:
312,324,157724,5,2,0:0:0:0:
392,152,157895,1,0,0:0:0:0:
396,356,158067,1,8,0:0:0:0:
304,212,158238,1,2,0:0:0:0:
304,212,158323,1,2,0:0:0:0:
304,212,158409,1,2,0:0:0:0:
400,248,158580,1,0,0:0:0:0:
276,108,158752,2,0,P|270:65|273:4,1,92.0000017547608,8|0,0:0|0:0,0:0:0:0:
460,72,159095,5,2,0:0:0:0:
511,155,159267,1,0,0:0:0:0:
443,59,159438,2,0,P|383:49|346:58,1,92.0000017547608,8|0,0:0|0:0,0:0:0:0:
181,133,159781,1,2,0:0:0:0:
263,189,159952,1,0,0:0:0:0:
87,162,160124,1,8,0:0:0:0:
274,100,160295,1,0,0:0:0:0:
329,290,160467,5,0,0:0:0:0:
329,290,160638,2,0,P|277:290|237:293,1,92.0000017547608,8|0,0:0|0:0,0:0:0:0:
360,200,160981,1,8,0:0:0:0:
238,208,161152,1,2,0:0:0:0:
378,110,161324,1,0,0:0:0:0:
422,263,161495,1,8,0:0:0:0:
452,170,161667,1,0,0:0:0:0:
293,128,161838,6,0,P|247:125|202:127,1,92.0000017547608,10|0,0:0|0:0,0:0:0:0:
79,177,162181,1,8,0:0:0:0:
79,177,162352,1,0,0:0:0:0:
318,246,162524,2,0,P|272:243|226:244,1,92.0000017547608,8|0,0:0|0:0,0:0:0:0:
109,311,162867,1,8,0:0:0:0:
153,214,163038,1,0,0:0:0:0:
269,334,163209,5,8,0:0:0:0:
410,201,163381,1,2,0:0:0:0:
403,222,163466,1,2,0:0:0:0:
396,244,163552,1,8,0:0:0:0:
337,93,163724,1,2,0:0:0:0:
325,137,163809,1,2,0:0:0:0:
314,182,163895,1,8,0:0:0:0:
441,62,164067,1,0,0:0:0:0:
225,79,164238,2,0,P|159:72|90:95,1,138.000002632141,8|0,0:0|0:0,0:0:0:0:
91,93,164581,5,4,0:0:0:0:
223,185,169381,6,0,L|292:198,1,40,10|0,0:0|0:0,0:0:0:0:
293,75,169552,2,0,L|224:88,1,40,10|0,0:0|0:0,0:0:0:0:
112,64,169724,6,0,L|152:76,1,40,10|0,0:0|0:0,0:0:0:0:
108,176,169895,2,0,L|68:176,1,40,2|0,0:0|0:0,0:0:0:0:
44,200,170067,6,0,P|87:196|131:200,1,88.000002685547,4|0,0:0|0:0,0:0:0:0:
172,360,170581,1,2,0:0:0:0:
172,360,170752,2,2,P|168:317|173:265,1,88.000002685547,8|2,0:0|0:0,0:0:0:0:
380,192,171267,6,0,L|440:172,1,40,0|0,3:0|3:0,0:0:0:0:
433,173,171438,6,0,P|365:173|313:189,1,120.000004577637,0|0,3:0|0:0,0:0:0:0:
315,187,171695,2,0,P|312:128|324:64,1,120.000004577637,0|0,3:0|0:0,0:0:0:0:
322,69,171952,1,0,3:0:0:0:
168,132,172124,6,0,L|76:141,1,60.0000022888184,8|0,0:0|0:0,0:0:0:0:
68,221,172295,2,0,L|128:216,1,60.0000022888184,2|0,0:0|0:0,0:0:0:0:
164,292,172467,2,0,L|72:301,1,60.0000022888184,8|0,0:0|0:0,0:0:0:0:
264,284,172638,1,0,0:0:0:0:
176,296,172809,5,8,0:0:0:0:
196,104,172981,1,2,0:0:0:0:
196,104,173152,1,2,0:0:0:0:
116,60,173324,5,8,0:0:0:0:
304,88,173495,1,2,0:0:0:0:
304,88,173667,1,2,0:0:0:0:
256,8,173838,5,8,0:0:0:0:
239,197,174009,1,2,0:0:0:0:
363,29,174181,6,0,B|391:48|391:48|399:119|348:150,1,120.000004577637,0|2,3:0|0:0,0:0:0:0:
372,243,174438,2,0,B|343:223|343:223|335:152|386:121,1,120.000004577637,0|2,3:0|0:0,0:0:0:0:
441,188,174695,1,0,3:0:0:0:
409,307,174867,6,0,B|388:325|385:356|385:356|338:321|375:232,1,180.000006866455,8|0,0:0|3:0,0:0:0:0:
462,366,175209,2,0,P|395:362|332:368,1,120.000004577637,8|0,0:0|0:0,0:0:0:0:
167,334,175552,6,0,P|198:294|195:225,1,95.9999970703126,4|0,0:0|0:0,0:0:0:0:
275,323,175809,1,2,0:0:0:0:
274,306,175895,2,0,P|243:265|175:250,1,95.9999970703126,2|0,0:0|0:0,0:0:0:0:
46,326,176238,6,0,L|61:300,1,23.9999992675781,2|0,0:0|0:0,0:0:0:0:
46,326,176581,5,2,0:0:0:0:
72,104,176752,1,2,0:0:0:0:
121,186,176924,1,2,0:0:0:0:
313,58,177095,1,2,0:0:0:0:
362,140,177267,1,2,0:0:0:0:
175,17,177438,1,2,0:0:0:0:
267,256,177609,6,0,L|252:230,1,23.9999992675781,10|0,0:0|0:0,0:0:0:0:
266,257,177952,5,2,0:0:0:0:
306,219,178037,1,0,0:0:0:0:
356,241,178123,1,2,0:0:0:0:
357,295,178209,1,0,0:0:0:0:
308,319,178295,6,0,B|301:278|301:278|312:255|312:255|302:232|302:232|307:205|307:205|305:146,1,143.999995605469,2|0,0:0|0:0,0:0:0:0:
284,148,178638,6,0,P|262:126|229:104,1,47.9999985351563,2|0,0:0|0:0,0:0:0:0:
80,72,178809,2,0,P|103:67|127:68,1,47.9999985351563,2|0,0:0|0:0,0:0:0:0:
312,64,178981,1,8,0:0:0:0:
312,64,179324,1,0,0:0:0:0:
412,184,179495,6,0,L|360:160,1,40,0|0,3:0|0:0,0:0:0:0:
356,164,179667,6,0,P|368:216|400:264,1,95.9999970703126,0|0,3:0|0:0,0:0:0:0:
390,253,179924,2,0,P|323:248|279:257,1,95.9999970703126,0|0,3:0|0:0,0:0:0:0:
294,252,180181,1,0,3:0:0:0:
172,360,180352,1,8,0:0:0:0:
68,124,180524,1,2,0:0:0:0:
24,280,180695,2,0,P|84:287|121:268,1,95.9999970703126,8|0,0:0|0:0,0:0:0:0:
331,175,181038,6,0,P|286:161|225:164,1,95.9999970703126,4|0,0:0|0:0,0:0:0:0:
420,136,181381,2,0,P|385:104|328:81,1,95.9999970703126,2|0,0:0|0:0,0:0:0:0:
188,266,181724,1,8,0:0:0:0:
335,266,181895,1,2,0:0:0:0:
311,267,181980,1,2,0:0:0:0:
287,269,182066,1,2,0:0:0:0:
480,320,182238,6,0,L|434:313,1,40,0|0,3:0|0:0,0:0:0:0:
418,311,182409,6,0,P|474:299|506:271,1,95.9999970703126,0|0,3:0|0:0,0:0:0:0:
502,274,182667,2,0,P|498:226|503:179,1,95.9999970703126,0|0,3:0|0:0,0:0:0:0:
502,179,182924,5,0,3:0:0:0:
407,118,183095,1,8,0:0:0:0:
312,221,183267,1,0,0:0:0:0:
312,122,183438,1,8,0:0:0:0:
408,220,183609,1,0,0:0:0:0:
245,274,183781,6,0,P|186:269|143:273,1,95.9999970703126,0|0,3:0|0:0,0:0:0:0:
83,186,184038,1,2,0:0:0:0:
83,186,184124,2,0,P|130:188|178:183,1,95.9999970703126,0|0,3:0|0:0,0:0:0:0:
306,63,184467,2,0,P|256:72|315:95,1,143.999995605469,8|0,0:0|0:0,0:0:0:0:
196,24,184809,2,0,P|177:75|187:129,1,95.9999970703126,8|0,0:0|0:0,0:0:0:0:
321,273,185152,5,0,3:0:0:0:
242,185,185324,1,0,3:0:0:0:
243,209,185409,1,0,3:0:0:0:
245,233,185495,1,0,3:0:0:0:
303,111,185667,1,0,0:0:0:0:
472,228,185838,2,0,P|474:275|464:329,2,95.9999970703126,8|2|8,0:0|0:0|0:0,0:0:0:0:
384,64,186352,2,0,L|328:68,1,47.9999985351563
168,84,186524,5,4,0:0:0:0:
224,208,186695,1,0,0:0:0:0:
156,68,186867,1,0,0:0:0:0:
236,228,187038,2,0,L|172:212,1,47.9999985351563
24,180,187209,5,8,0:0:0:0:
220,132,187381,1,0,0:0:0:0:
8,184,187552,1,0,0:0:0:0:
240,124,187724,2,0,L|280:168,1,47.9999985351563
400,256,187895,5,4,0:0:0:0:
404,80,188067,1,0,0:0:0:0:
400,276,188238,1,0,0:0:0:0:
400,56,188409,2,0,L|360:100,1,47.9999985351563
264,208,188581,5,8,0:0:0:0:
424,164,188753,1,0,0:0:0:0:
252,300,188924,1,0,0:0:0:0:
144,132,189095,1,0,0:0:0:0:
16,228,189267,6,0,P|12:276|23:323,1,95.9999970703126,4|0,3:2|0:0,0:0:0:0:
96,344,189524,1,0,3:0:0:0:
96,344,189609,2,0,P|142:339|230:344,1,95.9999970703126,0|0,3:0|3:0,0:0:0:0:
384,240,189952,1,8,0:0:0:0:
252,244,190124,1,2,0:0:0:0:
320,328,190295,1,8,0:0:0:0:
344,148,190467,6,0,P|332:169|324:184,1,40,0|0,3:0|0:0,0:0:0:0:
316,200,190638,6,0,P|300:152|296:92,1,95.9999970703126,0|0,3:0|0:0,0:0:0:0:
296,107,190895,2,0,P|256:123|204:123,1,95.9999970703126,0|0,3:0|0:0,0:0:0:0:
203,122,191152,5,0,3:0:0:0:
368,64,191324,2,0,P|416:59|464:66,1,95.9999970703126,8|0,0:0|0:0,0:0:0:0:
419,282,191667,2,0,P|371:289|324:286,1,95.9999970703126,8|0,0:0|0:0,0:0:0:0:
151,150,192009,5,4,0:0:0:0:
234,157,192181,1,0,0:0:0:0:
299,210,192352,2,0,P|329:206|373:210,1,60.0000022888184,0|0,0:0|0:0,0:0:0:0:
124,235,192695,1,0,0:0:0:0:
207,242,192867,1,0,0:0:0:0:
272,295,193038,2,0,P|302:291|346:295,1,60.0000022888184,0|0,0:0|0:0,0:0:0:0:
442,228,193381,5,0,0:0:0:0:
435,145,193553,1,0,0:0:0:0:
382,80,193724,2,0,P|377:49|382:6,1,60.0000022888184,0|0,0:0|0:0,0:0:0:0:
196,12,194067,1,0,0:0:0:0:
189,95,194239,1,0,0:0:0:0:
135,159,194410,2,0,P|130:188|131:218,1,60.0000022888184,0|0,0:0|0:0,0:0:0:0:
253,328,194752,5,0,0:0:0:0:
350,334,194924,1,0,0:0:0:0:
383,244,195095,1,0,0:0:0:0:
309,183,195267,1,0,0:0:0:0:
164,304,195438,5,0,0:0:0:0:
228,236,195610,1,0,0:0:0:0:
216,136,195781,1,0,0:0:0:0:
88,152,195952,2,0,L|28:155,1,60.0000022888184
212,16,196295,2,0,L|215:135,1,120.000004577637
120,140,196809,2,0,L|116:80,1,60.0000022888184
112,322,197152,5,8,0:0:0:0:
94,313,197495,6,0,P|141:309|183:320,1,80,4|0,0:0|0:0,0:0:0:0:
356,251,197838,1,8,0:0:0:0:
239,350,198009,1,2,0:0:0:0:
251,354,198094,1,2,0:0:0:0:
263,358,198180,2,0,P|276:316|273:271,1,80,2|0,0:0|0:0,0:0:0:0:
137,100,198524,1,8,0:0:0:0:
232,160,198695,1,0,0:0:0:0:
270,13,198867,6,0,P|230:9|191:14,1,80,2|0,0:0|0:0,0:0:0:0:
196,244,199209,2,0,P|236:248|275:244,1,80,8|0,0:0|0:0,0:0:0:0:
137,100,199552,1,0,0:0:0:0:
232,160,199724,1,2,0:0:0:0:
104,208,199895,2,0,P|96:247|97:287,1,80,8|0,0:0|0:0,0:0:0:0:
336,312,200238,6,0,P|260:293|183:311,1,160,2|8,0:0|0:0,0:0:0:0:
432,348,200752,1,2,0:0:0:0:
444,352,200837,1,2,0:0:0:0:
456,356,200923,2,0,P|469:314|466:269,1,80,2|0,0:0|0:0,0:0:0:0:
440,104,201267,1,8,0:0:0:0:
504,184,201438,1,0,0:0:0:0:
348,48,201609,6,0,P|272:22|184:54,1,160,2|8,0:0|0:0,0:0:0:0:
88,152,202124,1,0,0:0:0:0:
144,272,202295,1,2,0:0:0:0:
188,172,202467,1,0,0:0:0:0:
48,304,202638,1,8,0:0:0:0:
208,160,202809,1,0,0:0:0:0:
388,244,202981,6,0,P|310:269|234:241,1,160,2|8,0:0|0:0,0:0:0:0:
304,56,203495,1,2,0:0:0:0:
320,81,203580,1,0,0:0:0:0:
327,110,203666,1,2,0:0:0:0:
324,139,203752,1,0,0:0:0:0:
312,167,203837,1,2,0:0:0:0:
128,112,204009,2,0,P|168:108|212:116,1,80,8|0,0:0|0:0,0:0:0:0:
264,284,204352,6,0,P|244:228|136:188,1,160,2|8,0:0|0:0,0:0:0:0:
128,372,204867,1,2,0:0:0:0:
140,376,204952,1,2,0:0:0:0:
152,380,205038,2,0,P|165:338|162:293,1,80,2|0,0:0|0:0,0:0:0:0:
60,120,205381,2,0,P|47:162|50:207,1,80,8|0,0:0|0:0,0:0:0:0:
247,274,205724,6,0,P|325:285|404:275,1,160,2|8,0:0|0:0,0:0:0:0:
479,148,206238,1,2,0:0:0:0:
483,160,206323,1,2,0:0:0:0:
487,172,206409,2,0,P|445:185|400:182,1,80,2|0,0:0|0:0,0:0:0:0:
211,68,206752,1,8,0:0:0:0:
308,89,206924,1,0,0:0:0:0:
404,275,207095,5,8,0:0:0:0:
308,89,207267,2,0,L|328:137,1,40,2|0,0:0|0:0,0:0:0:0:
416,296,207438,1,8,0:0:0:0:
285,47,207609,2,0,L|305:95,1,40,2|0,0:0|0:0,0:0:0:0:
393,254,207780,1,8,0:0:0:0:
420,128,207952,1,2,0:0:0:0:
212,186,208124,5,8,0:0:0:0:
99,3,208295,1,0,0:0:0:0:
54,173,208467,6,0,P|133:168|211:185,1,160,4|8,0:0|0:0,0:0:0:0:
404,244,208981,1,2,0:0:0:0:
379,260,209066,1,0,0:0:0:0:
350,267,209152,1,2,0:0:0:0:
321,264,209238,1,0,0:0:0:0:
293,252,209323,1,2,0:0:0:0:
456,168,209495,1,8,0:0:0:0:
480,300,209667,1,0,0:0:0:0:
340,152,209838,6,0,P|259:134|179:147,1,160,2|8,0:0|0:0,0:0:0:0:
33,148,210352,1,2,0:0:0:0:
29,160,210437,1,2,0:0:0:0:
25,172,210523,2,0,P|67:185|112:182,1,80,2|0,0:0|0:0,0:0:0:0:
224,68,210867,2,0,P|275:65|318:74,1,80,8|0,0:0|0:0,0:0:0:0:
389,201,211209,6,0,P|369:150|419:57,1,160,2|8,0:0|0:0,0:0:0:0:
456,292,211724,1,2,0:0:0:0:
431,308,211809,1,0,0:0:0:0:
402,315,211895,1,2,0:0:0:0:
373,312,211981,1,0,0:0:0:0:
345,300,212066,1,2,0:0:0:0:
204,196,212238,1,8,0:0:0:0:
104,320,212409,1,0,0:0:0:0:
216,180,212581,6,0,P|220:140|216:100,1,80,2|0,0:0|0:0,0:0:0:0:
36,154,212924,2,0,P|37:196|50:246,1,80,8|0,0:0|0:0,0:0:0:0:
196,360,213267,1,2,0:0:0:0:
124,252,213438,1,0,0:0:0:0:
288,340,213609,2,0,P|337:332|376:321,1,80,8|0,0:0|0:0,0:0:0:0:
408,148,213952,6,0,P|360:126|240:140,1,160,2|8,0:0|0:0,0:0:0:0:
316,258,214467,1,2,0:0:0:0:
320,246,214552,1,2,0:0:0:0:
324,234,214638,2,0,P|282:221|237:224,1,80,2|0,0:0|0:0,0:0:0:0:
88,352,214981,2,0,P|104:306|99:258,1,80,8|0,0:0|0:0,0:0:0:0:
13,129,215324,6,0,P|55:138|182:121,1,160,2|8,0:0|0:0,0:0:0:0:
299,29,215838,1,2,0:0:0:0:
287,25,215923,1,2,0:0:0:0:
275,21,216009,2,0,P|262:62|265:107,1,80,2|0,0:0|0:0,0:0:0:0:
382,246,216352,1,8,0:0:0:0:
368,139,216524,1,0,0:0:0:0:
199,226,216695,6,0,P|144:222|94:231,1,80,2|0,0:0|0:0,0:0:0:0:
291,334,217038,2,0,P|330:329|370:332,1,80,8|0,0:0|0:0,0:0:0:0:
269,150,217381,1,2,0:0:0:0:
314,234,217552,1,0,0:0:0:0:
423,101,217724,2,0,P|425:55|430:18,1,80,8|0,0:0|0:0,0:0:0:0:
482,230,218067,6,0,P|441:226|383:239,1,80,2|2,0:0|0:0,0:0:0:0:
353,162,218324,1,2,0:0:0:0:
353,162,218409,1,8,0:0:0:0:
184,200,218581,2,0,L|152:200,2,20,0|0|0,3:0|3:0|3:0,0:0:0:0:
244,252,218752,5,10,0:0:0:0:
184,96,218924,1,2,0:0:0:0:
328,248,219096,1,8,0:0:0:0:
84,120,219267,1,2,0:0:0:0:
260,16,219438,6,0,P|311:18|359:15,1,92.0000017547608,4|0,0:0|0:0,0:0:0:0:
469,207,219781,1,8,0:0:0:0:
488,104,219952,1,0,0:0:0:0:
364,282,220124,2,0,P|322:294|269:293,1,92.0000017547608,2|0,0:0|0:0,0:0:0:0:
294,110,220467,2,0,P|306:154|305:200,1,92.0000017547608,8|0,0:0|0:0,0:0:0:0:
148,184,220809,5,2,0:0:0:0:
273,293,220981,1,0,0:0:0:0:
28,236,221152,1,8,0:0:0:0:
160,84,221324,1,2,0:0:0:0:
166,117,221410,1,2,0:0:0:0:
162,151,221495,1,2,0:0:0:0:
40,84,221667,1,0,0:0:0:0:
266,110,221838,2,0,P|310:105|363:115,1,92.0000017547608,8|0,0:0|0:0,0:0:0:0:
490,208,222181,6,0,P|418:195|304:233,1,184.000003509522,2|8,0:0|0:0,0:0:0:0:
160,289,222695,1,2,0:0:0:0:
192,128,222867,1,0,0:0:0:0:
272,320,223038,1,2,0:0:0:0:
184,112,223209,1,8,0:0:0:0:
156,272,223381,1,0,0:0:0:0:
12,128,223552,6,0,P|15:173|29:217,1,92.0000017547608,2|0,0:0|0:0,0:0:0:0:
228,216,223895,1,8,0:0:0:0:
108,126,224067,1,2,0:0:0:0:
113,160,224153,1,2,0:0:0:0:
129,190,224238,1,2,0:0:0:0:
155,44,224409,1,0,0:0:0:0:
228,216,224581,2,0,P|281:222|324:215,1,92.0000017547608,8|0,0:0|0:0,0:0:0:0:
296,36,224924,6,0,P|278:76|274:135,1,92.0000017547608,2|0,0:0|0:0,0:0:0:0:
458,128,225267,2,0,P|414:120|356:132,1,92.0000017547608,8|0,0:0|0:0,0:0:0:0:
239,337,225609,5,2,0:0:0:0:
412,204,225781,1,0,0:0:0:0:
409,334,225952,5,8,0:0:0:0:
228,197,226124,1,0,0:0:0:0:
112,345,226295,6,0,P|131:297|129:221,1,92.0000017547608,2|0,0:0|0:0,0:0:0:0:
268,120,226638,1,8,0:0:0:0:
244,308,226809,1,2,0:0:0:0:
271,328,226895,1,2,0:0:0:0:
304,338,226980,1,2,0:0:0:0:
336,172,227152,1,0,0:0:0:0:
400,304,227324,1,8,0:0:0:0:
428,112,227495,1,0,0:0:0:0:
496,228,227667,6,0,P|442:222|361:224,1,92.0000017547608,2|0,0:0|0:0,0:0:0:0:
148,249,228009,2,0,P|202:255|283:253,1,92.0000017547608,8|0,0:0|0:0,0:0:0:0:
403,91,228352,5,2,0:0:0:0:
241,92,228524,1,0,0:0:0:0:
405,256,228695,5,8,0:0:0:0:
239,255,228867,1,0,0:0:0:0:
485,167,229038,6,0,P|436:172|385:163,1,92.0000017547608,2|0,0:0|0:0,0:0:0:0:
241,92,229381,1,8,0:0:0:0:
239,255,229552,1,2,0:0:0:0:
239,255,229638,1,2,0:0:0:0:
239,255,229724,1,2,0:0:0:0:
136,144,229895,1,0,0:0:0:0:
140,348,230067,1,8,0:0:0:0:
112,124,230238,1,0,0:0:0:0:
296,196,230409,6,0,B|345:189|393:200,1,92.0000017547608,4|0,0:0|0:0,0:0:0:0:
494,92,230752,2,0,B|445:99|397:88,1,92.0000017547608,8|0,0:0|0:0,0:0:0:0:
228,116,231095,1,2,0:0:0:0:
304,40,231267,1,0,0:0:0:0:
387,198,231438,2,0,P|393:249|380:292,1,92.0000017547608,8|0,0:0|0:0,0:0:0:0:
279,354,231781,6,0,P|224:360|157:340,1,92.0000017547608,2|0,0:0|0:0,0:0:0:0:
57,242,232124,1,8,0:0:0:0:
163,201,232295,1,2,0:0:0:0:
158,235,232381,1,2,0:0:0:0:
142,265,232466,1,2,0:0:0:0:
86,144,232638,1,0,0:0:0:0:
229,55,232809,2,0,P|278:53|329:60,1,92.0000017547608,8|0,0:0|0:0,0:0:0:0:
420,278,233152,6,0,P|416:228|421:175,1,92.0000017547608,2|0,0:0|0:0,0:0:0:0:
481,37,233495,1,8,0:0:0:0:
500,224,233667,1,2,0:0:0:0:
325,157,233838,1,0,0:0:0:0:
500,224,234009,1,2,0:0:0:0:
407,96,234181,1,8,0:0:0:0:
400,296,234352,1,0,0:0:0:0:
218,233,234524,6,0,P|171:227|106:241,1,92.0000017547608,2|0,0:0|0:0,0:0:0:0:
306,295,234867,1,8,0:0:0:0:
294,130,235038,1,2,0:0:0:0:
290,164,235124,1,2,0:0:0:0:
297,197,235209,1,2,0:0:0:0:
384,72,235381,1,0,0:0:0:0:
380,264,235552,1,8,0:0:0:0:
392,168,235724,1,0,0:0:0:0:
206,180,235895,5,2,0:0:0:0:
294,130,236067,1,0,0:0:0:0:
248,266,236238,2,0,P|192:273|158:261,1,92.0000017547608,8|0,0:0|0:0,0:0:0:0:
44,76,236581,1,2,0:0:0:0:
32,176,236752,1,0,0:0:0:0:
176,36,236924,1,8,0:0:0:0:
44,76,237095,1,0,0:0:0:0:
124,226,237267,5,0,0:0:0:0:
124,226,237438,2,0,P|129:180|127:135,1,92.0000017547608,10|2,0:0|0:0,0:0:0:0:
256,104,237781,1,8,0:0:0:0:
267,316,237952,1,2,0:0:0:0:
264,215,238124,1,0,0:0:0:0:
360,355,238295,2,0,P|414:346|456:345,1,92.0000017547608,8|0,0:0|0:0,0:0:0:0:
484,164,238638,5,8,0:0:0:0:
484,164,238809,1,0,0:0:0:0:
408,48,238981,5,8,0:0:0:0:
408,48,239152,1,0,0:0:0:0:
274,58,239324,5,8,0:0:0:0:
274,58,239495,1,0,0:0:0:0:
116,166,239667,2,0,P|162:169|208:168,1,92.0000017547608,8|0,0:0|0:0,0:0:0:0:
14,278,240009,5,12,0:0:0:0:
176,330,240181,1,2,0:0:0:0:
156,339,240266,1,2,0:0:0:0:
135,350,240352,1,10,0:0:0:0:
185,226,240524,1,2,0:0:0:0:
229,238,240609,1,2,0:0:0:0:
274,249,240695,6,0,L|359:251,1,46.0000008773804,8|0,0:0|0:0,0:0:0:0:
423,253,240867,1,0,0:0:0:0:
317,357,241038,1,8,0:0:0:0:
315,137,241209,1,0,0:0:0:0:
152,128,241381,6,0,P|219:134|287:129,1,136.000002593994,4|8,0:0|0:0,0:0:0:0:
377,93,241895,2,0,P|383:148|380:164,1,68.0000012969971,2|0,0:0|0:0,0:0:0:0:
317,225,242238,1,2,0:0:0:0:
376,345,242409,2,0,P|383:311|380:277,1,68.0000012969971,8|0,0:0|0:0,0:0:0:0:
204,320,242752,6,0,P|232:299|255:275,1,68.0000012969971,2|0,0:0|0:0,0:0:0:0:
448,242,243095,2,0,P|421:221|398:197,1,68.0000012969971,8|0,0:0|0:0,0:0:0:0:
186,229,243438,2,0,P|214:208|237:184,1,68.0000012969971,2|0,0:0|0:0,0:0:0:0:
471,153,243781,2,0,P|444:132|421:108,1,68.0000012969971,8|0,0:0|0:0,0:0:0:0:
264,28,244124,6,0,P|295:62|316:158,1,136.000002593994,2|8,0:0|0:0,0:0:0:0:
356,236,244638,2,0,P|301:242|285:239,1,68.0000012969971,2|0,0:0|0:0,0:0:0:0:
224,176,244981,1,2,0:0:0:0:
104,236,245152,2,0,P|159:242|175:239,1,68.0000012969971,8|0,0:0|0:0,0:0:0:0:
384,216,245495,6,0,P|350:221|316:220,1,68.0000012969971,2|0,0:0|0:0,0:0:0:0:
192,380,245838,2,0,P|197:346|196:312,1,68.0000012969971,8|0,0:0|0:0,0:0:0:0:
388,132,246181,2,0,P|354:137|320:136,1,68.0000012969971,2|0,0:0|0:0,0:0:0:0:
112,312,246524,2,0,P|121:279|136:248,1,68.0000012969971,8|0,0:0|0:0,0:0:0:0:
283,76,246867,6,0,P|219:62|138:87,1,136.000002593994,2|8,0:0|0:0,0:0:0:0:
319,168,247381,1,0,0:0:0:0:
319,168,247552,2,0,P|360:175|395:169,1,68.0000012969971,2|0,0:0|0:0,0:0:0:0:
499,98,247895,1,8,0:0:0:0:
499,98,248067,6,0,P|431:81|350:97,1,136.000002593994,2|2,0:0|0:0,0:0:0:0:
288,36,248581,2,0,P|280:92|284:132,1,68.0000012969971,8|0,0:0|0:0,0:0:0:0:
348,240,248924,2,0,P|348:206|341:172,1,68.0000012969971,2|0,0:0|0:0,0:0:0:0:
260,224,249267,1,8,0:0:0:0:
288,312,249438,6,0,P|344:336|420:304,1,136.000002593994,2|2,0:0|0:0,0:0:0:0:
460,232,249952,2,0,P|460:200|456:148,1,68.0000012969971,8|0,0:0|0:0,0:0:0:0:
392,96,250295,2,0,P|358:91|324:94,1,68.0000012969971,2|0,0:0|0:0,0:0:0:0:
160,110,250638,2,0,P|194:115|228:111,1,68.0000012969971,8|0,0:0|0:0,0:0:0:0:
264,32,250981,5,2,0:0:0:0:
144,20,251152,1,0,0:0:0:0:
76,104,251324,6,0,P|79:139|110:180,1,68.0000012969971,8|2,0:0|0:0,0:0:0:0:
127,183,251581,1,2,0:0:0:0:
127,183,251667,1,2,0:0:0:0:
232,196,251838,1,2,0:0:0:0:
304,252,252009,2,0,P|305:286|300:320,1,68.0000012969971,8|0,0:0|0:0,0:0:0:0:
435,339,252352,6,0,P|427:290|440:189,1,136.000002593994,4|8,0:0|0:0,0:0:0:0:
476,108,252867,2,0,P|421:102|405:105,1,68.0000012969971,2|0,0:0|0:0,0:0:0:0:
344,168,253210,1,2,0:0:0:0:
224,108,253381,2,0,P|279:102|295:105,1,68.0000012969971,8|0,0:0|0:0,0:0:0:0:
304,236,253724,6,0,P|270:241|236:240,1,68.0000012969971,2|0,0:0|0:0,0:0:0:0:
51,152,254067,2,0,P|71:179|95:202,1,68.0000012969971,8|0,0:0|0:0,0:0:0:0:
247,362,254410,2,0,P|219:341|196:317,1,68.0000012969971,2|0,0:0|0:0,0:0:0:0:
177,99,254753,2,0,P|182:132|181:166,1,68.0000012969971,8|0,0:0|0:0,0:0:0:0:
23,384,255095,6,0,P|63:365|110:268,1,136.000002593994,2|8,0:0|0:0,0:0:0:0:
4,172,255609,1,2,0:0:0:0:
4,172,255781,2,0,P|18:219|37:246,1,68.0000012969971,0|2,0:0|0:0,0:0:0:0:
192,184,256124,2,0,P|142:186|111:197,1,68.0000012969971,8|0,0:0|0:0,0:0:0:0:
255,319,256467,6,0,P|294:322|332:309,1,68.0000012969971,2|0,0:0|0:0,0:0:0:0:
438,173,256809,2,0,P|405:170|372:178,1,68.0000012969971,8|0,0:0|0:0,0:0:0:0:
192,184,257152,2,0,P|231:187|269:174,1,68.0000012969971,2|0,0:0|0:0,0:0:0:0:
375,38,257495,2,0,P|341:34|308:42,1,68.0000012969971,8|0,0:0|0:0,0:0:0:0:
186,313,257838,6,0,P|253:322|320:313,1,136.000002593994,2|8,0:0|0:0,0:0:0:0:
356,216,258352,1,0,0:0:0:0:
356,216,258524,2,0,P|322:214|288:218,1,68.0000012969971,2|0,0:0|0:0,0:0:0:0:
188,204,258867,1,8,0:0:0:0:
188,204,259038,6,0,P|255:203|303:151,1,136.000002593994
256,72,259552,2,0,P|200:68|172:72,1,68.0000012969971,8|0,0:0|0:0,0:0:0:0:
316,148,259895,1,0,0:0:0:0:
392,80,260067,1,0,0:0:0:0:
464,152,260238,2,0,P|469:191|462:237,1,68.0000012969971,8|0,0:0|0:0,0:0:0:0:
408,328,260581,6,0,P|358:348|271:333,1,136.000002593994,2|8,0:0|0:0,0:0:0:0:
220,256,261095,1,2,0:0:0:0:
220,256,261267,2,0,P|217:224|238:183,1,68.0000012969971,0|2,0:0|0:0,0:0:0:0:
362,173,261609,2,0,P|332:156|298:141,1,68.0000012969971,8|0,0:0|0:0,0:0:0:0:
180,60,261952,6,0,P|202:92|242:120,1,68.0000012969971,2|0,0:0|0:0,0:0:0:0:
336,64,262295,2,0,L|383:63,3,34.0000006484985,2|2|2|2,0:0|0:0|0:0|0:0,0:0:0:0:
464,92,262638,1,8,0:0:0:0:
408,256,262809,1,0,0:0:0:0:
472,100,262981,1,8,0:0:0:0:
496,200,263152,1,0,0:0:0:0:
323,80,263324,6,0,B|314:62|293:49|293:49|405:62|405:62|381:74|365:93,1,204.000003890991,4|2,0:0|0:0,0:0:0:0:
282,237,264009,2,0,P|248:179|254:112,1,136.000002593994,8|2,0:0|0:0,0:0:0:0:
408,152,264524,6,0,L|348:156,1,40,0|0,3:0|3:0,0:0:0:0:
340,160,264695,6,0,P|408:172|468:208,1,120.000004577637,0|0,3:0|0:0,0:0:0:0:
456,272,264952,2,0,P|387:260|319:273,1,120.000004577637,0|0,3:0|0:0,0:0:0:0:
272,312,265209,1,0,3:0:0:0:
356,352,265381,1,8,0:0:0:0:
256,232,265552,1,0,0:0:0:0:
375,174,265724,5,8,0:0:0:0:
412,187,265809,1,2,0:0:0:0:
407,226,265895,1,2,0:0:0:0:
369,230,265981,1,2,0:0:0:0:
354,194,266067,5,0,3:0:0:0:
270,131,266238,1,0,3:0:0:0:
164,159,266409,1,0,3:0:0:0:
104,85,266581,1,0,3:0:0:0:
102,247,266752,6,0,B|102:329|102:329|140:295,1,120.000004577637,8|2,0:0|0:0,0:0:0:0:
186,247,267009,2,0,P|257:241|302:261,1,120.000004577637,8|2,0:0|0:0,0:0:0:0:
300,259,267267,1,8,0:0:0:0:
379,112,267438,5,0,3:0:0:0:
366,75,267523,1,2,0:0:0:0:
327,80,267609,1,2,0:0:0:0:
323,118,267695,1,0,3:0:0:0:
359,133,267781,5,2,0:0:0:0:
452,64,267952,1,0,3:0:0:0:
433,256,268124,6,0,P|440:212|449:255,1,120.000004577637,8|2,0:0|0:0,0:0:0:0:
447,332,268381,2,0,B|419:334|419:334|374:316|374:316|318:322,1,120.000004577637,8|2,0:0|0:0,0:0:0:0:
330,320,268638,1,8,0:0:0:0:
180,360,268809,6,0,P|136:351|73:277,1,136.000002593994,4|2,0:0|0:0,0:0:0:0:
185,168,269324,1,2,0:0:0:0:
182,268,269495,2,0,P|216:276|259:318,2,68.0000012969971,8|0|0,0:0|3:0|0:0,0:0:0:0:
360,248,270009,6,0,L|356:180,1,40,0|0,3:0|3:0,0:0:0:0:
360,188,270181,6,0,P|344:256|380:308,1,120.000004577637,0|2,3:0|0:0,0:0:0:0:
436,348,270438,2,0,P|452:280|392:228,1,120.000004577637,0|2,3:0|0:0,0:0:0:0:
436,168,270695,1,0,3:0:0:0:
294,136,270867,6,0,L|201:136,1,60.0000022888184,8|0,0:0|0:0,0:0:0:0:
186,216,271038,2,0,L|246:216,1,60.0000022888184,2|0,0:0|0:0,0:0:0:0:
193,296,271210,2,0,L|100:296,1,60.0000022888184,8|0,0:0|0:0,0:0:0:0:
72,360,271381,1,0,0:0:0:0:
36,220,271552,6,0,B|22:196|40:160|40:160|16:141|12:111,1,120.000004577637,0|2,3:0|0:0,0:0:0:0:
90,93,271809,2,0,P|128:135|114:191,1,120.000004577637,0|2,3:0|0:0,0:0:0:0:
52,244,272067,6,0,L|24:288,1,40,0|0,3:0|3:0,0:0:0:0:
20,296,272238,6,0,B|76:280|76:280|144:304,1,120.000004577637,8|2,0:0|0:0,0:0:0:0:
184,352,272495,2,0,B|240:368|240:368|308:344,1,120.000004577637,8|2,0:0|0:0,0:0:0:0:
356,300,272752,6,0,L|373:255,1,40,0|0,3:0|3:0,0:0:0:0:
380,240,272924,6,0,P|432:276|436:336,1,120.000004577637,0|2,3:0|0:0,0:0:0:0:
512,336,273181,2,0,P|511:266|483:215,1,120.000004577637,0|2,3:0|0:0,0:0:0:0:
489,222,273438,1,0,3:0:0:0:
432,104,273609,6,0,P|360:84|312:96,1,120.000004577637,8|0,0:0|0:0,0:0:0:0:
101,99,273952,2,0,P|173:79|221:91,1,120.000004577637,8|0,0:0|0:0,0:0:0:0:
256,336,274295,6,0,P|240:292|256:196,1,136.000002593994,4|2,0:0|0:0,0:0:0:0:
493,157,274809,1,2,0:0:0:0:
493,157,274981,2,0,B|456:156|405:145,1,68.0000012969971,8|0,0:0|3:0,0:0:0:0:
268,156,275324,1,0,3:0:0:0:
416,72,275495,6,0,L|452:56,1,40,0|0,3:0|3:0,0:0:0:0:
469,51,275667,6,0,P|402:33|332:40,1,120.000004577637,0|0,3:0|0:0,0:0:0:0:
316,103,275924,2,0,P|382:120|439:161,1,120.000004577637,0|0,3:0|0:0,0:0:0:0:
464,212,276181,1,0,3:0:0:0:
356,328,276352,1,8,0:0:0:0:
208,208,276524,6,0,B|196:182|196:182|203:150,1,60.0000022888184,2|0,0:0|0:0,0:0:0:0:
320,204,276695,2,0,B|331:229|331:229|322:268,1,60.0000022888184,10|0,0:0|0:0,0:0:0:0:
160,360,276867,1,0,0:0:0:0:
76,228,277038,5,0,3:0:0:0:
392,40,277295,1,0,3:0:0:0:
444,308,277552,1,0,3:0:0:0:
232,135,277724,6,0,P|230:101|226:135,1,103.999995239258,8|2,0:0|0:0,0:0:0:0:
226,135,277981,6,0,P|237:85|208:127,1,143.999995605469,8|2,0:0|0:0,0:0:0:0:
208,256,278238,1,8,0:0:0:0:
432,112,278409,5,0,3:0:0:0:
76,84,278666,1,0,3:0:0:0:
328,312,278923,1,0,3:0:0:0:
456,224,279095,6,0,B|428:224|428:224|388:240|388:240|352:224|352:224|280:224,1,143.999995605469,8|2,0:0|0:0,0:0:0:0:
43,224,279438,2,0,B|76:224|76:224|112:208|112:208|152:224|152:224|180:224,1,143.999995605469,8|2,0:0|0:0,0:0:0:0:
459,332,279781,6,0,P|407:336|323:308,1,136.000002593994,4|2,0:0|0:0,0:0:0:0:
80,116,280295,1,2,0:0:0:0:
80,116,280467,2,0,P|132:112|216:140,1,136.000002593994,8|0,0:0|0:0,0:0:0:0:
288,208,280981,6,0,L|272:256,1,40,0|0,3:0|3:0,0:0:0:0:
272,260,281152,6,0,P|300:192|384:188,1,120.000004577637,0|2,3:0|0:0,0:0:0:0:
324,304,281409,2,0,P|320:232|356:188,1,120.000004577637,0|2,3:0|0:0,0:0:0:0:
404,268,281667,1,0,3:0:0:0:
232,336,281838,1,8,0:0:0:0:
187,337,281924,1,2,0:0:0:0:
143,325,282009,1,2,0:0:0:0:
100,334,282095,1,2,0:0:0:0:
55,333,282181,6,0,L|8:360,1,40,8|0,0:0|0:0,0:0:0:0:
40,244,282352,2,0,L|-14:252,1,40,2|0,0:0|0:0,0:0:0:0:
92,160,282524,6,0,B|112:148|120:128|120:128|128:172|200:196,1,120.000004577637,0|2,3:0|0:0,0:0:0:0:
240,224,282781,2,0,P|299:230|356:213,1,120.000004577637,0|2,3:0|0:0,0:0:0:0:
412,152,283038,6,0,L|412:112,1,40,0|0,3:0|3:0,0:0:0:0:
416,320,283209,5,8,0:0:0:0:
236,40,283467,1,8,0:0:0:0:
64,268,283724,2,0,L|64:308,1,40,0|0,3:0|3:0,0:0:0:0:
76,136,283895,5,0,3:0:0:0:
424,132,284152,1,0,3:0:0:0:
136,332,284409,1,0,3:0:0:0:
128,176,284581,5,8,0:0:0:0:
340,152,284752,1,2,0:0:0:0:
256,200,284924,2,0,P|246:162|244:116,1,80,8|0,0:0|0:0,0:0:0:0:
249,4,285267,6,0,P|257:48|237:135,1,120.000004577637,4|0,0:0|0:0,0:0:0:0:
192,200,285781,1,0,0:0:0:0:
192,200,285952,2,0,P|152:192|120:200,1,60.0000022888184,2|0,0:0|0:0,0:0:0:0:
256,260,286295,2,0,P|295:267|328:260,1,60.0000022888184,0|0,0:0|0:0,0:0:0:0:
408,272,286638,6,0,P|424:216|424:140,1,120.000004577637,2|0,0:0|0:0,0:0:0:0:
392,56,287152,1,0,0:0:0:0:
392,56,287324,2,0,P|352:60|316:56,1,60.0000022888184,2|0,0:0|0:0,0:0:0:0:
184,32,287667,2,0,P|224:28|260:32,1,60.0000022888184,0|0,0:0|0:0,0:0:0:0:
264,120,288009,6,0,P|216:112|124:128,1,120.000004577637,2|0,0:0|0:0,0:0:0:0:
72,184,288524,1,0,0:0:0:0:
72,184,288695,2,0,P|64:240|68:256,1,60.0000022888184,2|0,0:0|0:0,0:0:0:0:
112,328,289038,1,0,0:0:0:0:
200,368,289209,1,0,0:0:0:0:
296,344,289381,6,0,P|328:340|432:340,1,120.000004577637,2|0,0:0|0:0,0:0:0:0:
204,224,290067,2,0,P|236:228|340:228,1,120.000004577637,2|0,0:0|0:0,0:0:0:0:
392,160,290581,1,0,0:0:0:0:
464,84,290752,6,0,P|460:136|488:204,1,120.000004577637,2|0,0:0|0:0,0:0:0:0:
444,288,291267,1,0,0:0:0:0:
444,288,291438,2,0,L|364:288,1,60.0000022888184,2|0,0:0|0:0,0:0:0:0:
308,228,291781,2,0,L|228:228,1,60.0000022888184
140,308,292124,6,0,P|160:256|136:172,1,120.000004577637,2|0,0:0|0:0,0:0:0:0:
92,116,292638,1,0,0:0:0:0:
92,116,292809,2,0,L|160:96,1,60.0000022888184,2|0,0:0|0:0,0:0:0:0:
232,36,293152,2,0,L|300:56,1,60.0000022888184,0|0,0:0|0:0,0:0:0:0:
400,120,293495,6,0,P|392:172|416:244,1,120.000004577637,2|0,0:0|0:0,0:0:0:0:
288,168,294009,2,0,P|296:220|272:292,1,120.000004577637,2|0,0:0|0:0,0:0:0:0:
376,340,294524,1,2,0:0:0:0:
136,320,295038,5,2,0:0:0:0:
120,308,295381,5,0,0:0:0:0:
64,248,295552,1,2,0:0:0:0:
148,208,295724,1,0,0:0:0:0:
40,124,295895,1,2,0:0:0:0:
152,48,296067,1,0,0:0:0:0:
304,92,296238,6,0,P|348:88|428:64,1,120.000004577637,2|0,0:0|0:0,0:0:0:0:
480,188,296924,2,0,P|436:192|356:216,1,120.000004577637,2|0,0:0|0:0,0:0:0:0:
176,320,297609,6,0,P|184:280|244:200,1,120.000004577637,2|0,0:0|0:0,0:0:0:0:
400,296,298295,1,2,0:0:0:0:
172,284,298638,1,0,0:0:0:0:
226,214,298809,2,0,P|278:210|342:238,1,120.000004577637,2|0,0:0|0:0,0:0:0:0:
136,200,299324,1,2,0:0:0:0:
248,40,300009,5,0,0:0:0:0:
248,40,300524,2,0,P|248:88|248:112,1,60.0000022888184,2|0,0:0|0:0,0:0:0:0:
253,196,300867,1,0,0:0:0:0:
339,239,301038,1,2,0:0:0:0:
419,187,301209,1,0,0:0:0:0:
414,91,301381,1,2,0:0:0:0:
329,48,301552,1,0,0:0:0:0:
248,100,301724,6,0,P|196:100|120:88,1,120.000004577637,2|0,0:0|0:0,0:0:0:0:
48,156,302410,1,2,0:0:0:0:
40,256,302752,1,0,0:0:0:0:
40,256,303095,2,0,P|96:256|160:284,1,120.000004577637,0|2,0:0|0:0,0:0:0:0:
304,368,303781,2,0,P|363:359|417:335,1,120.000004577637,2|0,0:0|0:0,0:0:0:0:
472,112,304467,6,0,P|431:155|421:213,1,120.000004577637,2|0,0:0|0:0,0:0:0:0:
292,56,305152,2,0,P|264:108|269:167,1,120.000004577637,2|0,0:0|0:0,0:0:0:0:
76,160,305838,6,0,L|124:232,1,80,2|2,0:0|0:0,0:0:0:0:
176,284,306095,1,2,0:0:0:0:
176,284,306181,1,2,0:0:0:0:
136,80,306352,2,0,L|172:132,1,40,2|0,0:0|0:0,0:0:0:0:
204,176,306524,5,10,0:0:0:0:
424,92,306695,1,2,0:0:0:0:
272,96,306867,1,8,0:0:0:0:
476,196,307038,1,0,0:0:0:0:
320,12,307209,6,0,P|268:8|204:16,1,95.9999970703126,4|0,0:0|0:0,0:0:0:0:
84,188,307552,1,8,0:0:0:0:
120,48,307724,1,2,0:0:0:0:
134,78,307810,1,2,0:0:0:0:
139,112,307895,1,2,0:0:0:0:
28,100,308067,1,0,0:0:0:0:
192,204,308238,2,0,P|243:208|292:200,1,95.9999970703126,8|0,0:0|0:0,0:0:0:0:
480,112,308581,6,0,P|416:108|352:124,1,95.9999970703126,2|0,0:0|0:0,0:0:0:0:
236,268,308924,1,8,0:0:0:0:
376,200,309095,1,2,0:0:0:0:
376,234,309181,1,2,0:0:0:0:
367,267,309266,1,2,0:0:0:0:
304,116,309438,1,0,0:0:0:0:
292,320,309609,1,8,0:0:0:0:
460,176,309781,1,0,0:0:0:0:
356,40,309952,6,0,P|304:32|252:40,1,95.9999970703126,2|0,0:0|0:0,0:0:0:0:
112,160,310295,1,8,0:0:0:0:
156,40,310467,1,2,0:0:0:0:
212,228,310638,1,0,0:0:0:0:
64,76,310809,1,2,0:0:0:0:
8,268,310981,2,0,P|56:276|124:264,1,95.9999970703126,8|0,0:0|0:0,0:0:0:0:
232,108,311324,5,2,0:0:0:0:
112,160,311495,1,0,0:0:0:0:
184,312,311667,2,0,P|231:312|279:316,1,95.9999970703126,8|2,0:0|0:0,0:0:0:0:
350,294,311924,1,2,0:0:0:0:
350,294,312009,1,2,0:0:0:0:
320,108,312181,1,0,0:0:0:0:
232,196,312352,2,0,P|296:196|340:204,1,95.9999970703126,8|0,0:0|0:0,0:0:0:0:
440,84,312695,6,0,P|420:64|440:92,1,143.999995605469,2|0,0:0|0:0,0:0:0:0:
464,52,313038,2,0,P|417:42|349:48,1,95.9999970703126,8|0,0:0|0:0,0:0:0:0:
160,228,313381,5,2,0:0:0:0:
290,40,313553,1,0,0:0:0:0:
256,229,313724,5,8,0:0:0:0:
139,42,313896,1,0,0:0:0:0:
28,236,314067,6,0,P|32:288|28:336,1,95.9999970703126,2|0,0:0|0:0,0:0:0:0:
208,360,314409,1,8,0:0:0:0:
124,192,314581,1,2,0:0:0:0:
110,222,314667,1,2,0:0:0:0:
105,256,314752,1,2,0:0:0:0:
228,180,314924,1,0,0:0:0:0:
384,332,315095,2,0,P|388:284|380:232,1,95.9999970703126,8|0,0:0|0:0,0:0:0:0:
296,76,315438,6,0,B|312:120|312:184|312:184|340:148,1,143.999995605469,2|0,0:0|0:0,0:0:0:0:
284,64,315781,2,0,P|232:52|184:56,1,95.9999970703126,8|0,0:0|0:0,0:0:0:0:
56,136,316124,5,2,0:0:0:0:
218,137,316296,1,0,0:0:0:0:
54,301,316467,5,8,0:0:0:0:
220,300,316639,1,0,0:0:0:0:
136,80,316809,6,0,P|136:144|144:192,1,95.9999970703126,2|0,0:0|0:0,0:0:0:0:
304,344,317152,2,0,P|304:280|296:232,1,95.9999970703126,8|2,0:0|0:0,0:0:0:0:
260,188,317409,1,2,0:0:0:0:
260,188,317495,1,8,0:0:0:0:
336,120,317667,1,2,0:0:0:0:
448,296,317838,2,0,P|444:248|448:200,1,95.9999970703126,8|0,0:0|0:0,0:0:0:0:
388,40,318181,6,0,P|336:28|288:36,1,95.9999970703126,4|0,0:0|0:0,0:0:0:0:
204,200,318524,1,8,0:0:0:0:
336,120,318695,1,2,0:0:0:0:
341,152,318782,1,2,0:0:0:0:
337,187,318867,1,2,0:0:0:0:
240,112,319038,1,0,0:0:0:0:
112,232,319209,2,0,P|52:240|12:232,1,95.9999970703126,8|0,0:0|0:0,0:0:0:0:
124,52,319552,5,2,0:0:0:0:
240,112,319724,1,0,0:0:0:0:
176,280,319895,1,8,0:0:0:0:
136,144,320067,1,2,0:0:0:0:
163,163,320153,1,2,0:0:0:0:
184,190,320238,1,2,0:0:0:0:
88,320,320409,1,0,0:0:0:0:
268,232,320581,2,0,P|332:232|372:240,1,95.9999970703126,8|0,0:0|0:0,0:0:0:0:
476,112,320924,5,2,0:0:0:0:
328,88,321095,1,0,0:0:0:0:
472,216,321267,1,8,0:0:0:0:
408,72,321438,1,2,0:0:0:0:
402,105,321524,1,2,0:0:0:0:
406,139,321609,1,2,0:0:0:0:
484,28,321781,1,2,0:0:0:0:
472,216,321952,1,8,0:0:0:0:
328,88,322124,1,2,0:0:0:0:
300,292,322295,6,0,P|352:292|400:280,1,95.9999970703126,2|0,0:0|0:0,0:0:0:0:
496,116,322638,1,8,0:0:0:0:
328,88,322809,1,2,0:0:0:0:
322,120,322895,1,2,0:0:0:0:
326,154,322980,1,2,0:0:0:0:
376,16,323152,1,0,0:0:0:0:
412,236,323324,1,8,0:0:0:0:
424,72,323495,1,0,0:0:0:0:
328,236,323667,6,0,P|289:241|231:233,2,95.9999970703126,2|0|8,0:0|0:0|0:0,0:0:0:0:
136,168,324181,1,0,0:0:0:0:
16,248,324352,2,0,P|10:295|20:342,1,95.9999970703126,2|0,0:0|0:0,0:0:0:0:
48,144,324695,1,8,0:0:0:0:
104,284,324867,1,0,0:0:0:0:
104,80,325038,5,0,0:0:0:0:
104,80,325209,2,0,P|160:80|196:96,1,95.9999970703126,10|0,0:0|0:0,0:0:0:0:
244,284,325552,1,8,0:0:0:0:
288,132,325724,1,8,0:0:0:0:
136,296,325895,1,2,0:0:0:0:
348,224,326067,2,0,P|396:220|452:228,1,95.9999970703126,8|0,0:0|0:0,0:0:0:0:
492,56,326409,5,8,0:0:0:0:
492,56,326581,1,0,0:0:0:0:
348,120,326752,5,8,0:0:0:0:
348,120,326924,1,0,0:0:0:0:
216,44,327095,5,8,0:0:0:0:
216,44,327267,1,0,0:0:0:0:
320,24,327438,5,8,0:0:0:0:
216,192,327609,1,0,0:0:0:0:
45,152,327781,5,8,0:0:0:0:
95,293,327952,1,2,0:0:0:0:
103,273,328037,1,2,0:0:0:0:
110,250,328123,1,10,0:0:0:0:
65,111,328295,1,2,0:0:0:0:
45,152,328380,1,2,0:0:0:0:
26,195,328467,1,10,0:0:0:0:
168,28,328638,1,2,0:0:0:0:
294,105,328809,6,0,P|346:102|437:124,1,113.999996955872,8|0,0:0|0:0,0:0:0:0:
440,131,329152,6,0,P|375:135|336:168,1,95.9999970703126,4|0,0:0|0:0,0:0:0:0:
271,310,329495,1,8,0:0:0:0:
356,236,329667,1,2,0:0:0:0:
320,224,329752,1,0,0:0:0:0:
285,220,329838,1,2,0:0:0:0:
249,222,329924,1,0,0:0:0:0:
215,231,330009,1,2,0:0:0:0:
85,349,330181,2,0,P|98:305|99:242,1,95.9999970703126,8|0,0:0|0:0,0:0:0:0:
51,59,330524,5,2,0:0:0:0:
245,74,330695,1,0,0:0:0:0:
36,161,330867,1,8,0:0:0:0:
156,51,331038,1,2,0:0:0:0:
142,81,331124,1,2,0:0:0:0:
137,115,331209,1,2,0:0:0:0:
317,29,331381,1,0,0:0:0:0:
441,133,331552,2,0,P|443:183|433:231,1,95.9999970703126,8|0,0:0|0:0,0:0:0:0:
266,343,331895,5,2,0:0:0:0:
296,248,332067,1,0,0:0:0:0:
370,375,332238,2,0,P|363:327|370:272,1,95.9999970703126,8|2,0:0|0:0,0:0:0:0:
376,240,332495,1,0,0:0:0:0:
363,206,332580,1,2,0:0:0:0:
338,180,332666,1,0,0:0:0:0:
306,166,332752,1,2,0:0:0:0:
166,215,332924,2,0,P|115:221|64:221,1,95.9999970703126,8|0,0:0|0:0,0:0:0:0:
215,33,333267,5,2,0:0:0:0:
120,120,333438,1,0,0:0:0:0:
308,73,333609,2,0,P|360:75|409:91,1,95.9999970703126,8|2,0:0|0:0,0:0:0:0:
460,148,333867,1,2,0:0:0:0:
460,148,333952,1,2,0:0:0:0:
471,31,334124,1,0,0:0:0:0:
336,189,334295,2,0,P|332:240|337:293,1,95.9999970703126,8|0,0:0|0:0,0:0:0:0:
205,308,334638,6,0,L|159:295,1,47.9999985351563,2|0,0:0|0:0,0:0:0:0:
66,234,334809,2,0,L|120:237,1,47.9999985351563,2|0,0:0|0:0,0:0:0:0:
55,324,334981,2,0,P|48:270|71:229,1,95.9999970703126,8|0,0:0|0:0,0:0:0:0:
311,139,335324,5,2,0:0:0:0:
63,73,335495,1,0,0:0:0:0:
311,38,335667,5,8,0:0:0:0:
66,234,335838,1,0,0:0:0:0:
183,27,336009,6,0,P|174:86|179:126,1,95.9999970703126,2|0,0:0|0:0,0:0:0:0:
288,312,336352,1,8,0:0:0:0:
311,139,336524,1,2,0:0:0:0:
285,160,336610,1,2,0:0:0:0:
266,188,336695,1,2,0:0:0:0:
418,202,336867,1,0,0:0:0:0:
212,272,337038,2,0,P|150:269|110:274,1,95.9999970703126,8|0,0:0|0:0,0:0:0:0:
30,101,337381,6,0,P|77:105|125:101,1,95.9999970703126,2|0,0:0|0:0,0:0:0:0:
331,56,337724,2,0,P|283:51|235:55,1,95.9999970703126,8|2,0:0|0:0,0:0:0:0:
116,272,338067,5,0,0:0:0:0:
277,136,338238,1,2,0:0:0:0:
246,334,338409,5,8,0:0:0:0:
407,198,338580,1,0,0:0:0:0:
164,191,338752,6,0,P|94:188|63:193,1,95.9999970703126,2|0,0:0|0:0,0:0:0:0:
296,272,339095,1,8,0:0:0:0:
292,96,339267,1,2,0:0:0:0:
266,117,339353,1,2,0:0:0:0:
247,145,339438,1,10,0:0:0:0:
408,115,339609,1,2,0:0:0:0:
166,102,339781,2,0,P|96:105|65:100,1,95.9999970703126,8|0,0:0|0:0,0:0:0:0:
270,22,340124,6,0,P|274:78|265:119,1,95.9999970703126,4|0,0:0|0:0,0:0:0:0:
172,299,340467,1,8,0:0:0:0:
194,192,340638,1,2,0:0:0:0:
229,184,340723,1,0,0:0:0:0:
265,183,340809,1,2,0:0:0:0:
300,188,340895,1,0,0:0:0:0:
334,199,340980,1,2,0:0:0:0:
416,350,341152,2,0,P|402:302|407:255,1,95.9999970703126,8|0,0:0|0:0,0:0:0:0:
460,49,341495,5,2,0:0:0:0:
496,180,341667,1,0,0:0:0:0:
265,183,341838,1,8,0:0:0:0:
352,36,342009,1,2,0:0:0:0:
366,66,342095,1,2,0:0:0:0:
371,100,342180,1,2,0:0:0:0:
224,16,342352,1,0,0:0:0:0:
128,184,342524,2,0,P|126:119|134:77,1,95.9999970703126,8|0,0:0|0:0,0:0:0:0:
176,288,342867,5,2,0:0:0:0:
265,183,343038,1,0,0:0:0:0:
284,340,343209,2,0,P|334:332|388:336,1,95.9999970703126,8|2,0:0|0:0,0:0:0:0:
411,335,343467,1,0,0:0:0:0:
437,317,343552,1,2,0:0:0:0:
455,291,343638,1,0,0:0:0:0:
462,260,343724,1,2,0:0:0:0:
401,66,343895,2,0,P|347:43|293:34,1,95.9999970703126,8|0,0:0|0:0,0:0:0:0:
128,142,344238,5,2,0:0:0:0:
195,30,344409,1,0,0:0:0:0:
304,244,344581,1,8,0:0:0:0:
252,92,344752,1,2,0:0:0:0:
223,110,344838,1,2,0:0:0:0:
203,137,344923,1,2,0:0:0:0:
396,144,345095,1,0,0:0:0:0:
212,230,345267,2,0,P|159:231|108:227,1,95.9999970703126,8|0,0:0|0:0,0:0:0:0:
195,30,345609,5,2,0:0:0:0:
284,172,345781,2,0,P|297:217|294:265,1,95.9999970703126,0|8,0:0|0:0,0:0:0:0:
120,140,346123,1,0,0:0:0:0:
304,68,346295,1,2,0:0:0:0:
104,48,346467,1,0,0:0:0:0:
158,216,346638,1,8,0:0:0:0:
195,30,346809,1,0,0:0:0:0:
321,223,346981,5,0,0:0:0:0:
321,223,347152,2,0,P|261:179|156:220,1,191.999994140625,10|8,0:0|0:0,0:0:0:0:
233,359,347667,2,0,P|241:312|237:265,1,95.9999970703126,2|0,0:0|0:0,0:0:0:0:
62,221,348009,1,8,0:0:0:0:
130,307,348181,1,2,0:0:0:0:
76,80,348352,5,8,0:0:0:0:
76,80,348524,1,0,0:0:0:0:
288,28,348695,5,8,0:0:0:0:
288,28,348867,1,0,0:0:0:0:
200,200,349038,5,8,0:0:0:0:
169,21,349209,1,2,0:0:0:0:
289,134,349381,5,8,0:0:0:0:
64,164,349552,1,2,0:0:0:0:
368,62,349724,5,8,0:0:0:0:
443,206,349895,1,2,0:0:0:0:
435,226,349980,1,2,0:0:0:0:
428,249,350066,1,10,0:0:0:0:
368,62,350238,1,2,0:0:0:0:
348,103,350323,1,2,0:0:0:0:
329,146,350409,1,10,0:0:0:0:
474,50,350581,1,2,0:0:0:0:
322,252,350752,6,0,P|271:263|236:231,1,90.0000034332277,8|0,0:0|0:0,0:0:0:0:
214,197,351095,6,0,P|221:247|103:315,1,191.999994140625,4|8,0:0|0:0,0:0:0:0:
141,133,351609,1,2,0:0:0:0:
340,152,351781,2,0,P|392:216|384:272,1,143.999995605469,2|2,0:0|0:0,0:0:0:0:
328,320,352124,1,8,0:0:0:0:
128,244,352295,6,0,P|217:212|310:230,1,191.999994140625,2|2,0:0|0:0,0:0:0:0:
152,348,352809,2,0,P|102:348|59:327,1,95.9999970703126,8|2,0:0|0:0,0:0:0:0:
68,136,353152,2,0,P|110:115|158:116,1,95.9999970703126,2|0,0:0|0:0,0:0:0:0:
312,232,353495,1,8,0:0:0:0:
272,84,353667,1,0,0:0:0:0:
148,289,353838,6,0,P|118:194|159:116,1,191.999994140625,4|8,0:0|0:0,0:0:0:0:
391,65,354352,1,2,0:0:0:0:
391,236,354524,2,0,P|402:191|405:242,1,143.999995605469,2|2,0:0|0:0,0:0:0:0:
368,308,354867,1,8,0:0:0:0:
229,177,355038,6,0,P|287:165|396:251,1,191.999994140625,2|0,0:0|0:0,0:0:0:0:
144,260,355552,1,8,0:0:0:0:
128,156,355724,1,2,0:0:0:0:
300,256,355895,1,2,0:0:0:0:
188,88,356067,1,2,0:0:0:0:
56,228,356238,2,0,P|50:276|64:324,1,95.9999970703126,8|0,0:0|0:0,0:0:0:0:
292,352,356581,5,4,0:0:0:0:
216,204,356752,1,0,0:0:0:0:
376,320,356924,2,0,P|432:322|476:313,1,95.9999970703126,10|0,0:0|0:0,0:0:0:0:
448,96,357267,2,0,P|395:89|336:168,1,143.999995605469,2|2,0:0|0:0,0:0:0:0:
340,228,357609,1,8,0:0:0:0:
316,16,357781,6,0,P|248:97|260:192,1,191.999994140625,2|2,0:0|0:0,0:0:0:0:
143,288,358295,2,0,P|190:290|238:288,1,95.9999970703126,8|2,0:0|0:0,0:0:0:0:
435,227,358638,2,0,P|387:229|339:227,1,95.9999970703126,2|0,0:0|0:0,0:0:0:0:
139,158,358981,2,0,P|184:160|241:158,1,95.9999970703126,8|0,0:0|0:0,0:0:0:0:
456,72,359324,6,0,P|386:36|279:63,1,191.999994140625,4|8,0:0|0:0,0:0:0:0:
188,232,359838,1,0,0:0:0:0:
396,321,360009,2,0,P|401:266|340:204,1,143.999995605469,2|2,0:0|0:0,0:0:0:0:
268,192,360352,1,8,0:0:0:0:
120,306,360524,6,0,P|185:327|132:286,1,191.999994140625,2|2,0:0|0:0,0:0:0:0:
40,358,361038,1,8,0:0:0:0:
96,176,361209,1,2,0:0:0:0:
96,176,361295,1,10,0:0:0:0:
20,253,361467,1,10,0:0:0:0:
20,253,361552,1,2,0:0:0:0:
211,196,361724,2,0,P|277:189|321:198,1,95.9999970703126,8|0,0:0|0:0,0:0:0:0:
417,343,362067,6,0,P|409:285|425:142,1,191.999994140625,4|8,0:0|0:0,0:0:0:0:
498,249,362581,1,0,0:0:0:0:
334,308,362752,1,2,0:0:0:0:
341,140,362924,1,0,0:0:0:0:
417,343,363095,1,8,0:0:0:0:
153,317,363267,6,0,P|203:291|365:334,1,191.999994140625,2|2,0:0|0:0,0:0:0:0:
112,208,363781,2,0,B|73:201|47:218|11:202,1,95.9999970703126,8|0,0:0|0:0,0:0:0:0:
164,59,364124,2,0,B|195:73|221:56|260:63,1,95.9999970703126,2|0,0:0|0:0,0:0:0:0:
70,124,364467,1,8,0:0:0:0:
79,21,364638,1,0,0:0:0:0:
152,260,364809,6,0,P|240:266|348:235,1,191.999994140625,4|8,0:0|0:0,0:0:0:0:
485,208,365324,1,0,0:0:0:0:
338,108,365495,1,2,0:0:0:0:
446,112,365667,1,2,0:0:0:0:
230,68,365838,1,8,0:0:0:0:
340,292,366009,6,0,P|322:244|343:97,1,191.999994140625,2|0,0:0|0:0,0:0:0:0:
461,20,366524,2,0,P|462:76|442:117,1,95.9999970703126,8|0,0:0|0:0,0:0:0:0:
214,159,366867,2,0,P|213:103|233:62,1,95.9999970703126,2|0,0:0|0:0,0:0:0:0:
340,292,367209,1,8,0:0:0:0:
400,180,367381,1,0,0:0:0:0:
263,335,367552,6,0,P|213:332|161:337,1,95.9999970703126,4|0,0:0|0:0,0:0:0:0:
21,251,367895,1,8,0:0:0:0:
197,255,368067,1,0,0:0:0:0:
89,161,368238,2,0,P|92:204|119:262,1,95.9999970703126,2|0,0:0|0:0,0:0:0:0:
228,136,368581,1,8,0:0:0:0:
61,44,368752,6,0,P|132:64|259:33,1,191.999994140625,2|2,0:0|0:0,0:0:0:0:
448,160,369267,2,0,P|400:157|351:168,1,95.9999970703126,8|2,0:0|0:0,0:0:0:0:
152,344,369609,1,2,0:0:0:0:
240,208,369781,1,0,0:0:0:0:
318,355,369952,2,0,P|365:352|413:354,1,95.9999970703126,8|0,0:0|0:0,0:0:0:0:
212,198,370295,6,0,P|154:211|32:163,1,191.999994140625,4|8,0:0|0:0,0:0:0:0:
253,108,370809,1,0,0:0:0:0:
366,235,370981,1,2,0:0:0:0:
160,100,371152,1,2,0:0:0:0:
408,156,371324,1,8,0:0:0:0:
260,297,371495,6,0,P|270:237|248:95,1,191.999994140625,2|0,0:0|0:0,0:0:0:0:
96,40,372009,1,8,0:0:0:0:
264,40,372181,1,2,0:0:0:0:
300,40,372267,1,10,0:0:0:0:
336,40,372352,1,2,0:0:0:0:
372,40,372438,1,10,0:0:0:0:
408,40,372523,1,2,0:0:0:0:
469,216,372695,2,0,P|484:170|488:123,1,95.9999970703126,8|0,0:0|0:0,0:0:0:0:
245,173,373038,6,0,P|315:190|403:159,1,160,4|8,0:0|0:0,0:0:0:0:
202,93,373552,1,0,0:0:0:0:
202,93,373724,2,0,P|161:85|106:91,1,80,2|0,0:0|0:0,0:0:0:0:
103,244,374067,2,0,P|143:251|199:246,1,80,8|0,0:0|0:0,0:0:0:0:
414,318,374409,6,0,P|380:288|367:243,1,80,2|0,0:0|0:0,0:0:0:0:
216,322,374752,2,0,P|250:292|263:247,1,80,8|0,0:0|0:0,0:0:0:0:
447,247,375095,2,0,P|413:217|400:172,1,80,2|0,0:0|0:0,0:0:0:0:
187,246,375438,2,0,P|221:216|234:171,1,80,8|0,0:0|0:0,0:0:0:0:
306,17,375781,6,0,P|293:70|327:181,1,160,2|8,0:0|0:0,0:0:0:0:
471,89,376295,1,0,0:0:0:0:
471,89,376467,2,0,P|431:86|386:92,1,80,2|0,0:0|0:0,0:0:0:0:
153,186,376809,2,0,P|193:189|238:183,1,80,8|0,0:0|0:0,0:0:0:0:
264,25,377152,5,2,0:0:0:0:
168,75,377324,1,0,0:0:0:0:
316,149,377495,1,8,0:0:0:0:
365,53,377667,1,2,0:0:0:0:
365,53,377752,1,2,0:0:0:0:
365,53,377838,1,2,0:0:0:0:
168,75,378009,1,2,0:0:0:0:
283,233,378181,2,0,P|322:235|362:232,1,80,8|0,0:0|0:0,0:0:0:0:
455,115,378524,6,0,P|408:134|283:124,1,160,2|8,0:0|0:0,0:0:0:0:
168,75,379038,1,0,0:0:0:0:
168,75,379209,2,0,P|165:129|149:157,1,80,2|0,0:0|0:0,0:0:0:0:
49,311,379552,2,0,P|52:257|68:229,1,80,8|0,0:0|0:0,0:0:0:0:
230,179,379895,6,0,P|200:213|155:226,1,80,2|0,0:0|0:0,0:0:0:0:
312,351,380238,2,0,P|282:317|237:304,1,80,8|0,0:0|0:0,0:0:0:0:
371,180,380581,2,0,P|341:214|296:227,1,80,2|0,0:0|0:0,0:0:0:0:
453,352,380924,2,0,P|423:318|378:305,1,80,8|0,0:0|0:0,0:0:0:0:
156,249,381267,6,0,P|204:256|326:213,1,160,2|8,0:0|0:0,0:0:0:0:
344,63,381781,1,0,0:0:0:0:
344,63,381952,2,0,P|356:112|356:151,1,80,2|0,0:0|0:0,0:0:0:0:
111,164,382295,2,0,P|99:115|99:76,1,80,8|0,0:0|0:0,0:0:0:0:
264,26,382638,5,2,0:0:0:0:
155,16,382809,1,0,0:0:0:0:
201,207,382981,1,8,0:0:0:0:
276,135,383152,1,2,0:0:0:0:
276,135,383238,1,10,0:0:0:0:
276,135,383324,2,0,L|276:183,1,40,2|10,0:0|0:0,0:0:0:0:
361,223,383495,2,0,L|361:271,1,40,2|2,0:0|0:0,0:0:0:0:
315,339,383667,2,0,P|275:340|236:332,1,80,8|0,0:0|0:0,0:0:0:0:
60,308,384009,6,0,P|138:297|214:320,1,160,4|8,0:0|0:0,0:0:0:0:
418,339,384524,1,0,0:0:0:0:
480,260,384695,2,0,P|482:220|477:181,1,80,2|0,0:0|0:0,0:0:0:0:
357,183,385038,2,0,P|355:223|361:263,1,80,8|0,0:0|0:0,0:0:0:0:
420,100,385381,6,0,P|390:66|345:53,1,80,2|0,0:0|0:0,0:0:0:0:
260,52,385724,2,0,P|223:67|198:98,1,80,8|0,0:0|0:0,0:0:0:0:
196,206,386067,2,0,P|226:240|271:253,1,80,2|0,0:0|0:0,0:0:0:0:
360,262,386410,2,0,P|396:246|421:215,1,80,8|0,0:0|0:0,0:0:0:0:
358,54,386752,6,0,P|275:40|198:64,1,160,2|8,0:0|0:0,0:0:0:0:
148,144,387267,1,0,0:0:0:0:
168,304,387438,2,0,P|184:251|187:219,1,80,2|0,0:0|0:0,0:0:0:0:
292,100,387781,2,0,P|276:153|273:185,1,80,8|0,0:0|0:0,0:0:0:0:
332,310,388124,5,2,0:0:0:0:
258,251,388295,1,0,0:0:0:0:
168,304,388467,2,0,P|118:301|80:303,1,80,8|0,0:0|0:0,0:0:0:0:
32,216,388809,1,2,0:0:0:0:
84,128,388981,1,0,0:0:0:0:
184,132,389152,2,0,P|186:182|181:214,1,80,8|0,0:0|0:0,0:0:0:0:
136,44,389495,6,0,P|200:40|314:55,1,160,2|8,0:0|0:0,0:0:0:0:
380,112,390009,1,0,0:0:0:0:
380,112,390181,2,0,P|385:151|381:191,1,80,2|0,0:0|0:0,0:0:0:0:
236,196,390524,2,0,P|230:156|234:116,1,80,8|0,0:0|0:0,0:0:0:0:
312,272,390867,6,0,P|318:318|313:351,1,80,2|0,0:0|0:0,0:0:0:0:
196,352,391209,2,0,P|190:306|195:273,1,80,8|0,0:0|0:0,0:0:0:0:
310,193,391552,2,0,P|316:239|311:272,1,80,2|0,0:0|0:0,0:0:0:0:
194,273,391895,2,0,P|188:227|193:194,1,80,8|0,0:0|0:0,0:0:0:0:
264,108,392238,6,0,P|324:100|432:120,2,160,2|8|2,0:0|0:0|0:0,0:0:0:0:
160,112,393095,1,0,0:0:0:0:
96,192,393267,2,0,P|94:236|98:274,1,80,8|0,0:0|0:0,0:0:0:0:
170,351,393609,5,10,0:0:0:0:
352,324,393781,1,2,0:0:0:0:
352,324,393867,1,2,0:0:0:0:
352,324,393952,1,8,0:0:0:0:
196,260,394124,1,2,0:0:0:0:
196,260,394210,1,2,0:0:0:0:
196,260,394295,1,8,0:0:0:0:
372,236,394467,1,2,0:0:0:0:
424,32,394638,2,0,P|371:28|329:31,1,80,8|0,0:0|0:0,0:0:0:0:
256,192,394981,5,4,0:0:0:0:
256,192,395067,12,0,399095,0:0:0:0:
