osu file format v14

[General]
AudioFilename: audio.mp3
AudioLeadIn: 0
PreviewTime: 17631
Countdown: 0
SampleSet: Soft
StackLeniency: 0.5
Mode: 0
LetterboxInBreaks: 0
WidescreenStoryboard: 1

[Editor]
Bookmarks: 756,9256,17756,25756,33756,41756,49756,57506,62631,63756,66006,72506,74006,81756,87756,89756
DistanceSpacing: 1.15
BeatDivisor: 4
GridSize: 8
TimelineZoom: 2.4

[Metadata]
Title:Astrosexy (Cut Ver.)
TitleUnicode:Astrosexy (Cut Ver.)
Artist:m-flo loves CHEMISTRY
ArtistUnicode:m-flo loves CHEMISTRY
Creator:Aranel
Version:Sexy
Source:
Tags:ASTROMANTIC feat. verbal taku 高橋拓 takahashi Universe j-pop now or never astro boy anime 2003 アストロボーイ・鉄腕アトム mighty atom meets pop japanese jpop j-urban urban sonnyc my angel nino my_angel_nino
BeatmapID:3049369
BeatmapSetID:1447312

[Difficulty]
HPDrainRate:5
CircleSize:4
OverallDifficulty:8.5
ApproachRate:9.3
SliderMultiplier:2.5
SliderTickRate:1

[Events]
//Background and Video events
0,0,"astromantic-standard-height-1440px-gigapixel.jpeg",0,0
//Break Periods
//Storyboard Layer 0 (Background)
//Storyboard Layer 1 (Fail)
//Storyboard Layer 2 (Pass)
//Storyboard Layer 3 (Foreground)
//Storyboard Layer 4 (Overlay)
//Storyboard Sound Samples

[TimingPoints]
1756,500,4,2,2,50,1,0
8693,-100,4,2,2,5,0,0
8756,-100,4,2,2,50,0,0
9256,-100,4,2,2,50,0,0
17131,-250,4,2,2,50,0,0
17756,-76.9230769230769,4,2,2,70,0,1
25318,-76.9230769230769,4,2,2,5,0,1
25381,-76.9230769230769,4,2,2,70,0,1
25443,-76.9230769230769,4,2,2,5,0,1
25506,-76.9230769230769,4,2,2,70,0,1
25568,-76.9230769230769,4,2,2,5,0,1
25631,-76.9230769230769,4,2,2,70,0,1
25693,-76.9230769230769,4,2,2,5,0,1
25756,-76.9230769230769,4,2,2,70,0,1
31756,-100,4,2,2,50,0,0
41256,-100,4,2,2,30,0,0
41756,-100,4,2,2,50,0,0
49756,-83.3333333333333,4,2,2,50,0,0
49943,-83.3333333333333,4,2,2,5,0,0
50006,-83.3333333333333,4,2,2,50,0,0
50443,-83.3333333333333,4,2,2,5,0,0
50506,-83.3333333333333,4,2,2,50,0,0
50943,-83.3333333333333,4,2,2,5,0,0
51006,-83.3333333333333,4,2,2,50,0,0
51443,-83.3333333333333,4,2,2,5,0,0
51506,-83.3333333333333,4,2,2,50,0,0
53943,-83.3333333333333,4,2,2,5,0,0
54006,-83.3333333333333,4,2,2,50,0,0
54443,-83.3333333333333,4,2,2,5,0,0
54506,-83.3333333333333,4,2,2,50,0,0
55443,-83.3333333333333,4,2,2,5,0,0
55506,-83.3333333333333,4,2,2,50,0,0
57193,-83.3333333333333,4,2,2,5,0,0
57256,-83.3333333333333,4,2,2,50,0,0
62568,-83.3333333333333,4,2,2,5,0,0
62631,-83.3333333333333,4,2,2,50,0,0
63693,-83.3333333333333,4,2,2,5,0,0
63756,-500,4,2,2,50,0,0
64443,-500,4,2,2,5,0,0
64506,-83.3333333333333,4,2,2,50,0,0
65756,-76.9230769230769,4,2,2,70,0,1
87756,-100,4,2,2,50,0,0
90256,-100,4,1,1,50,0,0
97756,-100,4,1,0,50,0,0

[Colours]
Combo1 : 250,48,48
Combo2 : 128,0,128
Combo3 : 0,103,206
Combo4 : 255,72,164

[HitObjects]
256,192,756,12,4,1756,0:0:0:0:
102,343,2006,6,0,L|199:354,1,62.5,2|2,0:0|0:0,0:0:0:0:
36,375,2256,2,0,L|96:361,1,62.5,2|2,0:0|0:0,0:0:0:0:
184,269,2506,2,0,L|242:290,1,62.5,2|2,0:0|0:0,0:0:0:0:
360,332,2756,1,2,0:0:0:0:
372,249,2881,1,2,0:0:0:0:
455,261,3006,1,2,0:0:0:0:
443,344,3131,1,2,0:0:0:0:
436,334,3381,5,2,0:0:0:0:
445,267,3506,1,2,0:0:0:0:
378,258,3631,1,2,0:0:0:0:
369,325,3756,1,2,0:0:0:0:
353,126,4006,5,2,0:0:0:0:
433,130,4131,2,0,L|369:100,1,62.5,2|0,0:0|0:0,0:0:0:0:
283,72,4381,1,2,0:0:0:0:
338,23,4506,2,0,L|238:56,1,62.5,2|0,0:0|0:0,0:0:0:0:
162,89,4756,1,2,0:0:0:0:
79,77,4881,1,2,0:0:0:0:
67,160,5006,1,2,0:0:0:0:
150,172,5131,1,2,0:0:0:0:
142,162,5381,5,2,0:0:0:0:
76,152,5506,1,2,0:0:0:0:
86,86,5631,1,2,0:0:0:0:
152,96,5756,1,2,0:0:0:0:
259,283,5881,1,2,0:0:0:0:
243,203,6006,1,2,0:0:0:0:
229,125,6131,1,2,0:0:0:0:
215,46,6256,1,2,0:0:0:0:
360,159,6381,5,2,0:0:0:0:
348,224,6506,1,2,0:0:0:0:
336,289,6631,1,2,0:0:0:0:
324,354,6756,1,2,0:0:0:0:
429,286,6881,1,2,0:0:0:0:
512,274,7006,1,2,0:0:0:0:
500,191,7131,1,2,0:0:0:0:
417,203,7256,1,2,0:0:0:0:
324,354,7506,6,0,L|259:345,1,62.5,2|0,0:0|0:0,0:0:0:0:
196,266,7756,2,0,B|115:282|152:245|66:262,1,125
171,77,8256,2,0,B|230:91|248:158|248:158|274:98|344:88,1,218.75,2|0,0:0|0:0,0:0:0:0:
334,91,8756,2,0,P|380:131|401:190,1,125,2|0,0:0|0:0,0:0:0:0:
401,190,9131,1,0,0:0:0:0:
339,275,9256,2,0,L|307:286,6,31.25,2|2|2|2|2|2|2,0:0|0:0|0:0|0:0|0:0|0:0|0:0,0:0:0:0:
243,160,9756,1,6,0:0:0:0:
421,349,10006,6,0,L|324:360,1,62.5,2|2,0:0|0:0,0:0:0:0:
487,381,10256,2,0,L|427:367,1,62.5,2|2,0:0|0:0,0:0:0:0:
339,275,10506,2,0,L|281:296,1,62.5,2|2,0:0|0:0,0:0:0:0:
152,331,10756,1,2,0:0:0:0:
140,248,10881,1,2,0:0:0:0:
57,260,11006,1,2,0:0:0:0:
69,343,11131,1,2,0:0:0:0:
75,333,11381,5,2,0:0:0:0:
66,266,11506,1,2,0:0:0:0:
133,257,11631,1,2,0:0:0:0:
142,324,11756,1,2,0:0:0:0:
159,126,12006,5,2,0:0:0:0:
79,130,12131,2,0,L|143:100,1,62.5,2|0,0:0|0:0,0:0:0:0:
229,72,12381,1,2,0:0:0:0:
174,23,12506,2,0,L|274:56,1,62.5,2|0,0:0|0:0,0:0:0:0:
350,89,12756,1,2,0:0:0:0:
433,77,12881,1,2,0:0:0:0:
445,160,13006,1,2,0:0:0:0:
362,172,13131,1,2,0:0:0:0:
370,162,13381,5,2,0:0:0:0:
436,152,13506,1,2,0:0:0:0:
426,86,13631,1,2,0:0:0:0:
360,96,13756,1,2,0:0:0:0:
253,283,13881,1,2,0:0:0:0:
269,203,14006,1,2,0:0:0:0:
283,125,14131,1,2,0:0:0:0:
297,46,14256,1,2,0:0:0:0:
152,159,14381,5,2,0:0:0:0:
164,224,14506,1,2,0:0:0:0:
176,289,14631,1,2,0:0:0:0:
188,354,14756,1,2,0:0:0:0:
83,286,14881,1,2,0:0:0:0:
0,274,15006,1,2,0:0:0:0:
12,191,15131,1,2,0:0:0:0:
95,203,15256,1,2,0:0:0:0:
332,97,15756,6,0,L|265:79,1,62.5,2|2,0:0|0:0,0:0:0:0:
407,114,16006,2,0,L|340:137,1,62.5,2|2,0:0|0:0,0:0:0:0:
494,83,16256,2,0,B|488:132|488:132|497:163|497:163|491:206,1,125,2|2,0:0|0:0,0:0:0:0:
471,293,16631,1,2,0:0:0:0:
410,238,16756,2,0,P|348:244|294:281,1,125,2|2,0:0|0:0,0:0:0:0:
233,375,17131,2,0,P|211:359|245:367,1,100,2|0,0:0|0:0,0:0:0:0:
278,98,17756,6,0,B|179:81|205:138|103:122,1,162.499992561341,6|2,1:2|0:0,0:0:0:0:
121,124,18131,1,2,0:0:0:0:
212,2,18256,2,0,B|237:39|228:91,1,81.2499962806703,10|0,0:0|0:0,0:0:0:0:
338,155,18506,2,0,B|366:119|355:68,1,81.2499962806703,2|0,0:0|0:0,0:0:0:0:
512,100,18756,5,0,1:2:0:0:
444,227,18881,2,0,L|430:134,1,81.2499962806703,2|0,0:0|0:0,0:0:0:0:
512,303,19131,1,2,0:0:0:0:
393,384,19256,2,0,L|408:291,1,81.2499962806703,10|0,0:0|0:0,0:0:0:0:
282,241,19506,1,2,0:0:0:0:
233,311,19631,1,0,0:0:0:0:
180,381,19756,6,0,P|193:302|185:221,1,162.499992561341,0|2,1:2|0:0,0:0:0:0:
184,220,20131,1,0,0:0:0:0:
43,197,20256,2,0,P|34:234|36:277,1,81.2499962806703,10|2,0:0|0:0,0:0:0:0:
85,86,20506,2,0,P|47:75|5:79,1,81.2499962806703,2|2,0:0|0:0,0:0:0:0:
189,134,20756,6,0,L|194:52,1,81.2499962806703,2|0,1:2|0:0,0:0:0:0:
315,203,21006,2,0,L|309:121,1,81.2499962806703
127,318,21256,2,0,P|124:276|136:235,1,81.2499962806703,10|2,0:0|0:0,0:0:0:0:
376,384,21506,2,0,P|376:338|366:302,1,81.2499962806703,2|2,0:0|0:0,0:0:0:0:
223,223,21756,6,0,B|143:232|143:232|142:238|142:238|67:249,1,162.499992561341,6|2,1:2|0:0,0:0:0:0:
66,249,22131,1,0,0:0:0:0:
3,112,22256,2,0,B|82:121|82:121|83:127|83:127|158:138,1,162.499992561341,10|2,0:0|0:0,0:0:0:0:
158,138,22631,1,0,0:0:0:0:
322,68,22756,1,0,1:2:0:0:
322,68,22881,2,0,B|277:53|247:10|247:10|225:35|187:40,1,162.499992561341,2|2,0:0|0:0,0:0:0:0:
361,179,23256,2,0,P|404:162|436:130,1,81.2499962806703,8|0,0:0|0:0,0:0:0:0:
250,152,23506,1,2,0:0:0:0:
229,251,23631,1,0,0:0:0:0:
336,357,23756,6,0,P|254:311|228:245,1,162.499992561341,2|2,1:2|0:0,0:0:0:0:
250,152,24131,1,2,0:0:0:0:
269,52,24256,2,0,L|188:38,1,81.2499962806703,10|0,0:0|0:0,0:0:0:0:
1,68,24506,1,0,0:0:0:0:
30,178,24631,1,0,0:0:0:0:
140,149,24756,1,2,1:2:0:0:
111,39,24881,1,0,0:0:0:0:
30,178,25006,2,0,L|21:273,1,81.2499962806703
125,331,25256,6,0,L|118:275,1,40.6249981403352,10|0,0:0|0:0,0:0:0:0:
144,343,25381,2,0,L|137:287,1,40.6249981403352,2|0,0:0|0:0,0:0:0:0:
228,188,25506,2,0,L|221:244,1,40.6249981403352,2|0,0:0|0:0,0:0:0:0:
245,178,25631,2,0,L|238:234,1,40.6249981403352,2|0,0:0|0:0,0:0:0:0:
346,326,25756,6,0,B|435:319|411:377|514:364,1,162.499992561341,6|2,1:2|0:0,0:0:0:0:
499,365,26131,1,2,0:0:0:0:
363,248,26256,2,0,B|340:284|347:337,1,81.2499962806703,8|0,0:0|0:0,0:0:0:0:
498,217,26506,2,0,B|504:172|479:139,1,81.2499962806703,2|0,0:0|0:0,0:0:0:0:
396,60,26756,5,2,1:2:0:0:
283,157,26881,2,0,L|376:166,1,81.2499962806703,2|0,0:0|0:0,0:0:0:0:
202,82,27131,1,2,0:0:0:0:
111,231,27256,2,0,L|203:211,1,81.2499962806703,10|0,0:0|0:0,0:0:0:0:
23,181,27506,1,2,0:0:0:0:
14,265,27631,1,0,0:0:0:0:
2,349,27756,6,0,P|48:283|111:232,1,162.499992561341,2|2,1:2|0:0,0:0:0:0:
111,231,28131,1,0,0:0:0:0:
260,263,28256,2,0,P|260:304|247:344,1,81.2499962806703,10|2,0:0|0:0,0:0:0:0:
235,146,28506,2,0,P|275:143|313:155,1,81.2499962806703,2|2,0:0|0:0,0:0:0:0:
452,165,28756,6,0,L|465:247,1,81.2499962806703,2|0,1:2|0:0,0:0:0:0:
477,49,29006,2,0,L|395:61,1,81.2499962806703,2|0,0:0|0:0,0:0:0:0:
313,155,29256,2,0,P|275:143|235:146,1,81.2499962806703,10|2,0:0|0:0,0:0:0:0:
247,342,29506,2,0,P|260:303|260:263,1,81.2499962806703,2|2,0:0|0:0,0:0:0:0:
68,250,29756,6,0,B|59:171|59:171|53:170|53:170|42:95,1,162.499992561341,6|2,1:2|0:0,0:0:0:0:
41,93,30131,1,0,0:0:0:0:
174,20,30256,2,0,B|165:99|165:99|159:100|159:100|148:175,1,162.499992561341,10|2,0:0|0:0,0:0:0:0:
147,176,30631,1,0,0:0:0:0:
260,262,30756,1,2,1:2:0:0:
260,262,30881,2,0,B|297:236|320:195|320:195|316:152|286:126,1,162.499992561341,2|2,0:0|0:0,0:0:0:0:
171,293,31256,2,0,P|197:338|239:356,1,81.2499962806703,8|0,0:0|0:0,0:0:0:0:
339,382,31506,5,2,1:2:0:0:
366,284,31631,1,2,1:2:0:0:
476,225,31756,2,0,P|423:259|366:284,1,125,2|0,0:0|0:0,0:0:0:0:
366,283,32131,1,0,0:0:0:0:
57,30,32506,2,0,L|48:113,1,62.5,2|0,0:0|0:0,0:0:0:0:
111,195,32756,1,0,0:0:0:0:
148,114,32881,1,0,0:0:0:0:
27,177,33006,2,0,P|26:210|37:240,1,62.5,2|2,0:0|0:0,0:0:0:0:
143,340,33256,5,10,0:0:0:0:
224,324,33381,1,2,1:2:0:0:
303,255,33506,1,2,1:2:0:0:
384,271,33631,1,0,1:2:0:0:
504,378,33756,6,0,L|483:210,1,125,6|2,0:0|0:0,0:0:0:0:
430,180,34131,2,0,L|446:47,1,125,2|0,0:0|0:0,0:0:0:0:
485,110,34506,1,2,0:0:0:0:
485,110,34631,1,2,0:0:0:0:
341,190,34756,6,0,P|310:197|279:196,1,62.5,2|0,0:0|0:0,0:0:0:0:
339,67,35006,2,0,P|360:90|374:118,1,62.5,2|2,0:0|0:0,0:0:0:0:
236,131,35256,2,0,P|245:101|261:74,1,62.5,2|2,0:0|0:0,0:0:0:0:
260,74,35506,1,2,0:0:0:0:
189,46,35631,1,0,0:0:0:0:
111,29,35756,6,0,L|132:197,1,125,2|2,0:0|0:0,0:0:0:0:
179,210,36131,2,0,L|158:378,1,125,2|0,0:0|0:0,0:0:0:0:
97,370,36506,1,2,0:0:0:0:
264,264,36756,5,2,0:0:0:0:
339,237,36881,1,2,0:0:0:0:
400,289,37006,2,0,L|391:367,1,62.5,2|2,0:0|0:0,0:0:0:0:
470,225,37256,2,0,L|477:287,1,62.5,2|0,0:0|0:0,0:0:0:0:
346,174,37506,2,0,L|337:252,1,62.5,2|0,0:0|0:0,0:0:0:0:
425,73,37756,6,0,P|364:66|313:101,1,125,2|2,0:0|0:0,0:0:0:0:
237,119,38131,2,0,P|189:157|178:217,1,125,2|0,0:0|0:0,0:0:0:0:
208,290,38506,1,2,0:0:0:0:
208,290,38631,1,2,0:0:0:0:
159,350,38756,6,0,B|85:340|113:318|38:305,1,125,2|2,0:0|0:0,0:0:0:0:
2,228,39131,2,0,B|75:218|47:196|122:183,1,125,2|0,0:0|0:0,0:0:0:0:
196,182,39506,1,2,0:0:0:0:
196,182,39631,1,0,0:0:0:0:
210,258,39756,6,0,P|255:300|317:310,1,125,2|2,0:0|0:0,0:0:0:0:
294,117,40131,2,0,P|235:134|195:183,1,125,2|0,0:0|0:0,0:0:0:0:
386,225,40506,1,2,0:0:0:0:
376,147,40631,1,0,0:0:0:0:
367,65,40756,2,0,L|439:48,1,62.5,2|0,0:0|0:0,0:0:0:0:
294,117,41006,2,0,L|232:103,1,62.5,2|0,0:0|0:0,0:0:0:0:
137,33,41256,2,0,L|107:41,7,31.25,8|8|8|8|8|8|8|8,0:0|0:0|0:0|0:0|0:0|0:0|0:0|0:0,0:0:0:0:
89,47,41756,6,0,B|69:82|69:82|95:169,1,125,6|2,0:0|0:0,0:0:0:0:
134,263,42131,2,0,B|158:344|158:344|138:379,1,125,10|0,0:0|0:0,0:0:0:0:
0,318,42506,2,0,P|25:298|55:290,1,62.5,2|0,1:2|0:0,0:0:0:0:
194,305,42756,6,0,L|258:322,1,62.5,2|2,0:0|0:0,0:0:0:0:
364,224,43006,2,0,L|304:241,1,62.5,2|2,1:2|0:0,0:0:0:0:
133,179,43256,2,0,L|197:196,1,62.5,10|0,0:0|0:0,0:0:0:0:
271,91,43506,1,2,0:0:0:0:
353,59,43631,1,0,0:0:0:0:
432,34,43756,6,0,B|464:58|464:58|473:142,1,125,2|0,1:2|0:0,0:0:0:0:
511,226,44131,2,0,B|501:310|501:310|469:334,1,125,2|2,1:2|0:0,0:0:0:0:
367,348,44506,5,10,0:0:0:0:
351,266,44631,1,0,0:0:0:0:
338,183,44756,1,2,0:0:0:0:
274,236,44881,1,0,0:0:0:0:
206,289,45006,2,0,L|215:367,1,62.5,2|2,1:2|0:0,0:0:0:0:
109,221,45256,2,0,L|100:299,1,62.5,10|2,0:0|0:0,0:0:0:0:
266,173,45506,2,0,L|274:236,1,62.5,2|2,0:0|0:0,0:0:0:0:
150,118,45756,6,0,B|89:112|89:112|85:114|85:114|26:106,1,125,2|2,1:2|0:0,0:0:0:0:
34,19,46131,2,0,B|92:26|92:26|96:24|96:24|157:30,1,125,10|0,0:0|0:0,0:0:0:0:
238,75,46506,1,2,1:2:0:0:
238,75,46631,1,0,0:0:0:0:
329,54,46756,6,0,B|390:43|390:43|444:74,1,125,2|2,0:0|1:2,0:0:0:0:
434,166,47131,2,0,B|372:176|372:176|318:145,1,125,2|0,0:0|0:0,0:0:0:0:
234,164,47506,1,2,0:0:0:0:
234,164,47631,1,0,0:0:0:0:
228,254,47756,6,0,B|183:296|183:296|121:306,1,125,2|0,1:2|0:0,0:0:0:0:
134,97,48131,2,0,B|193:114|193:114|233:163,1,125,2|0,1:2|0:0,0:0:0:0:
41,216,48506,1,10,0:0:0:0:
52,129,48631,1,0,0:0:0:0:
60,42,48756,2,0,L|-12:25,1,62.5,2|0,0:0|0:0,0:0:0:0:
194,83,49006,2,0,L|134:97,1,62.5,0|0,1:2|0:0,0:0:0:0:
289,11,49256,2,0,L|350:26,1,62.5,8|0,0:0|0:0,0:0:0:0:
511,121,49506,1,2,0:0:0:0:
489,219,49631,1,2,0:0:0:0:
468,316,49756,6,0,P|431:326|353:302,1,112.499996566773,4|0,1:2|0:0,0:0:0:0:
346,305,50006,1,2,3:2:0:0:
382,195,50131,1,2,0:0:0:0:
448,341,50256,6,0,P|409:341|340:297,1,112.499996566773,12|0,0:0|0:0,0:0:0:0:
334,299,50506,1,2,0:0:0:0:
395,202,50631,1,2,0:0:0:0:
423,360,50756,6,0,P|385:350|330:290,1,112.499996566773,4|0,1:2|0:0,0:0:0:0:
323,286,51006,1,2,0:0:0:0:
408,209,51131,1,2,0:0:0:0:
394,368,51256,6,0,P|360:348|322:276,1,112.499996566773,12|0,0:0|0:0,0:0:0:0:
320,270,51506,1,2,0:0:0:0:
219,252,51631,2,0,P|182:256|150:275,1,74.9999977111817,2|4,0:0|1:2,0:0:0:0:
139,152,51881,5,2,0:0:0:0:
139,152,52006,2,0,P|205:159|285:119,2,149.999995422363,2|10|2,3:2|0:0|0:0,0:0:0:0:
262,24,52631,1,2,0:0:0:0:
262,24,52756,2,0,B|335:34|335:34|336:40|336:40|405:53,1,149.999995422363,2|2,1:2|0:0,0:0:0:0:
483,165,53131,2,0,P|489:128|478:92,1,74.9999977111817,2|8,0:0|0:0,0:0:0:0:
347,176,53381,1,2,0:0:0:0:
347,176,53506,2,0,P|377:199|413:207,1,74.9999977111817,2|0,0:0|0:0,0:0:0:0:
300,36,53756,6,0,B|245:20|245:20|192:35,1,112.499996566773,4|0,1:2|0:0,0:0:0:0:
177,39,54006,1,2,3:2:0:0:
194,144,54131,1,2,0:0:0:0:
280,9,54256,6,0,B|223:7|223:7|176:39,1,112.499996566773,12|0,0:0|0:0,0:0:0:0:
163,52,54506,1,2,0:0:0:0:
101,138,54631,2,0,B|105:172|105:172|108:178|108:178|113:211,1,74.9999977111817,2|4,0:0|1:2,0:0:0:0:
188,321,54881,5,2,0:0:0:0:
281,345,55006,1,2,0:0:0:0:
255,253,55131,1,2,0:0:0:0:
323,182,55256,2,0,L|356:320,1,112.499996566773,14|0,0:0|0:0,0:0:0:0:
374,369,55506,1,2,0:0:0:0:
374,369,55631,1,2,0:0:0:0:
485,240,55756,6,0,P|480:200|464:168,1,74.9999977111817,4|0,1:2|0:0,0:0:0:0:
343,111,56006,2,0,P|326:144|322:181,1,74.9999977111817,2|0,3:2|0:0,0:0:0:0:
512,234,56256,6,0,P|507:194|491:162,1,74.9999977111817,10|0,0:0|0:0,0:0:0:0:
430,66,56506,1,2,0:0:0:0:
430,66,56631,1,2,0:0:0:0:
343,110,56756,1,2,1:2:0:0:
258,156,56881,1,2,0:0:0:0:
172,94,57006,2,0,P|225:111|258:155,1,112.499996566773,2|0,0:0|0:0,0:0:0:0:
250,241,57256,1,10,0:0:0:0:
250,241,57381,1,2,0:0:0:0:
78,276,57506,5,2,0:0:0:0:
78,276,57631,2,0,P|62:199|94:128,1,149.999995422363,2|2,0:0|0:0,0:0:0:0:
172,94,58006,2,0,P|209:102|239:124,1,74.9999977111817,2|2,3:2|0:0,0:0:0:0:
103,28,58256,2,0,P|135:7|171:1,1,74.9999977111817,10|2,0:0|0:0,0:0:0:0:
310,4,58506,5,2,0:0:0:0:
386,64,58631,2,0,P|402:141|370:212,1,149.999995422363,2|2,0:0|0:0,0:0:0:0:
283,236,59006,1,2,0:0:0:0:
284,333,59131,1,2,0:0:0:0:
375,365,59256,1,10,0:0:0:0:
433,284,59381,1,2,0:0:0:0:
507,56,59631,6,0,B|459:50|430:20|430:20|416:48|386:64,1,149.999995422363,2|2,0:0|0:0,0:0:0:0:
303,120,60006,2,0,P|261:114|224:88,1,74.9999977111817,2|2,3:2|0:0,0:0:0:0:
172,18,60256,1,10,0:0:0:0:
76,56,60381,1,2,0:0:0:0:
95,290,60631,6,0,L|82:126,2,149.999995422363,2|2|2,0:0|0:0|0:0,0:0:0:0:
181,332,61256,1,10,0:0:0:0:
232,249,61381,1,2,0:0:0:0:
347,315,61506,5,2,0:0:0:0:
347,315,61631,2,0,P|423:323|476:279,1,149.999995422363,2|2,0:0|0:0,0:0:0:0:
464,181,62006,1,2,3:2:0:0:
372,148,62131,1,2,0:0:0:0:
311,224,62256,1,10,0:0:0:0:
347,315,62381,2,0,P|291:358|231:357,1,112.499996566773,2|0,0:0|0:0,0:0:0:0:
181,332,62631,6,0,P|136:269|145:201,1,149.999995422363,2|2,0:0|0:0,0:0:0:0:
252,97,63006,1,2,0:0:0:0:
288,188,63131,1,2,0:0:0:0:
82,148,63256,1,10,0:0:0:0:
126,54,63381,2,0,P|169:14|301:18,1,187.499994277954,2|0,0:0|0:0,0:0:0:0:
357,46,63756,6,0,P|334:34|348:57,1,68.75,2|0,0:0|0:0,0:0:0:0:
360,49,64506,5,2,0:0:0:0:
330,140,64631,1,2,0:0:0:0:
510,109,64756,1,2,0:0:0:0:
446,37,64881,1,2,0:0:0:0:
383,208,65006,1,2,0:0:0:0:
477,189,65131,1,2,0:0:0:0:
330,140,65256,2,0,B|200:148|246:213|138:246,1,224.999993133545,2|0,0:0|0:0,0:0:0:0:
72,342,65756,6,0,P|56:249|37:169,1,162.499992561341,6|2,1:2|0:0,0:0:0:0:
11,79,66131,1,0,0:0:0:0:
159,18,66256,2,0,P|148:61|141:105,1,81.2499962806703,8|0,0:0|0:0,0:0:0:0:
302,142,66506,2,0,P|295:101|285:62,1,81.2499962806703,2|0,0:0|0:0,0:0:0:0:
452,258,66756,5,2,1:2:0:0:
491,156,66881,1,2,1:2:0:0:
390,118,67006,1,2,1:2:0:0:
351,218,67131,1,2,1:2:0:0:
452,258,67256,2,0,L|427:335,1,81.2499962806703,10|0,0:0|0:0,0:0:0:0:
265,321,67506,1,2,0:0:0:0:
340,376,67631,1,2,0:0:0:0:
427,335,67756,6,0,P|346:323|265:321,1,162.499992561341,4|2,1:2|0:0,0:0:0:0:
159,377,68131,1,0,0:0:0:0:
60,290,68256,2,0,P|57:250|67:211,1,81.2499962806703,8|0,0:0|0:0,0:0:0:0:
208,180,68506,2,0,P|211:139|201:100,1,81.2499962806703,2|0,0:0|0:0,0:0:0:0:
61,38,68756,5,2,1:2:0:0:
162,0,68881,1,2,1:2:0:0:
201,100,69006,1,2,1:2:0:0:
100,140,69131,1,2,1:2:0:0:
201,100,69256,2,0,P|275:80|361:76,1,162.499992561341,10|2,0:0|0:0,0:0:0:0:
485,101,69631,1,2,0:0:0:0:
459,7,69756,6,0,P|398:56|397:146,1,162.499992561341,6|2,1:2|0:0,0:0:0:0:
425,233,70131,1,2,0:0:0:0:
333,305,70256,2,0,L|349:384,1,81.2499962806703,8|0,0:0|0:0,0:0:0:0:
492,343,70506,2,0,L|508:264,1,81.2499962806703
305,169,70756,6,0,P|229:154|173:209,1,162.499992561341,2|2,1:2|0:0,0:0:0:0:
127,320,71131,1,2,0:0:0:0:
42,252,71256,2,0,L|27:158,1,81.2499962806703,8|0,0:0|0:0,0:0:0:0:
200,115,71506,5,2,0:0:0:0:
172,209,71631,1,0,0:0:0:0:
267,296,71756,2,0,B|349:301|353:241|462:257,1,162.499992561341,2|2,1:2|0:0,0:0:0:0:
511,167,72131,1,2,0:0:0:0:
442,75,72256,2,0,P|380:130|367:188,1,81.2499962806703,8|0,0:0|0:0,0:0:0:0:
261,106,72506,2,0,P|251:145|256:186,1,81.2499962806703,2|0,0:0|0:0,0:0:0:0:
343,323,72756,5,2,1:2:0:0:
267,296,72881,1,0,0:0:0:0:
390,244,73006,1,2,0:0:0:0:
477,276,73131,1,0,0:0:0:0:
349,152,73256,1,10,1:2:0:0:
256,186,73381,1,0,0:0:0:0:
89,128,73506,1,2,1:2:0:0:
194,88,73631,1,0,0:0:0:0:
14,23,73756,6,0,B|54:62|51:122|51:122|48:176,1,162.499992561341,4|2,1:2|0:0,0:0:0:0:
21,287,74131,1,0,0:0:0:0:
134,242,74256,2,0,P|176:238|212:255,1,81.2499962806703,8|0,0:0|0:0,0:0:0:0:
275,363,74506,2,0,P|317:366|353:349,1,81.2499962806703,2|0,0:0|0:0,0:0:0:0:
487,279,74756,5,2,1:2:0:0:
383,249,74881,1,2,1:2:0:0:
351,350,75006,1,2,1:2:0:0:
455,383,75131,1,2,1:2:0:0:
487,279,75256,2,0,P|470:204|435:126,1,162.499992561341,10|2,0:0|0:0,0:0:0:0:
356,39,75631,1,2,0:0:0:0:
507,0,75756,6,0,P|443:47|435:126,1,162.499992561341,6|2,1:2|0:0,0:0:0:0:
479,232,76131,1,0,0:0:0:0:
412,340,76256,2,0,L|309:349,1,81.2499962806703,8|0,0:0|0:0,0:0:0:0:
222,222,76506,2,0,L|303:230,1,81.2499962806703,2|0,0:0|0:0,0:0:0:0:
109,354,76756,5,2,1:2:0:0:
31,247,76881,1,2,1:2:0:0:
0,384,77006,1,2,1:2:0:0:
141,235,77131,1,2,1:2:0:0:
230,381,77256,2,0,B|312:373|312:373|312:367|312:367|386:360,1,162.499992561341,10|2,0:0|0:0,0:0:0:0:
512,384,77631,1,2,0:0:0:0:
472,247,77756,6,0,P|402:283|386:360,1,162.499992561341,6|2,1:2|0:0,0:0:0:0:
271,300,78131,1,2,0:0:0:0:
271,300,78256,2,0,P|298:269|310:231,1,81.2499962806703,8|0,0:0|0:0,0:0:0:0:
290,141,78506,2,0,P|260:114|222:102,1,81.2499962806703,2|0,0:0|0:0,0:0:0:0:
99,34,78756,6,0,L|122:195,1,162.499992561341,2|2,1:2|0:0,0:0:0:0:
17,330,79131,1,2,0:0:0:0:
17,330,79256,2,0,L|93:271,1,81.2499962806703,10|0,0:0|0:0,0:0:0:0:
250,296,79506,2,0,L|160:261,1,81.2499962806703,2|0,0:0|0:0,0:0:0:0:
0,134,79756,6,0,B|38:112|80:122|80:122|108:94|108:94|143:113|143:113|180:92|222:102,1,243.749988842011,2|2,1:2|0:0,0:0:0:0:
122,194,80256,1,8,0:0:0:0:
401,32,80506,2,0,B|376:17|348:24|348:24|330:6|330:6|307:18|307:18|282:5|253:10,1,162.499992561341,2|2,0:2|1:2,0:0:0:0:
122,194,81006,2,0,L|106:113,1,81.2499962806703,2|2,0:0|0:0,0:0:0:0:
67,271,81256,2,0,P|145:285|206:235,1,162.499992561341,10|0,0:0|0:0,0:0:0:0:
512,280,81756,6,0,B|468:271|428:293|451:305|407:343|366:331,1,162.499992561341,6|2,1:2|0:0,0:0:0:0:
366,331,82132,1,2,0:0:0:0:
311,237,82256,2,0,B|302:196|327:160,1,81.2499962806703,10|0,0:0|0:0,0:0:0:0:
224,299,82507,2,0,B|201:263|206:221,1,81.2499962806703,2|0,0:0|0:0,0:0:0:0:
305,384,82757,5,0,1:2:0:0:
224,299,82882,2,0,L|302:278,1,81.2499962806703,2|0,0:0|0:0,0:0:0:0:
126,366,83132,1,2,0:0:0:0:
46,236,83256,2,0,L|125:253,1,81.2499962806703,10|0,0:0|0:0,0:0:0:0:
283,103,83507,1,2,0:0:0:0:
191,122,83632,1,0,0:0:0:0:
120,73,83757,6,0,P|167:140|230:191,1,162.499992561341,2|2,1:2|0:0,0:0:0:0:
230,191,84132,1,0,0:0:0:0:
380,79,84256,2,0,P|382:119|392:158,1,81.2499962806703,10|2,0:0|0:0,0:0:0:0:
495,229,84506,2,0,P|454:231|415:241,1,81.2499962806703,2|2,0:0|0:0,0:0:0:0:
345,344,84757,6,0,L|332:263,1,81.2499962806703,2|0,1:2|0:0,0:0:0:0:
230,191,85007,2,0,L|310:178,1,81.2499962806703
186,63,85257,2,0,L|105:50,1,81.2499962806703,10|2,0:0|0:0,0:0:0:0:
74,217,85507,2,0,L|86:136,1,81.2499962806703,2|2,0:0|0:0,0:0:0:0:
15,295,85757,6,0,B|94:304|94:304|95:310|95:310|171:321,1,162.499992561341,6|2,1:2|0:0,0:0:0:0:
171,321,86132,1,0,0:0:0:0:
230,191,86257,2,0,B|151:200|151:200|150:206|150:206|74:218,1,162.499992561341,10|2,0:0|0:0,0:0:0:0:
73,217,86632,1,0,0:0:0:0:
14,92,86757,1,2,1:2:0:0:
14,92,86881,2,0,B|48:85|78:32|78:32|103:81|154:85,1,162.499992561341,2|2,0:0|0:0,0:0:0:0:
229,191,87256,2,0,P|246:154|244:113,1,81.2499962806703,10|0,0:0|0:0,0:0:0:0:
361,241,87506,2,0,P|362:200|345:164,1,81.2499962806703,2|0,0:0|0:0,0:0:0:0:
416,80,87757,1,2,1:2:0:0:
256,192,87881,12,4,89756,0:2:0:0:
