osu file format v14

[General]
AudioFilename: audio.mp3
AudioLeadIn: 0
PreviewTime: 17631
Countdown: 0
SampleSet: Soft
StackLeniency: 0.7
Mode: 0
LetterboxInBreaks: 0
WidescreenStoryboard: 1

[Editor]
Bookmarks: 756,9256,17756,33756,49756,57506,62631,63756,66006,72506,74006,81756,87756,89756
DistanceSpacing: 1.3
BeatDivisor: 4
GridSize: 8
TimelineZoom: 1.2

[Metadata]
Title:Astrosexy (Cut Ver.)
TitleUnicode:Astrosexy (Cut Ver.)
Artist:m-flo loves CHEMISTRY
ArtistUnicode:m-flo loves CHEMISTRY
Creator:Aranel
Version:Normal
Source:
Tags:ASTROMANTIC feat. verbal taku 高橋拓 takahashi Universe j-pop now or never astro boy anime 2003 アストロボーイ・鉄腕アトム mighty atom meets pop japanese jpop j-urban urban sonnyc my angel nino my_angel_nino
BeatmapID:3011267
BeatmapSetID:1447312

[Difficulty]
HPDrainRate:3
CircleSize:4
OverallDifficulty:5
ApproachRate:5
SliderMultiplier:2.56
SliderTickRate:1

[Events]
//Background and Video events
0,0,"astromantic-standard-height-1440px-gigapixel.jpeg",0,0
//Break Periods
//Storyboard Layer 0 (Background)
//Storyboard Layer 1 (Fail)
//Storyboard Layer 2 (Pass)
//Storyboard Layer 3 (Foreground)
//Storyboard Layer 4 (Overlay)
//Storyboard Sound Samples

[TimingPoints]
1756,500,4,2,2,50,1,0
1756,-200,4,2,2,50,0,0
17131,-200,4,2,2,50,0,0
17756,-200,4,2,2,70,0,1
33756,-200,4,2,2,50,0,0
49756,-200,4,2,2,70,0,0
63756,-200,4,2,2,50,0,0
65756,-200,4,2,2,70,0,1
81756,-200,4,2,2,70,0,1
87756,-200,4,2,2,50,0,0
90256,-200,4,1,1,40,0,0
91756,-200,4,1,1,35,0,0
92756,-200,4,1,1,30,0,0
93756,-200,4,1,1,25,0,0
94756,-200,4,1,1,20,0,0
95756,-200,4,1,1,15,0,0
96756,-200,4,1,1,10,0,0
97756,-200,4,1,0,10,0,0

[Colours]
Combo1 : 250,48,48
Combo2 : 128,0,128
Combo3 : 0,103,206
Combo4 : 255,72,164

[HitObjects]
8,384,1756,6,0,L|23:299,1,64,4|2,0:0|0:0,0:0:0:0:
84,268,2256,2,0,L|69:183,1,64,2|2,0:0|0:0,0:0:0:0:
5,157,2756,2,0,B|12:108|12:108|54:77,1,96,2|2,0:0|0:0,0:0:0:0:
248,24,3756,1,2,0:0:0:0:
327,0,4006,2,0,B|390:-9|390:-9|452:27,1,128,2|2,0:0|0:0,0:0:0:0:
501,85,4756,2,0,L|483:199,1,96,2|2,0:0|0:0,0:0:0:0:
512,384,5756,6,0,B|460:365|460:365|451:356|451:356|388:337,1,128,2|2,0:0|0:0,0:0:0:0:
312,358,6506,1,2,0:0:0:0:
257,295,6756,2,0,B|232:261|232:261|192:245|192:245|148:250,1,128,2|2,0:0|0:0,0:0:0:0:
48,44,8256,6,0,B|142:55|142:55|197:12|197:12|287:24,1,256,2|2,0:0|0:0,0:0:0:0:
454,16,9756,6,0,B|458:51|458:51|447:78,1,64,6|2,0:0|0:0,0:0:0:0:
379,125,10256,2,0,B|375:160|375:160|387:187,1,64,2|2,0:0|0:0,0:0:0:0:
447,242,10756,2,0,B|454:291|454:291|422:333,1,96,2|2,0:0|0:0,0:0:0:0:
223,376,11756,1,2,0:0:0:0:
174,308,12006,2,0,B|160:264|160:264|182:185,1,128,2|2,0:0|0:0,0:0:0:0:
250,138,12756,2,0,L|358:160,1,96,2|2,0:0|0:0,0:0:0:0:
198,8,13756,6,0,B|156:20|156:20|135:53|135:53|92:67,1,128,2|2,0:0|0:0,0:0:0:0:
24,116,14506,1,2,0:0:0:0:
93,161,14756,2,0,B|126:189|126:189|99:272,1,128,2|2,0:0|0:0,0:0:0:0:
238,362,15756,2,0,B|303:357|303:357|324:312|324:312|310:289|310:289|332:245|332:245|396:239,1,256,2|2,0:0|0:0,0:0:0:0:
491,29,17756,6,0,B|441:69|441:69|375:60,1,128,6|10,1:2|0:0,0:0:0:0:
297,38,18506,1,2,0:0:0:0:
233,91,18756,2,0,L|226:201,2,96,0|2|2,1:2|0:0|0:0,0:0:0:0:
169,37,19756,2,0,B|135:35|135:35|111:53,1,64,0|2,1:2|0:0,0:0:0:0:
55,115,20256,1,10,0:0:0:0:
55,115,20506,1,2,0:0:0:0:
52,198,20756,2,0,B|85:253|85:253|148:250,1,128,2|10,1:2|0:0,0:0:0:0:
311,218,21756,6,0,L|380:240,1,64,6|2,1:2|0:0,0:0:0:0:
451,212,22256,2,0,L|464:140,1,64,10|2,0:0|0:0,0:0:0:0:
424,75,22756,2,0,B|459:36|459:36|505:41,2,96,0|2|2,1:2|0:0|0:0,0:0:0:0:
356,124,23756,2,0,B|312:107|312:107|286:86|286:86|241:69,1,128,2|10,1:2|0:0,0:0:0:0:
77,38,24756,1,2,1:2:0:0:
2,187,25256,1,10,0:0:0:0:
28,266,25506,1,2,0:0:0:0:
99,309,25756,6,0,B|163:319|163:319|216:284,1,128,6|8,1:2|0:0,0:0:0:0:
285,236,26506,1,2,0:0:0:0:
214,193,26756,2,0,L|117:149,2,96,2|2|2,1:2|0:0|0:0,0:0:0:0:
285,148,27756,2,0,B|323:139|323:139|341:122,1,64,2|2,1:2|0:0,0:0:0:0:
403,65,28256,1,10,0:0:0:0:
403,65,28506,1,2,0:0:0:0:
473,108,28756,2,0,B|500:173|500:173|485:229,1,128,2|10,1:2|0:0,0:0:0:0:
354,333,29756,6,0,L|288:323,1,64,6|2,1:2|0:0,0:0:0:0:
235,261,30256,2,0,L|156:274,1,64,10|2,0:0|0:0,0:0:0:0:
94,303,30756,2,0,B|85:255|85:255|42:231,2,96,2|2|2,1:2|0:0|1:2,0:0:0:0:
32,358,31756,1,2,0:0:0:0:
211,76,32756,1,0,0:0:0:0:
374,41,33256,1,10,0:0:0:0:
446,83,33506,1,2,1:2:0:0:
459,165,33756,6,0,B|448:235|448:235|413:279,1,128,6|0,0:0|0:0,0:0:0:0:
277,376,34756,1,2,0:0:0:0:
95,205,35506,1,2,0:0:0:0:
24,246,35756,2,0,B|-8:190|-8:190|2:111,1,128,2|0,0:0|0:0,0:0:0:0:
130,22,36756,1,2,0:0:0:0:
374,78,37506,1,2,0:0:0:0:
440,129,37756,6,0,B|437:189|437:189|440:195|440:195|436:255,1,128,2|0,0:0|0:0,0:0:0:0:
366,301,38506,1,2,0:0:0:0:
295,344,38756,2,0,B|291:284|291:284|294:278|294:278|291:218,1,128,2|0,0:0|0:0,0:0:0:0:
262,52,39756,6,0,B|202:55|202:55|196:52|196:52|134:56,1,128,2|0,0:0|0:0,0:0:0:0:
90,126,40506,1,2,0:0:0:0:
47,197,40756,2,0,B|107:200|107:200|113:197|113:197|173:200,1,128,2|8,0:0|0:0,0:0:0:0:
257,201,41506,1,8,0:0:0:0:
324,152,41756,6,0,B|384:148|384:148|430:212,1,128,6|0,0:0|0:0,0:0:0:0:
456,279,42506,1,2,1:2:0:0:
406,344,42756,2,0,B|373:356|373:356|337:341,1,64,2|2,0:0|1:2,0:0:0:0:
279,294,43256,1,10,0:0:0:0:
123,352,43756,2,0,B|90:306|90:306|90:293|90:293|58:244,1,128,2|0,1:2|0:0,0:0:0:0:
9,179,44506,1,10,0:0:0:0:
52,106,44756,2,0,L|121:97,1,64,2|2,0:0|1:2,0:0:0:0:
179,44,45256,1,10,0:0:0:0:
179,44,45506,1,2,0:0:0:0:
250,85,45756,6,0,B|248:130|248:130|250:134|250:134|248:179,2,96,2|10|2,1:2|0:0|1:2,0:0:0:0:
327,54,46756,2,0,B|360:68|360:68|371:93,1,64,2|2,0:0|1:2,0:0:0:0:
408,168,47256,1,10,0:0:0:0:
330,315,47756,2,0,B|376:312|376:312|380:314|380:314|425:312,2,96,2|2|10,1:2|1:2|0:0,0:0:0:0:
251,303,48756,1,2,0:0:0:0:
251,303,49006,1,0,1:2:0:0:
177,341,49256,1,8,0:0:0:0:
41,244,49756,6,0,B|37:208|37:208|65:156|65:156|63:123,1,128,4|12,1:2|0:0,0:0:0:0:
80,42,50506,1,2,0:0:0:0:
153,83,50756,2,0,B|200:99|200:99|285:76,1,128,4|12,1:2|0:0,0:0:0:0:
341,27,51506,1,2,0:0:0:0:
412,69,51756,2,0,L|407:142,1,64,4|2,1:2|3:2,0:0:0:0:
343,185,52256,1,10,0:0:0:0:
412,336,52756,2,0,B|464:346|464:346|502:325,2,96,2|2|2,1:2|0:0|0:0,0:0:0:0:
347,283,53756,6,0,B|311:279|311:279|259:307|259:307|227:304,1,128,4|12,1:2|0:0,0:0:0:0:
148,333,54506,1,2,0:0:0:0:
76,289,54756,2,0,B|63:240|63:240|92:157,1,128,4|14,1:2|0:0,0:0:0:0:
123,91,55506,1,2,0:0:0:0:
168,21,55756,2,0,L|241:26,1,64,4|2,1:2|3:2,0:0:0:0:
312,31,56256,1,10,0:0:0:0:
419,164,56756,1,2,1:2:0:0:
419,164,57006,1,2,0:0:0:0:
387,241,57256,2,0,B|375:277|375:277|385:307,1,64,10|2,0:0|0:0,0:0:0:0:
444,358,57756,6,0,L|309:341,1,128,2|10,1:2|0:0,0:0:0:0:
244,381,58506,1,2,0:0:0:0:
167,349,58756,2,0,B|173:273|173:273,1,64,0|2,1:2|0:0,0:0:0:0:
179,202,59256,1,10,0:0:0:0:
67,75,59756,6,0,L|198:50,1,128,0|10,1:2|0:0,0:0:0:0:
262,5,60506,1,0,0:0:0:0:
336,42,60756,2,0,B|327:117|327:117,1,64,0|0,1:2|0:0,0:0:0:0:
314,187,61256,1,10,0:0:0:0:
412,322,61756,6,0,L|349:328,1,64,0|2,1:2|3:2,0:0:0:0:
278,372,62256,2,0,L|215:367,1,64,10|0,0:0|0:0,0:0:0:0:
131,355,62756,1,0,1:2:0:0:
131,355,63006,1,2,0:0:0:0:
67,300,63256,2,0,B|59:271|59:271|72:239,1,64,10|0,0:0|0:0,0:0:0:0:
108,164,63756,6,0,B|149:157|149:157|188:165|188:165|237:157,1,128,2|2,0:0|0:0,0:0:0:0:
492,272,65756,6,0,L|473:139,1,128,6|8,1:2|0:0,0:0:0:0:
419,83,66506,1,2,0:0:0:0:
341,105,66756,1,2,1:2:0:0:
341,105,67006,1,2,1:2:0:0:
272,59,67256,2,0,B|242:42|242:42|212:55,1,64,10|2,0:0|0:0,0:0:0:0:
144,97,67756,6,0,B|189:140|189:140|173:203,1,128,4|8,1:2|0:0,0:0:0:0:
140,281,68506,1,2,0:0:0:0:
195,349,68756,1,2,1:2:0:0:
195,349,69006,1,2,1:2:0:0:
256,291,69256,2,0,B|286:279|286:279|324:294,1,64,10|2,0:0|0:0,0:0:0:0:
393,323,69756,6,0,B|426:231,1,96,6|2,1:2|0:0,0:0:0:0:
469,115,70506,1,0,0:0:0:0:
392,84,70756,2,0,B|300:51,1,96,2|2,1:2|0:0,0:0:0:0:
184,8,71506,1,2,0:0:0:0:
153,85,71756,2,0,B|120:177,1,96,2|2,1:2|0:0,0:0:0:0:
81,294,72506,5,2,0:0:0:0:
143,349,72756,1,2,1:2:0:0:
220,318,73006,1,2,0:0:0:0:
297,287,73256,1,10,1:2:0:0:
359,342,73506,1,2,1:2:0:0:
428,297,73756,6,0,L|409:164,1,128,4|8,1:2|0:0,0:0:0:0:
397,87,74506,1,2,0:0:0:0:
346,27,74756,1,2,1:2:0:0:
346,27,75006,1,2,1:2:0:0:
264,45,75256,2,0,B|247:75|247:75|255:103,1,64,10|2,0:0|0:0,0:0:0:0:
309,166,75756,6,0,B|317:229|317:229|265:266,1,128,6|8,1:2|0:0,0:0:0:0:
185,294,76506,1,2,0:0:0:0:
112,263,76756,1,2,1:2:0:0:
112,263,77006,1,2,1:2:0:0:
64,194,77256,2,0,B|77:125,1,64,10|2,0:0|0:0,0:0:0:0:
101,52,77756,6,0,B|135:46|135:46|190:74,1,96,6|2,1:2|0:0,0:0:0:0:
296,141,78506,1,2,0:0:0:0:
284,222,78756,2,0,B|272:254|272:254|220:287,1,96,2|2,1:2|0:0,0:0:0:0:
110,347,79506,1,2,0:0:0:0:
44,295,79756,2,0,B|22:267|22:267|19:206,2,96,2|2|2,1:2|0:0|0:2,0:0:0:0:
107,345,80756,1,2,1:2:0:0:
107,345,81006,1,2,0:0:0:0:
32,383,81256,1,10,0:0:0:0:
117,214,81756,6,0,B|179:194|179:194|235:225,1,128,6|10,1:2|0:0,0:0:0:0:
303,272,82506,1,2,0:0:0:0:
366,217,82756,2,0,L|476:210,2,96,0|2|2,1:2|0:0|0:0,0:0:0:0:
297,170,83756,2,0,B|286:102,1,64,2|2,1:2|0:0,0:0:0:0:
238,45,84256,1,10,0:0:0:0:
238,45,84506,1,2,0:0:0:0:
156,62,84756,2,0,B|115:101|115:101|123:175,1,128,2|10,1:2|0:0,0:0:0:0:
154,335,85756,6,0,L|231:322,1,64,6|2,1:2|0:0,0:0:0:0:
265,259,86256,2,0,L|329:268,1,64,10|2,0:0|0:0,0:0:0:0:
389,328,86756,2,0,B|453:319|453:319|481:291,2,96,2|2|2,1:2|0:0|0:0,0:0:0:0:
329,268,87756,2,0,L|314:141,1,128,2|2,1:2|0:0,0:0:0:0:
166,63,88756,2,0,L|155:145,1,64,2|2,0:0|0:0,0:0:0:0:
116,183,89256,2,0,L|132:316,1,128,2|4,0:0|0:2,0:0:0:0:
256,192,90256,12,4,97756,2:0:0:0:
