osu file format v14

[General]
AudioFilename: audio.mp3
AudioLeadIn: 0
PreviewTime: 48240
Countdown: 0
SampleSet: Normal
StackLeniency: 0.7
Mode: 1
LetterboxInBreaks: 0
WidescreenStoryboard: 0

[Editor]
DistanceSpacing: 2
BeatDivisor: 4
GridSize: 32
TimelineZoom: 1.400006

[Metadata]
Title:Astrosexy
TitleUnicode:Astrosexy
Artist:m-flo loves CHEMISTRY
ArtistUnicode:m-flo loves CHEMISTRY
Creator:Axer
Version:m-flo loves SVs
Source:
Tags:tag2 tag4 coop co-op compatible sv ASTROMANTIC feat. verbal taku 高橋拓 takahashi Universe j-pop now or never astro boy anime 2003 アストロボーイ・鉄腕アトム mighty atom meets pop japanese jpop j-urban urban electronic
BeatmapID:3260466
BeatmapSetID:1596364

[Difficulty]
HPDrainRate:6.9
CircleSize:0
OverallDifficulty:5
ApproachRate:10
SliderMultiplier:1.4
SliderTickRate:1

[Events]
//Background and Video events
0,0,"HelloAdam.jpeg",0,0
//Break Periods
2,184565,191915
//Storyboard Layer 0 (Background)
//Storyboard Layer 1 (Fail)
//Storyboard Layer 2 (Pass)
//Storyboard Layer 3 (Foreground)
//Storyboard Layer 4 (Overlay)
//Storyboard Sound Samples

[TimingPoints]
365,500,4,1,0,75,1,0
13365,-100,4,1,0,75,0,0
13615,-76.9230769230769,4,1,0,75,0,0
13865,-100,4,1,0,75,0,0
14115,-62.5,4,1,0,75,0,0
14365,-100,4,1,0,75,0,0
14615,-45.4545454545455,4,1,0,75,0,0
14865,-100,4,1,0,75,0,0
15115,-35.7142857142857,4,1,0,75,0,0
15365,-100,4,1,0,75,0,0
15615,-29.4117647058824,4,1,0,75,0,0
15740,-100,4,1,0,75,0,0
21865,-100,4,1,0,75,0,0
22031,-72.7272727272727,4,1,0,75,0,0
22198,-57.1428571428571,4,1,0,75,0,0
22365,-47.0588235294118,4,1,0,75,0,0
22531,-40,4,1,0,75,0,0
22698,-34.7826086956522,4,1,0,75,0,0
22865,-30.7692307692308,4,1,0,75,0,0
23031,-27.5862068965517,4,1,0,75,0,0
23198,-25,4,1,0,75,0,0
23365,-100,4,1,0,75,0,0
29365,-100,4,1,0,75,0,0
29615,-100,4,1,0,75,0,0
29865,-100,4,1,0,75,0,0
30115,-100,4,1,0,75,0,0
30240,-50,4,1,0,75,0,0
31115,-100,4,1,0,75,0,0
31990,-66.6666666666667,4,1,0,75,0,0
32490,-133.333333333333,4,1,0,75,0,0
33865,-66.6666666666667,4,1,0,75,0,0
34490,-133.333333333333,4,1,0,75,0,0
35865,-66.6666666666667,4,1,0,75,0,0
36490,-133.333333333333,4,1,0,75,0,0
36990,-66.6666666666667,4,1,0,75,0,0
37490,-133.333333333333,4,1,0,75,0,0
38740,-50,4,1,0,75,0,0
39240,-57.1428571428571,4,1,0,75,0,0
39740,-66.6666666666667,4,1,0,75,0,0
40490,-133.333333333333,4,1,0,75,0,0
41865,-66.6666666666667,4,1,0,75,0,0
42490,-133.333333333333,4,1,0,75,0,0
43865,-66.6666666666667,4,1,0,75,0,0
44490,-133.333333333333,4,1,0,75,0,0
44990,-66.6666666666667,4,1,0,75,0,0
45490,-133.333333333333,4,1,0,75,0,0
48240,-100,4,1,0,100,0,0
48365,-100,4,1,0,100,0,1
62115,-105.263157894737,4,1,0,100,0,0
62177,-111.111111111111,4,1,0,100,0,0
62240,-117.647058823529,4,1,0,100,0,0
62302,-125,4,1,0,100,0,0
62365,-133.333333333333,4,1,0,100,0,0
63865,-136.986301369863,4,1,0,100,0,0
63990,-140.845070422535,4,1,0,100,0,0
64115,-144.927536231884,4,1,0,100,0,0
64240,-149.253731343284,4,1,0,100,0,0
64365,-153.846153846153,4,1,0,100,0,0
71865,-149.253731343284,4,1,0,100,0,0
71927,-144.927536231884,4,1,0,100,0,0
71990,-140.845070422535,4,1,0,100,0,0
72052,-136.986301369863,4,1,0,100,0,0
72115,-133.333333333333,4,1,0,100,0,0
72177,-129.87012987013,4,1,0,100,0,0
72240,-126.582278481013,4,1,0,100,0,0
72302,-123.456790123457,4,1,0,100,0,0
72365,-120.481927710843,4,1,0,100,0,0
72615,-117.647058823529,4,1,0,75,0,0
79990,-50,4,1,0,75,0,0
80365,-117.647058823529,4,1,0,75,0,0
80490,-50,4,1,0,75,0,0
80865,-117.647058823529,4,1,0,75,0,0
80990,-50,4,1,0,75,0,0
81365,-117.647058823529,4,1,0,75,0,0
81490,-50,4,1,0,75,0,0
81865,-117.647058823529,4,1,0,75,0,0
81990,-50,4,1,0,75,0,0
82365,-117.647058823529,4,1,0,75,0,0
84490,-66.6666666666667,4,1,0,75,0,0
86365,-117.647058823529,4,1,0,75,0,0
88115,-66.6666666666667,4,1,0,75,0,0
88365,-117.647058823529,4,1,0,75,0,0
88490,-66.6666666666667,4,1,0,75,0,0
89115,-117.647058823529,4,1,0,75,0,0
90240,-66.6666666666667,4,1,0,75,0,0
90365,-117.647058823529,4,1,0,75,0,0
90490,-66.6666666666667,4,1,0,75,0,0
91240,-117.647058823529,4,1,0,75,0,0
92115,-66.6666666666667,4,1,0,75,0,0
92365,-117.647058823529,4,1,0,75,0,0
92490,-66.6666666666667,4,1,0,75,0,0
93240,-117.647058823529,4,1,0,75,0,0
95115,-50,4,1,0,75,0,0
96240,-100,4,1,0,100,0,0
96365,-62.5,4,1,0,100,0,1
100365,-125,4,1,0,100,0,1
104365,-62.5,4,1,0,100,0,1
108365,-125,4,1,0,100,0,1
112365,-100,4,1,0,100,0,1
118240,-100,4,1,0,75,0,1
118365,-125,4,1,0,75,0,0
119615,-125,4,1,0,75,0,0
119865,-115.384571005934,4,1,0,75,0,0
119927,-113.207589889657,4,1,0,75,0,0
119990,-111.111111111111,4,1,0,75,0,0
120052,-109.090869421502,4,1,0,75,0,0
120115,-107.142895408177,4,1,0,75,0,0
120177,-105.263157894737,4,1,0,75,0,0
120240,-103.448240190262,4,1,0,75,0,0
120365,-100,4,1,0,75,0,0
129115,-100,4,1,0,75,0,0
129365,-85.7142612244968,4,1,0,75,0,0
129490,-80,4,1,0,75,0,0
129552,-77.4193348595265,4,1,0,75,0,0
129615,-75.0000187500047,4,1,0,75,0,0
129677,-72.7272727272727,4,1,0,75,0,0
129740,-70.588218685125,4,1,0,75,0,0
129802,-68.5714442449015,4,1,0,75,0,0
129865,-66.6666666666667,4,1,0,75,0,0
129990,-100,4,1,0,75,0,0
136115,-80,4,1,0,75,0,0
137240,-100,4,1,0,75,0,0
150490,-100,4,1,0,75,0,0
150615,-97.1086859835265,4,1,0,75,0,0
150740,-94.3797785661635,4,1,0,75,0,0
150865,-91.8001364150027,4,1,0,75,0,0
150990,-89.3576791308715,4,1,0,75,0,0
151115,-87.0418984882563,4,1,0,75,0,0
151240,-84.8430446096244,4,1,0,75,0,0
151365,-82.7526168446262,4,1,0,75,0,0
151490,-80.7627231574994,4,1,0,75,0,0
151615,-78.8662192323162,4,1,0,75,0,0
151740,-77.056800108496,4,1,0,75,0,0
151865,-75.3284887071296,4,1,0,75,0,0
152115,-50,4,1,0,75,0,0
152365,-59.1715976331361,4,1,0,75,0,0
152490,-60.0772713864573,4,1,0,75,0,0
152615,-61.0111003595994,4,1,0,75,0,0
152865,-62.968644133967,4,1,0,75,0,0
152990,-63.9952899466599,4,1,0,75,0,0
153115,-65.0559676489684,4,1,0,75,0,0
153365,-67.2863741727981,4,1,0,75,0,0
153490,-68.4599522971052,4,1,0,75,0,0
153615,-69.6751951428028,4,1,0,75,0,0
153865,-72.239876845458,4,1,0,75,0,0
153990,-73.5943479540771,4,1,0,75,0,0
154115,-75.0005812545047,4,1,0,75,0,0
154365,-77.9806748291638,4,1,0,75,0,0
154490,-79.5613306473428,4,1,0,75,0,0
154615,-81.207391496774,4,1,0,75,0,0
154740,-82.9230026750961,4,1,0,75,0,0
154865,-84.712595576986,4,1,0,75,0,0
154990,-86.5812110113984,4,1,0,75,0,0
155115,-88.5341228216179,4,1,0,75,0,0
155240,-90.577166764339,4,1,0,75,0,0
155365,-92.7167299921933,4,1,0,75,0,0
155490,-94.9598177531178,4,1,0,75,0,0
155615,-97.3141300116777,4,1,0,75,0,0
155740,-99.7881497580636,4,1,0,75,0,0
155865,-50,4,1,0,75,0,0
156365,-66.6666666666667,4,1,0,75,0,0
156490,-67.7918302709504,4,1,0,75,0,0
156615,-68.955673224581,4,1,0,75,0,0
156865,-71.407404233745,4,1,0,75,0,0
156990,-72.6998318452889,4,1,0,75,0,0
157115,-74.0399608476687,4,1,0,75,0,0
157365,-76.8739958334294,4,1,0,75,0,0
157490,-78.3739597816188,4,1,0,75,0,0
157615,-79.9336870132538,4,1,0,75,0,0
157865,-83.246964607553,4,1,0,75,0,0
157990,-85.0087856579977,4,1,0,75,0,0
158115,-86.8468681282416,4,1,0,75,0,0
158240,-88.7661154882669,4,1,0,75,0,0
158365,-90.772107546793,4,1,0,75,0,0
158615,-95.0690534069421,4,1,0,75,0,0
158740,-97.3737330460159,4,1,0,75,0,0
158865,-99.7929296709328,4,1,0,75,0,0
160490,-66.6666666666667,4,1,0,75,0,0
162865,-100,4,1,0,75,0,0
164365,-100,4,1,0,75,0,0
164615,-97.5320490313117,4,1,0,75,0,0
164865,-95.1830703583738,4,1,0,75,0,0
164990,-94.0504618347928,4,1,0,75,0,0
165115,-92.9444907617823,4,1,0,75,0,0
165240,-91.8643127355171,4,1,0,75,0,0
165365,-90.8088709369841,4,1,0,75,0,0
165490,-89.777405899812,4,1,0,75,0,0
165615,-88.7691097701058,4,1,0,75,0,0
165865,-86.8190456676862,4,1,0,75,0,0
166115,-84.952745035574,4,1,0,75,0,0
166365,-83.1650626898243,4,1,0,75,0,0
166490,-82.2991078776706,4,1,0,75,0,0
166615,-81.4510007069947,4,1,0,75,0,0
166865,-79.806230472413,4,1,0,75,0,0
166990,-79.0084752391389,4,1,0,75,0,0
167115,-78.226511121072,4,1,0,75,0,0
167240,-77.4599338492165,4,1,0,75,0,0
167365,-76.708176017649,4,1,0,75,0,0
167490,-75.9708697297108,4,1,0,75,0,0
167615,-75.2476022351548,4,1,0,75,0,0
168240,-100,4,1,0,100,0,0
168365,-62.5,4,1,0,100,0,1
172365,-125,4,1,0,100,0,1
176365,-62.5,4,1,0,100,0,1
180365,-125,4,1,0,100,0,1
184365,-125,4,1,0,100,0,0
184490,-125,4,1,0,75,0,0
192365,-100,4,1,0,75,0,0
207990,-66.6666666666667,4,1,0,75,0,0
208490,-133.333333333333,4,1,0,75,0,0
209990,-66.6666666666667,4,1,0,75,0,0
210490,-133.333333333333,4,1,0,75,0,0
211990,-66.6666666666667,4,1,0,75,0,0
212490,-133.333333333333,4,1,0,75,0,0
212990,-66.6666666666667,4,1,0,75,0,0
213490,-133.333333333333,4,1,0,75,0,0
214115,-100,4,1,0,75,0,0
220365,-144.927536231884,4,1,0,75,0,0
226365,-125,4,1,0,75,0,0
228365,-100,4,1,0,75,0,0
232333,-100,4,1,0,75,0,0
232366,-40,4,1,0,75,0,0
233615,-100,4,1,0,75,0,0
235115,-40,4,1,0,75,0,0
236115,-100,4,1,0,75,0,0
240333,-100,4,1,0,75,0,0
240366,-40,4,1,0,75,0,0
241615,-100,4,1,0,75,0,0
243240,-40,4,1,0,75,0,0
243865,-100,4,1,0,75,0,0
244365,-80,4,1,0,75,0,0
248333,-80,4,1,0,75,0,0
248366,-28.5714285714286,4,1,0,75,0,0
249615,-80,4,1,0,75,0,0
251240,-28.5714285714286,4,1,0,75,0,0
251865,-80,4,1,0,75,0,0
256333,-80,4,1,0,75,0,0
256366,-28.5714285714286,4,1,0,75,0,0
257740,-80,4,1,0,75,0,0
259302,-28.5714285714286,4,1,0,75,0,0
260240,-100,4,1,0,100,0,0
260365,-100,4,1,0,100,0,1
276365,-105.263157894737,4,1,0,100,0,0
278365,-62.5,4,1,0,100,0,1
282365,-125,4,1,0,100,0,1
286365,-62.5,4,1,0,100,0,1
290365,-125,4,1,0,100,0,1
294365,-62.5,4,1,0,100,0,1
298365,-125,4,1,0,100,0,1
302365,-62.5,4,1,0,100,0,1
306365,-125,4,1,0,100,0,1
310365,-125,4,1,0,100,0,0
310490,-125,4,1,0,75,0,0
326365,-100,4,1,0,75,0,0

[HitObjects]
256,192,6365,12,0,6740,0:0:0:0:
256,192,6865,12,0,7240,0:0:0:0:
256,192,7365,12,0,7740,0:0:0:0:
256,192,8365,5,0,0:0:0:0:
256,192,8615,1,0,0:0:0:0:
256,192,8740,1,0,0:0:0:0:
256,192,8865,1,8,0:0:0:0:
256,192,8990,1,8,0:0:0:0:
256,192,9115,1,0,0:0:0:0:
256,192,9240,1,8,0:0:0:0:
256,192,9365,1,0,0:0:0:0:
256,192,9615,1,0,0:0:0:0:
256,192,9865,1,8,0:0:0:0:
256,192,10115,1,0,0:0:0:0:
256,192,10240,1,8,0:0:0:0:
256,192,10365,1,0,0:0:0:0:
256,192,10615,1,0,0:0:0:0:
256,192,10740,1,0,0:0:0:0:
256,192,10865,1,8,0:0:0:0:
256,192,10990,1,0,0:0:0:0:
256,192,11115,1,8,0:0:0:0:
256,192,11240,1,8,0:0:0:0:
256,192,11365,1,0,0:0:0:0:
256,192,11615,1,0,0:0:0:0:
256,192,11865,1,8,0:0:0:0:
256,192,11990,1,0,0:0:0:0:
256,192,12052,1,0,0:0:0:0:
256,192,12115,1,0,0:0:0:0:
256,192,12177,1,0,0:0:0:0:
256,192,12240,1,8,0:0:0:0:
256,192,12365,5,0,0:0:0:0:
256,192,12615,1,0,0:0:0:0:
256,192,12740,1,0,0:0:0:0:
256,192,12865,1,8,0:0:0:0:
256,192,12990,1,8,0:0:0:0:
256,192,13115,1,0,0:0:0:0:
256,192,13240,1,8,0:0:0:0:
256,192,13365,5,4,0:0:0:0:
256,192,13615,1,0,0:0:0:0:
256,192,13865,5,4,0:0:0:0:
256,192,14115,1,0,0:0:0:0:
256,192,14365,5,4,0:0:0:0:
256,192,14615,1,0,0:0:0:0:
256,192,14865,5,4,0:0:0:0:
256,192,15115,1,0,0:0:0:0:
256,192,15365,5,4,0:0:0:0:
256,192,15615,1,0,0:0:0:0:
256,192,15865,6,0,L|232:192,8,17.5
256,192,16615,1,0,0:0:0:0:
256,192,16740,1,0,0:0:0:0:
256,192,16865,1,8,0:0:0:0:
256,192,16990,1,8,0:0:0:0:
256,192,17115,1,0,0:0:0:0:
256,192,17240,1,8,0:0:0:0:
256,192,17365,1,0,0:0:0:0:
256,192,17615,1,0,0:0:0:0:
256,192,17865,1,8,0:0:0:0:
256,192,18115,1,0,0:0:0:0:
256,192,18240,1,8,0:0:0:0:
256,192,18365,1,0,0:0:0:0:
256,192,18615,1,0,0:0:0:0:
256,192,18740,1,0,0:0:0:0:
256,192,18865,1,8,0:0:0:0:
256,192,18990,1,0,0:0:0:0:
256,192,19115,1,8,0:0:0:0:
256,192,19240,1,8,0:0:0:0:
256,192,19365,1,0,0:0:0:0:
256,192,19615,1,0,0:0:0:0:
256,192,19865,1,8,0:0:0:0:
256,192,20240,1,8,0:0:0:0:
256,192,20365,5,0,0:0:0:0:
256,192,20615,1,0,0:0:0:0:
256,192,20740,1,0,0:0:0:0:
256,192,20865,1,8,0:0:0:0:
256,192,20990,1,8,0:0:0:0:
256,192,21115,1,0,0:0:0:0:
256,192,21240,1,8,0:0:0:0:
256,192,21365,1,0,0:0:0:0:
256,192,21615,1,0,0:0:0:0:
256,192,21865,5,8,0:0:0:0:
256,192,22031,5,8,0:0:0:0:
256,192,22198,5,8,0:0:0:0:
256,192,22365,5,8,0:0:0:0:
256,192,22531,5,8,0:0:0:0:
256,192,22698,5,8,0:0:0:0:
256,192,22865,5,8,0:0:0:0:
256,192,23031,5,8,0:0:0:0:
256,192,23198,5,8,0:0:0:0:
256,192,23365,5,8,0:0:0:0:
256,192,23615,1,0,0:0:0:0:
256,192,23740,1,0,0:0:0:0:
256,192,23865,1,8,0:0:0:0:
256,192,24115,1,8,0:0:0:0:
256,192,24365,5,0,0:0:0:0:
256,192,24615,1,0,0:0:0:0:
256,192,24740,1,0,0:0:0:0:
256,192,24865,1,8,0:0:0:0:
256,192,24990,1,8,0:0:0:0:
256,192,25115,1,0,0:0:0:0:
256,192,25240,1,8,0:0:0:0:
256,192,25365,1,0,0:0:0:0:
256,192,25615,1,0,0:0:0:0:
256,192,25865,1,8,0:0:0:0:
256,192,26115,1,0,0:0:0:0:
256,192,26240,1,8,0:0:0:0:
256,192,26365,1,0,0:0:0:0:
256,192,26615,1,0,0:0:0:0:
256,192,26740,1,0,0:0:0:0:
256,192,26865,1,8,0:0:0:0:
256,192,26990,1,0,0:0:0:0:
256,192,27115,1,8,0:0:0:0:
256,192,27240,1,8,0:0:0:0:
256,192,27365,1,0,0:0:0:0:
256,192,27615,1,0,0:0:0:0:
256,192,27865,1,8,0:0:0:0:
256,192,27990,1,0,0:0:0:0:
256,192,28052,1,0,0:0:0:0:
256,192,28115,1,0,0:0:0:0:
256,192,28177,1,0,0:0:0:0:
256,192,28240,1,8,0:0:0:0:
256,192,28365,5,0,0:0:0:0:
256,192,28615,1,0,0:0:0:0:
256,192,28740,1,0,0:0:0:0:
256,192,28865,1,8,0:0:0:0:
256,192,28990,1,8,0:0:0:0:
256,192,29115,1,0,0:0:0:0:
256,192,29240,1,8,0:0:0:0:
256,192,29365,5,4,0:0:0:0:
256,192,29615,1,0,0:0:0:0:
256,192,29865,5,4,0:0:0:0:
256,192,30115,1,0,0:0:0:0:
256,192,30365,5,8,0:0:0:0:
256,192,30865,5,8,0:0:0:0:
256,192,31365,12,0,31865,0:0:0:0:
256,192,31990,5,0,0:0:0:0:
256,192,32115,1,0,0:0:0:0:
256,192,32240,1,0,0:0:0:0:
256,192,32365,1,12,0:0:0:0:
256,192,32615,5,8,0:0:0:0:
256,192,32740,1,0,0:0:0:0:
256,192,32865,1,8,0:0:0:0:
256,192,32990,1,8,0:0:0:0:
256,192,33115,1,0,0:0:0:0:
256,192,33240,1,0,0:0:0:0:
256,192,33365,1,8,0:0:0:0:
256,192,33490,1,8,0:0:0:0:
256,192,33615,1,0,0:0:0:0:
256,192,33740,1,8,0:0:0:0:
256,192,33990,5,0,0:0:0:0:
256,192,34115,1,0,0:0:0:0:
256,192,34240,1,0,0:0:0:0:
256,192,34365,1,0,0:0:0:0:
256,192,34615,5,8,0:0:0:0:
256,192,34740,1,8,0:0:0:0:
256,192,34865,1,0,0:0:0:0:
256,192,34990,1,8,0:0:0:0:
256,192,35115,1,8,0:0:0:0:
256,192,35365,1,0,0:0:0:0:
256,192,35490,1,8,0:0:0:0:
256,192,35615,1,0,0:0:0:0:
256,192,35740,1,8,0:0:0:0:
256,192,35990,5,0,0:0:0:0:
256,192,36115,1,8,0:0:0:0:
256,192,36240,1,8,0:0:0:0:
256,192,36365,1,0,0:0:0:0:
256,192,36490,5,8,0:0:0:0:
256,192,36615,1,0,0:0:0:0:
256,192,36740,1,8,0:0:0:0:
256,192,36865,1,8,0:0:0:0:
256,192,36990,5,0,0:0:0:0:
256,192,37115,1,8,0:0:0:0:
256,192,37240,1,0,0:0:0:0:
256,192,37365,1,0,0:0:0:0:
256,192,37490,5,8,0:0:0:0:
256,192,37615,1,0,0:0:0:0:
256,192,37740,1,0,0:0:0:0:
256,192,37865,1,8,0:0:0:0:
256,192,38865,5,8,0:0:0:0:
256,192,39365,1,8,0:0:0:0:
256,192,39865,1,8,0:0:0:0:
256,192,39990,5,0,0:0:0:0:
256,192,40115,1,0,0:0:0:0:
256,192,40240,1,0,0:0:0:0:
256,192,40365,1,12,0:0:0:0:
256,192,40615,5,8,0:0:0:0:
256,192,40740,1,8,0:0:0:0:
256,192,40865,1,0,0:0:0:0:
256,192,40990,1,8,0:0:0:0:
256,192,41115,1,0,0:0:0:0:
256,192,41240,1,0,0:0:0:0:
256,192,41365,1,8,0:0:0:0:
256,192,41490,1,0,0:0:0:0:
256,192,41615,1,8,0:0:0:0:
256,192,41740,1,8,0:0:0:0:
256,192,41990,5,0,0:0:0:0:
256,192,42115,1,0,0:0:0:0:
256,192,42240,1,0,0:0:0:0:
256,192,42365,1,0,0:0:0:0:
256,192,42615,5,8,0:0:0:0:
256,192,42740,1,8,0:0:0:0:
256,192,42865,1,0,0:0:0:0:
256,192,42990,1,8,0:0:0:0:
256,192,43115,1,8,0:0:0:0:
256,192,43365,1,8,0:0:0:0:
256,192,43490,1,0,0:0:0:0:
256,192,43615,1,8,0:0:0:0:
256,192,43740,1,0,0:0:0:0:
256,192,43990,5,0,0:0:0:0:
256,192,44115,1,0,0:0:0:0:
256,192,44240,1,0,0:0:0:0:
256,192,44365,1,0,0:0:0:0:
256,192,44490,5,8,0:0:0:0:
256,192,44615,1,8,0:0:0:0:
256,192,44740,1,8,0:0:0:0:
256,192,44865,1,8,0:0:0:0:
256,192,44990,5,0,0:0:0:0:
256,192,45115,1,0,0:0:0:0:
256,192,45240,1,0,0:0:0:0:
256,192,45365,1,0,0:0:0:0:
256,192,45615,5,8,0:0:0:0:
256,192,45740,1,0,0:0:0:0:
256,192,45865,1,8,0:0:0:0:
256,192,46365,1,0,0:0:0:0:
256,192,46490,1,8,0:0:0:0:
256,192,46615,1,0,0:0:0:0:
256,192,46740,1,0,0:0:0:0:
256,192,46865,1,8,0:0:0:0:
256,192,47115,1,0,0:0:0:0:
256,192,47240,1,8,0:0:0:0:
256,192,47365,1,0,0:0:0:0:
256,192,47615,1,0,0:0:0:0:
256,192,47740,1,8,0:0:0:0:
256,192,48365,5,4,0:0:0:0:
256,192,48615,1,8,0:0:0:0:
256,192,48740,1,0,0:0:0:0:
256,192,48865,1,8,0:0:0:0:
256,192,49115,1,0,0:0:0:0:
256,192,49365,1,0,0:0:0:0:
256,192,49490,1,8,0:0:0:0:
256,192,49740,1,8,0:0:0:0:
256,192,49865,1,8,0:0:0:0:
256,192,50115,1,0,0:0:0:0:
256,192,50240,1,0,0:0:0:0:
256,192,50365,1,8,0:0:0:0:
256,192,50615,1,0,0:0:0:0:
256,192,50865,1,8,0:0:0:0:
256,192,50990,1,8,0:0:0:0:
256,192,51115,1,0,0:0:0:0:
256,192,51240,1,8,0:0:0:0:
256,192,51365,1,8,0:0:0:0:
256,192,51615,1,0,0:0:0:0:
256,192,51865,2,0,L|224:192,8,17.5
256,192,52615,5,0,0:0:0:0:
256,192,52740,1,0,0:0:0:0:
256,192,52865,1,8,0:0:0:0:
256,192,53115,1,8,0:0:0:0:
256,192,53365,1,0,0:0:0:0:
256,192,53490,1,8,0:0:0:0:
256,192,53740,1,8,0:0:0:0:
256,192,53865,1,8,0:0:0:0:
256,192,54115,1,0,0:0:0:0:
256,192,54240,1,8,0:0:0:0:
256,192,54365,1,0,0:0:0:0:
256,192,54615,1,0,0:0:0:0:
256,192,54740,1,0,0:0:0:0:
256,192,54865,1,8,0:0:0:0:
256,192,55115,1,0,0:0:0:0:
256,192,55240,1,0,0:0:0:0:
256,192,55365,1,8,0:0:0:0:
256,192,55490,1,8,0:0:0:0:
256,192,55615,1,0,0:0:0:0:
256,192,55865,2,0,L|224:192,8,17.5
256,192,56615,5,8,0:0:0:0:
256,192,56740,1,8,0:0:0:0:
256,192,56865,1,0,0:0:0:0:
256,192,57115,1,8,0:0:0:0:
256,192,57365,1,0,0:0:0:0:
256,192,57490,1,8,0:0:0:0:
256,192,57740,1,8,0:0:0:0:
256,192,57865,1,8,0:0:0:0:
256,192,58115,1,0,0:0:0:0:
256,192,58240,1,0,0:0:0:0:
256,192,58365,1,8,0:0:0:0:
256,192,58615,1,0,0:0:0:0:
256,192,58865,1,8,0:0:0:0:
256,192,58990,1,8,0:0:0:0:
256,192,59115,1,0,0:0:0:0:
256,192,59240,1,8,0:0:0:0:
256,192,59365,1,8,0:0:0:0:
256,192,59615,1,0,0:0:0:0:
256,192,59865,2,0,L|224:192,8,17.5
256,192,60615,5,0,0:0:0:0:
256,192,60740,1,0,0:0:0:0:
256,192,60865,1,8,0:0:0:0:
256,192,61115,1,0,0:0:0:0:
256,192,61365,1,0,0:0:0:0:
256,192,61490,1,8,0:0:0:0:
256,192,61740,1,8,0:0:0:0:
256,192,61865,1,0,0:0:0:0:
256,192,62115,1,8,0:0:0:0:
256,192,62177,1,0,0:0:0:0:
256,192,62240,1,8,0:0:0:0:
256,192,62302,1,0,0:0:0:0:
256,192,62365,1,8,0:0:0:0:
256,192,62740,1,8,0:0:0:0:
256,192,63115,1,0,0:0:0:0:
256,192,63240,1,0,0:0:0:0:
256,192,63365,1,8,0:0:0:0:
256,192,63490,1,8,0:0:0:0:
256,192,63615,1,0,0:0:0:0:
256,192,63865,1,8,0:0:0:0:
256,192,63990,1,0,0:0:0:0:
256,192,64115,1,8,0:0:0:0:
256,192,64240,1,0,0:0:0:0:
256,192,64365,5,12,0:0:0:0:
256,192,64615,1,0,0:0:0:0:
256,192,64740,1,8,0:0:0:0:
256,192,64990,1,8,0:0:0:0:
256,192,65115,1,0,0:0:0:0:
256,192,65365,1,8,0:0:0:0:
256,192,65490,1,0,0:0:0:0:
256,192,65615,1,8,0:0:0:0:
256,192,65740,1,8,0:0:0:0:
256,192,65865,1,0,0:0:0:0:
256,192,65990,1,0,0:0:0:0:
256,192,66115,1,8,0:0:0:0:
256,192,66240,1,0,0:0:0:0:
256,192,66365,1,8,0:0:0:0:
256,192,66615,1,0,0:0:0:0:
256,192,66740,1,8,0:0:0:0:
256,192,66990,1,0,0:0:0:0:
256,192,67115,1,0,0:0:0:0:
256,192,67365,1,0,0:0:0:0:
256,192,67490,1,0,0:0:0:0:
256,192,67615,1,8,0:0:0:0:
256,192,67740,1,8,0:0:0:0:
256,192,67865,1,0,0:0:0:0:
256,192,67990,1,0,0:0:0:0:
256,192,68115,1,8,0:0:0:0:
256,192,68240,1,8,0:0:0:0:
256,192,68365,1,0,0:0:0:0:
256,192,68615,1,0,0:0:0:0:
256,192,68740,1,8,0:0:0:0:
256,192,69115,1,8,0:0:0:0:
256,192,69240,1,8,0:0:0:0:
256,192,69365,1,0,0:0:0:0:
256,192,69615,1,0,0:0:0:0:
256,192,69740,1,8,0:0:0:0:
256,192,70115,1,8,0:0:0:0:
256,192,70240,1,0,0:0:0:0:
256,192,70365,1,8,0:0:0:0:
256,192,70615,1,0,0:0:0:0:
256,192,70740,1,8,0:0:0:0:
256,192,71115,1,8,0:0:0:0:
256,192,71240,1,0,0:0:0:0:
256,192,71365,1,8,0:0:0:0:
256,192,71490,1,8,0:0:0:0:
256,192,71615,1,0,0:0:0:0:
256,192,71865,5,8,0:0:0:0:
256,192,71927,1,8,0:0:0:0:
256,192,71990,1,0,0:0:0:0:
256,192,72052,1,0,0:0:0:0:
256,192,72115,5,8,0:0:0:0:
256,192,72177,1,8,0:0:0:0:
256,192,72240,1,0,0:0:0:0:
256,192,72302,1,0,0:0:0:0:
256,192,72365,5,8,0:0:0:0:
256,192,72615,1,0,0:0:0:0:
256,192,72740,1,8,0:0:0:0:
256,192,72990,1,8,0:0:0:0:
256,192,73115,1,0,0:0:0:0:
256,192,73365,1,0,0:0:0:0:
256,192,73490,1,8,0:0:0:0:
256,192,73615,1,8,0:0:0:0:
256,192,73740,1,0,0:0:0:0:
256,192,73865,1,8,0:0:0:0:
256,192,73990,1,0,0:0:0:0:
256,192,74115,1,8,0:0:0:0:
256,192,74240,1,0,0:0:0:0:
256,192,74365,1,8,0:0:0:0:
256,192,74615,1,0,0:0:0:0:
256,192,74740,1,8,0:0:0:0:
256,192,74990,1,0,0:0:0:0:
256,192,75115,1,8,0:0:0:0:
256,192,75365,1,0,0:0:0:0:
256,192,75490,1,0,0:0:0:0:
256,192,75615,1,8,0:0:0:0:
256,192,75740,1,0,0:0:0:0:
256,192,75865,1,8,0:0:0:0:
256,192,75990,1,8,0:0:0:0:
256,192,76115,1,0,0:0:0:0:
256,192,76240,1,0,0:0:0:0:
256,192,76365,1,8,0:0:0:0:
256,192,76615,1,0,0:0:0:0:
256,192,76740,1,8,0:0:0:0:
256,192,76990,1,0,0:0:0:0:
256,192,77115,1,8,0:0:0:0:
256,192,77240,1,8,0:0:0:0:
256,192,77365,1,0,0:0:0:0:
256,192,77615,1,8,0:0:0:0:
256,192,77740,1,0,0:0:0:0:
256,192,77865,1,8,0:0:0:0:
256,192,78115,1,0,0:0:0:0:
256,192,78240,1,0,0:0:0:0:
256,192,78365,1,8,0:0:0:0:
256,192,78615,1,0,0:0:0:0:
256,192,78740,1,8,0:0:0:0:
256,192,78990,1,0,0:0:0:0:
256,192,79115,1,8,0:0:0:0:
256,192,79240,1,8,0:0:0:0:
256,192,79365,1,0,0:0:0:0:
256,192,79490,1,0,0:0:0:0:
256,192,79615,1,8,0:0:0:0:
256,192,79865,1,0,0:0:0:0:
256,192,80115,5,8,0:0:0:0:
256,192,80240,1,8,0:0:0:0:
256,192,80615,5,0,0:0:0:0:
256,192,80740,1,0,0:0:0:0:
256,192,81115,5,8,0:0:0:0:
256,192,81240,1,8,0:0:0:0:
256,192,81615,5,0,0:0:0:0:
256,192,81740,1,0,0:0:0:0:
256,192,82115,5,8,0:0:0:0:
256,192,82240,1,8,0:0:0:0:
256,192,82490,5,8,0:0:0:0:
256,192,82615,1,0,0:0:0:0:
256,192,82865,1,8,0:0:0:0:
256,192,83115,1,0,0:0:0:0:
256,192,83240,1,0,0:0:0:0:
256,192,83365,1,8,0:0:0:0:
256,192,83615,1,0,0:0:0:0:
256,192,83740,1,8,0:0:0:0:
256,192,83990,1,8,0:0:0:0:
256,192,84115,1,0,0:0:0:0:
256,192,84240,1,0,0:0:0:0:
256,192,84615,5,0,0:0:0:0:
256,192,84740,1,0,0:0:0:0:
256,192,85115,1,8,0:0:0:0:
256,192,85240,1,8,0:0:0:0:
256,192,85490,1,8,0:0:0:0:
256,192,85615,1,0,0:0:0:0:
256,192,85740,1,0,0:0:0:0:
256,192,85865,1,8,0:0:0:0:
256,192,86115,1,8,0:0:0:0:
256,192,86240,1,8,0:0:0:0:
256,192,86615,5,0,0:0:0:0:
256,192,86865,1,8,0:0:0:0:
256,192,87115,1,0,0:0:0:0:
256,192,87240,1,0,0:0:0:0:
256,192,87365,1,8,0:0:0:0:
256,192,87490,1,0,0:0:0:0:
256,192,87615,1,8,0:0:0:0:
256,192,87865,1,8,0:0:0:0:
256,192,87990,1,0,0:0:0:0:
256,192,88115,5,8,0:0:0:0:
256,192,88240,1,8,0:0:0:0:
256,192,88490,1,8,0:0:0:0:
256,192,88615,1,8,0:0:0:0:
256,192,88740,1,0,0:0:0:0:
256,192,88865,1,8,0:0:0:0:
256,192,89115,5,8,0:0:0:0:
256,192,89240,1,0,0:0:0:0:
256,192,89490,1,8,0:0:0:0:
256,192,89615,1,8,0:0:0:0:
256,192,89740,1,0,0:0:0:0:
256,192,89865,1,8,0:0:0:0:
256,192,89990,1,0,0:0:0:0:
256,192,90240,5,8,0:0:0:0:
256,192,90490,1,0,0:0:0:0:
256,192,90615,1,8,0:0:0:0:
256,192,90740,1,0,0:0:0:0:
256,192,90865,1,8,0:0:0:0:
256,192,90990,1,0,0:0:0:0:
256,192,91240,5,8,0:0:0:0:
256,192,91490,1,0,0:0:0:0:
256,192,91740,1,0,0:0:0:0:
256,192,91865,1,8,0:0:0:0:
256,192,91990,1,0,0:0:0:0:
256,192,92115,5,8,0:0:0:0:
256,192,92240,1,8,0:0:0:0:
256,192,92490,1,8,0:0:0:0:
256,192,92615,1,8,0:0:0:0:
256,192,92740,1,0,0:0:0:0:
256,192,92865,1,8,0:0:0:0:
256,192,92990,1,8,0:0:0:0:
256,192,93240,5,0,0:0:0:0:
256,192,93490,1,0,0:0:0:0:
256,192,93615,1,8,0:0:0:0:
256,192,93740,1,0,0:0:0:0:
256,192,93865,1,8,0:0:0:0:
256,192,93990,1,8,0:0:0:0:
256,192,94115,1,0,0:0:0:0:
256,192,94365,1,8,0:0:0:0:
256,192,94615,1,0,0:0:0:0:
256,192,94740,1,0,0:0:0:0:
256,192,94865,1,8,0:0:0:0:
256,192,95115,5,0,0:0:0:0:
256,192,95240,1,0,0:0:0:0:
256,192,95365,1,8,0:0:0:0:
256,192,95490,1,8,0:0:0:0:
256,192,95615,1,0,0:0:0:0:
256,192,95740,1,0,0:0:0:0:
256,192,95865,1,8,0:0:0:0:
256,192,96365,5,4,0:0:0:0:
256,192,96615,1,8,0:0:0:0:
256,192,96865,1,0,0:0:0:0:
256,192,97115,1,8,0:0:0:0:
256,192,97365,1,0,0:0:0:0:
256,192,97490,1,8,0:0:0:0:
256,192,97615,1,0,0:0:0:0:
256,192,97740,1,8,0:0:0:0:
256,192,97865,1,0,0:0:0:0:
256,192,98115,1,8,0:0:0:0:
256,192,98240,1,8,0:0:0:0:
256,192,98365,1,0,0:0:0:0:
256,192,98615,1,8,0:0:0:0:
256,192,98865,1,0,0:0:0:0:
256,192,99115,1,8,0:0:0:0:
256,192,99365,1,0,0:0:0:0:
256,192,99490,1,8,0:0:0:0:
256,192,99615,1,0,0:0:0:0:
256,192,99740,1,8,0:0:0:0:
256,192,99865,1,8,0:0:0:0:
256,192,100115,1,8,0:0:0:0:
256,192,100240,1,8,0:0:0:0:
256,192,100365,5,0,0:0:0:0:
256,192,100615,1,0,0:0:0:0:
256,192,100740,1,8,0:0:0:0:
256,192,100990,1,0,0:0:0:0:
256,192,101115,1,0,0:0:0:0:
256,192,101240,1,0,0:0:0:0:
256,192,101365,1,8,0:0:0:0:
256,192,101615,1,0,0:0:0:0:
256,192,101740,1,8,0:0:0:0:
256,192,101865,1,0,0:0:0:0:
256,192,102115,1,8,0:0:0:0:
256,192,102240,1,0,0:0:0:0:
256,192,102365,1,8,0:0:0:0:
256,192,102615,1,0,0:0:0:0:
256,192,102740,1,8,0:0:0:0:
256,192,102865,1,0,0:0:0:0:
256,192,103115,1,0,0:0:0:0:
256,192,103240,1,0,0:0:0:0:
256,192,103365,1,8,0:0:0:0:
256,192,103490,1,8,0:0:0:0:
256,192,103615,1,0,0:0:0:0:
256,192,103865,1,8,0:0:0:0:
256,192,104115,1,0,0:0:0:0:
256,192,104365,5,0,0:0:0:0:
256,192,104615,1,8,0:0:0:0:
256,192,104865,1,0,0:0:0:0:
256,192,105115,1,8,0:0:0:0:
256,192,105365,1,0,0:0:0:0:
256,192,105490,1,8,0:0:0:0:
256,192,105615,1,0,0:0:0:0:
256,192,105740,1,8,0:0:0:0:
256,192,105865,1,0,0:0:0:0:
256,192,106115,1,8,0:0:0:0:
256,192,106240,1,8,0:0:0:0:
256,192,106365,1,0,0:0:0:0:
256,192,106615,1,8,0:0:0:0:
256,192,106865,1,0,0:0:0:0:
256,192,107115,1,8,0:0:0:0:
256,192,107365,1,0,0:0:0:0:
256,192,107490,1,8,0:0:0:0:
256,192,107615,1,0,0:0:0:0:
256,192,107740,1,8,0:0:0:0:
256,192,107865,1,8,0:0:0:0:
256,192,108115,1,8,0:0:0:0:
256,192,108240,1,8,0:0:0:0:
256,192,108365,5,0,0:0:0:0:
256,192,108615,1,0,0:0:0:0:
256,192,108740,1,8,0:0:0:0:
256,192,108990,1,0,0:0:0:0:
256,192,109115,1,0,0:0:0:0:
256,192,109240,1,0,0:0:0:0:
256,192,109365,1,8,0:0:0:0:
256,192,109615,1,0,0:0:0:0:
256,192,109740,1,8,0:0:0:0:
256,192,109865,1,0,0:0:0:0:
256,192,110115,1,8,0:0:0:0:
256,192,110365,1,8,0:0:0:0:
256,192,110615,1,0,0:0:0:0:
256,192,110740,1,8,0:0:0:0:
256,192,110865,1,0,0:0:0:0:
256,192,111115,1,0,0:0:0:0:
256,192,111240,1,0,0:0:0:0:
256,192,111365,1,8,0:0:0:0:
256,192,111490,1,8,0:0:0:0:
256,192,111615,1,0,0:0:0:0:
256,192,111740,1,0,0:0:0:0:
256,192,111865,1,8,0:0:0:0:
256,192,112115,1,0,0:0:0:0:
256,192,112365,5,0,0:0:0:0:
256,192,112615,1,8,0:0:0:0:
256,192,112740,1,0,0:0:0:0:
256,192,112865,1,8,0:0:0:0:
256,192,113115,1,0,0:0:0:0:
256,192,113365,1,0,0:0:0:0:
256,192,113490,1,8,0:0:0:0:
256,192,113740,1,8,0:0:0:0:
256,192,113865,1,8,0:0:0:0:
256,192,114115,1,0,0:0:0:0:
256,192,114240,1,0,0:0:0:0:
256,192,114365,1,8,0:0:0:0:
256,192,114615,1,0,0:0:0:0:
256,192,114865,1,8,0:0:0:0:
256,192,114990,1,8,0:0:0:0:
256,192,115115,1,0,0:0:0:0:
256,192,115240,1,8,0:0:0:0:
256,192,115365,1,8,0:0:0:0:
256,192,115615,1,0,0:0:0:0:
256,192,115865,2,0,L|224:192,8,17.5
256,192,116615,5,0,0:0:0:0:
256,192,116740,1,0,0:0:0:0:
256,192,116865,1,8,0:0:0:0:
256,192,117115,1,8,0:0:0:0:
256,192,117365,1,0,0:0:0:0:
256,192,117490,1,8,0:0:0:0:
256,192,117740,1,8,0:0:0:0:
256,192,117865,1,0,0:0:0:0:
256,192,118115,1,8,0:0:0:0:
256,192,118365,1,0,0:0:0:0:
256,192,118615,1,8,0:0:0:0:
256,192,118865,1,0,0:0:0:0:
256,192,118990,1,8,0:0:0:0:
256,192,119115,1,0,0:0:0:0:
256,192,119240,1,0,0:0:0:0:
256,192,119365,1,8,0:0:0:0:
256,192,119615,1,0,0:0:0:0:
256,192,119865,2,0,L|228:192,6,15.1666729922851
256,192,120365,1,4,0:0:0:0:
256,192,120615,5,8,0:0:0:0:
256,192,120677,1,8,0:0:0:0:
256,192,120740,1,0,0:0:0:0:
256,192,120865,1,0,0:0:0:0:
256,192,120990,5,8,0:0:0:0:
256,192,121052,1,8,0:0:0:0:
256,192,121115,1,0,0:0:0:0:
256,192,121240,1,0,0:0:0:0:
256,192,121365,5,8,0:0:0:0:
256,192,121427,1,8,0:0:0:0:
256,192,121490,1,0,0:0:0:0:
256,192,121615,1,0,0:0:0:0:
256,192,121740,5,8,0:0:0:0:
256,192,121865,1,0,0:0:0:0:
256,192,122115,1,0,0:0:0:0:
256,192,122240,1,0,0:0:0:0:
256,192,122365,1,8,0:0:0:0:
256,192,122490,1,0,0:0:0:0:
256,192,122615,1,8,0:0:0:0:
256,192,122865,1,8,0:0:0:0:
256,192,123115,1,0,0:0:0:0:
256,192,123240,1,8,0:0:0:0:
256,192,123490,1,8,0:0:0:0:
256,192,123615,1,0,0:0:0:0:
256,192,123740,1,8,0:0:0:0:
256,192,123865,1,8,0:0:0:0:
256,192,124115,1,0,0:0:0:0:
256,192,124365,1,8,0:0:0:0:
256,192,124615,1,0,0:0:0:0:
256,192,124740,1,0,0:0:0:0:
256,192,124865,1,8,0:0:0:0:
256,192,125115,1,0,0:0:0:0:
256,192,125365,1,8,0:0:0:0:
256,192,125490,1,8,0:0:0:0:
256,192,125615,1,0,0:0:0:0:
256,192,125740,1,0,0:0:0:0:
256,192,125865,1,8,0:0:0:0:
256,192,125990,1,0,0:0:0:0:
256,192,126115,1,8,0:0:0:0:
256,192,126240,1,8,0:0:0:0:
256,192,126490,1,0,0:0:0:0:
256,192,126740,1,8,0:0:0:0:
256,192,127115,1,8,0:0:0:0:
256,192,127240,1,0,0:0:0:0:
256,192,127365,1,8,0:0:0:0:
256,192,127490,1,8,0:0:0:0:
256,192,127615,1,0,0:0:0:0:
256,192,127740,1,8,0:0:0:0:
256,192,127990,1,0,0:0:0:0:
256,192,128240,1,0,0:0:0:0:
256,192,128490,1,8,0:0:0:0:
256,192,128615,1,8,0:0:0:0:
256,192,128865,1,0,0:0:0:0:
256,192,128990,1,8,0:0:0:0:
256,192,129115,1,0,0:0:0:0:
256,192,129365,1,8,0:0:0:0:
256,192,129490,1,0,0:0:0:0:
256,192,129552,1,0,0:0:0:0:
256,192,129615,1,8,0:0:0:0:
256,192,129677,1,8,0:0:0:0:
256,192,129740,1,0,0:0:0:0:
256,192,129802,1,0,0:0:0:0:
256,192,129865,1,8,0:0:0:0:
256,192,130365,5,0,0:0:0:0:
256,192,130615,1,0,0:0:0:0:
256,192,130740,1,0,0:0:0:0:
256,192,130865,1,8,0:0:0:0:
256,192,131115,1,8,0:0:0:0:
256,192,131240,1,8,0:0:0:0:
256,192,131365,1,0,0:0:0:0:
256,192,131490,1,8,0:0:0:0:
256,192,131615,1,0,0:0:0:0:
256,192,131865,1,8,0:0:0:0:
256,192,131990,1,0,0:0:0:0:
256,192,132115,1,8,0:0:0:0:
256,192,132365,1,8,0:0:0:0:
256,192,132615,1,0,0:0:0:0:
256,192,132865,1,8,0:0:0:0:
256,192,133115,1,0,0:0:0:0:
256,192,133240,1,0,0:0:0:0:
256,192,133365,1,8,0:0:0:0:
256,192,133615,1,0,0:0:0:0:
256,192,133740,1,8,0:0:0:0:
256,192,133990,1,0,0:0:0:0:
256,192,134115,1,0,0:0:0:0:
256,192,134240,1,8,0:0:0:0:
256,192,134490,1,0,0:0:0:0:
256,192,134615,1,8,0:0:0:0:
256,192,134740,1,0,0:0:0:0:
256,192,134865,1,8,0:0:0:0:
256,192,135115,1,0,0:0:0:0:
256,192,135240,1,0,0:0:0:0:
256,192,135365,1,8,0:0:0:0:
256,192,135490,1,0,0:0:0:0:
256,192,135615,1,0,0:0:0:0:
256,192,135740,1,8,0:0:0:0:
256,192,135990,1,0,0:0:0:0:
256,192,136240,5,0,0:0:0:0:
256,192,136365,1,12,0:0:0:0:
256,192,136490,1,0,0:0:0:0:
256,192,136615,1,0,0:0:0:0:
256,192,136865,1,8,0:0:0:0:
256,192,137115,1,0,0:0:0:0:
256,192,137365,5,8,0:0:0:0:
256,192,137490,1,0,0:0:0:0:
256,192,137740,1,8,0:0:0:0:
256,192,137990,1,0,0:0:0:0:
256,192,138115,1,0,0:0:0:0:
256,192,138240,1,8,0:0:0:0:
256,192,138365,1,0,0:0:0:0:
256,192,138490,1,8,0:0:0:0:
256,192,138615,1,8,0:0:0:0:
256,192,138865,1,8,0:0:0:0:
256,192,139115,1,8,0:0:0:0:
256,192,139240,1,0,0:0:0:0:
256,192,139365,1,8,0:0:0:0:
256,192,139490,1,0,0:0:0:0:
256,192,139615,1,8,0:0:0:0:
256,192,139740,1,8,0:0:0:0:
256,192,139865,1,0,0:0:0:0:
256,192,139990,1,8,0:0:0:0:
256,192,140240,1,0,0:0:0:0:
256,192,140365,1,0,0:0:0:0:
256,192,140615,1,8,0:0:0:0:
256,192,140740,1,0,0:0:0:0:
256,192,140865,1,8,0:0:0:0:
256,192,140990,1,8,0:0:0:0:
256,192,141115,1,0,0:0:0:0:
256,192,141240,1,0,0:0:0:0:
256,192,141365,1,8,0:0:0:0:
256,192,141615,1,0,0:0:0:0:
256,192,141740,1,8,0:0:0:0:
256,192,141990,1,8,0:0:0:0:
256,192,142115,1,0,0:0:0:0:
256,192,142240,1,0,0:0:0:0:
256,192,142365,1,8,0:0:0:0:
256,192,142615,1,8,0:0:0:0:
256,192,142740,1,0,0:0:0:0:
256,192,142865,1,8,0:0:0:0:
256,192,142990,1,8,0:0:0:0:
256,192,143115,1,0,0:0:0:0:
256,192,143240,1,8,0:0:0:0:
256,192,143365,1,0,0:0:0:0:
256,192,143615,1,0,0:0:0:0:
256,192,143740,1,8,0:0:0:0:
256,192,143865,1,0,0:0:0:0:
256,192,143990,1,8,0:0:0:0:
256,192,144365,5,0,0:0:0:0:
256,192,144615,1,8,0:0:0:0:
256,192,144740,1,0,0:0:0:0:
256,192,144865,1,0,0:0:0:0:
256,192,144990,1,8,0:0:0:0:
256,192,145240,1,0,0:0:0:0:
256,192,145365,1,8,0:0:0:0:
256,192,145490,1,0,0:0:0:0:
256,192,145615,1,0,0:0:0:0:
256,192,145740,1,8,0:0:0:0:
256,192,145990,1,8,0:0:0:0:
256,192,146240,1,0,0:0:0:0:
256,192,146365,1,8,0:0:0:0:
256,192,146490,1,0,0:0:0:0:
256,192,146615,1,8,0:0:0:0:
256,192,146740,1,8,0:0:0:0:
256,192,146865,1,0,0:0:0:0:
256,192,146990,1,8,0:0:0:0:
256,192,147115,1,0,0:0:0:0:
256,192,147240,1,0,0:0:0:0:
256,192,147365,1,8,0:0:0:0:
256,192,147490,1,0,0:0:0:0:
256,192,147615,1,8,0:0:0:0:
256,192,147740,1,8,0:0:0:0:
256,192,147990,1,8,0:0:0:0:
256,192,148240,1,0,0:0:0:0:
256,192,148365,1,8,0:0:0:0:
256,192,148490,1,8,0:0:0:0:
256,192,148615,1,0,0:0:0:0:
256,192,148865,1,8,0:0:0:0:
256,192,149115,1,0,0:0:0:0:
256,192,149240,1,0,0:0:0:0:
256,192,149365,1,8,0:0:0:0:
256,192,149615,1,0,0:0:0:0:
256,192,149740,1,8,0:0:0:0:
256,192,149865,1,0,0:0:0:0:
256,192,150115,1,8,0:0:0:0:
256,192,150240,1,0,0:0:0:0:
256,192,150365,1,8,0:0:0:0:
256,192,150490,1,0,0:0:0:0:
256,192,150615,5,8,0:0:0:0:
256,192,150740,1,8,0:0:0:0:
256,192,150865,1,0,0:0:0:0:
256,192,150990,5,8,0:0:0:0:
256,192,151115,1,8,0:0:0:0:
256,192,151240,1,0,0:0:0:0:
256,192,151365,5,8,0:0:0:0:
256,192,151490,1,8,0:0:0:0:
256,192,151615,1,0,0:0:0:0:
256,192,151740,5,8,0:0:0:0:
256,192,151865,1,8,0:0:0:0:
256,192,152115,5,8,0:0:0:0:
256,192,152365,5,0,0:0:0:0:
256,192,152490,1,8,0:0:0:0:
256,192,152615,1,0,0:0:0:0:
256,192,152865,1,8,0:0:0:0:
256,192,152990,1,0,0:0:0:0:
256,192,153115,1,8,0:0:0:0:
256,192,153365,1,0,0:0:0:0:
256,192,153490,1,8,0:0:0:0:
256,192,153615,1,0,0:0:0:0:
256,192,153865,1,8,0:0:0:0:
256,192,153990,1,0,0:0:0:0:
256,192,154115,1,8,0:0:0:0:
256,192,154365,1,0,0:0:0:0:
256,192,154490,1,8,0:0:0:0:
256,192,154615,1,0,0:0:0:0:
256,192,154740,1,0,0:0:0:0:
256,192,154865,1,8,0:0:0:0:
256,192,154990,1,0,0:0:0:0:
256,192,155115,1,8,0:0:0:0:
256,192,155240,1,8,0:0:0:0:
256,192,155365,1,0,0:0:0:0:
256,192,155490,1,8,0:0:0:0:
256,192,155615,1,0,0:0:0:0:
256,192,155740,1,0,0:0:0:0:
256,192,155865,5,8,0:0:0:0:
256,192,155990,1,8,0:0:0:0:
256,192,156365,1,0,0:0:0:0:
256,192,156490,1,8,0:0:0:0:
256,192,156615,1,0,0:0:0:0:
256,192,156865,1,8,0:0:0:0:
256,192,156990,1,0,0:0:0:0:
256,192,157115,1,8,0:0:0:0:
256,192,157365,1,0,0:0:0:0:
256,192,157490,1,8,0:0:0:0:
256,192,157615,1,0,0:0:0:0:
256,192,157865,1,8,0:0:0:0:
256,192,157990,1,0,0:0:0:0:
256,192,158115,1,8,0:0:0:0:
256,192,158240,1,8,0:0:0:0:
256,192,158365,1,0,0:0:0:0:
256,192,158615,1,0,0:0:0:0:
256,192,158740,1,8,0:0:0:0:
256,192,158865,5,0,0:0:0:0:
256,192,159115,1,8,0:0:0:0:
256,192,159365,1,0,0:0:0:0:
256,192,159615,1,0,0:0:0:0:
256,192,159740,1,0,0:0:0:0:
256,192,159865,1,8,0:0:0:0:
256,192,159990,1,0,0:0:0:0:
256,192,160115,1,8,0:0:0:0:
256,192,160240,1,8,0:0:0:0:
256,192,160365,1,0,0:0:0:0:
256,192,160615,5,8,0:0:0:0:
256,192,160865,1,0,0:0:0:0:
256,192,161115,1,8,0:0:0:0:
256,192,161240,1,0,0:0:0:0:
256,192,161365,1,8,0:0:0:0:
256,192,161615,1,8,0:0:0:0:
256,192,161740,1,8,0:0:0:0:
256,192,161865,1,8,0:0:0:0:
256,192,161990,1,0,0:0:0:0:
256,192,162115,1,8,0:0:0:0:
256,192,162365,1,8,0:0:0:0:
256,192,162490,1,0,0:0:0:0:
256,192,162615,5,8,0:0:0:0:
256,192,162865,1,0,0:0:0:0:
256,192,163115,1,8,0:0:0:0:
256,192,163365,1,0,0:0:0:0:
256,192,163490,1,8,0:0:0:0:
256,192,163615,1,0,0:0:0:0:
256,192,163740,1,0,0:0:0:0:
256,192,163865,1,8,0:0:0:0:
256,192,164115,1,8,0:0:0:0:
256,192,164365,1,0,0:0:0:0:
256,192,164615,1,8,0:0:0:0:
256,192,164865,5,0,0:0:0:0:
256,192,164990,1,8,0:0:0:0:
256,192,165115,1,0,0:0:0:0:
256,192,165240,1,8,0:0:0:0:
256,192,165365,1,0,0:0:0:0:
256,192,165490,1,0,0:0:0:0:
256,192,165615,1,8,0:0:0:0:
256,192,165865,5,8,0:0:0:0:
256,192,166115,1,0,0:0:0:0:
256,192,166365,1,8,0:0:0:0:
256,192,166490,1,0,0:0:0:0:
256,192,166615,1,8,0:0:0:0:
256,192,166865,1,0,0:0:0:0:
256,192,166990,1,8,0:0:0:0:
256,192,167115,1,0,0:0:0:0:
256,192,167240,1,0,0:0:0:0:
256,192,167365,1,8,0:0:0:0:
256,192,167490,1,0,0:0:0:0:
256,192,167615,1,8,0:0:0:0:
256,192,168365,5,4,0:0:0:0:
256,192,168615,1,8,0:0:0:0:
256,192,168865,1,0,0:0:0:0:
256,192,169115,1,8,0:0:0:0:
256,192,169365,1,0,0:0:0:0:
256,192,169490,1,8,0:0:0:0:
256,192,169615,1,0,0:0:0:0:
256,192,169740,1,0,0:0:0:0:
256,192,169865,1,8,0:0:0:0:
256,192,170115,1,8,0:0:0:0:
256,192,170240,1,8,0:0:0:0:
256,192,170365,1,0,0:0:0:0:
256,192,170615,1,8,0:0:0:0:
256,192,170865,1,0,0:0:0:0:
256,192,171115,1,8,0:0:0:0:
256,192,171365,1,0,0:0:0:0:
256,192,171490,1,0,0:0:0:0:
256,192,171615,1,8,0:0:0:0:
256,192,171740,1,8,0:0:0:0:
256,192,171865,1,0,0:0:0:0:
256,192,172115,1,8,0:0:0:0:
256,192,172240,1,8,0:0:0:0:
256,192,172365,5,0,0:0:0:0:
256,192,172615,1,0,0:0:0:0:
256,192,172740,1,8,0:0:0:0:
256,192,172990,1,8,0:0:0:0:
256,192,173115,1,0,0:0:0:0:
256,192,173240,1,0,0:0:0:0:
256,192,173365,1,8,0:0:0:0:
256,192,173615,1,8,0:0:0:0:
256,192,173740,1,0,0:0:0:0:
256,192,173865,1,8,0:0:0:0:
256,192,174115,1,0,0:0:0:0:
256,192,174240,1,8,0:0:0:0:
256,192,174365,1,0,0:0:0:0:
256,192,174615,1,0,0:0:0:0:
256,192,174740,1,8,0:0:0:0:
256,192,174990,1,0,0:0:0:0:
256,192,175115,1,8,0:0:0:0:
256,192,175240,1,0,0:0:0:0:
256,192,175365,1,8,0:0:0:0:
256,192,175490,1,8,0:0:0:0:
256,192,175615,1,0,0:0:0:0:
256,192,175865,1,8,0:0:0:0:
256,192,176115,1,8,0:0:0:0:
256,192,176365,5,0,0:0:0:0:
256,192,176615,1,8,0:0:0:0:
256,192,176865,1,0,0:0:0:0:
256,192,177115,1,8,0:0:0:0:
256,192,177365,1,0,0:0:0:0:
256,192,177490,1,8,0:0:0:0:
256,192,177615,1,0,0:0:0:0:
256,192,177740,1,8,0:0:0:0:
256,192,177865,1,0,0:0:0:0:
256,192,178115,1,8,0:0:0:0:
256,192,178240,1,8,0:0:0:0:
256,192,178365,1,0,0:0:0:0:
256,192,178615,1,8,0:0:0:0:
256,192,178865,1,0,0:0:0:0:
256,192,179115,1,8,0:0:0:0:
256,192,179365,1,0,0:0:0:0:
256,192,179490,1,8,0:0:0:0:
256,192,179615,1,8,0:0:0:0:
256,192,179740,1,8,0:0:0:0:
256,192,179865,1,0,0:0:0:0:
256,192,180115,1,8,0:0:0:0:
256,192,180240,1,8,0:0:0:0:
256,192,180365,5,0,0:0:0:0:
256,192,180615,1,0,0:0:0:0:
256,192,180740,1,8,0:0:0:0:
256,192,180990,1,8,0:0:0:0:
256,192,181115,1,0,0:0:0:0:
256,192,181240,1,0,0:0:0:0:
256,192,181365,1,8,0:0:0:0:
256,192,181615,1,8,0:0:0:0:
256,192,181740,1,0,0:0:0:0:
256,192,181865,1,8,0:0:0:0:
256,192,182115,1,8,0:0:0:0:
256,192,182177,1,0,0:0:0:0:
256,192,182240,1,8,0:0:0:0:
256,192,182302,1,0,0:0:0:0:
256,192,182365,1,8,0:0:0:0:
256,192,182615,1,0,0:0:0:0:
256,192,182740,1,0,0:0:0:0:
256,192,182865,1,8,0:0:0:0:
256,192,183115,1,0,0:0:0:0:
256,192,183240,1,0,0:0:0:0:
256,192,183365,1,8,0:0:0:0:
256,192,183490,1,8,0:0:0:0:
256,192,183615,1,0,0:0:0:0:
256,192,183865,5,8,0:0:0:0:
256,192,183990,1,0,0:0:0:0:
256,192,184115,1,8,0:0:0:0:
256,192,184240,1,0,0:0:0:0:
256,192,184365,1,12,0:0:0:0:
256,192,192365,5,4,0:0:0:0:
256,192,192490,1,0,0:0:0:0:
256,192,192740,1,8,0:0:0:0:
256,192,192865,1,8,0:0:0:0:
256,192,192990,1,8,0:0:0:0:
256,192,193115,1,0,0:0:0:0:
256,192,193240,1,0,0:0:0:0:
256,192,193365,1,8,0:0:0:0:
256,192,193490,1,0,0:0:0:0:
256,192,193615,1,0,0:0:0:0:
256,192,193740,1,8,0:0:0:0:
256,192,194115,5,0,0:0:0:0:
256,192,194615,5,8,0:0:0:0:
256,192,194865,1,0,0:0:0:0:
256,192,194990,1,8,0:0:0:0:
256,192,195240,1,0,0:0:0:0:
256,192,195365,1,8,0:0:0:0:
256,192,195490,1,0,0:0:0:0:
256,192,195615,1,8,0:0:0:0:
256,192,195740,1,8,0:0:0:0:
256,192,196115,5,0,0:0:0:0:
256,192,196615,5,8,0:0:0:0:
256,192,196865,1,0,0:0:0:0:
256,192,196990,1,8,0:0:0:0:
256,192,197115,1,0,0:0:0:0:
256,192,197365,1,8,0:0:0:0:
256,192,197615,1,8,0:0:0:0:
256,192,197740,1,8,0:0:0:0:
256,192,197865,1,0,0:0:0:0:
256,192,198115,1,8,0:0:0:0:
256,192,198240,1,0,0:0:0:0:
256,192,198365,1,8,0:0:0:0:
256,192,198615,1,0,0:0:0:0:
256,192,198865,1,8,0:0:0:0:
256,192,199115,1,0,0:0:0:0:
256,192,199240,1,0,0:0:0:0:
256,192,199365,1,8,0:0:0:0:
256,192,199490,1,8,0:0:0:0:
256,192,199615,1,0,0:0:0:0:
256,192,199740,1,8,0:0:0:0:
256,192,199990,1,0,0:0:0:0:
256,192,200115,1,8,0:0:0:0:
256,192,200365,5,4,0:0:0:0:
256,192,200490,1,0,0:0:0:0:
256,192,200740,1,8,0:0:0:0:
256,192,200865,1,8,0:0:0:0:
256,192,200990,1,8,0:0:0:0:
256,192,201115,1,0,0:0:0:0:
256,192,201240,1,0,0:0:0:0:
256,192,201365,1,8,0:0:0:0:
256,192,201615,1,0,0:0:0:0:
256,192,201740,1,8,0:0:0:0:
256,192,202115,5,8,0:0:0:0:
256,192,202615,5,0,0:0:0:0:
256,192,202740,1,8,0:0:0:0:
256,192,202865,1,0,0:0:0:0:
256,192,202990,1,8,0:0:0:0:
256,192,203115,1,0,0:0:0:0:
256,192,203240,1,0,0:0:0:0:
256,192,203365,1,8,0:0:0:0:
256,192,203615,1,0,0:0:0:0:
256,192,203740,1,8,0:0:0:0:
256,192,204115,5,8,0:0:0:0:
256,192,204490,5,0,0:0:0:0:
256,192,204615,1,8,0:0:0:0:
256,192,204865,1,0,0:0:0:0:
256,192,204990,1,0,0:0:0:0:
256,192,205115,1,8,0:0:0:0:
256,192,205240,1,8,0:0:0:0:
256,192,205365,1,0,0:0:0:0:
256,192,205615,1,8,0:0:0:0:
256,192,205740,1,8,0:0:0:0:
256,192,205865,1,0,0:0:0:0:
256,192,206115,1,0,0:0:0:0:
256,192,206240,1,0,0:0:0:0:
256,192,206365,1,8,0:0:0:0:
256,192,206531,1,0,0:0:0:0:
256,192,206615,1,8,0:0:0:0:
256,192,206740,1,0,0:0:0:0:
256,192,206865,1,8,0:0:0:0:
256,192,207115,1,0,0:0:0:0:
256,192,207240,1,0,0:0:0:0:
256,192,207365,1,8,0:0:0:0:
256,192,207615,1,0,0:0:0:0:
256,192,207740,1,8,0:0:0:0:
256,192,207990,5,0,0:0:0:0:
256,192,208115,1,0,0:0:0:0:
256,192,208240,1,0,0:0:0:0:
256,192,208365,1,8,0:0:0:0:
256,192,208615,5,8,0:0:0:0:
256,192,208740,1,0,0:0:0:0:
256,192,208865,1,8,0:0:0:0:
256,192,208990,1,8,0:0:0:0:
256,192,209115,1,0,0:0:0:0:
256,192,209240,1,0,0:0:0:0:
256,192,209365,1,8,0:0:0:0:
256,192,209490,1,8,0:0:0:0:
256,192,209615,1,0,0:0:0:0:
256,192,209740,1,8,0:0:0:0:
256,192,209990,5,0,0:0:0:0:
256,192,210115,1,0,0:0:0:0:
256,192,210240,1,0,0:0:0:0:
256,192,210365,1,0,0:0:0:0:
256,192,210615,5,8,0:0:0:0:
256,192,210740,1,8,0:0:0:0:
256,192,210865,1,0,0:0:0:0:
256,192,210990,1,8,0:0:0:0:
256,192,211115,1,8,0:0:0:0:
256,192,211365,1,0,0:0:0:0:
256,192,211490,1,8,0:0:0:0:
256,192,211615,1,0,0:0:0:0:
256,192,211740,1,8,0:0:0:0:
256,192,211990,5,0,0:0:0:0:
256,192,212115,1,0,0:0:0:0:
256,192,212240,1,0,0:0:0:0:
256,192,212365,1,0,0:0:0:0:
256,192,212615,5,8,0:0:0:0:
256,192,212740,1,8,0:0:0:0:
256,192,212865,1,8,0:0:0:0:
256,192,212990,5,0,0:0:0:0:
256,192,213115,1,0,0:0:0:0:
256,192,213240,1,0,0:0:0:0:
256,192,213365,1,0,0:0:0:0:
256,192,213615,5,8,0:0:0:0:
256,192,213740,1,0,0:0:0:0:
256,192,213865,1,8,0:0:0:0:
256,192,214115,5,0,0:0:0:0:
256,192,214365,1,8,0:0:0:0:
256,192,214615,1,0,0:0:0:0:
256,192,214740,1,8,0:0:0:0:
256,192,214990,1,0,0:0:0:0:
256,192,215240,1,8,0:0:0:0:
256,192,215490,1,8,0:0:0:0:
256,192,215740,1,0,0:0:0:0:
256,192,215865,1,8,0:0:0:0:
256,192,216115,1,0,0:0:0:0:
256,192,216240,1,8,0:0:0:0:
256,192,216365,1,0,0:0:0:0:
256,192,217115,12,0,220240,0:0:0:0:
256,192,220365,5,4,0:0:0:0:
256,192,220740,1,0,0:0:0:0:
256,192,220865,1,8,0:0:0:0:
256,192,221115,1,0,0:0:0:0:
256,192,221240,1,8,0:0:0:0:
256,192,221365,1,0,0:0:0:0:
256,192,221490,1,0,0:0:0:0:
256,192,221615,1,8,0:0:0:0:
256,192,221740,1,0,0:0:0:0:
256,192,221865,1,8,0:0:0:0:
256,192,222115,1,0,0:0:0:0:
256,192,222240,1,8,0:0:0:0:
256,192,222365,5,4,0:0:0:0:
256,192,222740,1,0,0:0:0:0:
256,192,222865,1,8,0:0:0:0:
256,192,223115,1,0,0:0:0:0:
256,192,223240,1,8,0:0:0:0:
256,192,223365,1,0,0:0:0:0:
256,192,223490,1,0,0:0:0:0:
256,192,223615,1,8,0:0:0:0:
256,192,223740,1,0,0:0:0:0:
256,192,223865,1,8,0:0:0:0:
256,192,224115,1,0,0:0:0:0:
256,192,224240,1,8,0:0:0:0:
256,192,224365,5,4,0:0:0:0:
256,192,224740,1,0,0:0:0:0:
256,192,224865,1,8,0:0:0:0:
256,192,225115,1,0,0:0:0:0:
256,192,225240,1,8,0:0:0:0:
256,192,225365,1,0,0:0:0:0:
256,192,225490,1,0,0:0:0:0:
256,192,225615,1,8,0:0:0:0:
256,192,225740,1,0,0:0:0:0:
256,192,225865,1,8,0:0:0:0:
256,192,226115,1,0,0:0:0:0:
256,192,226365,5,8,0:0:0:0:
256,192,226615,1,0,0:0:0:0:
256,192,226740,1,0,0:0:0:0:
256,192,226865,1,8,0:0:0:0:
256,192,227115,1,0,0:0:0:0:
256,192,227281,1,8,0:0:0:0:
256,192,227365,1,8,0:0:0:0:
256,192,227531,1,8,0:0:0:0:
256,192,227781,1,0,0:0:0:0:
256,192,227865,1,0,0:0:0:0:
256,192,227948,1,8,0:0:0:0:
256,192,228031,1,8,0:0:0:0:
256,192,228115,1,8,0:0:0:0:
256,192,228240,1,8,0:0:0:0:
256,192,228365,5,4,0:0:0:0:
256,192,228740,1,8,0:0:0:0:
256,192,229115,1,0,0:0:0:0:
256,192,229490,1,8,0:0:0:0:
256,192,229865,1,8,0:0:0:0:
256,192,229990,1,8,0:0:0:0:
256,192,230115,1,0,0:0:0:0:
256,192,230366,5,8,0:0:0:0:
256,192,230740,1,8,0:0:0:0:
256,192,231115,1,8,0:0:0:0:
256,192,231490,1,8,0:0:0:0:
256,192,231865,1,8,0:0:0:0:
256,192,231990,1,8,0:0:0:0:
256,192,232115,1,0,0:0:0:0:
256,192,232366,5,8,0:0:0:0:
256,192,232740,1,8,0:0:0:0:
256,192,233115,1,8,0:0:0:0:
256,192,233490,1,8,0:0:0:0:
256,192,233865,5,0,0:0:0:0:
256,192,234115,1,0,0:0:0:0:
256,192,234365,1,8,0:0:0:0:
256,192,234740,1,8,0:0:0:0:
256,192,235365,5,8,0:0:0:0:
256,192,235740,1,8,0:0:0:0:
256,192,236365,5,0,0:0:0:0:
256,192,236740,1,8,0:0:0:0:
256,192,237115,1,0,0:0:0:0:
256,192,237490,1,8,0:0:0:0:
256,192,237740,1,0,0:0:0:0:
256,192,237865,1,8,0:0:0:0:
256,192,237990,1,8,0:0:0:0:
256,192,238115,1,0,0:0:0:0:
256,192,238365,5,0,0:0:0:0:
256,192,238740,1,8,0:0:0:0:
256,192,239115,1,0,0:0:0:0:
256,192,239490,1,8,0:0:0:0:
256,192,239865,1,8,0:0:0:0:
256,192,239990,1,8,0:0:0:0:
256,192,240115,1,0,0:0:0:0:
256,192,240366,5,0,0:0:0:0:
256,192,240740,1,8,0:0:0:0:
256,192,241115,1,0,0:0:0:0:
256,192,241490,1,8,0:0:0:0:
256,192,241865,5,0,0:0:0:0:
256,192,242115,1,8,0:0:0:0:
256,192,242365,1,0,0:0:0:0:
256,192,242740,1,8,0:0:0:0:
256,192,243365,5,0,0:0:0:0:
256,192,243740,1,8,0:0:0:0:
256,192,244365,5,12,0:0:0:0:
256,192,244615,1,0,0:0:0:0:
256,192,244740,1,8,0:0:0:0:
256,192,244990,1,0,0:0:0:0:
256,192,245115,1,8,0:0:0:0:
256,192,245365,1,0,0:0:0:0:
256,192,245490,1,8,0:0:0:0:
256,192,245740,1,0,0:0:0:0:
256,192,245865,1,8,0:0:0:0:
256,192,245990,1,8,0:0:0:0:
256,192,246115,1,0,0:0:0:0:
256,192,246365,5,8,0:0:0:0:
256,192,246615,1,8,0:0:0:0:
256,192,246740,1,8,0:0:0:0:
256,192,247115,1,8,0:0:0:0:
256,192,247490,1,8,0:0:0:0:
256,192,247865,1,8,0:0:0:0:
256,192,247990,1,8,0:0:0:0:
256,192,248115,1,0,0:0:0:0:
256,192,248366,5,8,0:0:0:0:
256,192,248615,1,8,0:0:0:0:
256,192,248740,1,8,0:0:0:0:
256,192,249115,1,8,0:0:0:0:
256,192,249490,1,8,0:0:0:0:
256,192,249865,5,0,0:0:0:0:
256,192,250115,1,0,0:0:0:0:
256,192,250365,1,8,0:0:0:0:
256,192,250490,1,8,0:0:0:0:
256,192,250740,1,8,0:0:0:0:
256,192,251365,5,8,0:0:0:0:
256,192,251490,1,8,0:0:0:0:
256,192,251740,1,8,0:0:0:0:
256,192,252365,5,0,0:0:0:0:
256,192,252615,1,0,0:0:0:0:
256,192,252740,1,8,0:0:0:0:
256,192,252990,1,0,0:0:0:0:
256,192,253115,1,8,0:0:0:0:
256,192,253365,1,0,0:0:0:0:
256,192,253490,1,8,0:0:0:0:
256,192,253740,1,0,0:0:0:0:
256,192,253865,1,8,0:0:0:0:
256,192,253990,1,8,0:0:0:0:
256,192,254115,1,0,0:0:0:0:
256,192,254365,5,0,0:0:0:0:
256,192,254427,1,0,0:0:0:0:
256,192,254490,1,0,0:0:0:0:
256,192,254552,1,0,0:0:0:0:
256,192,254740,1,8,0:0:0:0:
256,192,254802,1,8,0:0:0:0:
256,192,254865,1,8,0:0:0:0:
256,192,254927,1,8,0:0:0:0:
256,192,255115,1,0,0:0:0:0:
256,192,255177,1,0,0:0:0:0:
256,192,255240,1,0,0:0:0:0:
256,192,255302,1,0,0:0:0:0:
256,192,255490,1,8,0:0:0:0:
256,192,255552,1,8,0:0:0:0:
256,192,255615,1,8,0:0:0:0:
256,192,255677,1,8,0:0:0:0:
256,192,255865,1,8,0:0:0:0:
256,192,255990,1,8,0:0:0:0:
256,192,256115,1,0,0:0:0:0:
256,192,256366,5,0,0:0:0:0:
256,192,256427,1,0,0:0:0:0:
256,192,256490,1,0,0:0:0:0:
256,192,256552,1,0,0:0:0:0:
256,192,256740,1,8,0:0:0:0:
256,192,256802,1,8,0:0:0:0:
256,192,256865,1,8,0:0:0:0:
256,192,256927,1,8,0:0:0:0:
256,192,257115,1,0,0:0:0:0:
256,192,257177,1,0,0:0:0:0:
256,192,257240,1,0,0:0:0:0:
256,192,257302,1,0,0:0:0:0:
256,192,257490,1,8,0:0:0:0:
256,192,257552,1,8,0:0:0:0:
256,192,257615,1,8,0:0:0:0:
256,192,257677,1,8,0:0:0:0:
256,192,257865,5,0,0:0:0:0:
256,192,258115,1,0,0:0:0:0:
256,192,258365,1,0,0:0:0:0:
256,192,258427,1,0,0:0:0:0:
256,192,258490,1,0,0:0:0:0:
256,192,258552,1,0,0:0:0:0:
256,192,258740,1,8,0:0:0:0:
256,192,258802,1,8,0:0:0:0:
256,192,258865,1,8,0:0:0:0:
256,192,258927,1,8,0:0:0:0:
256,192,259365,5,0,0:0:0:0:
256,192,259427,1,0,0:0:0:0:
256,192,259490,1,0,0:0:0:0:
256,192,259552,1,0,0:0:0:0:
256,192,259740,1,8,0:0:0:0:
256,192,259802,1,8,0:0:0:0:
256,192,259865,1,8,0:0:0:0:
256,192,259927,1,8,0:0:0:0:
256,192,260365,5,4,0:0:0:0:
256,192,260615,1,8,0:0:0:0:
256,192,260740,1,0,0:0:0:0:
256,192,260865,1,8,0:0:0:0:
256,192,261115,1,0,0:0:0:0:
256,192,261365,1,0,0:0:0:0:
256,192,261490,1,8,0:0:0:0:
256,192,261740,1,8,0:0:0:0:
256,192,261865,1,8,0:0:0:0:
256,192,262115,1,0,0:0:0:0:
256,192,262240,1,0,0:0:0:0:
256,192,262365,1,8,0:0:0:0:
256,192,262615,1,0,0:0:0:0:
256,192,262865,1,8,0:0:0:0:
256,192,262990,1,8,0:0:0:0:
256,192,263115,1,0,0:0:0:0:
256,192,263240,1,8,0:0:0:0:
256,192,263365,1,8,0:0:0:0:
256,192,263615,1,0,0:0:0:0:
256,192,263865,2,0,L|224:192,8,17.5
256,192,264615,5,0,0:0:0:0:
256,192,264740,1,0,0:0:0:0:
256,192,264865,1,8,0:0:0:0:
256,192,265115,1,8,0:0:0:0:
256,192,265365,1,0,0:0:0:0:
256,192,265490,1,8,0:0:0:0:
256,192,265740,1,8,0:0:0:0:
256,192,265865,1,8,0:0:0:0:
256,192,266115,1,0,0:0:0:0:
256,192,266240,1,8,0:0:0:0:
256,192,266365,1,0,0:0:0:0:
256,192,266615,1,0,0:0:0:0:
256,192,266740,1,0,0:0:0:0:
256,192,266865,1,8,0:0:0:0:
256,192,267115,1,0,0:0:0:0:
256,192,267240,1,0,0:0:0:0:
256,192,267365,1,8,0:0:0:0:
256,192,267490,1,8,0:0:0:0:
256,192,267615,1,0,0:0:0:0:
256,192,267865,2,0,L|224:192,8,17.5
256,192,268615,5,8,0:0:0:0:
256,192,268740,1,8,0:0:0:0:
256,192,268865,1,0,0:0:0:0:
256,192,269115,1,8,0:0:0:0:
256,192,269365,1,0,0:0:0:0:
256,192,269490,1,8,0:0:0:0:
256,192,269740,1,8,0:0:0:0:
256,192,269865,1,8,0:0:0:0:
256,192,270115,1,0,0:0:0:0:
256,192,270240,1,0,0:0:0:0:
256,192,270365,1,8,0:0:0:0:
256,192,270615,1,0,0:0:0:0:
256,192,270865,1,8,0:0:0:0:
256,192,270990,1,8,0:0:0:0:
256,192,271115,1,0,0:0:0:0:
256,192,271240,1,8,0:0:0:0:
256,192,271365,1,8,0:0:0:0:
256,192,271615,1,0,0:0:0:0:
256,192,271865,2,0,L|224:192,8,17.5
256,192,272615,5,0,0:0:0:0:
256,192,272740,1,0,0:0:0:0:
256,192,272865,1,8,0:0:0:0:
256,192,273115,1,0,0:0:0:0:
256,192,273365,1,0,0:0:0:0:
256,192,273490,1,8,0:0:0:0:
256,192,273740,1,8,0:0:0:0:
256,192,273865,1,0,0:0:0:0:
256,192,274115,1,8,0:0:0:0:
256,192,274177,1,0,0:0:0:0:
256,192,274240,1,8,0:0:0:0:
256,192,274302,1,0,0:0:0:0:
256,192,274365,1,8,0:0:0:0:
256,192,274615,1,8,0:0:0:0:
256,192,274865,1,0,0:0:0:0:
256,192,274990,1,8,0:0:0:0:
256,192,275115,1,0,0:0:0:0:
256,192,275240,1,0,0:0:0:0:
256,192,275365,1,8,0:0:0:0:
256,192,275615,1,0,0:0:0:0:
256,192,275865,2,0,L|224:192,6,17.5
256,192,276365,12,0,276740,0:0:0:0:
256,192,276865,12,0,277240,0:0:0:0:
256,192,277365,12,0,278240,0:0:0:0:
256,192,278365,5,4,0:0:0:0:
256,192,278615,1,8,0:0:0:0:
256,192,278865,1,0,0:0:0:0:
256,192,279115,1,8,0:0:0:0:
256,192,279365,1,0,0:0:0:0:
256,192,279490,1,8,0:0:0:0:
256,192,279615,1,0,0:0:0:0:
256,192,279740,1,8,0:0:0:0:
256,192,279865,1,0,0:0:0:0:
256,192,280115,1,8,0:0:0:0:
256,192,280240,1,8,0:0:0:0:
256,192,280365,1,0,0:0:0:0:
256,192,280615,1,8,0:0:0:0:
256,192,280865,1,0,0:0:0:0:
256,192,281115,1,8,0:0:0:0:
256,192,281365,1,0,0:0:0:0:
256,192,281490,1,8,0:0:0:0:
256,192,281615,1,0,0:0:0:0:
256,192,281740,1,8,0:0:0:0:
256,192,281865,1,8,0:0:0:0:
256,192,282115,1,8,0:0:0:0:
256,192,282240,1,8,0:0:0:0:
256,192,282365,5,0,0:0:0:0:
256,192,282615,1,8,0:0:0:0:
256,192,282865,1,0,0:0:0:0:
256,192,282990,1,8,0:0:0:0:
256,192,283240,1,0,0:0:0:0:
256,192,283365,1,0,0:0:0:0:
256,192,283615,1,0,0:0:0:0:
256,192,283740,1,8,0:0:0:0:
256,192,283990,1,8,0:0:0:0:
256,192,284115,1,0,0:0:0:0:
256,192,284240,1,0,0:0:0:0:
256,192,284365,1,8,0:0:0:0:
256,192,284615,1,0,0:0:0:0:
256,192,284740,1,8,0:0:0:0:
256,192,284990,1,8,0:0:0:0:
256,192,285115,1,0,0:0:0:0:
256,192,285240,1,0,0:0:0:0:
256,192,285365,1,8,0:0:0:0:
256,192,285490,1,8,0:0:0:0:
256,192,285615,1,0,0:0:0:0:
256,192,285865,1,8,0:0:0:0:
256,192,286115,1,0,0:0:0:0:
256,192,286365,5,0,0:0:0:0:
256,192,286615,1,8,0:0:0:0:
256,192,286865,1,0,0:0:0:0:
256,192,287115,1,8,0:0:0:0:
256,192,287365,1,0,0:0:0:0:
256,192,287490,1,8,0:0:0:0:
256,192,287615,1,0,0:0:0:0:
256,192,287740,1,8,0:0:0:0:
256,192,287865,1,0,0:0:0:0:
256,192,288115,1,8,0:0:0:0:
256,192,288240,1,8,0:0:0:0:
256,192,288365,1,0,0:0:0:0:
256,192,288615,1,8,0:0:0:0:
256,192,288865,1,0,0:0:0:0:
256,192,289115,1,8,0:0:0:0:
256,192,289365,1,0,0:0:0:0:
256,192,289490,1,8,0:0:0:0:
256,192,289615,1,0,0:0:0:0:
256,192,289740,1,8,0:0:0:0:
256,192,289865,1,8,0:0:0:0:
256,192,290115,1,8,0:0:0:0:
256,192,290240,1,8,0:0:0:0:
256,192,290365,5,0,0:0:0:0:
256,192,290615,1,0,0:0:0:0:
256,192,290740,1,8,0:0:0:0:
256,192,290990,1,0,0:0:0:0:
256,192,291115,1,0,0:0:0:0:
256,192,291240,1,0,0:0:0:0:
256,192,291365,1,8,0:0:0:0:
256,192,291615,1,0,0:0:0:0:
256,192,291740,1,8,0:0:0:0:
256,192,291865,1,0,0:0:0:0:
256,192,292115,1,8,0:0:0:0:
256,192,292365,1,8,0:0:0:0:
256,192,292615,1,0,0:0:0:0:
256,192,292740,1,8,0:0:0:0:
256,192,292865,1,0,0:0:0:0:
256,192,293115,1,0,0:0:0:0:
256,192,293240,1,0,0:0:0:0:
256,192,293365,1,8,0:0:0:0:
256,192,293490,1,8,0:0:0:0:
256,192,293615,1,0,0:0:0:0:
256,192,293740,1,0,0:0:0:0:
256,192,293865,1,8,0:0:0:0:
256,192,294115,1,0,0:0:0:0:
256,192,294365,5,4,0:0:0:0:
256,192,294615,1,8,0:0:0:0:
256,192,294865,1,0,0:0:0:0:
256,192,295115,1,8,0:0:0:0:
256,192,295365,1,0,0:0:0:0:
256,192,295490,1,8,0:0:0:0:
256,192,295615,1,0,0:0:0:0:
256,192,295740,1,8,0:0:0:0:
256,192,295865,1,0,0:0:0:0:
256,192,296115,1,8,0:0:0:0:
256,192,296240,1,8,0:0:0:0:
256,192,296365,1,0,0:0:0:0:
256,192,296615,1,8,0:0:0:0:
256,192,296865,1,0,0:0:0:0:
256,192,297115,1,8,0:0:0:0:
256,192,297365,1,0,0:0:0:0:
256,192,297490,1,8,0:0:0:0:
256,192,297615,1,0,0:0:0:0:
256,192,297740,1,8,0:0:0:0:
256,192,297865,1,8,0:0:0:0:
256,192,298115,1,8,0:0:0:0:
256,192,298240,1,8,0:0:0:0:
256,192,298365,5,0,0:0:0:0:
256,192,298615,1,0,0:0:0:0:
256,192,298740,1,8,0:0:0:0:
256,192,298990,1,0,0:0:0:0:
256,192,299115,1,0,0:0:0:0:
256,192,299240,1,0,0:0:0:0:
256,192,299365,1,8,0:0:0:0:
256,192,299615,1,0,0:0:0:0:
256,192,299740,1,8,0:0:0:0:
256,192,299865,1,0,0:0:0:0:
256,192,300115,1,8,0:0:0:0:
256,192,300240,1,0,0:0:0:0:
256,192,300365,1,8,0:0:0:0:
256,192,300615,1,0,0:0:0:0:
256,192,300740,1,8,0:0:0:0:
256,192,300865,1,0,0:0:0:0:
256,192,301115,1,0,0:0:0:0:
256,192,301240,1,0,0:0:0:0:
256,192,301365,1,8,0:0:0:0:
256,192,301490,1,8,0:0:0:0:
256,192,301615,1,0,0:0:0:0:
256,192,301865,1,8,0:0:0:0:
256,192,302115,1,0,0:0:0:0:
256,192,302365,5,0,0:0:0:0:
256,192,302615,1,8,0:0:0:0:
256,192,302865,1,0,0:0:0:0:
256,192,303115,1,8,0:0:0:0:
256,192,303365,1,0,0:0:0:0:
256,192,303490,1,8,0:0:0:0:
256,192,303615,1,0,0:0:0:0:
256,192,303740,1,8,0:0:0:0:
256,192,303865,1,0,0:0:0:0:
256,192,304115,1,8,0:0:0:0:
256,192,304240,1,8,0:0:0:0:
256,192,304365,1,0,0:0:0:0:
256,192,304615,1,8,0:0:0:0:
256,192,304865,1,0,0:0:0:0:
256,192,305115,1,8,0:0:0:0:
256,192,305365,1,0,0:0:0:0:
256,192,305490,1,8,0:0:0:0:
256,192,305615,1,0,0:0:0:0:
256,192,305740,1,8,0:0:0:0:
256,192,305865,1,8,0:0:0:0:
256,192,306115,1,8,0:0:0:0:
256,192,306240,1,8,0:0:0:0:
256,192,306365,5,0,0:0:0:0:
256,192,306615,1,0,0:0:0:0:
256,192,306740,1,8,0:0:0:0:
256,192,306990,1,0,0:0:0:0:
256,192,307115,1,0,0:0:0:0:
256,192,307240,1,0,0:0:0:0:
256,192,307365,1,8,0:0:0:0:
256,192,307615,1,0,0:0:0:0:
256,192,307740,1,8,0:0:0:0:
256,192,307865,1,0,0:0:0:0:
256,192,308115,1,8,0:0:0:0:
256,192,308365,1,8,0:0:0:0:
256,192,308615,1,0,0:0:0:0:
256,192,308740,1,8,0:0:0:0:
256,192,308865,1,0,0:0:0:0:
256,192,309115,1,8,0:0:0:0:
256,192,309240,1,0,0:0:0:0:
256,192,309365,1,8,0:0:0:0:
256,192,309490,1,8,0:0:0:0:
256,192,309615,1,0,0:0:0:0:
256,192,309740,1,0,0:0:0:0:
256,192,309865,1,8,0:0:0:0:
256,192,310115,1,0,0:0:0:0:
256,192,310365,5,0,0:0:0:0:
256,192,310615,1,0,0:0:0:0:
256,192,310740,1,8,0:0:0:0:
256,192,310865,1,0,0:0:0:0:
256,192,310990,1,8,0:0:0:0:
256,192,311115,1,8,0:0:0:0:
256,192,311365,1,0,0:0:0:0:
256,192,311865,1,8,0:0:0:0:
256,192,312115,1,0,0:0:0:0:
256,192,312240,1,0,0:0:0:0:
256,192,312365,1,8,0:0:0:0:
256,192,312615,1,0,0:0:0:0:
256,192,312740,1,8,0:0:0:0:
256,192,312865,1,0,0:0:0:0:
256,192,313115,1,8,0:0:0:0:
256,192,313240,1,0,0:0:0:0:
256,192,313365,1,8,0:0:0:0:
256,192,313490,1,8,0:0:0:0:
256,192,313615,1,0,0:0:0:0:
256,192,313865,1,8,0:0:0:0:
256,192,314115,1,0,0:0:0:0:
256,192,314365,1,0,0:0:0:0:
256,192,314615,1,8,0:0:0:0:
256,192,314740,1,8,0:0:0:0:
256,192,314990,1,0,0:0:0:0:
256,192,315115,1,8,0:0:0:0:
256,192,315240,1,8,0:0:0:0:
256,192,315365,1,0,0:0:0:0:
256,192,315615,1,8,0:0:0:0:
256,192,315865,1,8,0:0:0:0:
256,192,316115,1,0,0:0:0:0:
256,192,316240,1,0,0:0:0:0:
256,192,316365,1,8,0:0:0:0:
256,192,316615,1,0,0:0:0:0:
256,192,316740,1,8,0:0:0:0:
256,192,316990,1,0,0:0:0:0:
256,192,317115,1,8,0:0:0:0:
256,192,317240,1,0,0:0:0:0:
256,192,317365,1,8,0:0:0:0:
256,192,317490,1,8,0:0:0:0:
256,192,317615,1,0,0:0:0:0:
256,192,317865,1,8,0:0:0:0:
256,192,318115,1,8,0:0:0:0:
256,192,318365,5,0,0:0:0:0:
256,192,318615,1,8,0:0:0:0:
256,192,318740,1,0,0:0:0:0:
256,192,318865,1,8,0:0:0:0:
256,192,318990,1,8,0:0:0:0:
256,192,319115,1,0,0:0:0:0:
256,192,319365,1,8,0:0:0:0:
256,192,319865,1,0,0:0:0:0:
256,192,320115,1,8,0:0:0:0:
256,192,320240,1,8,0:0:0:0:
256,192,320365,1,0,0:0:0:0:
256,192,320615,1,8,0:0:0:0:
256,192,320740,1,0,0:0:0:0:
256,192,320865,1,8,0:0:0:0:
256,192,321115,1,0,0:0:0:0:
256,192,321240,1,8,0:0:0:0:
256,192,321365,1,0,0:0:0:0:
256,192,321490,1,0,0:0:0:0:
256,192,321615,1,8,0:0:0:0:
256,192,321865,1,0,0:0:0:0:
256,192,322115,1,8,0:0:0:0:
256,192,322365,1,8,0:0:0:0:
256,192,322615,1,0,0:0:0:0:
256,192,322740,1,0,0:0:0:0:
256,192,322990,1,8,0:0:0:0:
256,192,323115,1,0,0:0:0:0:
256,192,323240,1,0,0:0:0:0:
256,192,323365,1,8,0:0:0:0:
256,192,323615,1,0,0:0:0:0:
256,192,323865,1,0,0:0:0:0:
256,192,324115,1,8,0:0:0:0:
256,192,324240,1,8,0:0:0:0:
256,192,324365,1,0,0:0:0:0:
256,192,324615,1,8,0:0:0:0:
256,192,324740,1,0,0:0:0:0:
256,192,324990,1,8,0:0:0:0:
256,192,325115,1,0,0:0:0:0:
256,192,325240,1,8,0:0:0:0:
256,192,325365,1,0,0:0:0:0:
256,192,325490,1,0,0:0:0:0:
256,192,325615,1,8,0:0:0:0:
256,192,325865,1,0,0:0:0:0:
256,192,326115,1,0,0:0:0:0:
256,192,326365,5,8,0:0:0:0:
256,192,326615,1,8,0:0:0:0:
256,192,326740,1,8,0:0:0:0:
256,192,326865,1,0,0:0:0:0:
256,192,326990,1,0,0:0:0:0:
256,192,327115,1,8,0:0:0:0:
256,192,327490,1,8,0:0:0:0:
256,192,327740,1,8,0:0:0:0:
256,192,327865,1,8,0:0:0:0:
256,192,328115,1,0,0:0:0:0:
256,192,328240,1,0,0:0:0:0:
256,192,328365,1,8,0:0:0:0:
256,192,328615,1,0,0:0:0:0:
256,192,328865,1,8,0:0:0:0:
256,192,328990,1,8,0:0:0:0:
256,192,329115,1,0,0:0:0:0:
256,192,329240,1,0,0:0:0:0:
256,192,329365,1,8,0:0:0:0:
256,192,329490,1,8,0:0:0:0:
256,192,329615,1,0,0:0:0:0:
256,192,329865,1,8,0:0:0:0:
256,192,329990,1,8,0:0:0:0:
256,192,330115,1,8,0:0:0:0:
256,192,330240,1,8,0:0:0:0:
256,192,330365,5,0,0:0:0:0:
256,192,330615,1,8,0:0:0:0:
256,192,330865,1,0,0:0:0:0:
256,192,331115,1,8,0:0:0:0:
256,192,331365,1,0,0:0:0:0:
256,192,331490,1,8,0:0:0:0:
256,192,331740,1,8,0:0:0:0:
256,192,331865,1,0,0:0:0:0:
256,192,332115,1,8,0:0:0:0:
256,192,332177,1,0,0:0:0:0:
256,192,332240,1,8,0:0:0:0:
256,192,332302,1,0,0:0:0:0:
256,192,332365,1,8,0:0:0:0:
256,192,332615,1,0,0:0:0:0:
256,192,332865,1,8,0:0:0:0:
256,192,332990,1,8,0:0:0:0:
256,192,333115,1,0,0:0:0:0:
256,192,333240,1,0,0:0:0:0:
256,192,333365,1,8,0:0:0:0:
256,192,333615,1,0,0:0:0:0:
256,192,333865,5,8,0:0:0:0:
256,192,333990,1,8,0:0:0:0:
256,192,334115,1,8,0:0:0:0:
