osu file format v14

[General]
AudioFilename: audio.mp3
AudioLeadIn: 0
PreviewTime: -1
Countdown: 0
SampleSet: Normal
StackLeniency: 0.7
Mode: 0
LetterboxInBreaks: 0
WidescreenStoryboard: 1

[Editor]
Bookmarks: 33909,207909,279159,309659
DistanceSpacing: 1.8
BeatDivisor: 4
GridSize: 16
TimelineZoom: 3.9

[Metadata]
Title:Astrosexy
TitleUnicode:Astrosexy
Artist:m-flo loves CHEMISTRY
ArtistUnicode:m-flo loves CHEMISTRY
Creator:Abran
Version:Astro Sexy
Source:
Tags:
BeatmapID:4523371
BeatmapSetID:2147422

[Difficulty]
HPDrainRate:5
CircleSize:4
OverallDifficulty:9
ApproachRate:9.8
SliderMultiplier:1.4
SliderTickRate:2

[Events]
//Background and Video events
0,0,"astromantic-standard-height-1440px-gigapixel.jpeg",0,0
//Break Periods
2,220609,227930
//Storyboard Layer 0 (Background)
//Storyboard Layer 1 (Fail)
//Storyboard Layer 2 (Pass)
//Storyboard Layer 3 (Foreground)
//Storyboard Layer 4 (Overlay)
//Storyboard Sound Samples

[TimingPoints]
8409,500,4,1,0,100,1,0
48034,-50,4,1,0,100,0,0
120534,-40,4,1,0,100,0,0
136409,-33.3333333333333,4,1,0,100,0,0
161659,-28.5714285714286,4,1,0,100,0,0
162534,-100,4,1,0,100,0,0
163409,-40,4,1,0,100,0,0
195784,-100,4,1,0,100,0,0
196159,-50,4,1,0,100,0,0
196659,-200,4,1,0,100,0,0
197159,-33.3333333333333,4,1,0,100,0,0
197659,-50,4,1,0,100,0,0
198159,-100,4,1,0,100,0,0
198659,-25,4,1,0,100,0,0
199159,-35.7142857142857,4,1,0,100,0,0
199659,-50,4,1,0,100,0,0
200284,-33.3333333333333,4,1,0,100,0,0
200534,-100,4,1,0,100,0,0
200784,-33.3333333333333,4,1,0,100,0,0
201034,-133.333333333333,4,1,0,100,0,0
201284,-50,4,1,0,100,0,0
201784,-1000,4,1,0,100,0,0
202034,-100,4,1,0,100,0,0
202284,-66.6666666666667,4,1,0,100,0,0
202534,-50,4,1,0,100,0,0
202784,-33.3333333333333,4,1,0,100,0,0
203034,-25,4,1,0,100,0,0
203284,-20,4,1,0,100,0,0
203534,-16.6666666666667,4,1,0,100,0,0
203784,-100,4,1,0,100,0,0
204034,-66.6666666666667,4,1,0,100,0,0
204284,-62.5,4,1,0,100,0,0
204534,-58.8235294117647,4,1,0,100,0,0
204784,-55.5555555555556,4,1,0,100,0,0
205034,-52.6315789473684,4,1,0,100,0,0
205284,-40,4,1,0,100,0,0
205534,-33.3333333333333,4,1,0,100,0,0
210534,-40,4,1,0,100,0,0
246284,-16.6666666666667,4,1,0,100,0,0
248409,-50,4,1,0,100,0,0
276346,-50,4,1,0,100,0,0

[HitObjects]
64,32,409,6,0,L|96:112,1,70
112,128,784,1,0,0:0:0:0:
128,160,909,1,0,0:0:0:0:
208,208,1159,1,0,0:0:0:0:
208,208,1409,2,0,L|304:240,1,70
320,240,1784,1,0,0:0:0:0:
368,256,1909,1,0,0:0:0:0:
432,320,2159,1,0,0:0:0:0:
448,224,2409,6,0,L|448:128,1,70
416,128,2784,1,0,0:0:0:0:
384,96,2909,1,0,0:0:0:0:
304,128,3159,1,0,0:0:0:0:
224,96,3409,2,0,L|128:80,1,70
128,112,3784,1,0,0:0:0:0:
96,144,3909,1,0,0:0:0:0:
80,240,4159,1,0,0:0:0:0:
48,320,4409,6,0,L|144:336,1,70
160,336,4784,1,0,0:0:0:0:
208,336,4909,1,0,0:0:0:0:
240,256,5159,1,0,0:0:0:0:
318,128,5409,2,0,L|256:160,1,70
336,32,5909,2,0,L|400:96,1,70
388,214,6409,2,0,L|432:160,1,70
80,192,6909,2,0,L|144:240,1,70
448,288,7409,6,0,L|384:320,1,70
336,336,7784,1,0,0:0:0:0:
304,304,7909,1,0,0:0:0:0:
240,240,8159,1,0,0:0:0:0:
91,177,8409,2,0,L|91:97,1,70
176,64,8784,1,0,0:0:0:0:
208,80,8909,1,0,0:0:0:0:
240,48,9034,1,0,0:0:0:0:
272,64,9159,1,0,0:0:0:0:
384,80,9409,6,0,L|448:144,1,70
400,160,9784,1,0,0:0:0:0:
368,192,9909,1,0,0:0:0:0:
352,256,10159,1,0,0:0:0:0:
320,240,10284,1,0,0:0:0:0:
288,256,10409,1,0,0:0:0:0:
256,224,10534,1,0,0:0:0:0:
160,240,10659,1,0,0:0:0:0:
192,240,10784,1,0,0:0:0:0:
112,192,10909,1,0,0:0:0:0:
80,144,11034,1,0,0:0:0:0:
64,112,11159,5,0,0:0:0:0:
112,48,11409,1,0,0:0:0:0:
144,32,11534,1,0,0:0:0:0:
176,48,11659,1,0,0:0:0:0:
208,32,11784,1,0,0:0:0:0:
240,64,11909,1,0,0:0:0:0:
272,48,12034,1,0,0:0:0:0:
288,80,12159,1,0,0:0:0:0:
352,240,12409,1,0,0:0:0:0:
320,272,12534,1,0,0:0:0:0:
288,304,12659,1,0,0:0:0:0:
208,272,12909,6,0,L|144:240,1,70
112,208,13284,1,0,0:0:0:0:
80,176,13409,1,0,0:0:0:0:
64,128,13534,1,0,0:0:0:0:
64,80,13659,2,0,L|96:64,1,35
144,64,13909,1,0,0:0:0:0:
192,64,14034,1,0,0:0:0:0:
240,64,14159,1,0,0:0:0:0:
288,64,14284,1,0,0:0:0:0:
32,192,14409,5,0,0:0:0:0:
512,192,14659,1,0,0:0:0:0:
256,368,14909,1,0,0:0:0:0:
256,16,15159,1,0,0:0:0:0:
96,192,15409,1,0,0:0:0:0:
448,192,15659,1,0,0:0:0:0:
256,16,15909,1,0,0:0:0:0:
256,320,16159,1,0,0:0:0:0:
112,224,16409,1,0,0:0:0:0:
96,160,16534,5,0,0:0:0:0:
160,144,16659,1,0,0:0:0:0:
256,80,16784,1,0,0:0:0:0:
352,48,16909,2,0,P|400:64|416:96,1,70
256,16,17284,1,0,0:0:0:0:
144,16,17409,2,0,P|96:48|80:80,1,70
48,192,17784,1,0,0:0:0:0:
48,288,17909,2,0,P|64:336|96:320,1,70
256,368,18284,1,0,0:0:0:0:
256,256,18409,6,0,L|256:208,1,35
256,144,18659,1,0,0:0:0:0:
256,144,18784,1,0,0:0:0:0:
352,256,18909,6,0,L|352:208,1,35
352,144,19159,1,0,0:0:0:0:
352,144,19284,1,0,0:0:0:0:
64,256,19409,6,0,L|96:224,1,35
128,192,19659,2,0,L|80:240,1,35
192,288,19909,2,0,L|240:304,1,35
128,192,20159,1,0,0:0:0:0:
64,96,20284,1,0,0:0:0:0:
208,144,20409,1,0,0:0:0:0:
176,64,20534,1,0,0:0:0:0:
288,32,20659,1,0,0:0:0:0:
400,80,20784,1,0,0:0:0:0:
448,176,20909,1,0,0:0:0:0:
256,224,21034,2,0,L|320:224,1,35
144,320,21284,1,0,0:0:0:0:
64,112,21409,5,0,0:0:0:0:
256,16,21659,1,0,0:0:0:0:
464,192,21909,1,0,0:0:0:0:
192,128,22075,2,0,L|240:160,1,46.6666666666667
377,105,22409,2,0,L|416:80,1,46.6666666666667
224,288,22742,2,0,L|288:256,1,46.6666666666667
415,255,23075,2,0,L|448:288,1,46.6666666666667
224,64,23409,6,0,B|288:64|288:64|192:64,1,140
16,368,24409,1,0,0:0:0:0:
128,368,24659,2,0,L|192:368,1,35
256,368,24909,1,0,0:0:0:0:
368,368,25034,2,0,L|432:368,1,35
496,368,25284,1,0,0:0:0:0:
496,256,25409,1,0,0:0:0:0:
496,144,25534,2,0,L|496:80,1,35
496,0,25784,1,0,0:0:0:0:
384,0,25909,6,0,L|320:0,1,35
256,0,26159,1,0,0:0:0:0:
160,0,26284,1,0,0:0:0:0:
16,16,26409,2,0,B|16:128|16:128|16:80,1,140
16,128,27159,1,0,0:0:0:0:
496,336,27409,1,0,0:0:0:0:
496,192,27659,1,0,0:0:0:0:
496,192,27784,1,0,0:0:0:0:
496,192,27909,1,0,0:0:0:0:
464,16,28159,5,0,0:0:0:0:
448,80,28409,2,0,L|496:64,1,35
448,80,28659,1,0,0:0:0:0:
256,192,28909,2,0,L|304:176,1,35
256,192,29159,1,0,0:0:0:0:
32,352,29409,2,0,L|80:336,1,35
32,352,29659,1,0,0:0:0:0:
128,32,29909,5,0,0:0:0:0:
384,176,30159,1,0,0:0:0:0:
80,288,30409,1,0,0:0:0:0:
416,336,30659,1,0,0:0:0:0:
368,64,30909,1,0,0:0:0:0:
192,320,31159,1,0,0:0:0:0:
176,64,31409,1,0,0:0:0:0:
256,192,31534,12,0,32409,0:0:0:0:
256,192,32659,5,0,0:0:0:0:
256,32,32784,1,0,0:0:0:0:
352,32,32909,1,0,0:0:0:0:
160,32,33034,1,0,0:0:0:0:
256,32,33159,2,0,L|272:80,1,35
304,288,33409,1,0,0:0:0:0:
304,208,33534,1,0,0:0:0:0:
224,240,33659,1,0,0:0:0:0:
384,256,33784,1,0,0:0:0:0:
304,368,33909,1,0,0:0:0:0:
128,32,34159,6,0,L|176:64,1,35
96,192,34409,1,0,0:0:0:0:
112,96,34659,1,0,0:0:0:0:
256,224,34784,1,0,0:0:0:0:
144,224,34909,1,0,0:0:0:0:
224,112,35034,1,0,0:0:0:0:
64,96,35159,1,0,0:0:0:0:
144,64,35284,1,0,0:0:0:0:
144,144,35409,1,0,0:0:0:0:
304,256,35534,1,0,0:0:0:0:
304,176,35659,1,0,0:0:0:0:
224,208,35784,1,0,0:0:0:0:
384,224,35909,1,0,0:0:0:0:
80,160,36159,6,0,L|112:128,1,35
176,48,36409,1,0,0:0:0:0:
320,128,36659,1,0,0:0:0:0:
320,192,36784,1,0,0:0:0:0:
320,256,36909,1,0,0:0:0:0:
448,80,37159,1,0,0:0:0:0:
448,80,37284,1,0,0:0:0:0:
448,80,37409,1,0,0:0:0:0:
96,96,37659,5,0,0:0:0:0:
96,96,37784,1,0,0:0:0:0:
96,96,37909,1,0,0:0:0:0:
128,208,38159,2,0,P|176:208|192:224,1,70
336,48,38909,2,0,P|400:32|416:48,1,70
448,96,39284,1,0,0:0:0:0:
384,208,39409,2,0,L|464:240,1,70
240,224,39909,2,0,L|176:272,1,70
128,80,40284,5,0,0:0:0:0:
192,64,40409,1,0,0:0:0:0:
384,224,40659,5,0,0:0:0:0:
224,208,40784,1,0,0:0:0:0:
304,176,40909,1,0,0:0:0:0:
304,256,41034,1,0,0:0:0:0:
144,144,41159,1,0,0:0:0:0:
144,64,41284,1,0,0:0:0:0:
64,96,41409,1,0,0:0:0:0:
224,112,41534,1,0,0:0:0:0:
144,224,41659,1,0,0:0:0:0:
240,224,41784,1,0,0:0:0:0:
224,112,41909,1,0,0:0:0:0:
144,64,42159,5,0,0:0:0:0:
144,144,42284,1,0,0:0:0:0:
304,256,42409,1,0,0:0:0:0:
368,48,42659,6,0,L|416:48,1,35
368,144,42909,2,0,L|416:144,1,35
368,240,43159,2,0,L|432:240,1,35
368,336,43409,2,0,L|416:336,1,35
256,368,43659,1,0,0:0:0:0:
256,288,43784,1,0,0:0:0:0:
256,208,43909,1,0,0:0:0:0:
64,32,44159,2,0,L|64:80,1,35
64,336,44409,1,0,0:0:0:0:
256,64,44659,5,0,0:0:0:0:
352,64,44784,1,0,0:0:0:0:
448,64,44909,1,0,0:0:0:0:
112,192,45159,1,0,0:0:0:0:
112,192,45284,1,0,0:0:0:0:
112,192,45409,1,0,0:0:0:0:
336,320,45659,2,0,L|400:320,1,35
480,368,45909,1,0,0:0:0:0:
256,192,46159,12,0,47409,0:0:0:0:
80,48,48409,6,0,L|176:80,1,70
256,192,48659,1,0,0:0:0:0:
80,192,48784,2,0,L|160:192,1,70
384,256,49034,2,0,L|288:256,1,70
160,304,49284,1,0,0:0:0:0:
288,80,49409,2,0,L|368:48,1,70
464,32,49659,1,0,0:0:0:0:
384,144,49784,1,0,0:0:0:0:
464,192,49909,2,0,L|384:256,1,70
384,352,50159,5,0,0:0:0:0:
288,240,50284,1,0,0:0:0:0:
96,208,50409,2,0,L|160:272,1,70
192,352,50659,2,0,L|241:302,1,70
256,16,50909,1,0,0:0:0:0:
416,112,51159,1,0,0:0:0:0:
400,256,51409,1,0,0:0:0:0:
400,256,51534,1,0,0:0:0:0:
400,256,51659,1,0,0:0:0:0:
448,48,51909,1,0,0:0:0:0:
448,48,52034,1,0,0:0:0:0:
448,48,52159,1,0,0:0:0:0:
96,32,52409,6,0,L|160:80,1,70
208,160,52659,1,0,0:0:0:0:
96,272,52784,1,0,0:0:0:0:
192,352,52909,1,0,0:0:0:0:
304,288,53034,1,0,0:0:0:0:
464,336,53159,2,0,L|448:240,1,70
416,160,53409,2,0,L|384:96,1,70
256,16,53659,1,0,0:0:0:0:
128,96,53784,1,0,0:0:0:0:
80,240,53909,2,0,L|192:240,1,70
256,224,54159,5,0,0:0:0:0:
256,224,54284,1,0,0:0:0:0:
448,32,54409,1,0,0:0:0:0:
352,32,54534,1,0,0:0:0:0:
352,128,54659,1,0,0:0:0:0:
448,128,54784,1,0,0:0:0:0:
96,80,54909,2,0,L|192:112,1,70
192,192,55159,2,0,L|128:224,1,70
320,336,55409,5,0,0:0:0:0:
320,336,55534,1,0,0:0:0:0:
320,336,55659,1,0,0:0:0:0:
240,64,55909,1,0,0:0:0:0:
112,208,56034,1,0,0:0:0:0:
112,208,56159,6,0,L|208:192,1,70
240,64,56409,2,0,L|208:160,1,70
288,192,56659,2,0,L|336:128,1,70
448,96,56909,2,0,L|384:192,1,70
176,304,57159,2,0,L|256:336,1,70
400,288,57409,2,0,L|304:256,1,70
32,128,57659,2,0,L|112:160,1,70
320,64,57909,2,0,L|272:144,1,70
80,320,58159,2,0,L|144:256,1,70
208,32,58409,5,0,0:0:0:0:
288,144,58534,1,0,0:0:0:0:
192,208,58659,1,0,0:0:0:0:
288,272,58784,1,0,0:0:0:0:
192,336,58909,1,0,0:0:0:0:
416,336,59034,2,0,L|464:160,1,140
448,48,59409,5,0,0:0:0:0:
448,48,59534,1,0,0:0:0:0:
448,48,59659,1,0,0:0:0:0:
448,352,59909,1,0,0:0:0:0:
448,352,60034,1,0,0:0:0:0:
448,352,60159,1,0,0:0:0:0:
336,272,60284,1,0,0:0:0:0:
448,160,60409,1,0,0:0:0:0:
80,80,60659,6,0,L|160:80,1,70
160,144,60909,2,0,L|96:192,1,70
80,256,61159,2,0,L|160:304,1,70
96,336,61409,2,0,L|32:368,1,70
224,336,61659,2,0,L|288:256,1,70
224,48,61909,1,0,0:0:0:0:
336,144,62034,1,0,0:0:0:0:
176,208,62159,1,0,0:0:0:0:
432,48,62284,1,0,0:0:0:0:
384,240,62409,1,0,0:0:0:0:
208,240,63159,6,0,L|352:144,1,140
352,80,63659,2,0,L|336:160,1,70
320,288,63909,1,0,0:0:0:0:
96,96,64409,5,0,0:0:0:0:
96,48,64534,1,0,0:0:0:0:
96,144,64659,1,0,0:0:0:0:
96,0,64784,1,0,0:0:0:0:
96,192,64909,1,0,0:0:0:0:
256,80,65159,6,0,L|320:144,1,70
272,240,65409,1,0,0:0:0:0:
208,352,65659,2,0,L|320:320,1,70
416,304,65909,1,0,0:0:0:0:
80,144,66159,2,0,L|144:192,1,70
256,192,66409,5,0,0:0:0:0:
336,144,66534,1,0,0:0:0:0:
192,224,66659,1,0,0:0:0:0:
400,96,66784,1,0,0:0:0:0:
128,240,66909,1,0,0:0:0:0:
352,320,67159,6,0,L|480:208,1,140
480,176,67534,1,0,0:0:0:0:
480,176,67659,1,0,0:0:0:0:
320,48,67909,1,0,0:0:0:0:
480,32,68034,1,0,0:0:0:0:
336,160,68159,1,0,0:0:0:0:
208,160,68284,2,0,L|160:240,1,70
128,320,68534,2,0,L|240:320,1,70
320,320,68784,1,0,0:0:0:0:
80,96,68909,2,0,L|128:160,1,70
368,144,69159,2,0,L|240:256,1,140
176,256,69534,5,0,0:0:0:0:
224,304,69659,1,0,0:0:0:0:
240,352,69784,1,0,0:0:0:0:
304,352,69909,2,0,L|448:224,1,140
128,144,70409,6,0,P|192:64|384:96,1,280
256,192,71159,1,0,0:0:0:0:
400,160,71409,2,0,P|368:256|192:288,1,280
80,208,72034,1,0,0:0:0:0:
80,208,72159,1,0,0:0:0:0:
80,208,72284,1,0,0:0:0:0:
80,208,72409,1,0,0:0:0:0:
256,240,73159,2,0,L|368:128,1,140
176,96,73659,1,0,0:0:0:0:
80,208,73909,6,0,L|176:240,1,70
256,320,74159,1,0,0:0:0:0:
432,304,74409,2,0,L|432:208,1,70
432,96,74659,1,0,0:0:0:0:
432,96,74784,1,0,0:0:0:0:
432,96,74909,1,0,0:0:0:0:
240,80,75159,1,0,0:0:0:0:
240,80,75284,5,0,0:0:0:0:
96,192,75409,2,0,L|144:272,1,70
32,352,75659,1,0,0:0:0:0:
32,128,75909,2,0,L|128:64,1,70
32,32,76159,1,0,0:0:0:0:
192,80,76284,1,0,0:0:0:0:
384,48,76409,2,0,L|432:128,1,70
432,208,76659,2,0,L|368:272,1,70
240,304,76909,2,0,L|352:352,1,70
96,192,77159,5,0,0:0:0:0:
96,192,77284,1,0,0:0:0:0:
96,192,77409,1,0,0:0:0:0:
400,64,77659,1,0,0:0:0:0:
400,64,77784,1,0,0:0:0:0:
384,144,77909,2,0,L|272:272,1,140
96,272,78409,2,0,L|208:384,1,140
256,32,78909,2,0,L|256:192,1,140
208,336,79409,2,0,L|384:256,1,140
416,96,79909,5,0,0:0:0:0:
416,96,80034,1,0,0:0:0:0:
416,96,80159,1,0,0:0:0:0:
128,320,80409,6,0,L|241:297,1,70
32,272,80659,1,0,0:0:0:0:
352,224,80909,6,0,L|288:320,1,70
453,190,81159,1,0,0:0:0:0:
384,64,81409,6,0,L|270:86,1,70
480,112,81659,1,0,0:0:0:0:
160,160,81909,6,0,L|224:64,1,70
59,193,82159,1,0,0:0:0:0:
369,219,82409,6,0,L|254:207,1,70
447,293,82659,1,0,0:0:0:0:
127,245,82909,6,0,L|216:172,1,70
20,248,83159,1,0,0:0:0:0:
256,64,83409,5,0,0:0:0:0:
256,64,83534,1,0,0:0:0:0:
256,64,83659,1,0,0:0:0:0:
256,336,83909,1,0,0:0:0:0:
256,336,84034,1,0,0:0:0:0:
256,336,84159,1,0,0:0:0:0:
112,240,84409,2,0,L|208:192,1,70
32,336,84659,1,0,0:0:0:0:
224,80,84909,1,0,0:0:0:0:
384,208,85159,5,0,0:0:0:0:
224,304,85409,1,0,0:0:0:0:
416,368,85659,1,0,0:0:0:0:
464,112,85909,1,0,0:0:0:0:
176,112,86159,1,0,0:0:0:0:
128,288,86409,1,0,0:0:0:0:
352,256,86659,5,0,0:0:0:0:
256,256,86784,1,0,0:0:0:0:
160,256,86909,1,0,0:0:0:0:
64,48,87159,1,0,0:0:0:0:
64,128,87284,1,0,0:0:0:0:
64,208,87409,1,0,0:0:0:0:
160,352,87659,1,0,0:0:0:0:
240,352,87784,1,0,0:0:0:0:
320,352,87909,1,0,0:0:0:0:
432,272,88159,5,0,0:0:0:0:
480,208,88284,1,0,0:0:0:0:
432,128,88409,1,0,0:0:0:0:
320,32,88534,2,0,L|224:128,1,70
192,176,88784,1,0,0:0:0:0:
16,224,88909,2,0,L|96:288,1,70
48,352,89159,2,0,L|112:256,1,70
416,192,89409,2,0,L|336:240,1,70
448,304,89659,2,0,L|512:224,1,70
144,64,89909,5,0,0:0:0:0:
208,160,90034,1,0,0:0:0:0:
272,256,90159,1,0,0:0:0:0:
320,160,90284,5,0,0:0:0:0:
384,256,90409,1,0,0:0:0:0:
448,352,90534,1,0,0:0:0:0:
352,352,90659,6,0,L|160:352,1,140
96,352,91034,1,0,0:0:0:0:
64,272,91159,2,0,L|192:160,1,140
48,144,91534,1,0,0:0:0:0:
112,64,91659,2,0,L|288:64,1,140
288,96,92034,1,0,0:0:0:0:
384,224,92159,5,0,0:0:0:0:
304,176,92284,1,0,0:0:0:0:
368,96,92409,1,0,0:0:0:0:
448,144,92534,1,0,0:0:0:0:
448,208,92659,1,0,0:0:0:0:
384,176,92784,1,0,0:0:0:0:
304,128,92909,2,0,P|192:96|48:240,1,280
80,304,93534,1,0,0:0:0:0:
176,336,93659,1,0,0:0:0:0:
288,352,93909,6,0,P|400:320|400:304,1,140
416,256,94284,1,0,0:0:0:0:
416,256,94409,1,0,0:0:0:0:
384,160,94659,1,0,0:0:0:0:
336,96,94784,1,0,0:0:0:0:
256,80,94909,1,0,0:0:0:0:
128,144,95159,1,0,0:0:0:0:
80,224,95284,1,0,0:0:0:0:
80,288,95409,1,0,0:0:0:0:
176,320,95534,6,0,L|256:288,1,70
192,176,95784,2,0,L|304:224,1,70
320,112,96034,2,0,L|240:192,1,70
432,304,96284,2,0,L|352:240,1,70
80,288,96534,6,0,P|128:160|224:144,1,210
304,112,97159,1,0,0:0:0:0:
400,192,97284,1,0,0:0:0:0:
256,256,97409,1,0,0:0:0:0:
368,112,97534,1,0,0:0:0:0:
352,256,97659,1,0,0:0:0:0:
224,144,97784,1,0,0:0:0:0:
416,272,97909,1,0,0:0:0:0:
176,240,98034,2,0,L|-16:96,1,210
282,120,98659,6,0,L|144:144,1,140
192,224,99159,1,0,0:0:0:0:
384,224,99284,1,0,0:0:0:0:
352,80,99409,5,0,0:0:0:0:
176,48,99534,1,0,0:0:0:0:
80,112,99659,1,0,0:0:0:0:
400,256,99784,1,0,0:0:0:0:
480,96,99909,1,0,0:0:0:0:
480,256,100034,1,0,0:0:0:0:
400,336,100159,5,0,0:0:0:0:
256,320,100409,1,0,0:0:0:0:
256,160,100534,1,0,0:0:0:0:
256,160,100659,1,0,0:0:0:0:
128,80,100909,1,0,0:0:0:0:
64,160,101034,1,0,0:0:0:0:
96,256,101159,1,0,0:0:0:0:
256,320,101409,1,0,0:0:0:0:
368,336,101659,6,0,P|416:208|416:192,1,140
464,80,102159,1,0,0:0:0:0:
144,64,102409,1,0,0:0:0:0:
96,256,102659,1,0,0:0:0:0:
0,96,102909,1,0,0:0:0:0:
256,272,103159,1,0,0:0:0:0:
272,64,103409,1,0,0:0:0:0:
416,288,103659,1,0,0:0:0:0:
448,144,103909,2,0,P|336:112|320:160,2,140
80,288,104659,5,0,0:0:0:0:
80,80,104909,1,0,0:0:0:0:
256,288,105159,1,0,0:0:0:0:
416,112,105409,1,0,0:0:0:0:
416,112,105534,1,0,0:0:0:0:
416,112,105659,1,0,0:0:0:0:
480,224,105784,1,0,0:0:0:0:
416,336,105909,1,0,0:0:0:0:
304,336,106034,1,0,0:0:0:0:
304,304,106159,1,0,0:0:0:0:
240,272,106284,1,0,0:0:0:0:
192,240,106409,1,0,0:0:0:0:
192,80,106659,6,0,P|288:48|352:64,1,140
96,48,107159,2,0,P|32:144|16:224,1,140
32,256,107534,1,0,0:0:0:0:
64,320,107659,1,0,0:0:0:0:
128,352,107784,1,0,0:0:0:0:
208,352,107909,2,0,P|288:336|352:304,1,140
432,352,108284,1,0,0:0:0:0:
480,304,108409,1,0,0:0:0:0:
448,96,108659,6,0,P|304:64|288:64,1,140
112,304,109159,1,0,0:0:0:0:
96,112,109409,2,0,P|192:64|224:64,1,140
416,256,109909,1,0,0:0:0:0:
256,192,110159,1,0,0:0:0:0:
416,96,110409,2,0,P|272:64|176:176,1,280
240,256,111159,1,0,0:0:0:0:
96,320,111409,2,0,P|240:352|416:320,1,280
448,64,112409,6,0,L|336:128,1,70
272,224,112659,1,0,0:0:0:0:
272,224,112784,1,0,0:0:0:0:
80,160,112909,2,0,P|144:96|208:80,1,140
80,288,113284,1,0,0:0:0:0:
192,304,113409,2,0,L|304:320,1,70
400,304,113659,1,0,0:0:0:0:
400,304,113784,1,0,0:0:0:0:
416,192,113909,2,0,P|432:112|240:96,1,280
256,192,114659,5,0,0:0:0:0:
336,96,114784,1,0,0:0:0:0:
208,96,114909,1,0,0:0:0:0:
400,80,115409,6,0,L|400:368,1,280
16,368,116159,1,0,0:0:0:0:
16,192,116409,1,0,0:0:0:0:
16,16,116659,1,0,0:0:0:0:
176,16,116909,1,0,0:0:0:0:
336,16,117159,1,0,0:0:0:0:
496,16,117409,1,0,0:0:0:0:
496,96,117659,2,0,P|416:192|400:256,1,140
464,336,118159,5,0,0:0:0:0:
272,336,118284,1,0,0:0:0:0:
112,336,118409,1,0,0:0:0:0:
256,192,118659,12,0,119659,0:0:0:0:
256,192,119909,5,0,0:0:0:0:
176,144,120034,1,0,0:0:0:0:
176,240,120159,1,0,0:0:0:0:
256,96,120284,1,0,0:0:0:0:
336,224,120409,1,0,0:0:0:0:
96,64,120659,6,0,L|320:176,1,175
272,192,121034,1,0,0:0:0:0:
384,336,121159,1,0,0:0:0:0:
128,352,121284,1,0,0:0:0:0:
128,352,121409,2,0,L|192:272,1,87.5
400,208,121659,2,0,L|480:272,1,87.5
480,128,121909,2,0,L|336:80,1,87.5
80,96,122159,5,0,0:0:0:0:
48,240,122409,1,0,0:0:0:0:
176,336,122659,1,0,0:0:0:0:
352,336,122909,1,0,0:0:0:0:
464,320,123159,1,0,0:0:0:0:
352,112,123409,1,0,0:0:0:0:
80,64,123659,1,0,0:0:0:0:
80,208,123909,1,0,0:0:0:0:
384,320,124159,1,0,0:0:0:0:
144,336,124409,1,0,0:0:0:0:
256,208,124659,5,0,0:0:0:0:
448,48,124909,1,0,0:0:0:0:
192,80,125159,1,0,0:0:0:0:
112,144,125409,2,0,P|64:272|288:336,1,350
256,32,126159,1,0,0:0:0:0:
384,48,126409,2,0,P|480:112|400:336,1,350
193,101,127034,2,0,L|257:177,1,87.5
240,254,127284,6,0,L|151:182,1,87.5
63,175,127534,2,0,L|123:264,1,87.5
240,352,127784,1,0,0:0:0:0:
400,64,127909,2,0,L|480:128,1,87.5
464,240,128159,6,0,L|352:192,1,87.5
240,160,128409,2,0,L|320:272,1,87.5
448,64,128659,1,0,0:0:0:0:
448,64,128784,1,0,0:0:0:0:
448,64,128909,1,0,0:0:0:0:
96,160,129159,2,0,P|160:80|256:80,1,175
336,160,129534,5,0,0:0:0:0:
224,304,129659,1,0,0:0:0:0:
240,96,129784,1,0,0:0:0:0:
384,288,129909,1,0,0:0:0:0:
400,96,130034,1,0,0:0:0:0:
96,288,130159,1,0,0:0:0:0:
96,192,130284,1,0,0:0:0:0:
96,112,130409,1,0,0:0:0:0:
224,144,130659,6,0,P|272:96|272:112,1,175
288,239,131159,6,0,P|239:287|240:272,1,175
112,240,131534,1,0,0:0:0:0:
112,240,131659,1,0,0:0:0:0:
208,128,131909,2,0,L|144:208,2,87.5
384,80,132409,2,0,L|464:128,1,87.5
480,224,132659,2,0,L|400:288,1,87.5
336,336,132909,2,0,L|400:208,1,87.5
368,176,133159,2,0,L|448:80,1,87.5
352,48,133409,2,0,L|240:144,1,87.5
208,160,133659,5,0,0:0:0:0:
320,272,133784,1,0,0:0:0:0:
160,288,133909,1,0,0:0:0:0:
80,160,134034,1,0,0:0:0:0:
192,48,134159,1,0,0:0:0:0:
96,48,134409,2,0,P|16:192|32:208,1,175
256,192,134784,1,0,0:0:0:0:
16,240,134909,2,0,P|16:352|64:352,1,175
400,32,135409,2,0,P|432:128|416:128,1,175
336,192,135784,5,0,0:0:0:0:
416,224,135909,1,0,0:0:0:0:
304,288,136034,1,0,0:0:0:0:
432,320,136159,1,0,0:0:0:0:
64,272,136409,1,0,0:0:0:0:
96,160,136659,6,0,P|192:48|208:64,1,210.000008010865
144,96,137034,2,0,L|256:160,1,105.000004005432
288,192,137284,1,0,0:0:0:0:
304,128,137409,2,0,P|384:144|224:224,1,420.000016021729
352,224,138034,1,0,0:0:0:0:
336,160,138159,2,0,P|288:256|320:256,1,210.000008010865
336,160,138534,2,0,P|448:160|384:256,1,210.000008010865
336,352,138909,1,0,0:0:0:0:
64,336,139159,6,0,L|128:192,1,105.000004005432
80,112,139409,2,0,L|16:256,1,105.000004005432
176,336,139659,2,0,L|224:192,1,105.000004005432
128,192,139909,2,0,L|192:64,1,105.000004005432
272,48,140159,2,0,L|224:176,1,105.000004005432
80,32,140409,2,0,L|192:96,1,105.000004005432
64,288,140659,2,0,L|128:160,1,105.000004005432
176,304,140909,1,0,0:0:0:0:
256,208,141034,1,0,0:0:0:0:
320,128,141159,1,0,0:0:0:0:
272,16,141284,6,0,L|400:16,1,105.000004005432
496,16,141534,2,0,L|368:16,1,105.000004005432
400,224,141784,1,0,0:0:0:0:
272,368,141909,2,0,L|352:272,1,105.000004005432
464,352,142159,2,0,L|400:256,1,105.000004005432
432,112,142409,2,0,L|432:224,1,105.000004005432
432,224,142659,2,0,L|464:336,1,105.000004005432
384,336,142909,2,0,L|352:208,1,105.000004005432
336,176,143159,2,0,L|384:352,1,105.000004005432
128,176,143409,5,0,0:0:0:0:
128,176,143534,1,0,0:0:0:0:
128,176,143659,1,0,0:0:0:0:
176,48,143909,1,0,0:0:0:0:
352,64,144159,1,0,0:0:0:0:
400,224,144409,2,0,P|368:304|224:320,1,210.000008010865
144,128,144909,5,0,0:0:0:0:
112,272,145034,1,0,0:0:0:0:
224,368,145159,1,0,0:0:0:0:
336,352,145284,1,0,0:0:0:0:
432,288,145409,1,0,0:0:0:0:
416,176,145534,1,0,0:0:0:0:
320,80,145659,1,0,0:0:0:0:
160,112,145784,1,0,0:0:0:0:
176,224,145909,6,0,B|288:208|288:208|256:192|336:128,1,210.000008010865
48,112,146409,2,0,B|112:208|112:208|80:208|32:272,1,210.000008010865
336,288,146909,2,0,B|256:208|256:208|256:272|416:128,1,315.000012016297
448,80,147409,5,0,0:0:0:0:
384,256,147534,1,0,0:0:0:0:
464,224,147659,1,0,0:0:0:0:
160,272,147784,1,0,0:0:0:0:
272,304,147909,1,0,0:0:0:0:
48,96,148034,1,0,0:0:0:0:
64,208,148159,1,0,0:0:0:0:
208,32,148284,1,0,0:0:0:0:
112,64,148409,1,0,0:0:0:0:
144,192,148534,1,0,0:0:0:0:
208,176,148659,6,0,L|352:128,1,105.000004005432
432,96,148909,1,0,0:0:0:0:
336,336,149159,6,0,P|434:332|461:238,1,210.000008010865
256,192,149659,1,0,0:0:0:0:
160,96,149909,2,0,P|48:240|64:272,1,210.000008010865
384,64,150409,5,0,0:0:0:0:
384,160,150534,1,0,0:0:0:0:
384,256,150659,1,0,0:0:0:0:
272,64,150909,5,0,0:0:0:0:
272,160,151034,1,0,0:0:0:0:
272,256,151159,1,0,0:0:0:0:
176,64,151409,5,0,0:0:0:0:
176,160,151534,1,0,0:0:0:0:
176,256,151659,1,0,0:0:0:0:
64,64,151909,5,0,0:0:0:0:
64,160,152034,1,0,0:0:0:0:
64,256,152159,1,0,0:0:0:0:
208,224,152409,6,0,P|240:112|304:128,1,105.000004005432
320,64,152659,1,0,0:0:0:0:
304,159,152909,6,0,P|272:272|208:256,1,105.000004005432
192,320,153159,1,0,0:0:0:0:
198,195,153409,6,0,P|282:114|329:160,1,105.000004005432
375,113,153659,1,0,0:0:0:0:
176,48,153909,6,0,P|127:65|105:111,1,105.000004005432
393,151,154159,1,0,0:0:0:0:
96,48,154409,5,0,0:0:0:0:
176,48,154534,1,0,0:0:0:0:
256,48,154659,1,0,0:0:0:0:
336,48,154784,1,0,0:0:0:0:
416,48,154909,1,0,0:0:0:0:
256,192,155159,1,0,0:0:0:0:
96,320,155409,5,0,0:0:0:0:
176,320,155534,1,0,0:0:0:0:
256,320,155659,1,0,0:0:0:0:
336,320,155784,1,0,0:0:0:0:
416,320,155909,1,0,0:0:0:0:
416,320,156034,1,0,0:0:0:0:
416,320,156159,1,0,0:0:0:0:
416,320,156284,1,0,0:0:0:0:
432,160,156409,2,0,P|352:64|320:96,1,210.000008010865
64,192,156909,5,0,0:0:0:0:
0,192,157034,1,0,0:0:0:0:
128,192,157159,1,0,0:0:0:0:
64,128,157284,1,0,0:0:0:0:
64,240,157409,1,0,0:0:0:0:
112,144,157534,1,0,0:0:0:0:
16,128,157659,1,0,0:0:0:0:
112,240,157784,1,0,0:0:0:0:
16,240,157909,1,0,0:0:0:0:
192,208,158034,2,0,L|416:128,1,210.000008010865
368,240,158409,5,0,0:0:0:0:
464,240,158534,1,0,0:0:0:0:
368,128,158659,1,0,0:0:0:0:
464,144,158784,1,0,0:0:0:0:
416,240,158909,1,0,0:0:0:0:
416,128,159034,1,0,0:0:0:0:
480,192,159159,1,0,0:0:0:0:
352,192,159284,1,0,0:0:0:0:
416,192,159409,1,0,0:0:0:0:
304,336,159659,6,0,L|432:352,1,105.000004005432
224,224,159909,2,0,L|96:320,1,105.000004005432
96,96,160159,2,0,L|176:176,1,105.000004005432
208,64,160409,2,0,L|128:160,1,105.000004005432
48,336,160659,2,0,L|96:240,1,105.000004005432
192,352,160909,2,0,L|176:224,1,105.000004005432
352,336,161159,2,0,L|256:224,1,105.000004005432
448,320,161409,2,0,L|352:176,1,105.000004005432
464,160,161659,6,0,L|336:144,1,122.500001168251
432,16,161909,2,0,L|304:80,1,122.500001168251
176,16,162159,2,0,L|272:112,1,122.500001168251
48,32,162409,2,0,L|176:128,1,122.500001168251
32,240,162659,2,0,L|272:224,1,210
320,256,163534,2,0,L|448:192,1,87.5
288,80,163909,2,0,L|208:160,1,87.5
64,208,164159,1,0,0:0:0:0:
144,288,164409,2,0,L|304:320,1,87.5
304,352,164659,1,0,0:0:0:0:
384,352,164909,6,0,P|464:304|448:288,1,87.5
448,240,165159,1,0,0:0:0:0:
448,240,165284,1,0,0:0:0:0:
320,32,165409,2,0,P|192:112|304:240,1,350
128,304,166034,1,0,0:0:0:0:
336,128,166159,1,0,0:0:0:0:
96,112,166284,1,0,0:0:0:0:
256,192,166409,5,0,0:0:0:0:
256,192,166534,1,0,0:0:0:0:
256,192,166659,1,0,0:0:0:0:
256,192,166784,1,0,0:0:0:0:
256,192,166909,1,0,0:0:0:0:
432,192,167159,1,0,0:0:0:0:
320,288,167284,1,0,0:0:0:0:
320,288,167409,1,0,0:0:0:0:
112,144,167659,1,0,0:0:0:0:
256,192,167909,12,0,168409,0:0:0:0:
256,192,168659,5,0,0:0:0:0:
416,272,169159,1,0,0:0:0:0:
224,144,169284,1,0,0:0:0:0:
352,256,169409,1,0,0:0:0:0:
368,112,169534,1,0,0:0:0:0:
256,256,169659,1,0,0:0:0:0:
400,192,169784,1,0,0:0:0:0:
304,112,169909,1,0,0:0:0:0:
80,176,170034,2,0,L|144:256,1,87.5
176,112,170284,2,0,L|96:224,1,87.5
272,352,170659,5,0,0:0:0:0:
176,272,170784,1,0,0:0:0:0:
320,208,170909,1,0,0:0:0:0:
351,320,171284,1,0,0:0:0:0:
160,192,171409,1,0,0:0:0:0:
304,112,171534,1,0,0:0:0:0:
400,192,171659,5,0,0:0:0:0:
256,256,171784,1,0,0:0:0:0:
368,112,171909,1,0,0:0:0:0:
352,256,172034,1,0,0:0:0:0:
224,144,172159,1,0,0:0:0:0:
416,272,172284,1,0,0:0:0:0:
320,192,172409,6,0,L|432:128,1,87.5
272,80,172659,2,0,L|176:160,1,87.5
96,256,172909,2,0,L|224:240,1,87.5
128,128,173409,2,0,L|176:208,1,87.5
224,304,173659,1,0,0:0:0:0:
224,80,173784,2,0,L|304:160,1,87.5
352,208,174159,1,0,0:0:0:0:
157,173,174409,6,0,P|128:128|96:112,2,87.5
224,304,174784,1,0,0:0:0:0:
304,160,174910,2,0,P|320:112|371:104,2,87.5
80,320,175284,1,0,0:0:0:0:
160,320,175409,1,0,0:0:0:0:
240,320,175534,1,0,0:0:0:0:
320,320,175659,1,0,0:0:0:0:
400,320,175784,1,0,0:0:0:0:
480,320,175909,1,0,0:0:0:0:
480,240,176159,6,0,P|416:160|272:160,1,175
176,80,176659,6,0,P|96:192|96:256,1,175
304,128,177159,1,0,0:0:0:0:
240,240,177284,1,0,0:0:0:0:
208,144,177409,1,0,0:0:0:0:
336,224,177534,1,0,0:0:0:0:
368,112,177659,1,0,0:0:0:0:
304,272,177784,1,0,0:0:0:0:
144,272,177909,1,0,0:0:0:0:
288,192,178034,1,0,0:0:0:0:
160,192,178159,5,0,0:0:0:0:
192,112,178284,1,0,0:0:0:0:
256,144,178409,1,0,0:0:0:0:
80,64,178659,2,0,P|48:224|64:256,1,175
64,160,179159,1,0,0:0:0:0:
64,48,179284,1,0,0:0:0:0:
64,272,179409,1,0,0:0:0:0:
144,48,179534,1,0,0:0:0:0:
144,160,179659,1,0,0:0:0:0:
144,272,179784,1,0,0:0:0:0:
240,352,179909,1,0,0:0:0:0:
352,336,180159,6,0,P|464:336|448:256,1,175
464,176,180534,1,0,0:0:0:0:
416,80,180659,1,0,0:0:0:0:
288,80,180909,2,0,P|192:160|208:224,1,175
144,304,181409,2,0,L|288:288,1,87.5
304,304,181659,1,0,0:0:0:0:
448,256,181909,2,0,P|400:176|320:224,2,175
64,224,182659,1,0,0:0:0:0:
400,352,182909,2,0,P|376:269|419:195,2,175
64,320,183659,6,0,P|144:224|112:208,1,175
176,160,184159,2,0,L|352:272,1,175
80,144,184659,1,0,0:0:0:0:
224,80,184909,2,0,L|400:208,1,175
96,336,185409,2,0,L|256:224,1,175
464,64,185909,2,0,L|368:240,1,175
96,64,186409,2,0,L|256:176,1,175
256,192,186909,1,0,0:0:0:0:
160,192,187034,1,0,0:0:0:0:
336,192,187159,1,0,0:0:0:0:
416,272,187409,6,0,L|416:176,1,87.5
352,272,187659,2,0,L|352:160,1,87.5
288,272,187909,2,0,L|288:176,1,87.5
224,272,188159,2,0,L|224:160,1,87.5
96,48,188409,1,0,0:0:0:0:
96,288,188534,6,0,L|208:256,1,87.5
272,208,188784,1,0,0:0:0:0:
128,144,188909,2,0,L|208:192,1,87.5
48,96,189159,1,0,0:0:0:0:
176,48,189284,1,0,0:0:0:0:
240,48,189409,2,0,L|336:96,1,87.5
448,160,189659,5,0,0:0:0:0:
448,160,189784,1,0,0:0:0:0:
448,256,189909,2,0,L|352:320,1,87.5
240,224,190159,2,0,L|304:320,1,87.5
352,144,190409,2,0,L|272:224,1,87.5
480,368,190659,2,0,L|464:256,1,87.5
352,272,190909,2,0,L|384:368,1,87.5
432,368,191159,2,0,L|416:256,1,87.5
211,278,191409,5,0,0:0:0:0:
352,162,191534,1,0,0:0:0:0:
188,152,191659,1,0,0:0:0:0:
341,278,191784,1,0,0:0:0:0:
278,90,191909,1,0,0:0:0:0:
138,256,192034,1,0,0:0:0:0:
425,230,192159,1,0,0:0:0:0:
245,329,192284,1,0,0:0:0:0:
216,55,192409,1,0,0:0:0:0:
76,110,192659,6,0,L|172:179,1,87.5
397,78,192909,2,0,L|315:187,1,87.5
81,300,193159,2,0,L|201:192,1,87.5
417,299,193409,2,0,L|275:132,1,175
298,162,193784,1,0,0:0:0:0:
71,56,193909,2,0,P|143:121|115:139,1,175
66,191,194284,2,0,L|155:67,1,87.5
172,46,194534,2,0,L|101:138,1,87.5
165,227,194784,2,0,L|201:132,1,87.5
315,76,195034,2,0,L|272:178,1,87.5
96,257,195284,1,0,0:0:0:0:
324,310,195409,6,0,L|422:260,1,87.5
271,130,195659,2,0,L|249:227,1,87.5
96,137,195909,6,0,P|101:196|116:205,1,70
135,296,196409,2,0,P|197:357|252:332,1,140
340,346,196909,2,0,L|388:355,1,35
439,109,197409,2,0,L|247:272,1,210.000008010865
125,64,197909,6,0,P|85:131|133:195,1,140
298,150,198409,2,0,B|394:174|290:149,1,70
116,103,198909,2,0,B|175:202|191:218|191:218|80:338,1,280
256,320,199409,2,0,B|266:322|316:243|316:243|284:150,1,195.999994018555
109,201,199784,2,0,L|194:213,1,70
162,59,200034,2,0,L|77:107,1,70
296,292,200284,1,0,0:0:0:0:
395,323,200409,2,0,L|489:262,1,105.000004005432
411,161,200659,6,0,L|359:143,1,35
108,124,200909,2,0,L|174:245,1,105.000004005432
232,348,201159,2,0,B|244:354|262:373|262:373|266:373,1,26.2500010013581
356,95,201409,2,0,B|411:149|411:149|408:114|392:159,1,70
260,158,201659,2,0,L|302:224,1,70
222,263,201909,2,0,L|226:266,1,3.5
460,353,202159,6,0,L|484:309,1,35
448,124,202409,2,0,L|403:166,1,52.5000020027161
273,120,202659,2,0,L|335:67,1,70
130,76,202909,2,0,L|62:164,1,105.000004005432
137,232,203159,2,0,L|286:123,1,140
326,228,203409,2,0,L|169:342,1,175
365,343,203659,2,0,L|510:170,1,210.000008010865
120,42,203909,6,0,P|78:65|69:79,1,35
150,239,204159,2,0,B|198:239|198:239|194:221,1,52.5000020027161
332,286,204409,2,0,L|422:290,1,56
244,302,204659,2,0,L|173:344,1,59.5000011348725
283,184,204909,2,0,L|346:141,1,62.9999980773926
195,52,205159,2,0,L|143:94,1,66.4999982242585
398,62,205409,2,0,L|346:219,1,87.5
257,263,205659,2,0,L|150:295,1,105.000004005432
48,223,205909,2,0,L|157:149,1,105.000004005432
244,88,206159,1,0,0:0:0:0:
244,88,206284,1,0,0:0:0:0:
375,134,206409,6,0,L|443:235,1,105.000004005432
362,267,206659,2,0,L|250:308,1,105.000004005432
68,312,206909,2,0,L|133:222,1,105.000004005432
298,49,207159,1,0,0:0:0:0:
298,49,207284,1,0,0:0:0:0:
400,90,207409,2,0,L|462:192,1,105.000004005432
361,197,207659,2,0,L|257:259,1,105.000004005432
162,63,207909,5,0,0:0:0:0:
189,144,208034,1,0,0:0:0:0:
142,220,208159,1,0,0:0:0:0:
177,304,208284,1,0,0:0:0:0:
240,359,208409,1,0,0:0:0:0:
448,80,208659,6,0,L|368:192,1,105.000004005432
336,240,208909,1,0,0:0:0:0:
224,112,209034,2,0,L|320:16,1,105.000004005432
224,192,209284,1,0,0:0:0:0:
128,160,209409,1,0,0:0:0:0:
192,128,209534,1,0,0:0:0:0:
64,224,209659,1,0,0:0:0:0:
144,240,209784,1,0,0:0:0:0:
224,256,209909,1,0,0:0:0:0:
448,32,210159,5,0,0:0:0:0:
448,128,210284,1,0,0:0:0:0:
448,224,210409,1,0,0:0:0:0:
208,96,210659,2,0,L|304:160,1,87.5
288,272,210909,2,0,L|144:208,1,87.5
144,160,211159,1,0,0:0:0:0:
384,320,211409,2,0,L|288:255,1,87.5,0|0,3:0|3:0,3:0:0:0:
304,144,211659,2,0,L|448:208,1,87.5,0|0,3:0|3:0,3:0:0:0:
448,256,211909,1,0,3:0:0:0:
48,288,212159,6,0,L|144:160,1,87.5
176,48,212409,1,0,0:0:0:0:
368,48,213159,2,0,L|448:144,1,87.5
336,304,213409,1,0,0:0:0:0:
96,144,213659,1,0,0:0:0:0:
97,222,213784,1,0,0:0:0:0:
96,68,213909,1,0,0:0:0:0:
192,256,214159,2,0,P|240:352|304:336,1,175
272,144,214659,2,0,P|320:64|416:96,1,175
352,224,215159,1,0,0:0:0:0:
80,288,215409,6,0,P|96:192|176:192,1,175
176,96,215909,2,0,P|304:96|304:128,1,175
256,224,216409,2,0,P|336:288|384:208,1,175
256,192,216909,12,0,220409,0:0:0:0:
64,32,228409,5,0,0:0:0:0:
64,192,228659,1,0,0:0:0:0:
64,192,228784,1,0,0:0:0:0:
64,320,228909,1,0,0:0:0:0:
336,176,229159,1,0,0:0:0:0:
240,48,229409,5,0,0:0:0:0:
240,48,229659,1,0,0:0:0:0:
304,320,229909,2,0,L|416:256,1,87.5
480,144,230159,2,0,L|368:224,1,87.5
336,48,230409,1,0,0:0:0:0:
256,160,230534,1,0,0:0:0:0:
96,96,230659,2,0,L|32:208,1,87.5
85,317,230909,2,0,L|197:237,1,87.5
192,346,231159,5,0,0:0:0:0:
264,227,231284,1,0,0:0:0:0:
391,332,231409,2,0,L|455:220,1,87.5
357,134,231659,2,0,L|428:83,1,87.5
232,29,231909,2,0,L|120:141,1,87.5
371,333,232159,2,0,L|259:221,1,87.5
336,48,232409,1,0,0:0:0:0:
256,160,232534,1,0,0:0:0:0:
96,96,232659,6,0,L|32:208,1,87.5
80,320,232909,2,0,L|192:240,1,87.5
169,125,233159,1,0,0:0:0:0:
267,233,233284,1,0,0:0:0:0:
422,339,233409,2,0,L|486:226,1,87.5
444,45,233659,2,0,L|332:125,1,87.5
90,37,233909,6,0,L|186:85,1,87.5
143,196,234159,2,0,L|63:292,1,87.5
224,320,234409,2,0,L|368:256,1,87.5
288,144,234784,2,0,L|400:112,1,87.5
320,208,235159,1,0,0:0:0:0:
448,240,235284,1,0,0:0:0:0:
416,320,235409,2,0,L|288:352,1,87.5
64,240,235659,2,0,L|176:304,1,87.5
32,16,236409,6,0,L|80:96,1,87.5
464,32,236659,2,0,L|384:112,1,87.5
256,16,236909,2,0,L|256:144,1,87.5
96,352,237159,2,0,L|192:288,1,87.5
256,352,237409,2,0,L|256:240,1,87.5
464,352,237659,2,0,L|368:256,1,87.5
256,16,237909,5,0,0:0:0:0:
256,16,238034,1,0,0:0:0:0:
256,16,238159,1,0,0:0:0:0:
96,192,238409,1,0,0:0:0:0:
208,112,238659,2,0,P|176:224|208:240,1,175
309,112,239034,2,0,L|341:224,1,87.5
464,80,239284,2,0,L|320:208,1,175
192,80,239784,5,0,0:0:0:0:
140,79,239909,1,0,0:0:0:0:
224,82,240034,1,0,0:0:0:0:
100,80,240159,1,0,0:0:0:0:
125,255,240409,2,0,B|96:339|97:335|97:335|189:317,1,175
187,256,240784,1,0,0:0:0:0:
252,261,240909,2,0,B|280:176|280:180|280:180|188:198,1,175
104,241,241409,2,0,B|75:325|76:321|76:321|168:303,1,175
191,238,241784,1,0,0:0:0:0:
284,237,241909,2,0,B|312:152|312:156|312:156|220:174,1,175
250,42,242409,6,0,L|308:122,1,87.5
276,350,242659,2,0,L|193:285,1,87.5
436,33,243409,1,0,0:0:0:0:
437,113,243534,1,0,0:0:0:0:
434,210,243659,1,0,0:0:0:0:
279,39,243784,1,0,0:0:0:0:
280,122,243909,1,0,0:0:0:0:
281,202,244034,1,0,0:0:0:0:
108,73,244409,6,0,L|138:223,1,87.5
74,328,244659,1,0,0:0:0:0:
176,354,244909,2,0,L|305:318,1,87.5
285,150,245159,1,0,0:0:0:0:
440,88,245409,2,0,L|413:207,1,87.5
459,339,245659,1,0,0:0:0:0:
148,45,245909,1,0,0:0:0:0:
176,175,246034,1,0,0:0:0:0:
296,36,246159,1,0,0:0:0:0:
367,196,246409,6,0,L|203:348,1,210.000008010865
265,177,246659,2,0,L|393:350,1,210.000008010865
166,268,246909,2,0,L|392:152,1,210.000008010865
322,111,247159,2,0,L|235:319,1,210.000008010865
144,149,247409,2,0,L|356:286,1,210.000008010865
368,38,247909,5,0,0:0:0:0:
473,35,248034,1,0,0:0:0:0:
317,137,248159,1,0,0:0:0:0:
460,155,248409,1,0,0:0:0:0:
371,217,248534,6,0,L|291:294,1,70
180,265,248784,2,0,L|201:164,1,70
73,253,249034,1,0,0:0:0:0:
8,320,249159,2,0,L|89:387,1,70
464,356,249409,2,0,L|485:280,1,70
406,278,249659,2,0,L|326:358,1,70
197,285,249909,2,0,L|259:218,1,70
411,18,250159,2,0,L|359:84,1,70
174,47,250409,2,0,L|278:89,1,70
436,164,250659,5,0,0:0:0:0:
355,165,250784,1,0,0:0:0:0:
123,200,250909,1,0,0:0:0:0:
48,202,251034,1,0,0:0:0:0:
294,271,251409,5,0,0:0:0:0:
294,271,251534,1,0,0:0:0:0:
294,271,251659,1,0,0:0:0:0:
456,316,251909,1,0,0:0:0:0:
456,316,252034,1,0,0:0:0:0:
456,316,252159,1,0,0:0:0:0:
139,64,252409,6,0,B|208:49|208:49|196:130,1,140
166,221,252784,1,0,0:0:0:0:
195,302,252909,2,0,B|250:355|250:355|270:287,1,140
301,199,253284,1,0,0:0:0:0:
354,264,253409,2,0,B|435:295|435:295|433:232,1,140
388,180,253784,1,0,0:0:0:0:
277,53,253909,2,0,B|382:107|382:107|313:138,1,140
203,116,254284,1,0,0:0:0:0:
447,35,254409,5,0,0:0:0:0:
451,122,254534,1,0,0:0:0:0:
401,218,254659,1,0,0:0:0:0:
317,269,254784,1,0,0:0:0:0:
207,259,254909,1,0,0:0:0:0:
113,252,255034,1,0,0:0:0:0:
57,215,255159,5,0,0:0:0:0:
110,126,255284,1,0,0:0:0:0:
183,57,255409,1,0,0:0:0:0:
277,41,255534,1,0,0:0:0:0:
368,81,255659,1,0,0:0:0:0:
357,171,255784,1,0,0:0:0:0:
286,246,255909,1,0,0:0:0:0:
101,268,256034,6,0,L|154:209,1,70
256,156,256284,2,0,L|210:219,1,70
159,153,256534,1,0,0:0:0:0:
197,57,256659,1,0,0:0:0:0:
318,32,256784,1,0,0:0:0:0:
399,106,256909,1,0,0:0:0:0:
416,207,257034,1,0,0:0:0:0:
351,272,257159,1,0,0:0:0:0:
241,286,257284,1,0,0:0:0:0:
116,232,257409,1,0,0:0:0:0:
134,146,257534,6,0,L|224:96,1,70
435,129,257784,2,0,L|338:205,1,70
254,200,258034,5,0,0:0:0:0:
254,200,258159,1,0,0:0:0:0:
254,200,258284,1,0,0:0:0:0:
365,301,258409,6,0,L|416:246,4,70
88,305,259409,5,0,0:0:0:0:
100,152,259534,1,0,0:0:0:0:
178,75,259659,1,0,0:0:0:0:
316,70,259784,1,0,0:0:0:0:
381,113,259909,1,0,0:0:0:0:
165,340,260409,6,0,L|68:308,1,70
163,81,260659,1,0,0:0:0:0:
462,211,260784,2,0,L|381:211,1,70
203,167,261034,2,0,L|299:166,1,70
395,67,261284,1,0,0:0:0:0:
208,320,261409,2,0,L|128:352,1,70
46,353,261659,1,0,0:0:0:0:
46,353,261784,1,0,0:0:0:0:
46,193,261909,2,0,L|126:128,1,70
190,81,262159,5,0,0:0:0:0:
190,81,262284,1,0,0:0:0:0:
414,177,262409,2,0,L|349:112,1,70
317,49,262659,2,0,L|253:113,1,70
254,369,262909,1,0,0:0:0:0:
94,273,263159,1,0,0:0:0:0:
110,129,263409,1,0,0:0:0:0:
196,129,263534,1,0,0:0:0:0:
18,130,263659,1,0,0:0:0:0:
62,336,263909,1,0,0:0:0:0:
0,336,264034,1,0,0:0:0:0:
125,339,264159,1,0,0:0:0:0:
414,353,264409,6,0,L|350:305,1,70
254,176,264659,1,0,0:0:0:0:
414,113,264784,1,0,0:0:0:0:
285,49,264909,1,0,0:0:0:0:
142,33,265034,1,0,0:0:0:0:
46,49,265159,2,0,L|62:145,1,70
94,225,265409,2,0,L|126:289,1,70
254,369,265659,1,0,0:0:0:0:
382,289,265784,1,0,0:0:0:0:
430,144,265909,2,0,L|318:144,1,70
254,160,266159,5,0,0:0:0:0:
254,160,266284,1,0,0:0:0:0:
62,257,266409,1,0,0:0:0:0:
158,257,266534,1,0,0:0:0:0:
158,353,266659,1,0,0:0:0:0:
62,352,266784,1,0,0:0:0:0:
414,305,266909,2,0,L|318:273,1,70
318,193,267159,2,0,L|382:160,1,70
190,49,267409,5,0,0:0:0:0:
190,49,267534,1,0,0:0:0:0:
190,49,267659,1,0,0:0:0:0:
269,320,267909,1,0,0:0:0:0:
397,177,268034,1,0,0:0:0:0:
397,177,268159,6,0,L|301:192,1,70
269,320,268409,2,0,L|301:224,1,70
222,192,268659,2,0,L|174:256,1,70
62,288,268909,2,0,L|126:191,1,70
333,81,269159,2,0,L|253:49,1,70
110,97,269409,2,0,L|206:129,1,70
478,257,269659,2,0,L|398:224,1,70
190,321,269909,2,0,L|238:240,1,70
430,65,270159,2,0,L|366:129,1,70
301,353,270409,5,0,0:0:0:0:
222,241,270534,1,0,0:0:0:0:
317,177,270659,1,0,0:0:0:0:
222,113,270784,1,0,0:0:0:0:
317,49,270909,1,0,0:0:0:0:
93,49,271034,2,0,L|45:224,1,140
62,336,271409,5,0,0:0:0:0:
62,336,271534,1,0,0:0:0:0:
62,336,271659,1,0,0:0:0:0:
62,33,271909,1,0,0:0:0:0:
62,33,272034,1,0,0:0:0:0:
62,33,272159,1,0,0:0:0:0:
174,113,272284,1,0,0:0:0:0:
62,224,272409,1,0,0:0:0:0:
430,305,272659,6,0,L|350:305,1,70
350,241,272909,2,0,L|413:193,1,70
430,129,273159,2,0,L|350:80,1,70
414,49,273409,2,0,L|477:17,1,70
285,49,273659,2,0,L|221:129,1,70
286,337,273909,1,0,0:0:0:0:
174,241,274034,1,0,0:0:0:0:
334,177,274159,1,0,0:0:0:0:
78,337,274284,1,0,0:0:0:0:
126,145,274409,1,0,0:0:0:0:
253,50,274534,6,0,L|196:140,1,70
243,204,274784,2,0,L|332:140,1,70
418,55,275034,2,0,L|312:98,1,70
96,111,275409,6,0,P|145:180|128:211,1,70
127,325,275659,1,0,0:0:0:0:
127,325,275784,1,0,0:0:0:0:
306,308,275909,2,0,P|433:331|441:340,1,140
251,98,276346,6,0,L|319:70,1,70
396,119,276596,2,0,L|316:168,1,70
333,278,276846,2,0,L|428:239,1,70
177,287,277096,1,0,0:0:0:0:
256,192,277346,12,0,278346,0:0:0:0:
54,257,278409,6,0,L|221:134,1,140
250,284,278909,2,0,L|288:188,1,70
338,38,279159,1,0,0:0:0:0:
132,64,279409,2,0,L|52:220,1,140
134,315,279909,1,0,0:0:0:0:
256,337,280159,2,0,L|370:279,1,70
139,89,280659,6,0,P|117:188|142:219,1,140
233,135,281159,1,0,0:0:0:0:
176,298,281284,1,0,0:0:0:0:
315,292,281409,5,0,0:0:0:0:
444,219,281534,1,0,0:0:0:0:
374,78,281659,1,0,0:0:0:0:
260,202,281784,1,0,0:0:0:0:
454,143,281909,1,0,0:0:0:0:
300,77,282034,1,0,0:0:0:0:
362,217,282159,1,0,0:0:0:0:
117,322,282409,5,0,0:0:0:0:
117,322,282534,1,0,0:0:0:0:
117,322,282659,1,0,0:0:0:0:
210,304,282909,2,0,P|285:356|329:329,1,140
99,205,283409,1,0,0:0:0:0:
121,162,283534,1,0,0:0:0:0:
146,107,283659,1,0,0:0:0:0:
209,73,283784,1,0,0:0:0:0:
345,94,283909,2,0,B|408:167|408:167|361:209,1,140
263,195,284409,6,0,B|235:266|235:266|307:283,1,140
357,185,284909,2,0,B|422:155|442:175|442:175|377:251,1,140
370,289,285284,1,0,0:0:0:0:
313,285,285409,1,0,0:0:0:0:
264,254,285534,1,0,0:0:0:0:
238,199,285659,1,0,0:0:0:0:
221,139,285784,1,0,0:0:0:0:
212,86,285909,2,0,B|154:51|154:51|152:68|110:107,1,140
105,224,286409,6,0,P|54:308|81:320,1,140
167,355,286909,1,0,0:0:0:0:
284,322,287159,5,0,0:0:0:0:
434,185,287284,1,0,0:0:0:0:
257,145,287409,1,0,0:0:0:0:
417,301,287534,1,0,0:0:0:0:
381,77,287659,1,0,0:0:0:0:
228,268,287784,1,0,0:0:0:0:
353,343,287909,1,0,0:0:0:0:
356,228,288159,2,0,P|239:142|244:121,1,140
19,187,288659,5,0,0:0:0:0:
158,115,288784,1,0,0:0:0:0:
136,273,288909,1,0,0:0:0:0:
262,127,289034,1,0,0:0:0:0:
262,331,289159,1,0,0:0:0:0:
325,247,289409,5,0,0:0:0:0:
403,235,289534,1,0,0:0:0:0:
439,158,289659,1,0,0:0:0:0:
388,81,289784,1,0,0:0:0:0:
301,71,289909,1,0,0:0:0:0:
228,127,290034,1,0,0:0:0:0:
234,209,290159,1,0,0:0:0:0:
241,291,290284,1,0,0:0:0:0:
293,338,290409,1,0,0:0:0:0:
375,353,290534,1,0,0:0:0:0:
431,301,290659,6,0,P|491:252|418:185,1,140
247,24,291159,1,0,0:0:0:0:
156,88,291409,2,0,P|109:172|123:244,1,140
140,314,291909,1,0,0:0:0:0:
324,329,292159,1,0,0:0:0:0:
451,200,292409,1,0,0:0:0:0:
423,69,292659,1,0,0:0:0:0:
241,50,292909,2,0,P|177:139|175:212,1,140
74,334,293409,5,0,0:0:0:0:
74,334,293534,1,0,0:0:0:0:
74,334,293659,1,0,0:0:0:0:
224,321,293909,2,0,P|331:349|356:317,1,140
108,74,294409,1,0,0:0:0:0:
267,66,294659,6,0,P|225:169|240:217,1,140
170,70,295159,1,0,0:0:0:0:
310,249,295284,1,0,0:0:0:0:
309,54,295409,1,0,0:0:0:0:
154,262,295534,1,0,0:0:0:0:
165,63,295659,1,0,0:0:0:0:
322,258,295784,1,0,0:0:0:0:
309,54,295909,1,0,0:0:0:0:
129,259,296034,1,0,0:0:0:0:
239,165,296159,5,0,0:0:0:0:
239,165,296409,1,0,0:0:0:0:
430,304,296659,2,0,P|437:234|468:172,1,140
423,71,297159,1,0,0:0:0:0:
213,209,297409,5,0,0:0:0:0:
265,196,297534,1,0,0:0:0:0:
177,220,297659,1,0,0:0:0:0:
301,184,297784,1,0,0:0:0:0:
144,234,297909,1,0,0:0:0:0:
344,171,298034,1,0,0:0:0:0:
102,253,298159,1,0,0:0:0:0:
71,183,298409,6,0,P|47:309|48:338,1,140
474,362,298909,1,0,0:0:0:0:
378,284,299409,2,0,P|478:217|454:168,1,140
90,31,299909,1,0,0:0:0:0:
175,190,300159,5,0,0:0:0:0:
259,188,300284,1,0,0:0:0:0:
338,184,300409,1,0,0:0:0:0:
177,294,300659,1,0,0:0:0:0:
264,291,300784,1,0,0:0:0:0:
341,290,300909,1,0,0:0:0:0:
59,51,301159,5,0,0:0:0:0:
447,56,301409,1,0,0:0:0:0:
63,187,301659,1,0,0:0:0:0:
458,204,301909,1,0,0:0:0:0:
98,324,302159,1,0,0:0:0:0:
261,283,302409,1,0,0:0:0:0:
318,103,302659,6,0,P|424:168|410:228,1,140
392,39,303159,5,0,0:0:0:0:
446,41,303284,1,0,0:0:0:0:
376,88,303409,1,0,0:0:0:0:
443,93,303534,1,0,0:0:0:0:
352,128,303659,1,0,0:0:0:0:
443,137,303784,1,0,0:0:0:0:
312,188,303909,1,0,0:0:0:0:
463,196,304034,1,0,0:0:0:0:
283,242,304159,1,0,0:0:0:0:
469,247,304284,1,0,0:0:0:0:
249,320,304409,1,0,0:0:0:0:
123,84,304659,6,0,P|70:187|69:257,1,140
307,34,305159,5,0,0:0:0:0:
381,32,305284,1,0,0:0:0:0:
272,87,305409,1,0,0:0:0:0:
418,86,305534,1,0,0:0:0:0:
240,137,305659,1,0,0:0:0:0:
453,139,305784,1,0,0:0:0:0:
292,177,305909,1,0,0:0:0:0:
417,183,306034,1,0,0:0:0:0:
335,214,306159,1,0,0:0:0:0:
382,212,306284,1,0,0:0:0:0:
358,258,306409,1,0,0:0:0:0:
354,32,306659,6,0,P|448:94|440:145,1,140
76,130,307159,1,0,0:0:0:0:
108,227,307409,2,0,P|132:322|200:327,1,140
303,88,307909,2,0,P|431:142|426:163,1,140
214,113,308409,2,0,P|132:187|138:229,1,140
255,359,308909,1,0,0:0:0:0:
320,192,309159,2,0,P|388:176|406:204,1,70
398,268,309409,1,0,0:0:0:0:
192,263,309659,2,0,P|124:279|105:251,1,70
114,187,309909,1,0,0:0:0:0:
256,192,310409,12,0,312409,0:0:0:0:
108,64,312659,5,0,0:0:0:0:
130,228,312909,2,0,P|122:308|195:321,1,140
443,328,313409,1,0,0:0:0:0:
491,129,313659,1,0,0:0:0:0:
342,28,313909,1,0,0:0:0:0:
159,40,314159,2,0,P|121:100|104:178,1,140
102,204,314534,1,0,0:0:0:0:
170,273,314659,1,0,0:0:0:0:
317,289,314909,6,0,L|462:247,1,140
451,110,315409,1,0,0:0:0:0:
281,56,315659,1,0,0:0:0:0:
146,223,315909,1,0,0:0:0:0:
365,353,316159,1,0,0:0:0:0:
384,68,316409,2,0,P|296:135|263:308,1,280
90,82,317159,1,0,0:0:0:0:
171,305,317409,1,0,0:0:0:0:
261,88,317659,1,0,0:0:0:0:
421,64,317909,6,0,P|460:171|441:207,1,140
364,243,318284,1,0,0:0:0:0:
290,279,318409,1,0,0:0:0:0:
123,174,318659,1,0,0:0:0:0:
140,41,318909,2,0,P|251:21|295:61,1,140
329,117,319409,2,0,P|396:188|366:254,1,140
319,290,319784,1,0,0:0:0:0:
256,316,319909,1,0,0:0:0:0:
176,302,320159,1,0,0:0:0:0:
56,312,320409,6,0,P|113:238|159:227,1,140
226,102,320784,1,0,0:0:0:0:
256,71,320909,1,0,0:0:0:0:
431,88,321159,1,0,0:0:0:0:
466,186,321409,2,0,P|456:293|428:308,1,140
169,52,321909,5,0,0:0:0:0:
168,173,322034,1,0,0:0:0:0:
305,169,322159,1,0,0:0:0:0:
303,44,322284,1,0,0:0:0:0:
238,107,322409,2,0,L|239:301,1,140
113,316,322909,1,0,0:0:0:0:
331,317,323159,1,0,0:0:0:0:
17,190,323284,1,0,0:0:0:0:
250,28,323409,1,0,0:0:0:0:
463,66,324409,6,0,P|439:175|277:314,1,280
108,25,325409,2,0,P|39:216|39:324,1,280
160,112,326409,5,0,0:0:0:0:
224,45,326534,1,0,0:0:0:0:
249,122,326659,1,0,0:0:0:0:
186,203,326909,2,0,L|107:342,1,140
264,332,327409,1,0,0:0:0:0:
327,265,327534,1,0,0:0:0:0:
365,339,327659,1,0,0:0:0:0:
473,332,327909,2,0,L|449:158,1,140
313,30,328409,5,0,0:0:0:0:
232,34,328534,1,0,0:0:0:0:
177,91,328659,1,0,0:0:0:0:
115,213,328784,1,0,0:0:0:0:
144,139,328909,1,0,0:0:0:0:
199,88,329034,1,0,0:0:0:0:
270,57,329159,1,0,0:0:0:0:
362,56,329284,1,0,0:0:0:0:
445,103,329409,6,0,P|469:206|340:337,1,280
76,307,330409,1,0,0:0:0:0:
50,228,330534,1,0,0:0:0:0:
127,181,330659,1,0,0:0:0:0:
188,236,330784,1,0,0:0:0:0:
156,310,330909,1,0,0:0:0:0:
254,25,331159,1,0,0:0:0:0:
368,57,331409,2,0,P|469:126|400:292,1,280
104,135,332034,6,0,L|189:185,1,70
310,234,332284,2,0,L|248:200,1,70
217,190,332534,1,0,0:0:0:0:
271,72,332659,2,0,L|242:142,1,70
153,305,332909,2,0,L|186:232,1,70
217,190,333159,1,0,0:0:0:0:
431,34,333284,1,0,0:0:0:0:
407,114,333409,2,0,L|477:147,1,70
431,212,333659,2,0,L|336:270,1,70
309,313,333909,2,0,L|430:338,1,70
488,361,334159,1,0,0:0:0:0:
