osu file format v14

[General]
AudioFilename: m-flo + daoko - IRONY (el poco maro Remix).mp3
AudioLeadIn: 0
PreviewTime: 152727
Countdown: 0
SampleSet: Soft
StackLeniency: 0.6
Mode: 0
LetterboxInBreaks: 0
EpilepsyWarning: 1
WidescreenStoryboard: 1

[Editor]
Bookmarks: 0,65454,109090,152727,163636,174545,185454,196363,218181,240000,261818,272727,283636,294545,305497,327272,349090,370909,381818,392727,414545,436363
DistanceSpacing: 1.8
BeatDivisor: 4
GridSize: 4
TimelineZoom: 1.9

[Metadata]
Title:IRONY (el poco maro Remix)
TitleUnicode:IRONY (el poco maro Remix)
Artist:m-flo + daoko
ArtistUnicode:m-flo + daoko
Creator:Kawa
Version:Endless
Source:鷹の爪GO 〜美しきエリエール消臭プラス〜
Tags:collab hathz dnb marathon Taka no Tsume GO Utsukushiki Elleair Shoushuu Plus Himitsukessha Eagle Talon 秘密結社
BeatmapID:1138405
BeatmapSetID:537172

[Difficulty]
HPDrainRate:6
CircleSize:4
OverallDifficulty:7.5
ApproachRate:9
SliderMultiplier:1.8
SliderTickRate:1

[Events]
//Background and Video events
0,0,"BG.jpg",0,0
//Break Periods
2,43879,53181
2,54788,64854
2,196563,206672
2,305697,315081
//Storyboard Layer 0 (Background)
//Storyboard Layer 1 (Fail)
//Storyboard Layer 2 (Pass)
//Storyboard Layer 3 (Foreground)
//Storyboard Sound Samples

[TimingPoints]
0,340.909090909091,4,2,1,30,1,0
0,-142.857142857143,4,2,1,30,0,0
21136,-142.857142857143,4,2,1,40,0,0
21392,-142.857142857143,4,2,1,25,0,0
21477,-142.857142857143,4,2,1,50,0,0
21732,-142.857142857143,4,2,1,25,0,0
21818,-100,4,1,1,60,0,0
42272,-142.857142857143,4,2,1,60,0,0
42976,340.909090909091,4,2,1,60,1,0
42976,-125,4,2,1,60,0,0
43679,339.481724567161,4,2,1,60,1,0
53863,340.909090909091,4,2,1,60,1,0
53863,-200,4,2,1,60,0,0
54587,339.597011546298,4,2,1,60,1,0
65454,340.909090909091,4,2,1,25,1,0
65454,-181.818181818182,4,2,1,25,0,0
81818,-125,4,2,1,30,0,0
82500,-125,4,2,1,35,0,0
83181,-125,4,2,1,40,0,0
83863,-125,4,2,1,45,0,0
84545,-125,4,2,1,50,0,0
85227,-125,4,2,1,55,0,0
85909,-125,4,2,1,60,0,0
87272,-100,4,1,1,60,0,0
150000,-100,4,2,1,40,0,0
152726,-100,4,1,1,65,0,1
196363,-100,4,1,1,65,0,0
207272,-181.818181818182,4,2,1,30,0,0
218181,-100,4,1,1,65,0,0
261817,-100,4,1,1,65,0,1
305497,339.481724567161,4,1,1,65,1,0
315681,340.909090909091,4,2,1,15,1,0
315681,-200,4,2,1,15,0,0
316406,335.664335664336,4,2,1,15,1,0
316406,-200,4,2,1,15,0,0
319091,340.909090909091,4,2,1,15,1,0
319091,-200,4,2,1,15,0,0
327272,-125,4,2,1,35,0,0
349090,-111.111111111111,4,2,1,45,0,0
365454,-111.111111111111,4,2,1,50,0,0
366818,-111.111111111111,4,2,1,55,0,0
368181,-111.111111111111,4,2,1,60,0,0
370909,-100,4,1,1,65,0,1
392727,-100,4,1,1,50,0,0
414545,-100,4,2,1,40,0,0
433977,-100,4,1,1,30,0,0
436363,-100,4,2,1,5,0,0

[Colours]
Combo1 : 146,193,228
Combo2 : 253,170,108
Combo3 : 220,120,137
Combo4 : 189,140,200

[HitObjects]
124,118,0,6,0,P|183:91|250:107,1,125.999996154785,0|8,0:0|0:0,0:0:0:0:
313,141,511,1,0,0:0:0:0:
313,141,1022,2,0,L|304:232,1,62.9999980773926,8|0,0:0|0:0,0:0:0:0:
287,283,1363,2,0,L|145:300,1,125.999996154785,0|8,0:0|0:0,0:0:0:0:
80,310,1875,1,0,0:0:0:0:
80,310,2386,2,0,P|112:310|144:320,1,62.9999980773926,8|0,0:0|0:0,0:0:0:0:
205,262,2727,6,0,L|218:122,1,125.999996154785,0|8,0:0|0:0,0:0:0:0:
288,193,3238,1,0,0:0:0:0:
285,201,3579,1,0,0:0:0:0:
180,173,3750,2,0,L|169:96,1,62.9999980773926,8|0,0:0|0:0,0:0:0:0:
157,30,4090,1,0,0:0:0:0:
236,8,4261,2,0,P|278:15|304:34,1,62.9999980773926,8|0,0:0|0:0,0:0:0:0:
355,81,4602,2,0,P|366:117|356:165,1,62.9999980773926
321,211,4943,1,0,0:0:0:0:
258,263,5113,2,0,P|250:303|253:342,1,62.9999980773926,8|0,0:0|0:0,0:0:0:0:
169,334,5454,6,0,L|20:322,1,125.999996154785,0|8,0:0|0:0,0:0:0:0:
11,248,5965,1,0,0:0:0:0:
11,248,6477,2,0,P|17:194|27:171,1,62.9999980773926,8|0,0:0|0:0,0:0:0:0:
77,128,6818,1,0,0:0:0:0:
157,116,6988,2,0,P|187:121|225:142,1,62.9999980773926,0|8,0:0|0:0,0:0:0:0:
283,186,7329,2,0,P|333:211|407:187,1,125.999996154785
469,152,7840,1,8,0:0:0:0:
480,277,8181,6,0,L|469:152,1,125.999996154785,0|8,0:0|0:0,0:0:0:0:
412,90,8693,2,0,P|346:101|302:150,1,125.999996154785
296,224,9204,2,0,L|290:305,1,62.9999980773926,8|0,0:0|0:0,0:0:0:0:
227,338,9545,1,0,0:0:0:0:
145,342,9715,2,0,P|124:319|112:287,1,62.9999980773926,0|8,0:0|0:0,0:0:0:0:
101,207,10056,1,0,0:0:0:0:
177,178,10227,2,0,L|247:174,1,62.9999980773926
84,254,10568,2,0,L|21:257,1,62.9999980773926,8|0,0:0|0:0,0:0:0:0:
188,303,10909,6,0,B|258:298|258:298|290:312|340:294,1,125.999996154785,0|8,0:0|0:0,0:0:0:0:
290,222,11420,1,0,0:0:0:0:
290,222,11931,2,0,P|277:178|280:148,1,62.9999980773926,8|0,0:0|0:0,0:0:0:0:
281,79,12272,2,0,P|333:56|418:78,1,125.999996154785,0|8,0:0|0:0,0:0:0:0:
467,113,12784,1,0,0:0:0:0:
467,113,13295,2,0,P|454:142|459:189,1,62.9999980773926,8|0,0:0|0:0,0:0:0:0:
462,254,13636,6,0,L|325:272,1,125.999996154785,0|8,0:0|0:0,0:0:0:0:
280,174,14147,2,0,P|357:161|418:193,1,125.999996154785
293,262,14659,2,0,P|261:259|232:247,1,62.9999980773926,8|0,0:0|0:0,0:0:0:0:
191,170,15000,2,0,L|200:99,2,62.9999980773926,0|0|8,0:0|0:0|0:0,0:0:0:0:
152,246,15511,1,0,0:0:0:0:
79,292,15681,2,0,P|47:296|16:292,1,62.9999980773926
152,246,16022,2,0,P|182:241|214:245,1,62.9999980773926,8|0,0:0|0:0,0:0:0:0:
289,280,16363,6,0,L|417:269,1,125.999996154785,0|8,0:0|0:0,0:0:0:0:
471,209,16875,1,0,0:0:0:0:
471,209,17386,2,0,L|477:146,1,62.9999980773926,8|0,0:0|0:0,0:0:0:0:
485,64,17727,5,0,0:0:0:0:
404,51,17897,2,0,P|377:61|351:85,1,62.9999980773926,0|8,0:0|0:0,0:0:0:0:
309,155,18238,1,0,0:0:0:0:
247,100,18409,2,0,L|173:94,1,62.9999980773926
128,155,18750,2,0,L|119:228,1,62.9999980773926,8|0,0:0|0:0,0:0:0:0:
111,298,19090,6,0,P|168:323|230:320,1,125.999996154785,0|8,0:0|0:0,0:0:0:0:
304,280,19602,1,0,0:0:0:0:
304,280,19943,1,0,0:0:0:0:
304,280,20113,2,0,L|298:215,1,62.9999980773926,8|0,0:0|0:0,0:0:0:0:
216,166,20454,2,0,L|221:228,1,62.9999980773926
223,244,20965,5,0,0:0:0:0:
216,166,21136,2,0,P|252:129|317:115,1,94.499997116089
291,195,21477,2,0,P|340:187|383:200,1,94.499997116089
334,264,21818,6,0,P|436:261|464:193,1,180,6|8,0:0|0:0,0:0:0:0:
422,88,22329,1,0,0:0:0:0:
311,42,22500,2,0,L|221:48,1,90,0|2,0:0|0:0,0:0:0:0:
295,214,22840,2,0,L|405:226,1,90,8|0,0:0|0:0,0:0:0:0:
316,130,23181,6,0,L|116:144,1,180,2|8,0:0|0:0,0:0:0:0:
59,220,23693,1,0,0:0:0:0:
70,327,23863,2,0,P|117:358|180:362,1,90,0|2,0:0|0:0,0:0:0:0:
345,281,24204,2,0,P|288:275|231:301,1,90,8|0,0:0|0:0,0:0:0:0:
149,364,24545,6,0,L|161:213,1,135,2|0,0:0|0:0,0:0:0:0:
159,229,24886,2,0,P|133:181|78:145,1,90,8|0,0:0|0:0,0:0:0:0:
36,60,25227,2,0,P|86:67|149:51,1,90,0|2,0:0|0:0,0:0:0:0:
252,14,25568,1,8,0:0:0:0:
328,119,25738,1,0,0:0:0:0:
332,140,25823,1,0,0:0:0:0:
336,162,25909,6,0,L|332:251,1,90,2|0,0:0|0:0,0:0:0:0:
230,142,26250,1,8,0:0:0:0:
170,231,26420,2,0,L|184:339,1,90
110,148,26761,1,2,0:0:0:0:
16,204,26931,2,0,L|3:105,1,90,8|0,0:0|0:0,0:0:0:0:
174,61,27272,6,0,P|222:135|197:219,1,180,6|8,0:0|0:0,0:0:0:0:
191,317,27784,1,0,0:0:0:0:
290,337,27954,2,0,L|404:328,1,90,0|2,0:0|0:0,0:0:0:0:
443,161,28295,2,0,L|353:153,1,90,8|0,0:0|0:0,0:0:0:0:
245,162,28636,6,0,P|237:207|268:265,1,90,2|0,0:0|0:0,0:0:0:0:
352,297,28977,1,8,0:0:0:0:
431,257,29147,1,0,0:0:0:0:
362,197,29318,1,0,0:0:0:0:
443,161,29488,1,2,0:0:0:0:
363,105,29659,2,0,P|411:68|454:65,1,90,8|0,0:0|0:0,0:0:0:0:
341,234,30000,6,0,B|353:109|353:109|332:51,1,180,2|8,0:0|0:0,0:0:0:0:
229,29,30511,1,0,0:0:0:0:
130,71,30681,2,0,P|80:76|37:61,1,90,0|2,0:0|0:0,0:0:0:0:
129,184,31022,2,0,P|157:237|157:281,1,90,8|0,0:0|0:0,0:0:0:0:
164,288,31278,1,0,0:0:0:0:
164,288,31363,6,0,L|120:385,1,90,2|0,0:0|0:0,0:0:0:0:
232,119,31704,1,8,0:0:0:0:
262,237,31875,1,0,0:0:0:0:
262,237,31960,2,0,L|279:331,1,90,2|0,0:0|0:0,0:0:0:0:
278,325,32215,1,2,0:0:0:0:
356,228,32386,1,8,0:0:0:0:
406,380,32556,1,0,0:0:0:0:
479,214,32727,6,0,B|489:90|489:90|460:39,1,180,6|8,0:0|0:0,0:0:0:0:
335,106,33238,1,0,0:0:0:0:
211,173,33409,1,0,0:0:0:0:
241,77,33579,1,2,0:0:0:0:
312,203,33750,2,0,P|320:246|307:295,1,90,8|0,0:0|0:0,0:0:0:0:
239,356,34090,6,0,B|105:365|105:365|43:338,1,180,2|8,0:0|0:0,0:0:0:0:
2,256,34602,1,0,0:0:0:0:
46,157,34772,1,0,0:0:0:0:
152,173,34943,1,2,0:0:0:0:
210,260,35113,2,0,P|168:276|124:273,1,90,8|0,0:0|0:0,0:0:0:0:
46,157,35454,6,0,B|73:101|73:101|207:76,1,180,2|8,0:0|0:0,0:0:0:0:
304,125,35965,1,0,0:0:0:0:
299,233,36136,1,0,0:0:0:0:
392,285,36306,1,2,0:0:0:0:
481,223,36477,2,0,P|438:185|369:180,1,90,8|0,0:0|0:0,0:0:0:0:
299,233,36818,6,0,P|285:272|296:336,1,90,2|0,0:0|0:0,0:0:0:0:
392,285,37159,1,8,0:0:0:0:
481,223,37329,2,0,P|493:178|485:135,1,90
395,76,37670,1,2,0:0:0:0:
287,64,37840,2,0,L|184:72,1,90,8|0,0:0|0:0,0:0:0:0:
75,170,38181,6,0,B|205:157|205:157|177:174|167:223,1,180,6|8,0:0|0:0,0:0:0:0:
161,282,38693,1,0,0:0:0:0:
267,235,38863,1,0,0:0:0:0:
377,273,39034,1,2,0:0:0:0:
481,220,39204,2,0,P|478:165|438:117,1,90,8|0,0:0|0:0,0:0:0:0:
339,83,39545,6,0,L|249:87,1,90,2|0,0:0|0:0,0:0:0:0:
173,301,39886,2,0,L|262:296,1,90,8|0,0:0|0:0,0:0:0:0:
435,182,40227,2,0,L|345:176,1,90,0|2,0:0|0:0,0:0:0:0:
77,182,40568,2,0,L|166:176,1,90,8|0,0:0|0:0,0:0:0:0:
256,208,40909,5,0,0:0:0:0:
256,200,41420,5,0,0:0:0:0:
256,192,41931,5,0,0:0:0:0:
256,184,42272,6,0,L|240:310,1,125.999996154785
163,339,42784,1,0,0:0:0:0:
125,255,42976,2,0,P|67:232|-18:239,1,144
165,130,43679,1,4,0:0:0:0:
232,138,53863,6,0,L|225:228,1,90
317,261,54588,1,0,0:0:0:0:
220,140,65454,37,4,0:0:0:0:
216,163,65966,1,0,0:0:0:0:
213,186,66477,1,0,0:0:0:0:
184,312,66818,5,0,0:1:0:0:
56,288,67159,2,0,P|52:332|68:368,2,74.2500022659302
112,224,67841,1,0,0:0:0:0:
284,340,68181,6,0,P|336:332|380:288,1,99.0000030212403
370,303,69034,2,0,L|368:240,1,49.5000015106202
368,124,69545,1,0,0:0:0:0:
496,96,69886,2,0,P|490:59|469:30,2,74.2500022659302
473,178,70568,1,0,0:0:0:0:
252,172,70909,37,0,0:0:0:0:
228,169,71420,1,0,0:0:0:0:
204,166,71931,1,0,0:0:0:0:
104,80,72272,1,0,0:0:0:0:
68,208,72613,2,0,L|64:288,2,74.2500022659302
40,128,73295,1,0,0:0:0:0:
160,248,73636,6,0,P|209:265|269:247,1,99.0000030212403
253,256,74488,2,0,L|316:276,1,49.5000015106202
421,347,75000,2,0,P|440:300|421:235,1,99.0000030212403
312,116,75681,1,0,0:0:0:0:
364,292,76022,1,0,0:0:0:0:
446,113,76363,37,4,0:0:0:0:
456,90,76875,1,0,0:0:0:0:
467,70,77386,1,0,0:0:0:0:
504,196,77727,1,0,0:0:0:0:
376,224,78068,2,0,L|296:224,2,74.2500022659302
452,264,78750,1,0,0:0:0:0:
264,308,79091,6,0,P|223:280|203:235,1,99.0000030212403
203,235,79943,2,0,L|228:184,1,49.5000015106202
280,72,80454,1,0,0:0:0:0:
408,100,80795,2,0,P|402:137|381:166,2,74.2500022659302
388,16,81477,1,0,0:0:0:0:
296,256,81818,38,0,P|256:264|224:256,1,72,10|0,0:3|0:3,0:3:0:0:
100,184,82159,2,0,P|135:181|176:192,1,72,8|0,0:3|0:3,0:3:0:0:
376,240,82500,2,0,L|376:160,1,72,10|0,0:3|0:3,0:3:0:0:
332,24,82841,2,0,L|332:100,1,72,8|0,0:3|0:3,0:3:0:0:
312,340,83181,6,0,P|348:348|392:344,1,72,10|0,0:3|0:3,0:3:0:0:
512,288,83522,2,0,P|476:284|440:288,1,72,8|0,0:3|0:3,0:3:0:0:
220,360,83863,2,0,L|220:268,1,72,10|0,0:3|0:3,0:3:0:0:
268,144,84204,2,0,L|268:232,1,72,8|0,0:3|0:3,0:3:0:0:
176,100,84545,5,10,0:3:0:0:
160,232,84716,1,8,0:3:0:0:
118,49,84886,1,10,0:3:0:0:
272,68,85056,1,8,0:3:0:0:
48,104,85227,5,10,0:3:0:0:
192,0,85397,1,8,0:3:0:0:
160,232,85568,1,10,0:3:0:0:
118,49,85738,1,8,0:3:0:0:
352,148,85909,5,10,0:3:0:0:
321,166,85994,1,8,0:3:0:0:
286,176,86079,1,10,0:3:0:0:
250,174,86164,1,8,0:3:0:0:
216,163,86250,1,10,0:3:0:0:
182,152,86335,1,8,0:3:0:0:
146,150,86420,1,10,0:3:0:0:
112,161,86505,1,8,0:3:0:0:
83,182,86591,6,0,L|4:168,1,72,10|0,0:3|0:3,0:3:0:0:
272,68,86931,1,4,0:3:0:0:
144,300,87272,6,0,P|228:336|312:312,1,180,6|8,0:0|0:0,0:0:0:0:
392,240,87784,1,4,0:3:0:0:
348,152,87954,1,4,0:3:0:0:
236,220,88125,1,2,0:0:0:0:
456,172,88295,1,8,0:0:0:0:
324,40,88466,1,4,0:3:0:0:
324,40,88551,1,0,0:0:0:0:
324,40,88636,6,0,B|320:88|256:112,1,90,2|4,0:0|0:3,0:0:0:0:
72,88,88977,2,0,P|122:85|168:108,1,90,8|4,0:0|0:3,0:0:0:0:
156,224,89318,1,4,0:3:0:0:
88,304,89488,1,2,0:0:0:0:
157,100,89659,1,8,0:0:0:0:
236,24,89829,1,0,0:0:0:0:
424,136,90000,6,0,B|320:200|332:112|224:156,1,180,2|8,0:0|0:0,0:0:0:0:
156,224,90511,1,4,0:3:0:0:
276,320,90681,2,0,P|286:274|280:226,1,90,4|2,0:3|0:0,0:0:0:0:
212,48,91022,2,0,P|164:32|112:32,1,90,8|4,0:0|0:3,0:0:0:0:
96,36,91278,1,0,0:0:0:0:
68,48,91363,5,2,0:0:0:0:
136,140,91534,1,4,0:3:0:0:
52,284,91704,2,0,P|104:280|156:256,1,90,8|4,0:0|0:3,0:0:0:0:
228,208,92045,1,4,0:3:0:0:
136,140,92216,1,2,0:0:0:0:
244,344,92386,1,8,0:0:0:0:
336,320,92556,1,0,0:0:0:0:
447,115,92727,6,0,P|376:68|298:104,1,180,6|8,0:0|0:0,0:0:0:0:
372,240,93238,1,4,0:3:0:0:
372,240,93409,2,0,L|372:136,1,90,4|2,0:3|0:0,0:0:0:0:
288,30,93750,2,0,L|288:120,1,90,8|4,0:0|0:3,0:0:0:0:
288,120,94005,1,0,0:0:0:0:
288,120,94091,5,2,0:0:0:0:
232,183,94261,1,4,0:3:0:0:
205,338,94431,1,8,0:0:0:0:
297,357,94602,1,4,0:3:0:0:
354,286,94772,1,4,0:3:0:0:
174,253,94943,1,2,0:0:0:0:
323,198,95113,2,0,P|313:141|277:101,1,90,8|0,0:0|0:0,0:0:0:0:
130,150,95454,6,0,P|226:158|298:110,1,180,2|8,0:0|0:0,0:0:0:0:
280,0,95966,1,4,0:3:0:0:
192,44,96136,1,4,0:3:0:0:
376,52,96306,1,2,0:0:0:0:
392,288,96477,2,0,P|425:242|433:186,1,90,8|4,0:0|0:3,0:0:0:0:
432,210,96733,1,0,0:0:0:0:
432,210,96818,5,2,0:0:0:0:
323,198,96988,1,4,0:3:0:0:
156,248,97159,1,8,0:0:0:0:
284,284,97329,1,4,0:3:0:0:
284,284,97414,2,0,B|251:320|251:320|212:333,1,90,2|0,0:0|0:0,0:0:0:0:
212,333,97670,1,2,0:0:0:0:
260,132,97841,1,8,0:0:0:0:
323,198,98011,1,0,0:0:0:0:
168,180,98181,6,0,B|88:172|32:124|32:124|68:96,1,180,6|8,0:0|0:0,0:0:0:0:
176,4,98693,1,4,0:3:0:0:
176,4,98778,1,0,0:0:0:0:
176,4,98863,2,0,L|188:100,1,90,4|2,0:3|0:0,0:0:0:0:
202,261,99204,2,0,P|178:221|167:156,1,90,8|4,0:0|0:3,0:0:0:0:
264,48,99545,5,2,0:0:0:0:
368,36,99716,1,4,0:3:0:0:
448,180,99886,2,0,P|444:240|416:276,1,90,8|4,0:0|0:3,0:0:0:0:
428,264,100142,1,0,0:0:0:0:
428,264,100227,1,4,0:3:0:0:
340,332,100397,1,2,0:0:0:0:
296,144,100568,1,8,0:0:0:0:
268,228,100738,1,0,0:0:0:0:
119,307,100909,6,0,P|45:263|49:177,1,180,2|8,0:0|0:0,0:0:0:0:
188,160,101420,1,4,0:3:0:0:
120,224,101591,1,4,0:3:0:0:
36,92,101761,1,2,0:0:0:0:
248,88,101931,1,8,0:0:0:0:
188,160,102102,1,4,0:3:0:0:
36,92,102272,6,0,B|38:-12,1,90,2|4,0:0|0:3,0:0:0:0:
32,220,102613,1,8,0:0:0:0:
111,307,102784,1,4,0:3:0:0:
111,307,102869,1,0,0:0:0:0:
111,307,102954,2,0,P|148:333|192:343,1,90,4|2,0:3|0:0,0:3:0:0:
352,240,103295,1,8,0:0:0:0:
264,244,103466,1,0,0:0:0:0:
432,316,103636,6,0,P|460:232|420:140,1,180,6|8,0:0|0:0,0:0:0:0:
308,48,104147,1,4,0:3:0:0:
308,48,104233,1,0,0:0:0:0:
308,48,104318,2,0,P|256:40|196:56,1,90,4|2,0:3|0:0,0:0:0:0:
168,184,104659,2,0,P|240:192|272:180,1,90,8|4,0:0|0:3,0:0:0:0:
348,128,105000,5,2,0:0:0:0:
320,236,105170,1,4,0:3:0:0:
484,292,105341,2,0,B|456:248|408:232,1,90,8|4,0:0|0:3,0:0:0:0:
416,235,105596,1,0,0:0:0:0:
416,235,105681,1,4,0:3:0:0:
436,368,105852,1,2,0:0:0:0:
240,316,106022,2,0,P|212:272|212:224,1,90,8|0,0:0|0:0,0:0:0:0:
277,87,106363,6,0,P|273:176|193:239,1,180,2|8,0:0|0:0,0:0:0:0:
108,220,106875,1,4,0:3:0:0:
180,132,107045,1,4,0:3:0:0:
164,308,107216,1,2,0:0:0:0:
100,124,107386,2,0,P|119:79|167:50,1,90,8|4,0:0|0:3,0:0:0:0:
352,48,107727,5,10,0:0:0:0:
388,132,107897,1,2,0:3:0:0:
392,140,107983,1,0,0:3:0:0:
396,148,108068,1,2,0:3:0:0:
220,112,108238,5,10,0:0:0:0:
184,196,108409,1,2,0:3:0:0:
180,204,108494,1,0,0:3:0:0:
176,212,108579,1,10,0:3:0:0:
340,232,108750,2,0,L|384:340,1,90,8|4,0:0|0:3,0:0:0:0:
455,194,109091,6,0,P|444:109|359:49,1,180,6|8,0:0|0:0,0:0:0:0:
270,84,109602,1,0,0:0:0:0:
167,51,109772,1,0,0:0:0:0:
99,135,109943,1,2,0:0:0:0:
175,210,110113,2,0,P|206:241|226:282,1,90,8|0,0:0|0:0,0:0:0:0:
306,195,110454,6,0,B|324:63|324:63|364:23,1,180,2|8,0:0|0:0,0:0:0:0:
396,204,110966,2,0,L|276:192,1,90
226,281,111306,1,2,0:0:0:0:
333,324,111477,2,0,P|380:330|428:308,1,90,8|0,0:0|0:0,0:0:0:0:
508,234,111818,6,0,L|486:49,1,180,2|8,0:0|0:0,0:0:0:0:
402,126,112329,1,0,0:0:0:0:
308,67,112500,2,0,P|341:33|386:17,1,90,0|2,0:0|0:0,0:0:0:0:
391,214,112841,2,0,L|380:303,1,90,8|0,0:0|0:0,0:0:0:0:
272,345,113181,6,0,P|183:325|137:243,1,180,2|8,0:0|0:0,0:0:0:0:
194,109,113693,1,0,0:0:0:0:
194,109,113778,1,0,0:0:0:0:
194,109,113863,2,0,L|208:228,1,90,0|2,0:0|0:0,0:0:0:0:
305,126,114204,2,0,P|353:126|407:156,1,90,8|0,0:0|0:0,0:0:0:0:
310,270,114545,6,0,L|220:266,1,90,6|0,0:0|0:0,0:0:0:0:
102,221,114886,1,8,0:0:0:0:
148,138,115056,2,0,L|238:142,1,90
188,238,115397,1,2,0:0:0:0:
107,57,115568,2,0,P|150:46|193:58,1,90,8|0,0:0|0:0,0:0:0:0:
274,238,115909,6,0,P|230:249|187:237,1,90,2|0,0:0|0:0,0:0:0:0:
192,57,116250,1,8,0:0:0:0:
342,102,116420,2,0,B|278:109|278:109|234:147|234:147|147:158,1,180,0|2,0:0|0:0,0:0:0:0:
78,264,116931,1,8,0:0:0:0:
139,353,117102,1,0,0:0:0:0:
246,341,117272,6,0,B|366:326|366:326|427:343,1,180,2|8,0:0|0:0,0:0:0:0:
317,246,117784,1,0,0:0:0:0:
317,246,117954,2,0,L|332:129,1,90,0|2,0:0|0:0,0:0:0:0:
182,156,118295,2,0,L|195:246,1,90,8|0,0:0|0:0,0:0:0:0:
328,156,118636,6,0,P|311:76|204:20,1,180,2|8,0:0|0:0,0:0:0:0:
58,74,119147,1,0,0:0:0:0:
58,74,119233,2,0,L|186:88,1,90,2|0,0:0|0:0,0:0:0:0:
147,83,119488,1,2,0:0:0:0:
39,182,119659,1,8,0:0:0:0:
117,294,119829,1,0,0:0:0:0:
248,187,120000,6,0,B|235:71|235:71|280:17,1,180,6|8,0:0|0:0,0:0:0:0:
412,152,120511,2,0,P|426:223|409:262,2,90,0|0|2,0:0|0:0|0:0,0:0:0:0:
248,187,121022,2,0,P|315:205|353:198,1,90,8|0,0:0|0:0,0:0:0:0:
218,278,121363,6,0,P|151:260|113:267,1,90,2|0,0:0|0:0,0:0:0:0:
0,299,121704,1,8,0:0:0:0:
72,363,121875,2,0,P|139:381|177:374,1,90
282,320,122216,1,2,0:0:0:0:
343,152,122386,2,0,L|357:244,1,90,8|0,0:0|0:0,0:0:0:0:
169,152,122727,6,0,L|153:250,2,90,2|0|8,0:0|0:0|0:0,0:0:0:0:
256,68,123238,1,0,0:0:0:0:
342,151,123409,2,0,L|363:277,1,90,0|2,0:0|0:0,0:0:0:0:
400,64,123750,1,8,0:0:0:0:
342,151,123920,6,0,L|163:137,1,180
228,276,124431,1,8,0:0:0:0:
371,218,124602,1,0,0:0:0:0:
300,72,124772,1,0,0:0:0:0:
162,136,124943,1,2,0:0:0:0:
371,218,125113,2,0,P|385:175|377:124,1,90,8|0,0:0|0:0,0:0:0:0:
206,55,125454,6,0,B|142:43|142:43|25:58,1,180,6|8,0:0|0:0,0:0:0:0:
306,329,126136,2,0,B|370:341|370:341|487:326,1,180,0|8,0:0|0:0,0:0:0:0:
427,167,126647,1,0,0:0:0:0:
427,167,126733,1,0,0:0:0:0:
427,167,126818,6,0,L|417:260,1,90,2|0,0:0|0:0,0:0:0:0:
315,179,127159,2,0,L|305:89,1,90,8|0,0:0|0:0,0:0:0:0:
394,36,127500,1,0,0:0:0:0:
427,138,127670,1,2,0:0:0:0:
315,179,127841,2,0,L|190:170,1,90,8|0,0:0|0:0,0:0:0:0:
146,254,128181,6,0,P|227:288|296:247,1,135,10|0,0:0|0:0,0:0:0:0:
267,274,128522,2,0,L|285:165,1,90,8|0,0:0|0:0,0:0:0:0:
138,146,128863,2,0,L|45:155,1,90,0|2,0:0|0:0,0:0:0:0:
305,227,129204,2,0,L|398:236,1,90,8|0,0:0|0:0,0:0:0:0:
216,328,129545,6,0,L|202:203,1,90,2|0,0:0|0:0,0:0:0:0:
148,136,129886,1,8,0:0:0:0:
174,33,130056,1,0,0:0:0:0:
174,33,130142,2,0,P|122:31|68:61,1,90,2|0,0:0|0:0,0:0:0:0:
87,45,130397,1,2,0:0:0:0:
79,216,130568,1,8,0:0:0:0:
189,234,130738,1,0,0:0:0:0:
148,136,130909,5,6,0:0:0:0:
79,216,131079,1,0,0:0:0:0:
23,127,131250,1,8,0:0:0:0:
87,45,131420,2,0,P|179:33|254:99,1,180,0|2,0:0|0:0,0:0:0:0:
245,82,131846,1,0,0:0:0:0:
245,82,131931,1,8,0:0:0:0:
239,268,132102,1,0,0:0:0:0:
115,278,132272,6,0,L|92:168,1,90,2|0,0:0|0:0,0:0:0:0:
195,186,132613,1,8,0:0:0:0:
227,100,132784,2,0,L|204:-10,1,90
195,186,133125,1,2,0:0:0:0:
185,281,133295,2,0,P|224:304|289:302,1,90,8|0,0:0|0:0,0:0:0:0:
458,262,133636,6,0,P|413:264|372:282,1,90,2|0,0:0|0:0,0:0:0:0:
349,126,133977,2,0,P|311:150|285:186,1,90,8|0,0:0|0:0,0:0:0:0:
185,281,134318,2,0,P|170:239|134:199,1,90,0|2,0:0|0:0,0:0:0:0:
34,185,134659,1,8,0:0:0:0:
72,285,134829,1,0,0:0:0:0:
141,204,135000,6,0,L|151:110,1,90,2|0,0:0|0:0,0:0:0:0:
276,190,135341,2,0,L|285:280,1,90,8|0,0:0|0:0,0:0:0:0:
383,304,135681,1,0,0:0:0:0:
465,249,135852,2,0,L|475:155,1,90,2|8,0:0|0:0,0:0:0:0:
435,67,136193,1,0,0:0:0:0:
384,285,136363,6,0,B|390:150|390:150|328:194,1,180,6|8,0:0|0:0,0:0:0:0:
128,285,136875,1,0,0:0:0:0:
128,285,137045,2,0,B|122:150|122:150|184:194,1,180,0|8,0:0|0:0,0:0:0:0:
329,244,137556,1,0,0:0:0:0:
329,244,137727,6,0,P|352:186|336:131,1,90,2|0,0:0|0:0,0:0:0:0:
161,159,138068,2,0,P|161:203|182:243,1,90,8|0,0:0|0:0,0:0:0:0:
414,289,138409,2,0,P|438:235|441:180,1,90,0|2,0:0|0:0,0:0:0:0:
68,203,138750,2,0,P|76:247|97:288,1,90,8|0,0:0|0:0,0:0:0:0:
322,323,139091,6,0,P|378:258|353:176,1,180,2|8,0:0|0:0,0:0:0:0:
159,208,139602,1,0,0:0:0:0:
159,208,139772,2,0,P|133:125|189:60,1,180,0|8,0:0|0:0,0:0:0:0:
363,107,140284,1,0,0:0:0:0:
363,107,140454,6,0,L|472:97,1,90,2|0,0:0|0:0,0:0:0:0:
292,170,140795,1,8,0:0:0:0:
231,51,140966,1,0,0:0:0:0:
231,51,141051,2,0,L|220:155,1,90,2|0,0:0|0:0,0:0:0:0:
221,140,141306,1,2,0:0:0:0:
323,32,141477,1,8,0:0:0:0:
361,195,141647,1,0,0:0:0:0:
420,23,141818,6,0,L|410:113,1,90,6|0,0:0|0:0,0:0:0:0:
280,200,142159,2,0,L|269:295,1,90,8|0,0:0|0:0,0:0:0:0:
142,361,142500,2,0,B|125:315|125:315|134:235,1,90,0|2,0:0|0:0,0:0:0:0:
147,162,142841,1,8,0:0:0:0:
163,54,143011,1,0,0:0:0:0:
163,54,143096,1,0,0:0:0:0:
163,54,143181,6,0,L|177:150,1,90,2|0,0:0|0:0,0:0:0:0:
191,250,143522,1,8,0:0:0:0:
175,143,143693,2,0,B|63:133|63:133|1:160,1,180,0|2,0:0|0:0,0:0:0:0:
191,250,144204,2,0,P|233:265|277:262,1,90,8|0,0:0|0:0,0:0:0:0:
404,146,144545,6,0,L|315:138,1,90,2|0,0:0|0:0,0:0:0:0:
315,138,144801,1,0,0:0:0:0:
315,138,144886,1,8,0:0:0:0:
114,148,145056,1,0,0:0:0:0:
114,148,145227,2,0,L|225:157,1,90,0|2,0:0|0:0,0:0:0:0:
440,243,145568,2,0,P|379:244|328:214,1,90,8|0,0:0|0:0,0:0:0:0:
182,48,145909,6,0,P|243:47|294:77,1,90,2|0,0:0|0:0,0:0:0:0:
324,315,146250,2,0,P|279:280|264:228,1,90,8|0,0:0|0:0,0:0:0:0:
182,48,146591,2,0,L|172:158,1,90,0|2,0:0|0:0,0:0:0:0:
127,324,146931,2,0,P|92:268|47:246,1,90,8|0,0:0|0:0,0:0:0:0:
17,162,147272,6,0,L|123:146,1,90,6|0,0:0|0:0,0:0:0:0:
212,131,147613,1,8,0:0:0:0:
212,131,147784,2,0,P|138:127|62:44,1,180,0|2,0:0|0:0,0:0:0:0:
192,42,148295,2,0,P|237:42|277:63,1,90,8|0,0:0|0:0,0:0:0:0:
189,256,148636,6,0,P|146:279|84:274,1,90,2|0,0:0|0:0,0:0:0:0:
31,135,148977,1,8,0:0:0:0:
130,92,149147,1,0,0:0:0:0:
226,141,149318,2,0,L|232:31,1,90,0|2,0:0|0:0,0:0:0:0:
104,174,149659,1,2,0:3:0:0:
95,200,149744,1,0,0:3:0:0:
91,227,149829,1,10,0:3:0:0:
95,254,149914,1,0,0:3:0:0:
105,280,150000,6,0,L|225:290,2,90
138,79,150681,2,0,L|272:63,1,135
294,61,151022,1,0,0:0:0:0:
270,175,151193,1,0,0:0:0:0:
270,175,151278,2,0,L|416:192,1,135
181,183,151704,2,0,L|192:286,1,90
106,104,152045,2,0,L|67:198,1,90
106,104,152727,6,0,P|110:193|180:260,1,180,6|8,0:0|0:0,0:0:0:0:
280,196,153238,1,4,0:3:0:0:
280,196,153324,1,0,0:0:0:0:
280,196,153409,2,0,B|294:146|265:98,1,90,4|2,0:3|0:0,0:0:0:0:
170,255,153750,1,8,0:0:0:0:
296,276,153920,1,4,0:3:0:0:
384,168,154091,6,0,P|408:132|416:76,1,90,2|4,0:0|0:3,0:0:0:0:
280,196,154431,1,8,0:0:0:0:
226,335,154602,2,0,P|138:350|72:272,1,180,4|2,0:3|0:0,0:0:0:0:
296,276,155113,2,0,P|316:328|308:373,1,90,8|0,0:0|0:0,0:0:0:0:
170,255,155454,6,0,B|146:175|182:103|182:103|206:131,1,180,2|8,0:0|0:0,0:0:0:0:
280,196,155966,1,4,0:3:0:0:
384,168,156136,2,0,B|432:144|456:112,2,90,4|2|8,0:3|0:0|0:0,0:0:0:0:
304,96,156647,1,4,0:3:0:0:
156,200,156818,6,0,B|104:216|64:200,1,90,2|4,0:0|0:3,0:0:0:0:
164,88,157159,1,8,0:0:0:0:
261,249,157329,1,6,0:3:0:0:
261,249,157414,1,0,0:0:0:0:
261,249,157500,1,6,0:3:0:0:
184,328,157670,1,2,0:0:0:0:
240,136,157841,2,0,B|288:236,1,90,8|0,0:0|0:0,0:0:0:0:
412,344,158181,6,0,B|424:308|408:280|408:280|424:212|360:172,1,180,6|8,0:0|0:0,0:0:0:0:
240,136,158693,1,4,0:3:0:0:
332,252,158863,1,4,0:3:0:0:
340,92,159034,1,2,0:0:0:0:
244,296,159204,1,8,0:0:0:0:
360,232,159375,1,4,0:3:0:0:
204,88,159545,6,0,L|140:168,1,90,2|4,0:0|0:3,0:0:0:0:
156,184,159801,1,0,0:0:0:0:
156,184,159886,1,8,0:0:0:0:
280,216,160056,1,4,0:3:0:0:
216,352,160227,2,0,P|190:304|200:248,1,90,4|2,0:3|0:0,0:0:0:0:
356,164,160568,2,0,P|371:206|355:267,1,90,8|0,0:0|0:0,0:0:0:0:
174,155,160909,6,0,B|144:104|176:28|176:28|212:48|220:80,1,180,2|8,0:0|0:0,0:0:0:0:
156,184,161420,1,4,0:3:0:0:
145,197,161505,1,0,0:0:0:0:
136,213,161591,1,4,0:3:0:0:
168,336,161761,1,2,0:0:0:0:
344,308,161931,2,0,P|328:260|288:224,1,90,8|4,0:0|0:3,0:0:0:0:
280,56,162272,6,0,B|304:108|352:120,1,90,2|4,0:0|0:3,0:0:0:0:
512,40,162613,1,8,0:0:0:0:
456,156,162784,1,4,0:3:0:0:
445,168,162869,2,0,B|446:223|446:223|476:271,1,90,10|0,0:3|0:3,0:3:0:0:
464,252,163125,1,2,0:0:0:0:
342,117,163295,1,8,0:0:0:0:
332,232,163466,1,0,0:0:0:0:
171,327,163636,6,0,P|97:345|24:287,1,135,6|0,0:0|0:0,0:0:0:0:
20,293,163977,1,8,0:0:0:0:
66,65,164147,1,4,0:3:0:0:
85,153,164318,2,0,B|96:213|96:213|115:240,1,90,4|2,0:3|0:0,0:0:0:0:
203,111,164659,2,0,P|225:60|276:23,1,90,8|4,0:0|0:3,0:0:0:0:
461,171,165000,6,0,L|371:174,1,90,2|4,0:0|0:3,0:0:0:0:
344,180,165255,1,0,0:0:0:0:
344,180,165341,1,8,0:0:0:0:
413,76,165511,1,4,0:3:0:0:
456,254,165681,1,4,0:3:0:0:
496,107,165852,1,2,0:0:0:0:
344,176,166022,2,0,L|337:290,1,90,8|0,0:0|0:0,0:0:0:0:
215,364,166363,6,0,P|161:357|110:319,1,90,2|0,0:0|0:0,0:0:0:0:
47,150,166704,2,0,L|152:140,1,90,8|4,0:0|0:3,0:0:0:0:
379,199,167045,2,0,L|286:208,1,90,4|2,0:3|0:0,0:0:0:0:
269,197,167301,1,0,0:0:0:0:
269,197,167386,1,8,0:0:0:0:
356,65,167556,1,4,0:3:0:0:
356,65,167727,6,0,L|384:233,1,135,2|0,0:0|0:0,0:0:0:0:
378,198,168068,1,8,0:0:0:0:
226,93,168238,1,6,0:3:0:0:
227,70,168324,1,0,0:0:0:0:
228,51,168409,1,6,0:3:0:0:
72,72,168579,1,2,0:0:0:0:
57,93,168664,1,0,0:0:0:0:
50,122,168750,2,0,P|47:166|62:208,1,90,8|0,0:0|0:0,0:0:0:0:
192,355,169091,6,0,L|344:343,1,135,6|0,0:0|0:0,0:0:0:0:
326,344,169431,2,0,P|356:316|379:256,1,90,8|4,0:0|0:3,0:0:0:0:
298,116,169772,2,0,P|301:164|340:226,1,90,4|2,0:3|0:0,0:0:0:0:
447,218,170113,1,8,0:0:0:0:
473,115,170284,1,4,0:3:0:0:
382,42,170454,6,0,B|372:127|372:127|358:184|294:215,1,180,2|8,0:0|0:0,0:0:0:0:
219,251,170966,2,0,P|299:243|393:309,1,180,4|2,0:3|0:0,0:0:0:0:
201,345,171477,1,8,0:0:0:0:
158,329,171562,1,0,0:0:0:0:
130,293,171647,1,0,0:0:0:0:
122,248,171733,1,0,0:0:0:0:
134,204,171818,6,0,L|147:101,1,90,2|0,0:0|0:0,0:0:0:0:
288,249,172159,2,0,L|276:159,1,90,8|4,0:0|0:3,0:0:0:0:
435,90,172500,2,0,P|404:121|387:163,1,90,4|2,0:3|0:0,0:0:0:0:
134,204,172841,2,0,P|165:235|182:277,1,90,8|4,0:0|0:3,0:0:0:0:
429,324,173181,6,0,L|339:336,1,90,2|6,0:0|0:3,0:0:0:0:
339,335,173437,1,0,0:3:0:0:
339,335,173522,1,2,0:3:0:0:
300,188,173693,1,2,0:3:0:0:
296,210,173778,1,8,0:3:0:0:
292,231,173863,1,2,0:3:0:0:
182,277,174034,1,2,0:0:0:0:
91,183,174204,2,0,L|101:75,1,90,8|4,0:0|0:3,0:0:0:0:
328,76,174545,6,0,P|300:168|216:176,1,180,6|8,0:0|0:0,0:0:0:0:
288,4,175056,1,4,0:3:0:0:
288,4,175142,1,0,0:0:0:0:
288,4,175227,2,0,L|368:88,1,90,4|2,0:3|0:0,0:0:0:0:
392,248,175568,2,0,L|312:164,1,90,8|4,0:0|0:3,0:0:0:0:
144,164,175909,6,0,P|188:224|251:226,1,135,2|0,0:0|0:0,0:0:0:0:
244,229,176250,1,8,0:0:0:0:
340,132,176420,1,4,0:3:0:0:
404,200,176591,1,4,0:3:0:0:
224,152,176761,1,2,0:0:0:0:
148,288,176931,2,0,P|192:304|244:304,1,90,8|0,0:0|0:0,0:0:0:0:
372,360,177272,6,0,P|385:310|372:251,1,90,2|0,0:0|0:0,0:0:0:0:
260,144,177613,2,0,P|289:186|342:215,1,90,8|4,0:0|0:3,0:0:0:0:
428,184,177954,2,0,L|502:116,2,90,4|2|8,0:3|0:0|0:0,0:0:0:0:
380,272,178466,1,4,0:3:0:0:
341,108,178636,6,0,P|289:122|248:154,1,90,2|4,0:0|0:3,0:0:0:0:
200,276,178977,1,8,0:0:0:0:
80,200,179147,1,6,0:3:0:0:
79,154,179233,1,0,0:0:0:0:
101,117,179318,1,6,0:3:0:0:
140,95,179403,1,0,0:0:0:0:
184,98,179488,1,2,0:0:0:0:
292,224,179659,1,8,0:0:0:0:
200,276,179829,1,0,0:0:0:0:
348,344,180000,6,0,P|432:308|444:212,1,180,6|8,0:0|0:0,0:0:0:0:
320,164,180511,1,4,0:3:0:0:
320,164,180596,1,0,0:0:0:0:
320,164,180681,2,0,P|332:212|368:256,1,90,4|2,0:3|0:0,0:0:0:0:
512,320,181022,1,8,0:0:0:0:
449,227,181193,1,4,0:3:0:0:
248,192,181363,6,0,B|236:160|252:120|252:120|220:68|256:16,1,180,2|8,0:0|0:0,0:0:0:0:
400,88,181875,1,4,0:3:0:0:
400,88,181960,1,0,0:0:0:0:
400,88,182045,2,0,L|308:68,1,90,4|2,0:3|0:0,0:0:0:0:
152,32,182386,1,8,0:0:0:0:
253,20,182556,1,4,0:3:0:0:
145,128,182727,6,0,B|119:145|89:152|89:152|149:208|117:280,1,180,2|8,0:0|0:0,0:0:0:0:
80,360,183238,1,4,0:3:0:0:
164,332,183409,1,4,0:3:0:0:
44,228,183579,1,2,0:0:0:0:
88,76,183750,1,8,0:0:0:0:
104,164,183920,1,4,0:3:0:0:
148,12,184091,6,0,B|196:0|244:8,1,90,2|4,0:0|0:3,0:0:0:0:
272,20,184346,1,0,0:0:0:0:
272,20,184431,1,8,0:0:0:0:
372,140,184602,1,4,0:3:0:0:
372,140,184687,1,10,0:3:0:0:
372,140,184772,1,4,0:3:0:0:
360,20,184943,1,2,0:0:0:0:
208,178,185113,2,0,B|221:230|221:230|265:262,1,90,8|0,0:0|0:0,0:0:0:0:
394,344,185454,6,0,B|222:354,1,135,6|0,0:0|0:0,0:0:0:0:
259,351,185795,2,0,P|211:338|159:343,1,90,8|4,0:0|0:3,0:0:0:0:
40,362,186136,2,0,L|26:247,1,90,4|2,0:3|0:0,0:0:0:0:
80,102,186477,1,8,0:0:0:0:
184,128,186647,1,4,0:3:0:0:
287,161,186818,6,0,P|278:236|233:289,1,135,2|0,0:0|0:0,0:0:0:0:
242,281,187159,2,0,P|271:263|336:252,1,90,8|4,0:0|0:3,0:0:0:0:
121,223,187500,2,0,P|78:204|16:203,1,90,4|2,0:3|0:0,0:0:0:0:
195,28,187841,2,0,L|188:117,1,90,8|0,0:0|0:0,0:0:0:0:
185,140,188096,1,0,0:0:0:0:
185,140,188181,6,0,P|160:92|121:63,1,90,2|0,0:0|0:0,0:0:0:0:
28,94,188522,1,8,0:0:0:0:
281,134,188693,1,4,0:3:0:0:
70,187,188863,1,4,0:3:0:0:
227,214,189034,1,2,0:0:0:0:
97,282,189204,2,0,L|201:300,1,90,8|4,0:0|0:3,0:0:0:0:
396,343,189545,6,0,P|350:302|317:215,1,135,2|0,0:0|0:0,0:0:0:0:
319,236,189886,2,0,L|335:132,1,90,8|6,0:0|0:3,0:0:0:0:
473,88,190227,1,6,0:3:0:0:
482,131,190312,1,0,0:0:0:0:
475,175,190397,1,2,0:0:0:0:
449,211,190483,1,0,0:0:0:0:
408,231,190568,2,0,L|297:237,1,90,8|0,0:0|0:0,0:0:0:0:
95,104,190909,6,0,L|269:111,1,135,6|0,0:0|0:0,0:0:0:0:
229,109,191250,2,0,P|255:95|305:32,1,90,8|4,0:0|0:3,0:0:0:0:
137,219,191591,2,0,P|143:263|165:302,1,90,4|2,0:3|0:0,0:0:0:0:
346,302,191931,2,0,P|368:263|375:219,1,90,8|4,0:0|0:3,0:0:0:0:
364,64,192272,6,0,B|316:51|316:51|198:72,1,135,2|0,0:0|0:0,0:0:0:0:
232,65,192613,2,0,P|222:129|234:181,1,90,8|4,0:0|0:3,0:0:0:0:
308,312,192954,2,0,P|318:248|306:196,1,90,4|2,0:3|0:0,0:0:0:0:
232,65,193295,2,0,L|128:72,1,90,8|4,0:0|0:3,0:0:0:0:
308,312,193636,6,0,L|433:301,1,90,2|4,0:0|0:3,0:0:0:0:
420,304,193892,1,0,0:0:0:0:
442,302,193977,1,8,0:0:0:0:
344,225,194147,1,4,0:3:0:0:
464,171,194318,1,4,0:3:0:0:
442,302,194488,1,2,0:0:0:0:
383,132,194659,2,0,L|394:31,1,90,8|0,0:0|0:0,0:0:0:0:
344,225,195000,5,6,0:0:0:0:
226,173,195170,2,0,L|146:165,1,45
288,118,195341,1,0,0:3:0:0:
284,293,195511,6,0,L|293:361,1,45,12|0,0:0|0:0,0:0:0:0:
205,258,195681,1,0,0:3:0:0:
337,118,195852,1,2,0:3:0:0:
366,306,196022,1,12,0:3:0:0:
205,258,196193,1,0,0:0:0:0:
269,45,196363,5,6,0:0:0:0:
100,128,207272,37,0,0:0:0:0:
88,148,207784,1,0,0:0:0:0:
76,168,208295,2,0,P|88:216|144:112,1,297.000009063721
160,115,210000,37,0,0:0:0:0:
228,212,210681,2,0,B|296:268|360:172|432:236,2,198.000006042481
348,136,212727,37,0,0:0:0:0:
360,116,213238,1,0,0:0:0:0:
372,96,213750,2,0,P|360:48|304:152,1,297.000009063721
287,148,215454,37,0,0:0:0:0:
256,192,215539,12,0,217841,0:0:0:0:
416,124,218181,6,0,P|460:196|424:283,1,180,6|8,0:0|0:0,0:0:0:0:
312,320,218693,1,0,0:0:0:0:
296,324,218778,1,0,0:0:0:0:
284,328,218863,1,0,0:0:0:0:
153,296,219034,1,2,0:0:0:0:
188,120,219204,2,0,P|236:128|272:160,1,90,8|0,0:0|0:0,0:0:0:0:
248,260,219545,5,2,0:0:0:0:
112,220,219716,1,0,0:0:0:0:
216,92,219886,1,8,0:0:0:0:
200,204,220056,2,0,B|212:240|248:260|248:260|184:256|136:316,1,180,0|2,0:0|0:0,0:0:0:0:
300,336,220568,2,0,P|336:292|340:252,1,90,8|0,0:0|0:0,0:0:0:0:
88,240,220909,6,0,P|68:288|72:328,1,90,2|0,0:0|0:0,0:0:0:0:
200,204,221250,2,0,P|168:160|120:136,1,90,8|0,0:0|0:0,0:0:0:0:
32,168,221591,1,0,0:0:0:0:
212,88,221761,1,2,0:0:0:0:
212,88,221846,1,0,0:0:0:0:
212,88,221931,2,0,L|292:48,1,90,8|0,0:0|0:0,0:0:0:0:
468,52,222272,6,0,L|388:92,1,90,2|0,0:0|0:0,0:0:0:0:
316,232,222613,2,0,P|260:244|216:228,1,90,8|0,0:0|0:0,0:0:0:0:
212,220,222869,1,0,0:0:0:0:
200,196,222954,1,0,0:0:0:0:
212,88,223125,1,2,0:0:0:0:
316,232,223295,1,8,0:0:0:0:
387,92,223466,1,0,0:0:0:0:
176,8,223636,6,0,P|132:64|140:140,1,135,6|0,0:0|0:0,0:0:0:0:
136,152,223977,2,0,B|100:120|100:120|44:104,1,90,8|0,0:0|0:0,0:0:0:0:
60,200,224318,1,0,0:0:0:0:
212,88,224488,1,2,0:0:0:0:
212,88,224574,1,0,0:0:0:0:
212,88,224659,1,8,0:0:0:0:
224,184,224829,1,0,0:0:0:0:
368,180,225000,6,0,P|400:272|340:336,1,180,2|8,0:0|0:0,0:0:0:0:
172,332,225511,2,0,B|112:204|112:204|164:216,1,180,0|2,0:0|0:0,0:0:0:0:
168,216,225937,1,0,0:0:0:0:
188,220,226022,1,8,0:0:0:0:
317,249,226193,1,0,0:0:0:0:
240,96,226363,6,0,L|183:23,1,90,2|0,0:0|0:0,0:0:0:0:
336,112,226704,2,0,P|356:160|348:208,1,90,8|0,0:0|0:0,0:0:0:0:
248,268,227045,1,0,0:0:0:0:
176,164,227216,1,2,0:0:0:0:
176,164,227301,1,0,0:0:0:0:
176,164,227386,2,0,L|268:165,1,90,8|0,0:0|0:0,0:0:0:0:
103,228,227727,6,0,P|53:213|20:176,1,90,2|0,0:0|0:0,0:0:0:0:
144,64,228068,2,0,L|96:152,2,90,8|0|0,0:0|0:0|0:0,0:0:0:0:
272,64,228579,1,2,0:0:0:0:
217,209,228750,2,0,L|180:241,1,45,8|0,0:0|0:0,0:0:0:0:
376,240,228920,2,0,L|418:207,1,45
258,139,229091,6,0,B|338:188|258:257|336:310,1,180,6|8,0:0|0:0,0:0:0:0:
436,112,229602,1,0,0:0:0:0:
441,102,229687,1,0,0:0:0:0:
448,92,229772,1,0,0:0:0:0:
376,240,229943,1,2,0:0:0:0:
320,148,230113,1,8,0:0:0:0:
248,296,230284,1,0,0:0:0:0:
212,160,230454,6,0,B|176:128|176:128|128:128,1,90,2|0,0:0|0:0,0:0:0:0:
104,248,230795,2,0,L|32:248,2,60,8|0|0,0:0|0:0|0:0,0:0:0:0:
228,248,231136,1,0,0:0:0:0:
316,384,231306,1,2,0:0:0:0:
392,312,231477,2,0,B|372:264|372:264|380:220,1,90,8|0,0:0|0:0,0:0:0:0:
451,74,231818,6,0,L|431:178,1,90,2|0,0:0|0:0,0:0:0:0:
304,208,232159,2,0,L|288:284,2,60,8|0|0,0:0|0:0|0:0,0:0:0:0:
224,168,232500,2,0,L|211:109,2,60
152,212,232841,2,0,P|132:260|92:288,1,90,8|0,0:0|0:0,0:0:0:0:
124,132,233181,6,0,P|172:132|208:152,1,90,2|0,0:0|0:0,0:0:0:0:
376,212,233522,1,8,0:0:0:0:
204,284,233693,2,0,L|160:288,1,45,0|0,0:0|0:0,0:0:0:0:
216,300,233863,2,0,P|249:333|289:345,1,90,0|2,0:0|0:0,0:0:0:0:
384,200,234204,1,8,0:0:0:0:
448,104,234375,2,0,L|496:92,1,45
340,24,234545,6,0,P|292:36|252:76,1,90,6|0,0:0|0:0,0:0:0:0:
224,244,234886,2,0,P|272:232|312:192,1,90,8|0,0:0|0:0,0:0:0:0:
312,188,235142,1,0,0:0:0:0:
316,164,235227,1,0,0:0:0:0:
424,72,235397,1,2,0:0:0:0:
212,64,235568,2,0,L|236:160,1,90,8|0,0:0|0:0,0:0:0:0:
204,328,235909,6,0,L|180:228,1,90,2|0,0:0|0:0,0:0:0:0:
320,148,236250,2,0,P|308:196|272:232,1,90,8|0,0:0|0:0,0:0:0:0:
292,244,236505,1,0,0:0:0:0:
304,264,236591,1,0,0:0:0:0:
440,280,236761,1,2,0:0:0:0:
233,151,236931,2,0,L|137:119,1,90,8|0,0:0|0:0,0:0:0:0:
281,225,237272,6,0,B|398:263|398:263|370:206,1,180,2|8,0:0|0:0,0:0:0:0:
292,64,237784,2,0,L|272:24,2,45,0|0|0,0:0|0:0|0:0,0:0:0:0:
408,120,238125,1,2,0:0:0:0:
188,72,238295,2,0,P|140:96|116:124,1,90,8|0,0:0|0:0,0:0:0:0:
280,268,238636,6,0,L|196:152,1,135,2|0,0:0|0:0,0:0:0:0:
164,236,238977,2,0,L|228:324,1,90,8|2,0:0|0:3,0:0:0:0:
380,320,239318,1,2,0:3:0:0:
388,308,239403,1,0,0:0:0:0:
396,296,239488,1,2,0:0:0:0:
323,190,239659,2,0,L|419:163,1,90,8|0,0:0|0:0,0:0:0:0:
448,60,240000,6,0,P|376:72|304:52,1,135,6|0,0:0|0:0,0:0:0:0:
316,58,240341,2,0,P|260:70|224:98,1,90,8|0,0:0|0:0,0:0:0:0:
180,200,240681,1,0,0:0:0:0:
264,300,240852,1,2,0:0:0:0:
264,300,240937,1,0,0:0:0:0:
264,300,241022,1,8,0:0:0:0:
128,324,241193,1,0,0:0:0:0:
48,216,241363,6,0,B|42:170|42:170|56:103,1,90,2|0,0:0|0:0,0:0:0:0:
128,40,241704,1,8,0:0:0:0:
192,144,241875,2,0,B|196:192|196:192|216:240,1,90
280,104,242216,1,2,0:0:0:0:
384,124,242386,2,0,B|387:75|387:75|375:25,1,90,8|0,0:0|0:0,0:0:0:0:
310,203,242727,6,0,P|354:231|446:219,1,135,2|0,0:0|0:0,0:0:0:0:
434,225,243068,2,0,P|383:243|349:281,1,90,8|0,0:0|0:0,0:0:0:0:
325,357,243409,1,0,0:0:0:0:
325,357,243579,1,2,0:0:0:0:
184,318,243750,2,0,L|167:211,1,90,8|0,0:0|0:0,0:0:0:0:
143,71,244091,6,0,P|122:118|78:158,1,90,2|0,0:0|0:0,0:0:0:0:
95,145,244346,1,0,0:0:0:0:
95,145,244431,1,8,0:0:0:0:
63,23,244602,1,0,0:0:0:0:
0,171,244772,1,0,0:0:0:0:
5,206,244858,1,0,0:0:0:0:
11,241,244943,1,2,0:0:0:0:
17,276,245028,1,0,0:0:0:0:
28,323,245113,2,0,L|169:339,1,135,8|0,0:0|0:0,0:0:0:0:
162,338,245454,6,0,P|201:295|204:247,1,90,6|0,0:0|0:0,0:0:0:0:
112,119,245795,2,0,P|115:181|143:232,1,90,8|0,0:0|0:0,0:0:0:0:
310,154,246136,2,0,P|328:110|331:50,1,90,0|2,0:0|0:0,0:0:0:0:
75,49,246477,2,0,P|75:96|124:176,1,135,8|0,0:0|0:0,0:0:0:0:
117,170,246818,6,0,L|-10:183,1,90,2|0,0:0|0:0,0:0:0:0:
255,113,247159,2,0,L|382:126,1,90,8|0,0:0|0:0,0:0:0:0:
471,202,247500,1,0,0:0:0:0:
461,236,247585,1,0,0:0:0:0:
440,265,247670,1,2,0:0:0:0:
408,282,247755,1,0,0:0:0:0:
372,282,247841,1,8,0:0:0:0:
296,196,248011,1,0,0:0:0:0:
192,252,248181,6,0,L|172:108,1,135,2|0,0:0|0:0,0:0:0:0:
173,118,248522,2,0,P|122:124|79:151,1,90,8|0,0:0|0:0,0:0:0:0:
360,151,248863,2,0,P|411:157|454:184,1,90,0|2,0:0|0:0,0:0:0:0:
453,305,249204,1,8,0:0:0:0:
343,351,249375,1,0,0:0:0:0:
343,351,249460,1,0,0:0:0:0:
343,351,249545,6,0,B|296:339|296:339|225:348,1,90,2|0,0:0|0:0,0:0:0:0:
156,363,249886,1,8,0:0:0:0:
205,222,250056,1,2,0:3:0:0:
205,222,250142,1,0,0:0:0:0:
205,222,250227,1,2,0:3:0:0:
254,344,250397,1,2,0:0:0:0:
321,201,250568,1,8,0:0:0:0:
136,162,250738,1,0,0:0:0:0:
172,311,250909,6,0,P|218:338|279:340,1,90,6|0,0:0|0:0,0:0:0:0:
441,273,251250,1,8,0:0:0:0:
392,342,251420,2,0,B|364:307|364:307|359:220,1,90
386,157,251761,1,2,0:0:0:0:
344,57,251931,1,8,0:0:0:0:
309,47,252017,1,0,0:0:0:0:
274,37,252102,1,0,0:0:0:0:
159,76,252272,6,0,P|136:124|142:216,1,135,2|0,0:0|0:0,0:0:0:0:
137,204,252613,2,0,P|105:170|58:140,1,90,8|0,0:0|0:0,0:0:0:0:
124,318,252954,2,0,P|179:332|229:329,1,90,0|2,0:0|0:0,0:0:0:0:
318,245,253295,1,8,0:0:0:0:
349,345,253466,1,0,0:0:0:0:
220,243,253636,6,0,P|213:196|227:141,1,90,2|0,0:0|0:0,0:0:0:0:
349,82,253977,2,0,L|367:218,1,135,8|0,0:0|0:0,0:0:0:0:
366,215,254318,2,0,P|406:185|462:172,1,90,0|2,0:0|0:0,0:0:0:0:
270,203,254659,2,0,P|230:173|174:160,1,90,8|0,0:0|0:0,0:0:0:0:
80,97,255000,6,0,P|140:92|216:37,1,135,2|0,0:0|0:0,0:0:0:0:
202,53,255341,2,0,L|208:164,1,90,8|0,0:0|0:0,0:0:0:0:
177,305,255681,1,0,0:0:0:0:
147,326,255767,1,0,0:0:0:0:
111,329,255852,1,2,0:0:0:0:
75,326,255937,1,0,0:0:0:0:
41,312,256022,2,0,L|20:207,1,90,8|0,0:0|0:0,0:0:0:0:
32,90,256363,6,0,P|91:77|138:80,1,90,6|0,0:0|0:0,0:0:0:0:
240,132,256704,2,0,L|353:107,2,90,8|0|0,0:0|0:0|0:0,0:0:0:0:
157,205,257216,1,2,0:0:0:0:
261,260,257386,2,0,P|273:195|243:135,1,135,8|0,0:0|0:0,0:0:0:0:
244,136,257727,6,0,P|287:158|349:161,1,90,2|0,0:0|0:0,0:0:0:0:
456,56,258068,2,0,P|407:52|349:74,1,90,8|0,0:0|0:0,0:0:0:0:
356,308,258409,2,0,P|369:243|363:192,1,90,0|2,0:0|0:0,0:0:0:0:
141,219,258750,2,0,P|142:264|154:308,1,90,8|0,0:0|0:0,0:0:0:0:
255,353,259091,1,6,0:0:0:0:
256,192,260454,12,8,261477,0:0:0:0:
184,152,261818,6,0,B|280:188|268:112|368:140,1,180,6|8,0:0|0:0,0:0:0:0:
228,76,262329,1,4,0:3:0:0:
216,72,262414,1,0,0:0:0:0:
204,68,262500,2,0,P|152:72|104:112,1,90,4|2,0:3|0:0,0:0:0:0:
336,220,262841,1,8,0:0:0:0:
384,148,263011,1,4,0:3:0:0:
380,324,263181,6,0,P|328:336|268:316,1,90,2|4,0:0|0:3,0:0:0:0:
220,232,263522,1,8,0:0:0:0:
384,148,263693,2,0,P|420:232|368:296,1,180,4|2,0:3|0:0,0:0:0:0:
200,332,264204,1,8,0:0:0:0:
232,248,264375,1,0,0:0:0:0:
84,208,264545,6,0,P|88:144|152:112,1,135,2|0,0:0|0:0,0:0:0:0:
184,120,264886,2,0,B|214:136|240:160|240:160|264:136|300:116,1,135,8|0,0:0|0:0,0:0:0:0:
328,96,265227,2,0,L|400:164,1,90,4|2,0:3|0:0,0:0:0:0:
472,236,265568,1,8,0:0:0:0:
480,116,265738,1,4,0:3:0:0:
480,99,265824,1,0,0:0:0:0:
481,83,265909,6,0,P|444:52|377:54,1,90,2|4,0:0|0:3,0:0:0:0:
460,224,266250,1,8,0:0:0:0:
384,308,266420,1,6,0:3:0:0:
360,332,266505,1,0,0:0:0:0:
328,344,266591,1,6,0:3:0:0:
294,343,266676,1,0,0:0:0:0:
263,327,266761,2,0,L|296:228,1,90,2|8,0:0|0:0,0:0:0:0:
332,120,267102,1,0,0:0:0:0:
200,248,267272,6,0,P|114:211|93:108,1,180,6|8,0:0|0:0,0:0:0:0:
235,87,267784,2,0,B|207:132|207:132|171:167,1,90,4|4,0:3|0:3,0:0:0:0:
72,160,268125,1,2,0:0:0:0:
184,16,268295,2,0,P|235:0|278:8,1,90,8|4,0:0|0:3,0:0:0:0:
344,136,268636,6,0,P|354:179|382:214,1,90,2|4,0:0|0:3,0:0:0:0:
401,222,268892,1,0,0:0:0:0:
423,226,268977,1,8,0:0:0:0:
464,52,269147,2,0,L|436:137,1,90,4|4,0:3|0:3,0:0:0:0:
340,196,269488,1,2,0:0:0:0:
236,244,269659,2,0,P|224:196|240:148,1,90,8|0,0:0|0:0,0:0:0:0:
316,296,270000,6,0,P|224:332|156:288,1,180,2|8,0:0|0:0,0:0:0:0:
232,80,270511,2,0,B|284:92|308:132|308:132|352:124,1,135,4|0,0:3|0:0,0:0:0:0:
368,120,270852,1,2,0:0:0:0:
204,200,271022,2,0,L|103:207,1,90,8|4,0:0|0:3,0:0:0:0:
264,328,271363,6,0,P|304:296|316:252,1,90,2|4,0:0|0:3,0:0:0:0:
312,252,271619,1,0,0:0:0:0:
308,244,271704,1,8,0:0:0:0:
200,144,271875,1,6,0:3:0:0:
196,136,271960,1,0,0:0:0:0:
192,128,272045,2,0,L|164:76,1,45,6|0,0:3|0:0,0:0:0:0:
60,56,272216,2,0,L|84:108,1,45,2|0,0:0|0:0,0:0:0:0:
88,236,272386,1,8,0:0:0:0:
216,288,272556,1,0,0:0:0:0:
328,168,272727,6,0,P|336:116|292:28,1,135,6|0,0:0|0:0,0:0:0:0:
284,28,273068,1,8,0:0:0:0:
175,44,273238,1,4,0:3:0:0:
113,136,273409,2,0,P|64:137|7:116,1,90,4|2,0:3|0:0,0:0:0:0:
216,132,273750,2,0,P|235:179|236:227,1,90,8|4,0:0|0:3,0:0:0:0:
134,351,274091,6,0,L|122:252,1,90,2|4,0:0|0:3,0:0:0:0:
130,245,274346,1,0,0:0:0:0:
133,240,274431,1,8,0:0:0:0:
238,290,274602,1,4,0:3:0:0:
377,220,274772,1,4,0:3:0:0:
300,150,274943,1,2,0:0:0:0:
321,293,275113,2,0,P|332:346|350:378,1,90,8|0,0:0|0:0,0:0:0:0:
453,247,275454,6,0,L|459:149,1,90,2|0,0:0|0:0,0:0:0:0:
267,79,275795,2,0,L|272:168,1,90,8|4,0:0|0:3,0:0:0:0:
419,86,276136,2,0,P|388:37|344:18,1,90,4|2,0:3|0:0,0:0:0:0:
339,15,276392,1,0,0:0:0:0:
334,13,276477,1,8,0:0:0:0:
139,89,276647,1,4,0:3:0:0:
139,89,276818,6,0,L|284:105,1,135,2|0,0:0|0:0,0:0:0:0:
295,112,277159,1,8,0:0:0:0:
279,279,277329,1,6,0:3:0:0:
244,308,277414,1,0,0:0:0:0:
200,319,277500,1,6,0:3:0:0:
155,321,277585,1,0,0:0:0:0:
113,303,277670,1,2,0:0:0:0:
84,268,277755,1,0,0:0:0:0:
70,225,277841,2,0,L|75:124,1,90,8|0,0:0|0:0,0:0:0:0:
202,36,278181,6,0,P|215:95|181:176,1,135,6|0,0:0|0:0,0:0:0:0:
191,163,278522,2,0,P|238:148|316:148,1,90,8|4,0:0|0:3,0:0:0:0:
473,248,278863,2,0,P|424:253|347:238,1,90,4|2,0:3|0:0,0:0:0:0:
352,122,279204,1,8,0:0:0:0:
485,98,279375,1,4,0:3:0:0:
431,211,279545,6,0,B|369:230|369:230|314:218|314:218|246:239,1,180,2|8,0:0|0:0,0:0:0:0:
81,173,280056,2,0,B|143:154|143:154|198:166|198:166|266:145,1,180,4|2,0:3|0:0,0:0:0:0:
380,82,280568,1,8,0:0:0:0:
393,115,280653,1,0,0:0:0:0:
399,150,280738,1,0,0:0:0:0:
395,185,280824,1,0,0:0:0:0:
381,218,280909,6,0,P|365:274|375:328,1,90,2|0,0:0|0:0,0:0:0:0:
144,305,281250,2,0,P|145:260|131:218,1,90,8|4,0:0|0:3,0:0:0:0:
324,230,281591,2,0,P|341:188|373:157,1,90,4|2,0:3|0:0,0:0:0:0:
137,156,281931,2,0,P|169:189|186:230,1,90,8|4,0:0|0:3,0:0:0:0:
156,347,282272,6,0,L|39:332,1,90,2|2,0:0|0:3,0:0:0:0:
54,321,282528,1,0,0:3:0:0:
54,321,282613,1,2,0:3:0:0:
212,252,282784,1,6,0:3:0:0:
233,247,282869,1,0,0:3:0:0:
255,242,282954,1,6,0:3:0:0:
386,214,283125,1,2,0:0:0:0:
350,332,283295,2,0,P|296:352|241:336,1,90,8|0,0:0|0:0,0:0:0:0:
128,176,283636,6,0,P|144:84|232:64,1,180,6|8,0:0|0:0,0:0:0:0:
284,188,284147,1,4,0:3:0:0:
284,188,284233,1,0,0:0:0:0:
284,188,284318,2,0,L|200:140,1,90,4|2,0:3|0:0,0:0:0:0:
140,0,284659,1,8,0:0:0:0:
284,100,284829,1,4,0:3:0:0:
232,252,285000,6,0,B|300:276|364:224|364:224|328:204,1,180,2|8,0:0|0:0,0:0:0:0:
176,180,285511,2,0,P|144:248|184:324,1,135,4|0,0:3|0:0,0:0:0:0:
176,320,285852,1,2,0:0:0:0:
364,224,286022,1,8,0:0:0:0:
332,312,286193,1,0,0:0:0:0:
288,164,286363,6,0,B|300:108|256:56|256:56|288:76|324:76,1,180,2|8,0:0|0:0,0:0:0:0:
396,128,286875,1,4,0:3:0:0:
196,136,287045,2,0,P|144:132|100:96,1,90,4|2,0:3|0:0,0:0:0:0:
104,96,287301,1,0,0:0:0:0:
100,80,287386,1,8,0:0:0:0:
260,56,287556,1,4,0:3:0:0:
216,232,287727,6,0,L|124:256,1,90,2|4,0:0|0:3,0:0:0:0:
172,144,288068,1,8,0:0:0:0:
332,252,288238,1,6,0:3:0:0:
332,252,288324,1,0,0:0:0:0:
332,252,288409,2,0,L|420:224,1,90,6|2,0:3|0:0,0:0:0:0:
433,248,288664,1,0,0:0:0:0:
449,276,288750,1,8,0:0:0:0:
376,152,288920,1,0,0:0:0:0:
292,52,289091,6,0,P|198:46|140:120,1,180,6|8,0:0|0:0,0:0:0:0:
276,216,289602,2,0,B|268:164|236:128|236:128|208:176,1,135,4|0,0:3|0:0,0:0:0:0:
208,180,289943,1,2,0:0:0:0:
320,284,290113,2,0,P|348:248|352:192,1,90,8|4,0:0|0:3,0:0:0:0:
360,184,290369,1,0,0:0:0:0:
368,164,290454,6,0,L|452:208,1,90,2|4,0:0|0:3,0:0:0:0:
440,296,290795,1,8,0:0:0:0:
276,216,290966,2,0,L|196:174,2,90,4|4|2,0:3|0:3|0:0,0:0:0:0:
416,308,291477,1,8,0:0:0:0:
252,296,291647,1,0,0:0:0:0:
224,96,291818,6,0,P|128:116|112:200,1,180,2|8,0:0|0:0,0:0:0:0:
208,280,292329,1,4,0:3:0:0:
196,176,292500,1,4,0:3:0:0:
292,216,292670,1,2,0:0:0:0:
280,112,292841,2,0,L|352:48,1,90,8|4,0:0|0:3,0:0:0:0:
496,68,293181,6,0,L|424:132,1,90,2|4,0:0|0:3,0:0:0:0:
416,140,293437,1,0,0:0:0:0:
404,152,293522,1,8,0:0:0:0:
280,256,293693,2,0,L|324:280,1,45,6|0,0:3|0:0,0:0:0:0:
427,256,293863,2,0,L|383:231,1,45,6|0,0:3|0:0,0:0:0:0:
267,164,294034,1,2,0:0:0:0:
456,328,294204,2,0,P|496:292|504:248,1,90,8|0,0:0|0:0,0:0:0:0:
480,96,294545,6,0,B|458:80|447:66|447:66|418:112|353:122,1,135,6|0,0:0|0:0,0:0:0:0:
375,117,294886,2,0,L|275:109,1,90,8|4,0:0|0:3,0:0:0:0:
82,68,295227,2,0,L|181:60,1,90,4|2,0:3|0:0,0:0:0:0:
285,109,295568,1,8,0:0:0:0:
253,225,295738,1,4,0:3:0:0:
87,226,295909,6,0,B|60:188|60:188|69:72,1,135,2|0,0:0|0:0,0:0:0:0:
66,99,296250,2,0,P|109:118|171:119,1,90,8|4,0:0|0:3,0:0:0:0:
394,64,296591,2,0,P|351:45|289:44,1,90,4|2,0:3|0:0,0:0:0:0:
248,188,296931,2,0,P|245:248|269:303,1,90,8|0,0:0|0:0,0:0:0:0:
264,298,297187,1,0,0:0:0:0:
264,298,297272,6,0,L|362:302,1,90,2|0,0:0|0:0,0:0:0:0:
453,216,297613,1,8,0:0:0:0:
393,148,297784,1,4,0:3:0:0:
357,273,297954,1,4,0:3:0:0:
305,146,298125,1,2,0:0:0:0:
269,316,298295,2,0,L|243:218,1,90,8|4,0:0|0:3,0:0:0:0:
183,96,298636,6,0,P|164:154|96:218,1,135,2|0,0:0|0:0,0:0:0:0:
114,207,298977,2,0,L|220:224,1,90,8|6,0:0|0:3,0:0:0:0:
355,315,299318,1,6,0:3:0:0:
338,283,299403,1,0,0:0:0:0:
332,247,299488,1,2,0:0:0:0:
337,211,299574,1,0,0:0:0:0:
349,176,299659,2,0,P|387:138|440:127,1,90,8|0,0:0|0:0,0:0:0:0:
500,254,300000,6,0,L|349:274,1,135,6|0,0:0|0:0,0:0:0:0:
366,271,300341,2,0,P|417:283|466:324,1,90,8|4,0:0|0:3,0:0:0:0:
221,313,300681,2,0,P|197:266|197:202,1,90,4|2,0:3|0:0,0:0:0:0:
291,71,301022,2,0,P|314:117|314:181,1,90,8|4,0:0|0:3,0:0:0:0:
172,109,301363,6,0,P|121:97|72:56,2,90,2|4|8,0:0|0:3|0:0,0:0:0:0:
317,154,301875,2,0,P|368:166|417:207,2,90,4|4|2,0:3|0:3|0:0,0:0:0:0:
206,207,302386,1,8,0:0:0:0:
291,71,302556,1,0,0:0:0:0:
292,302,302727,6,0,P|325:249|317:163,1,135,2|0,0:0|0:0,0:0:0:0:
317,154,303068,1,8,0:0:0:0:
374,240,303238,1,4,0:3:0:0:
438,155,303409,1,4,0:3:0:0:
476,313,303579,1,2,0:0:0:0:
484,148,303750,2,0,L|468:47,1,90,8|4,0:0|0:3,0:0:0:0:
325,123,304091,5,10,0:3:0:0:
299,249,304261,1,10,0:3:0:0:
310,93,304431,5,10,0:3:0:0:
275,263,304602,1,10,0:3:0:0:
409,108,304772,6,0,L|451:61,1,45,2|0,0:3|0:3,0:3:0:0:
291,137,304943,2,0,L|247:127,1,45,8|0,0:3|0:3,0:3:0:0:
381,234,305113,1,8,0:0:0:0:
185,294,305497,5,0,0:0:0:0:
140,140,315681,5,0,0:0:0:0:
144,120,316022,1,0,0:0:0:0:
148,100,316406,2,0,B|192:92|228:64|228:64|244:104|244:104|280:72|344:72|392:120|388:200|348:220,1,360
357,210,318755,37,0,0:0:0:0:
244,208,319091,2,0,P|202:204|300:152,1,360
124,248,321818,38,0,P|208:288|304:268,1,180
291,274,322841,1,0,0:0:0:0:
156,72,324545,22,0,P|157:159|236:208,1,180
368,196,325568,37,0,0:0:0:0:
244,116,326079,37,0,0:0:0:0:
264,364,326591,37,0,0:0:0:0:
180,196,327272,6,0,L|224:134,1,72,2|0,0:0|0:0,0:0:0:0:
199,284,327613,2,0,P|128:264|88:204,1,144,0|8,0:0|0:0,0:0:0:0:
202,49,328125,2,0,P|272:68|312:128,1,144,2|0,0:0|0:0,0:0:0:0:
128,112,328636,6,0,P|108:80|100:36,1,72,2|0,0:0|0:0,0:0:0:0:
202,49,328977,2,0,B|256:124|192:200,1,144,0|8,0:0|0:0,0:0:0:0:
48,148,329488,2,0,P|16:220|72:288,1,144,2|0,0:0|0:0,0:0:0:0:
160,312,330000,6,0,L|224:356,1,72,2|0,0:0|0:0,0:0:0:0:
388,292,330341,2,0,L|328:251,1,72
204,304,330681,2,0,L|268:348,1,72,8|2,0:0|0:0,0:0:0:0:
432,284,331022,2,0,L|372:243,1,72
204,176,331363,6,0,P|228:220|256:244,1,72,2|0,0:0|0:0,0:0:0:0:
376,132,331704,2,0,P|336:72|260:36,1,144,0|8,0:0|0:0,0:0:0:0:
122,64,332216,2,0,B|124:106|164:132|164:132|204:151|206:194,1,144,2|0,0:0|0:0,0:0:0:0:
48,104,332727,6,0,P|40:65|50:22,1,72,2|0,0:0|0:0,0:0:0:0:
204,55,333068,2,0,P|266:111|288:185,1,144,0|8,0:0|0:0,0:0:0:0:
172,252,333579,2,0,P|105:247|146:192,1,144,2|0,0:0|0:0,0:0:0:0:
281,94,334091,6,0,L|286:178,1,72,2|0,0:0|0:0,0:0:0:0:
212,320,334431,2,0,L|203:162,1,144,0|8,0:0|0:0,0:0:0:0:
280,56,334943,1,2,0:0:0:0:
364,192,335113,2,0,P|340:224|300:244,1,72
308,104,335454,6,0,P|388:92|440:124,1,144,2|0,0:0|0:0,0:0:0:0:
464,228,335966,1,0,0:0:0:0:
316,272,336136,2,0,L|236:240,1,72,8|2,0:0|0:0,0:0:0:0:
176,128,336477,2,0,L|242:154,1,72
328,296,336818,6,0,L|261:269,1,72,2|0,0:0|0:0,0:0:0:0:
208,108,337159,2,0,B|306:150|306:150|273:165,1,144,0|8,0:0|0:0,0:0:0:0:
192,16,337841,1,0,0:0:0:0:
120,140,338181,6,0,L|68:88,1,72,2|0,0:0|0:0,0:0:0:0:
204,132,338522,2,0,P|176:204|100:228,1,144,0|8,0:0|0:0,0:0:0:0:
156,64,339034,2,0,P|224:56|280:108,1,144,2|0,0:0|0:0,0:0:0:0:
288,236,339545,6,0,L|240:308,1,72,2|0,0:0|0:0,0:0:0:0:
372,256,339886,2,0,B|424:172|424:172|368:184,1,144,0|8,0:0|0:0,0:0:0:0:
212,236,340397,2,0,P|244:296|320:304,1,144,2|0,0:0|0:0,0:0:0:0:
379,181,340909,6,0,L|335:101,1,72,2|0,0:0|0:0,0:0:0:0:
208,28,341250,2,0,L|252:108,1,72
416,188,341591,2,0,L|372:108,1,72,8|2,0:0|0:0,0:0:0:0:
245,35,341931,2,0,L|289:115,1,72
440,76,342272,6,0,P|408:56|348:56,1,72,2|0,0:0|0:0,0:0:0:0:
204,128,342613,2,0,P|264:180|340:152,1,144,0|8,0:0|0:0,0:0:0:0:
204,104,343125,2,0,B|92:148|92:148|128:168,1,144,2|0,0:0|0:0,0:0:0:0:
288,236,343636,6,0,L|216:264,1,72,2|0,0:0|0:0,0:0:0:0:
292,156,343977,2,0,P|356:196|356:276,1,144,0|8,0:0|0:0,0:0:0:0:
216,340,344488,2,0,P|152:300|152:220,1,144,2|0,0:0|0:0,0:0:0:0:
304,280,345000,6,0,L|340:344,1,72,2|0,0:0|0:0,0:0:0:0:
224,260,345341,2,0,B|168:164|168:164|200:168,1,144,0|8,0:0|0:0,0:0:0:0:
340,208,345852,1,2,0:0:0:0:
352,84,346022,2,0,L|260:84,1,72
140,92,346363,6,0,P|94:150|128:228,1,144,2|0,0:0|0:0,0:0:0:0:
208,268,346875,1,0,0:0:0:0:
166,162,347045,2,0,L|232:132,1,72,8|2,0:0|0:0,0:0:0:0:
392,124,347386,2,0,L|326:154,1,72
148,216,347727,6,0,L|216:184,1,72,2|0,0:0|0:0,0:0:0:0:
374,178,348068,2,0,B|288:212|288:212|296:184|288:160,1,144,0|8,0:0|0:0,0:0:0:0:
308,16,348750,1,0,0:0:0:0:
458,99,349091,6,0,B|467:212|467:212|440:255,1,161.999995056153,2|8,0:0|0:0,0:0:0:0:
217,304,349772,2,0,L|208:218,2,80.9999975280763,0|2|8,0:0|0:0|0:0,0:0:0:0:
323,89,350454,6,0,L|313:234,1,121.499996292114,2|0,0:0|0:0,0:0:0:0:
314,210,350795,2,0,P|338:176|391:149,1,80.9999975280763,8|0,0:0|0:0,0:0:0:0:
476,254,351136,2,0,P|452:288|399:315,1,80.9999975280763,0|2,0:0|0:0,0:0:0:0:
283,316,351477,2,0,L|134:305,1,121.499996292114,8|0,0:0|0:0,0:0:0:0:
161,307,351818,6,0,P|139:265|150:210,1,80.9999975280763,2|0,0:0|0:0,0:0:0:0:
169,148,352159,1,8,0:0:0:0:
350,76,352500,6,0,P|377:122|360:216,1,121.499996292114
374,188,352841,2,0,P|377:239|409:292,1,80.9999975280763,8|0,0:0|0:0,0:0:0:0:
460,104,353181,1,2,0:0:0:0:
244,139,353522,6,0,P|192:138|138:109,1,80.9999975280763,8|0,0:0|0:0,0:0:0:0:
256,43,353863,2,0,L|366:58,1,80.9999975280763,0|2,0:0|0:0,0:0:0:0:
346,235,354204,2,0,L|236:220,1,80.9999975280763,8|0,0:0|0:0,0:0:0:0:
181,155,354545,6,0,B|163:115|163:115|171:18,1,121.499996292114,2|0,0:0|0:0,0:0:0:0:
169,37,354886,2,0,P|147:85|94:123,1,80.9999975280763,8|0,0:0|0:0,0:0:0:0:
35,164,355227,2,0,P|63:197|82:246,1,80.9999975280763,0|2,0:0|0:0,0:0:0:0:
65,327,355568,2,0,L|160:337,2,80.9999975280763,8|0|2,0:0|0:0|0:0,0:0:0:0:
341,241,356250,6,0,L|260:249,1,80.9999975280763,8|0,0:0|0:0,0:0:0:0:
315,333,356591,2,0,P|374:332|435:239,1,161.999995056153,0|8,0:0|0:0,0:0:0:0:
434,158,357102,1,0,0:0:0:0:
404,65,357272,6,0,B|300:59|300:59|342:121,1,161.999995056153,2|8,0:0|0:0,0:0:0:0:
406,290,357954,2,0,B|510:296|510:296|468:234,1,161.999995056153,0|8,0:0|0:0,0:0:0:0:
394,197,358466,1,0,0:0:0:0:
298,215,358636,6,0,P|244:251|235:352,1,161.999995056153,2|8,0:0|0:0,0:0:0:0:
137,220,359318,2,0,B|116:181|67:147|67:147|113:158|161:138,1,161.999995056153,0|8,0:0|0:0,0:0:0:0:
214,105,359829,1,0,0:0:0:0:
214,105,360000,6,0,P|163:115|119:97,1,80.9999975280763,2|0,0:0|0:0,0:0:0:0:
174,25,360341,1,8,0:0:0:0:
164,32,360681,6,0,L|173:153,1,121.499996292114,0|0,0:0|0:0,0:0:0:0:
173,153,361022,2,0,P|217:168|277:155,1,80.9999975280763,8|0,0:0|0:0,0:0:0:0:
389,97,361363,6,0,P|345:82|285:95,1,80.9999975280763,2|0,0:0|0:0,0:0:0:0:
240,202,361704,2,0,L|231:365,2,161.999995056153,8|0|8,0:0|0:0|0:0,0:0:0:0:
199,113,362556,1,0,0:0:0:0:
112,157,362727,6,0,P|104:187|117:245,1,80.9999975280763,2|0,0:0|0:0,0:0:0:0:
208,252,363068,2,0,P|261:234|371:279,1,161.999995056153,8|0,0:0|0:0,0:0:0:0:
419,341,363579,1,0,0:0:0:0:
419,341,363750,2,0,P|403:291|406:254,1,80.9999975280763,8|0,0:0|0:0,0:0:0:0:
443,174,364091,5,2,0:0:0:0:
350,204,364261,1,0,0:0:0:0:
474,258,364431,1,8,0:0:0:0:
459,93,364602,2,0,B|453:129|480:177|480:177|410:125|326:129,1,242.999992584229,0|8,0:0|0:0,0:0:0:0:
36,50,365454,6,0,P|88:81|127:92,1,80.9999975280763,10|0,0:3|0:3,0:3:0:0:
52,168,365795,2,0,P|112:168|151:158,1,80.9999975280763,8|0,0:3|0:3,0:3:0:0:
129,262,366136,2,0,P|181:232|210:204,1,80.9999975280763,10|0,0:3|0:3,0:3:0:0:
239,306,366477,2,0,P|270:254|281:215,1,80.9999975280763,8|0,0:3|0:3,0:3:0:0:
476,334,366818,6,0,P|424:303|385:292,1,80.9999975280763,10|0,0:3|0:3,0:3:0:0:
460,216,367159,2,0,P|399:215|360:225,1,80.9999975280763,8|0,0:3|0:3,0:3:0:0:
383,122,367500,2,0,P|330:151|301:179,1,80.9999975280763,10|0,0:3|0:3,0:3:0:0:
273,78,367841,2,0,P|242:130|231:169,1,80.9999975280763,8|0,0:3|0:3,0:3:0:0:
284,305,368181,5,10,0:3:0:0:
300,208,368352,1,8,0:3:0:0:
227,78,368522,1,10,0:3:0:0:
212,176,368693,1,8,0:3:0:0:
402,176,368863,5,10,0:3:0:0:
283,139,369034,1,8,0:3:0:0:
109,207,369204,1,10,0:3:0:0:
228,244,369375,1,8,0:3:0:0:
256,192,369545,12,0,370738,0:0:0:0:
140,144,370909,6,0,L|216:64,1,90,6|0,0:0|0:0,0:0:0:0:
352,56,371250,2,0,L|276:136,1,90,8|4,0:0|0:3,0:0:0:0:
280,132,371505,1,0,0:0:0:0:
272,144,371591,1,4,0:3:0:0:
232,272,371761,1,2,0:0:0:0:
420,336,371931,1,8,0:0:0:0:
392,228,372102,1,4,0:3:0:0:
216,280,372272,6,0,L|112:332,1,90,2|4,0:0|0:3,0:0:0:0:
204,196,372613,2,0,L|284:155,1,90,8|4,0:0|0:3,0:0:0:0:
300,148,372869,1,0,0:0:0:0:
316,140,372954,1,4,0:3:0:0:
358,14,373125,1,2,0:0:0:0:
180,56,373295,2,0,B|132:76|132:76|113:113,1,90,8|0,0:0|0:0,0:0:0:0:
232,232,373636,6,0,B|228:180|228:180|204:140,1,90,2|0,0:0|0:0,0:0:0:0:
52,260,373977,1,8,0:0:0:0:
164,300,374147,1,4,0:3:0:0:
164,300,374233,1,0,0:0:0:0:
164,300,374318,2,0,P|204:328|252:332,1,90,4|2,0:3|0:0,0:0:0:0:
420,288,374659,1,8,0:0:0:0:
312,256,374829,1,4,0:3:0:0:
376,76,375000,6,0,P|332:60|264:72,1,90,2|4,0:0|0:3,0:0:0:0:
280,84,375255,1,0,0:0:0:0:
272,108,375341,2,0,P|230:123|185:121,1,90,8|6,0:0|0:3,0:0:0:0:
56,64,375681,1,6,0:3:0:0:
212,32,375852,1,2,0:0:0:0:
160,200,376022,2,0,L|128:296,1,90,8|0,0:0|0:0,0:0:0:0:
256,160,376363,6,0,P|224:120|176:96,1,90,6|0,0:0|0:0,0:0:0:0:
20,140,376704,2,0,P|52:180|100:204,1,90,8|4,0:0|0:3,0:0:0:0:
100,204,376960,1,0,0:0:0:0:
116,208,377045,1,4,0:3:0:0:
268,176,377216,1,2,0:0:0:0:
132,312,377386,1,8,0:0:0:0:
265,348,377556,1,4,0:3:0:0:
184,176,377727,6,0,P|196:132|243:88,1,90,2|4,0:0|0:3,0:0:0:0:
308,272,378068,2,0,P|295:315|248:359,1,90,8|4,0:0|0:3,0:0:0:0:
248,360,378324,1,0,0:0:0:0:
224,364,378409,1,4,0:3:0:0:
136,284,378579,1,2,0:0:0:0:
312,232,378750,2,0,L|400:276,1,90,8|0,0:0|0:0,0:0:0:0:
320,140,379091,6,0,L|236:100,1,90,2|0,0:0|0:0,0:0:0:0:
96,128,379431,1,8,0:0:0:0:
256,76,379602,1,4,0:3:0:0:
274,68,379687,1,0,0:0:0:0:
293,61,379772,1,4,0:3:0:0:
112,128,379943,1,2,0:0:0:0:
152,280,380113,2,0,P|200:292|240:280,1,90,8|4,0:0|0:3,0:0:0:0:
376,168,380454,1,2,0:0:0:0:
352,264,380625,1,4,0:3:0:0:
192,184,380795,6,0,L|212:92,1,90,8|6,0:0|0:3,0:3:0:0:
304,32,381051,2,0,L|296:80,1,45,2|6,0:0|0:3,0:3:0:0:
264,264,381306,1,0,0:0:0:0:
264,264,381392,1,0,0:0:0:0:
264,264,381477,2,0,B|304:292|304:292|352:288,1,90,8|0,0:0|0:0,0:0:0:0:
451,151,381818,6,0,P|422:108|377:84,1,90,6|0,0:0|0:0,0:0:0:0:
189,134,382159,2,0,L|181:243,1,90,8|4,0:0|0:3,0:0:0:0:
179,250,382414,1,0,0:0:0:0:
176,277,382500,1,4,0:3:0:0:
99,74,382670,1,2,0:0:0:0:
38,148,382841,2,0,L|44:238,1,90,8|4,0:0|0:3,0:0:0:0:
211,301,383181,6,0,L|217:211,1,90,2|4,0:0|0:3,0:0:0:0:
314,41,383522,2,0,L|308:141,1,90,8|4,0:0|0:3,0:0:0:0:
313,157,383778,1,0,0:0:0:0:
318,183,383863,1,4,0:3:0:0:
391,297,384034,1,2,0:0:0:0:
482,222,384204,2,0,P|485:177|470:135,1,90,8|4,0:0|0:3,0:0:0:0:
260,65,384545,6,0,L|413:78,1,135,2|0,0:0|0:0,0:0:0:0:
394,76,384886,2,0,P|357:100|310:112,1,90,8|4,0:0|0:3,0:0:0:0:
156,44,385227,2,0,P|106:63|52:129,1,135,4|0,0:3|0:0,0:0:0:0:
54,123,385568,2,0,L|70:228,1,90,8|4,0:0|0:3,0:0:0:0:
194,359,385909,6,0,L|201:213,1,135,2|0,0:0|0:0,0:0:0:0:
200,224,386250,2,0,P|213:265|258:304,1,90,8|6,0:0|0:3,0:0:0:0:
374,312,386591,1,6,0:3:0:0:
465,227,386761,1,2,0:0:0:0:
466,200,386846,1,0,0:0:0:0:
468,173,386931,2,0,L|458:83,1,90,8|0,0:0|0:0,0:0:0:0:
340,37,387272,6,0,B|218:47|218:47|253:57|282:89,1,180,6|8,0:0|0:0,0:0:0:0:
316,180,387784,1,4,0:3:0:0:
212,236,387954,2,0,L|115:252,1,90,4|2,0:3|0:0,0:0:0:0:
319,311,388295,2,0,L|416:327,1,90,8|4,0:0|0:3,0:0:0:0:
446,220,388636,6,0,P|383:207|296:240,1,135,2|0,0:0|0:0,0:0:0:0:
316,225,388977,2,0,L|341:121,1,90,8|4,0:0|0:3,0:0:0:0:
195,225,389318,2,0,L|171:121,1,90,4|2,0:3|0:0,0:0:0:0:
413,274,389659,2,0,L|437:169,1,90,8|0,0:0|0:0,0:0:0:0:
479,63,390000,6,0,P|437:101|413:181,1,135,2|0,0:0|0:0,0:0:0:0:
414,174,390341,2,0,L|518:186,1,90,8|4,0:0|0:3,0:0:0:0:
300,111,390681,2,0,L|195:123,1,90,4|2,0:3|0:0,0:0:0:0:
220,246,391022,1,2,0:3:0:0:
250,272,391108,1,0,0:0:0:0:
288,286,391193,1,2,0:3:0:0:
327,283,391278,1,0,0:0:0:0:
360,261,391363,5,2,0:3:0:0:
96,104,392727,6,0,P|140:36|240:36,1,180,6|8,0:0|0:0,0:0:0:0:
332,104,393238,1,4,0:3:0:0:
332,16,393409,1,4,0:3:0:0:
188,108,393579,1,2,0:0:0:0:
188,196,393750,1,8,0:0:0:0:
340,272,393920,1,4,0:3:0:0:
340,272,394005,1,0,0:0:0:0:
340,272,394091,6,0,L|440:232,1,90,2|4,0:0|0:3,0:0:0:0:
344,164,394431,2,0,L|256:140,1,90,8|4,0:0|0:3,0:0:0:0:
128,88,394772,1,4,0:3:0:0:
168,192,394943,1,2,0:0:0:0:
38,139,395113,1,8,0:0:0:0:
78,243,395284,1,0,0:0:0:0:
248,320,395454,6,0,B|352:272|324:160,1,180,2|8,0:0|0:0,0:0:0:0:
264,84,395966,1,4,0:3:0:0:
140,176,396136,2,0,L|236:217,1,90,4|2,0:3|0:0,0:0:0:0:
150,86,396477,2,0,L|59:48,1,90,8|4,0:0|0:3,0:0:0:0:
48,44,396733,1,0,0:0:0:0:
32,36,396818,5,2,0:0:0:0:
124,168,396988,1,4,0:3:0:0:
16,304,397159,2,0,B|51:344|51:344|103:345,1,90,8|4,0:0|0:3,0:3:0:0:
208,324,397500,1,4,0:3:0:0:
244,180,397670,1,2,0:0:0:0:
192,344,397841,1,8,0:0:0:0:
304,256,398011,1,0,0:0:0:0:
172,132,398181,6,0,P|250:96|322:144,1,180,6|8,0:0|0:0,0:0:0:0:
404,244,398693,1,4,0:3:0:0:
404,244,398863,2,0,P|388:196|408:140,1,90,4|2,0:3|0:0,0:0:0:0:
496,212,399204,2,0,P|508:260|496:302,1,90,8|4,0:0|0:3,0:0:0:0:
484,316,399460,1,0,0:0:0:0:
464,332,399545,5,2,0:0:0:0:
324,252,399716,1,4,0:3:0:0:
360,344,399886,1,8,0:0:0:0:
396,158,400056,1,4,0:3:0:0:
428,256,400227,1,4,0:3:0:0:
292,168,400397,1,2,0:0:0:0:
336,40,400568,2,0,L|232:68,1,90,8|0,0:0|0:0,0:0:0:0:
116,172,400909,6,0,B|236:136|236:136|200:132|180:92,1,180,2|8,0:0|0:0,0:0:0:0:
188,16,401420,1,4,0:3:0:0:
40,120,401591,1,4,0:3:0:0:
96,44,401761,1,2,0:0:0:0:
192,184,401931,2,0,B|100:212,1,90,8|4,0:0|0:3,0:0:0:0:
88,216,402187,1,0,0:0:0:0:
72,220,402272,53,2,0:0:0:0:
220,288,402443,1,4,0:3:0:0:
284,172,402613,2,0,B|240:256,1,90,8|6,0:0|0:3,0:0:0:0:
328,344,402869,2,0,L|304:292,1,45,2|6,0:0|0:3,0:0:0:0:
204,140,403125,1,2,0:0:0:0:
212,124,403210,1,0,0:0:0:0:
224,112,403295,2,0,P|264:92|312:92,1,90,8|0,0:0|0:0,0:0:0:0:
296,204,403636,6,0,B|440:204|440:204|412:172,1,180,6|8,0:0|0:0,0:0:0:0:
264,92,404147,1,4,0:3:0:0:
264,92,404318,2,0,P|212:112|188:148,1,90,4|2,0:3|0:0,0:0:0:0:
160,304,404659,2,0,P|212:284|236:248,1,90,8|4,0:0|0:3,0:0:0:0:
264,172,405000,5,2,0:0:0:0:
192,100,405170,1,4,0:3:0:0:
96,240,405341,2,0,L|4:268,1,90,8|4,0:0|0:3,0:0:0:0:
9,266,405596,1,0,0:0:0:0:
9,266,405681,1,4,0:3:0:0:
188,208,405852,1,2,0:0:0:0:
296,328,406022,1,8,0:0:0:0:
224,284,406193,1,0,0:0:0:0:
248,120,406363,6,0,P|336:108|412:180,1,180,2|8,0:0|0:0,0:0:0:0:
424,288,406875,1,4,0:3:0:0:
308,216,407045,1,4,0:3:0:0:
332,304,407216,1,2,0:0:0:0:
412,140,407386,1,8,0:0:0:0:
344,76,407556,1,4,0:3:0:0:
344,76,407727,6,0,B|292:64|240:84,1,90,2|4,0:0|0:3,0:0:0:0:
144,128,408068,1,8,0:0:0:0:
136,288,408238,1,4,0:3:0:0:
136,288,408324,1,0,0:0:0:0:
136,288,408409,2,0,P|184:296|232:280,1,90,4|2,0:3|0:0,0:0:0:0:
352,240,408750,1,8,0:0:0:0:
308,328,408920,1,0,0:0:0:0:
176,196,409091,6,0,P|210:115|309:80,1,180,6|8,0:0|0:0,0:0:0:0:
352,240,409602,1,4,0:3:0:0:
352,240,409772,2,0,L|276:176,1,90,4|2,0:3|0:0,0:0:0:0:
225,17,410113,2,0,L|305:93,1,90,8|4,0:0|0:3,0:0:0:0:
352,240,410454,5,2,0:0:0:0:
290,78,410625,1,4,0:3:0:0:
200,232,410795,2,0,B|152:248|152:248|104:244,1,90,8|4,0:0|0:3,0:0:0:0:
96,244,411051,1,0,0:0:0:0:
80,244,411136,1,4,0:3:0:0:
132,144,411306,1,2,0:0:0:0:
284,224,411477,2,0,P|268:284|236:312,1,90,8|0,0:0|0:0,0:0:0:0:
232,148,411818,6,0,P|324:148|376:224,1,180,2|8,0:0|0:0,0:0:0:0:
312,352,412329,1,4,0:3:0:0:
404,308,412500,1,4,0:3:0:0:
284,224,412670,1,2,0:0:0:0:
152,228,412841,2,0,P|156:280|184:328,1,90,8|4,0:0|0:3,0:0:0:0:
232,148,413181,6,0,P|236:100|216:40,1,90,2|4,0:0|0:3,0:0:0:0:
52,128,413522,1,8,0:0:0:0:
155,194,413693,1,6,0:3:0:0:
155,194,413778,1,0,0:0:0:0:
155,194,413863,2,0,L|247:138,1,90,6|2,0:3|0:0,0:0:0:0:
400,124,414204,2,0,L|303:66,1,90,8|0,0:0|0:0,0:0:0:0:
284,274,414545,6,0,P|297:325|344:366,1,90,6|0,0:0|0:0,0:0:0:0:
391,265,414886,1,8,0:0:0:0:
330,177,415056,2,0,P|279:162|220:182,1,90,0|0,0:0|0:0,0:0:0:0:
284,274,415397,1,2,0:0:0:0:
391,265,415568,2,0,L|401:175,1,90,8|0,0:0|0:0,0:0:0:0:
270,177,415909,6,0,L|260:88,1,90,2|0,0:0|0:0,0:0:0:0:
153,202,416250,2,0,L|163:291,1,90,8|0,0:0|0:0,0:0:0:0:
400,92,416591,2,0,L|410:181,1,90,0|2,0:0|0:0,0:0:0:0:
159,79,416931,2,0,L|169:168,1,90,8|0,0:0|0:0,0:0:0:0:
187,307,417272,6,0,B|182:263|182:263|255:291|324:256,1,180,2|8,0:0|0:0,0:0:0:0:
267,181,417784,1,0,0:0:0:0:
391,316,417954,2,0,P|407:274|402:229,1,90
199,221,418295,2,0,P|182:262|187:307,1,90,8|0,0:0|0:0,0:0:0:0:
58,252,418636,6,0,B|44:194|44:194|56:145,1,90,2|0,0:0|0:0,0:0:0:0:
191,54,418977,2,0,B|198:83|198:83|184:141,1,90,8|0,0:0|0:0,0:0:0:0:
102,68,419318,2,0,L|209:51,1,90,0|2,0:0|0:0,0:0:0:0:
281,162,419659,2,0,L|388:145,1,90,8|0,0:0|0:0,0:0:0:0:
438,84,420000,6,0,P|401:144|471:228,1,180,6|8,0:0|0:0,0:0:0:0:
348,240,420511,2,0,B|297:240|267:270|267:270|230:238|152:248,1,180,0|2,0:0|0:0,0:0:0:0:
348,240,421022,2,0,P|392:280|448:305,1,90,8|0,0:0|0:0,0:0:0:0:
335,344,421363,6,0,P|284:369|225:357,1,90,2|0,0:0|0:0,0:0:0:0:
80,287,421704,2,0,L|190:274,1,90,8|0,0:0|0:0,0:0:0:0:
221,134,422045,2,0,L|111:147,1,90,0|2,0:0|0:0,0:0:0:0:
308,213,422386,2,0,L|418:200,1,90,8|0,0:0|0:0,0:0:0:0:
472,114,422727,6,0,P|440:59|343:49,1,135,2|0,0:0|0:0,0:0:0:0:
374,39,423068,2,0,B|355:72|355:72|363:141,1,90,8|0,0:0|0:0,0:0:0:0:
422,305,423409,2,0,B|441:272|441:272|433:203,1,90,0|2,0:0|0:0,0:0:0:0:
371,87,423750,2,0,P|305:91|270:121,1,90,8|0,0:0|0:0,0:0:0:0:
141,297,424091,6,0,P|207:293|242:263,1,90,2|0,0:0|0:0,0:0:0:0:
256,192,424431,2,0,L|252:314,1,90,8|0,0:0|0:0,0:0:0:0:
252,322,424687,5,2,0:3:0:0:
251,359,424772,1,2,0:3:0:0:
256,192,424943,1,2,0:0:0:0:
156,326,425113,1,8,0:0:0:0:
314,276,425284,1,0,0:0:0:0:
154,220,425454,6,0,L|41:206,1,90,6|0,0:0|0:0,0:0:0:0:
218,267,425795,1,8,0:0:0:0:
256,192,425966,2,0,P|267:149|257:105,1,90
218,267,426306,1,2,0:0:0:0:
154,220,426477,2,0,P|110:215|69:232,1,90,8|0,0:0|0:0,0:0:0:0:
121,311,426818,6,0,L|136:114,1,180,2|8,0:0|0:0,0:0:0:0:
147,48,427329,2,0,P|130:91|-6:76,1,180,0|2,0:0|0:0,0:0:0:0:
134,131,427841,2,0,P|187:154|213:193,1,90,8|0,0:0|0:0,0:0:0:0:
208,295,428181,6,0,P|176:330|198:271,1,180,2|8,0:0|0:0,0:0:0:0:
312,309,428693,2,0,P|384:292|322:213,1,180,0|2,0:0|0:0,0:0:0:0:
156,172,429204,2,0,P|222:167|264:143,1,90,8|0,0:0|0:0,0:0:0:0:
329,90,429545,6,0,B|359:63|373:29|373:29|378:104|411:159,1,180,2|8,0:0|0:0,0:0:0:0:
443,256,430056,2,0,P|418:306|269:324,1,180,0|2,0:0|0:0,0:0:0:0:
192,291,430568,2,0,P|142:285|84:302,1,90,8|0,0:0|0:0,0:0:0:0:
44,357,430909,6,0,B|76:326|76:326|86:181,1,180,6|8,0:0|0:0,0:0:0:0:
57,91,431420,2,0,L|233:137,1,180,0|2,0:0|0:0,0:0:0:0:
210,235,431931,2,0,L|121:259,1,90,8|0,0:0|0:0,0:0:0:0:
147,155,432272,6,0,B|166:29|166:29|202:89,1,180,2|8,0:0|0:0,0:0:0:0:
248,217,432784,2,0,B|275:262|275:262|294:136,1,180,0|2,0:0|0:0,0:0:0:0:
392,54,433295,2,0,L|409:160,1,90,8|0,0:0|0:0,0:0:0:0:
428,260,433636,5,2,0:0:0:0:
256,192,433977,12,0,436363,0:0:0:0:
