osu file format v14

[General]
AudioFilename: audio.mp3
AudioLeadIn: 0
PreviewTime: 39643
Countdown: 0
SampleSet: Soft
StackLeniency: 0.7
Mode: 0
LetterboxInBreaks: 0
WidescreenStoryboard: 1

[Editor]
Bookmarks: 11371,20704,77576,82880,92852
DistanceSpacing: 1
BeatDivisor: 2
GridSize: 32
TimelineZoom: 2.200006

[Metadata]
Title:Hengen Jizai
TitleUnicode:変幻自在
Artist:m@sumi
ArtistUnicode:m@sumi
Creator:thzz
Version:Normal
Source:pop'n music 20 Fantasia
Tags:masumi Nanashima Asami tasuke912 Beomsan
BeatmapID:1544889
BeatmapSetID:595456

[Difficulty]
HPDrainRate:4
CircleSize:3
OverallDifficulty:5
ApproachRate:6
SliderMultiplier:1.1
SliderTickRate:1

[Events]
//Background and Video events
0,0,"BJizai.png",0,0
//Break Periods
2,62873,71801
//Storyboard Layer 0 (Background)
//Storyboard Layer 1 (Fail)
//Storyboard Layer 2 (Pass)
//Storyboard Layer 3 (Foreground)
//Storyboard Sound Samples

[TimingPoints]
391,342.857142857143,4,2,1,70,1,0
10676,333.333333333333,4,2,1,70,1,0
10676,-100,4,2,1,70,0,0
11342,333.333333333333,4,2,1,70,1,0
11342,-100,4,2,1,70,0,0
20675,342.857142857143,4,2,1,70,1,0
20675,-100,4,2,1,70,0,0
22046,352.941176470588,4,2,1,70,1,0
22046,-100,4,2,1,70,0,0
23281,352.941176470588,4,2,1,70,1,0
23281,-100,4,2,1,70,0,0
24516,352.941176470588,3,2,1,70,1,0
24516,-100,3,2,1,70,0,0
25574,-100,3,2,1,70,0,0
26633,352.941176470588,4,2,1,70,1,0
26633,-100,4,2,1,70,0,0
27868,352.941176470588,4,2,1,70,1,0
27868,-100,4,2,1,70,0,0
29103,352.941176470588,3,2,1,70,1,0
29103,-100,3,2,1,70,0,0
30161,-100,3,2,1,70,0,0
31220,363.636363636364,3,2,1,70,1,1
31220,-100,3,2,1,70,0,1
32129,363.636363636364,3,2,1,70,1,1
32129,-100,3,2,1,70,0,1
33038,363.636363636364,3,2,1,70,1,1
33038,-100,3,2,1,70,0,1
33947,363.636363636364,3,2,1,70,1,1
33947,-100,3,2,1,70,0,1
34856,363.636363636364,3,2,1,70,1,1
34856,-100,3,2,1,70,0,1
35765,363.636363636364,3,2,1,70,1,1
35765,-100,3,2,1,70,0,1
36674,363.636363636364,3,2,1,70,1,1
36674,-100,3,2,1,70,0,1
37583,370.37037037037,4,2,1,70,1,1
37583,-100,4,2,1,70,0,1
38694,379.746835443038,4,2,1,70,1,0
38694,-100,4,2,1,70,0,0
39453,-100,4,2,1,10,0,0
39643,375,3,2,1,70,1,0
39643,-100,3,2,1,70,0,0
41705,375,3,2,1,70,1,0
41705,-100,3,2,1,70,0,0
43392,-100,3,2,1,70,0,0
43767,375,3,2,1,70,1,0
43767,-100,3,2,1,70,0,0
44235,-100,3,2,1,70,0,0
48267,-100,3,2,1,70,0,0
49204,375,3,2,1,70,1,0
49204,-100,3,2,1,70,0,0
50141,375,3,2,1,70,1,0
50141,-100,3,2,1,70,0,0
51078,375,3,2,1,70,1,0
51078,-100,3,2,1,70,0,0
52015,375,3,2,1,70,1,0
52015,-100,3,2,1,70,0,0
52952,375,3,2,1,70,1,0
52952,-100,3,2,1,70,0,0
53889,375,3,2,1,70,1,0
53889,-100,3,2,1,70,0,0
54826,375,3,2,1,70,1,0
54826,-100,3,2,1,70,0,0
55576,-100,3,2,1,70,0,0
55951,-100,3,2,1,70,0,1
56326,-100,3,2,1,70,0,1
56513,-100,3,2,1,70,0,1
58482,-100,3,2,1,70,0,1
58951,-100,3,2,1,70,0,1
59701,-100,3,2,1,70,0,1
60451,370.37037037037,3,2,1,70,1,1
62117,-100,3,2,1,70,0,1
62673,363.636363636364,4,2,1,40,1,0
63945,363.636363636364,4,2,1,40,1,0
65217,363.636363636364,4,2,1,40,1,0
66489,363.636363636364,4,2,1,40,1,0
67489,-100,4,2,1,60,0,0
67763,363.636363636364,4,2,1,40,1,0
69034,363.636363636364,4,2,1,40,1,0
70307,363.636363636364,4,2,1,40,1,0
71578,363.636363636364,4,2,1,40,1,0
72851,363.636363636364,4,2,1,70,1,0
72851,-100,4,2,1,70,0,0
74123,363.636363636364,4,2,1,70,1,0
74123,-100,4,2,1,70,0,0
75395,363.636363636364,4,2,1,70,1,0
75395,-100,4,2,1,70,0,0
76667,363.636363636364,4,2,1,70,1,0
76667,-100,4,2,1,70,0,0
77303,-100,4,2,1,70,0,0
77939,363.636363636364,4,2,1,70,1,0
77939,-100,4,2,1,70,0,0
79211,363.636363636364,4,2,1,70,1,0
79211,-100,4,2,1,70,0,0
80483,363.636363636364,4,2,1,70,1,0
80483,-100,4,2,1,70,0,0
81763,370.37037037037,4,2,1,70,1,0
81763,-100,4,2,1,70,0,0
82688,375,4,2,1,70,1,0
82688,-100,4,2,1,70,0,0
83063,387.096774193548,4,2,1,70,1,0
83063,-100,4,2,1,70,0,0
84224,375,3,2,1,70,1,1
84224,-100,3,2,1,70,0,1
86286,375,3,2,1,70,1,1
86286,-100,3,2,1,70,0,1
87973,-100,3,2,1,70,0,1
88348,375,3,2,1,70,1,1
88348,-100,3,2,1,70,0,1
92848,-100,3,2,1,70,0,1
93223,-100,3,2,1,70,0,1
93504,-100,3,2,1,70,0,1
95379,-100,3,2,1,70,0,1
95660,-100,3,2,1,70,0,1
96036,387.096774193548,4,2,1,70,1,1
96036,-100,4,2,1,70,0,1
96229,387.096774193548,4,2,1,70,1,1
96229,-100,4,2,1,70,0,1
96423,400,4,2,1,70,1,1
96423,-100,4,2,1,70,0,1
96623,-100,4,2,1,70,0,1
97023,-100,4,2,1,70,0,1
97223,408.163265306122,4,2,1,70,1,1
97223,-100,4,2,1,70,0,1
97427,408.163265306122,4,2,1,70,1,0
97427,-100,4,2,1,70,0,0
97631,413.793103448276,4,2,1,70,1,9
97837,413.793103448276,4,2,1,70,1,9
99078,413.793103448276,4,2,1,70,1,1
100733,-100,4,2,1,20,0,0

[Colours]
Combo1 : 181,220,253
Combo2 : 249,71,62
Combo3 : 255,165,121
Combo4 : 0,221,111

[HitObjects]
74,285,391,6,0,P|129:279|184:271,1,110,6|0,0:1|0:0,0:0:0:0:
269,203,1076,2,0,P|333:251|411:233,1,165,4|6,0:0|0:0,0:0:0:0:
384,69,2105,2,0,P|352:114|350:168,2,110,4|4|0,0:0|0:0|0:0,0:0:0:0:
490,40,3133,1,2,0:0:0:0:
449,142,3476,6,0,P|341:128|280:125,1,165,2|2,0:3|0:0,0:0:0:0:
187,175,4333,2,0,P|245:229|326:226,1,165,2|4,0:0|0:0,0:0:0:0:
377,206,5019,2,0,B|403:253|410:311|410:311|404:344|385:358,1,165,2|6,0:0|0:0,0:0:0:0:
281,322,5876,6,0,P|226:328|171:335,1,110,6|4,0:1|0:0,0:0:0:0:
70,290,6562,2,0,B|55:251|72:214|72:214|93:174|73:129,1,165,2|2,0:0|0:0,0:0:0:0:
334,42,7933,2,0,L|316:157,1,110,4|2,0:0|0:0,0:0:0:0:
386,234,8619,6,0,P|440:226|483:193,1,110,2|2,0:0|0:3,0:0:0:0:
439,92,9305,2,0,L|274:108,1,165,4|2,0:0|0:0,0:0:0:0:
274,108,10676,1,6,0:0:0:0:
170,72,11009,1,6,0:0:0:0:
87,144,11342,6,0,P|110:223|121:304,1,165,6|0,0:1|0:0,0:0:0:0:
116,359,12008,2,0,P|172:304|259:312,1,165,4|0,0:0|0:0,0:0:0:0:
303,332,12675,1,6,0:0:0:0:
411,311,13008,1,4,0:0:0:0:
390,203,13341,1,4,0:0:0:0:
282,225,13675,1,6,0:1:0:0:
184,173,14008,6,0,B|150:119|174:71|174:71|164:42|129:30,1,165,6|0,0:1|0:0,0:0:0:0:
79,27,14675,2,0,P|28:50|10:104,1,110,6|6,0:0|0:0,0:0:0:0:
75,187,15341,2,0,P|137:175|202:173,1,110,6|6,0:0|0:0,0:0:0:0:
232,199,15841,2,0,B|292:195|292:195|330:163,2,110,6|6|0,0:0|0:0|0:0,0:0:0:0:
193,239,16675,6,0,P|221:313|299:322,2,165,6|6|6,0:1|0:0|0:0,0:0:0:0:
217,131,18008,1,6,0:1:0:0:
321,165,18341,1,4,0:0:0:0:
405,93,18675,2,0,P|457:75|511:68,1,110,4|6,0:0|0:0,0:0:0:0:
478,172,19341,6,0,P|485:254|499:335,2,165,6|4|4,0:1|0:0|0:0,0:0:0:0:
405,93,20675,2,0,P|346:102|283:119,1,110,6|0,0:1|0:0,0:0:0:0:
235,205,21360,2,0,P|181:191|127:183,1,110,6|0,0:0|0:0,0:0:0:0:
41,119,22046,6,0,P|34:64|26:10,2,110,6|8|0,0:1|0:0|0:0,0:0:0:0:
16,226,23104,1,8,0:0:0:0:
62,254,23281,2,0,P|116:240|170:233,1,110,6|8,0:1|0:0,0:0:0:0:
265,289,23986,2,0,P|326:281|356:238,1,110,0|12,0:0|0:0,0:0:0:0:
350,189,24516,6,0,P|403:176|457:165,2,110,6|8|4,0:1|0:0|0:0,0:0:0:0:
305,155,25398,1,6,0:0:0:0:
252,168,25574,2,0,P|173:155|134:86,2,165,6|6|6,0:1|0:1|0:1,0:0:0:0:
337,98,26985,6,0,P|296:63|243:59,1,110,8|0,0:0|0:0,0:0:0:0:
134,86,27691,1,8,0:0:0:0:
106,133,27868,2,0,L|115:248,1,110,6|8,0:1|0:0,0:0:0:0:
202,309,28573,2,0,P|253:290|308:287,1,110,2|6,0:0|0:0,0:0:0:0:
355,259,29103,6,0,P|408:262|452:230,2,110,6|8|6,0:1|0:0|0:0,0:0:0:0:
303,239,29985,1,6,0:0:0:0:
264,199,30161,2,0,B|277:161|254:120|254:120|283:89|274:42,2,165,6|6|14,0:1|0:1|0:1,0:0:0:0:
161,328,31765,6,0,L|153:273,1,55,10|10,0:0|0:0,0:0:0:0:
148,218,32129,1,14,0:1:0:0:
305,168,32674,2,0,L|297:222,1,55,10|10,0:0|0:0,0:0:0:0:
291,277,33038,6,0,P|346:270|401:266,1,110,6|8,0:1|0:0,0:0:0:0:
450,290,33583,2,0,P|455:235|462:180,1,110,6|10,0:0|0:0,0:0:0:0:
451,71,34310,1,4,0:0:0:0:
408,105,34492,2,0,P|356:124|302:119,1,110,12|6,0:0|0:1,0:0:0:0:
149,55,35401,6,0,L|157:130,1,55,10|10,0:0|0:0,0:0:0:0:
160,164,35765,1,6,0:1:0:0:
308,235,36310,2,0,L|316:160,1,55,12|12,0:0|0:0,0:0:0:0:
318,125,36674,6,0,P|387:85|462:113,1,165,6|6,0:1|0:0,0:0:0:0:
492,160,37401,1,8,0:0:0:0:
492,214,37583,2,0,P|477:267|465:320,1,110,6|8,0:1|0:0,0:0:0:0:
419,351,38138,2,0,B|391:338|366:335,1,55,14|14,0:0|0:1,0:0:0:0:
311,335,38508,1,14,0:0:0:0:
311,335,39643,6,0,P|326:253|331:171,1,165,6|8,0:1|0:0,0:0:0:0:
335,61,40580,1,2,0:0:0:0:
288,90,40768,2,0,P|227:76|168:74,2,110,6|8|8,0:0|0:0|0:0,0:0:0:0:
321,133,41705,6,0,B|282:159|264:195|264:195|230:175|187:178,1,165,6|8,0:1|0:0,0:0:0:0:
97,241,42642,1,8,0:0:0:0:
50,211,42830,2,0,P|22:163|23:109,1,110,2|8,0:0|0:0,0:0:0:0:
50,62,43392,1,6,0:1:0:0:
152,101,43767,6,0,P|206:93|261:87,1,110,6|0,0:1|0:0,0:0:0:0:
311,65,44329,2,0,L|320:10,2,55,8|6|12,0:0|0:0|0:0,0:0:0:0:
355,97,44892,1,6,0:0:0:0:
433,173,45267,1,8,0:0:0:0:
415,225,45454,2,0,P|370:257|316:258,1,110,6|8,0:0|0:0,0:0:0:0:
287,211,46017,6,0,P|241:180|187:183,1,110,6|4,0:0|0:0,0:0:0:0:
140,209,46579,2,0,P|113:201|86:198,2,55,8|6|6,0:0|0:0|0:0,0:0:0:0:
169,255,47142,2,0,B|185:310|225:333|225:333|268:299|325:308|325:308|342:334|385:355,1,275,6|8,0:1|0:0,0:0:0:0:
434,356,48267,5,6,0:1:0:0:
487,199,48829,2,0,L|496:134,1,55,2|8,0:0|0:0,0:0:0:0:
504,90,49204,1,6,0:1:0:0:
322,213,49766,2,0,L|329:267,1,55,8|2,0:0|0:0,0:0:0:0:
311,319,50141,6,0,P|264:346|209:351,1,110,6|8,0:1|0:0,0:0:0:0:
156,339,50703,2,0,L|144:281,1,55,2|8,0:0|0:0,0:0:0:0:
105,246,51078,1,6,0:1:0:0:
129,138,51453,1,0,0:0:0:0:
179,117,51640,2,0,L|295:134,1,110,8|6,0:0|0:1,0:0:0:0:
351,285,52577,6,0,L|286:294,1,55,2|8,0:0|0:0,0:0:0:0:
242,302,52952,1,6,0:1:0:0:
167,154,53514,2,0,L|221:161,1,55,8|4,0:0|0:0,0:0:0:0:
274,176,53889,6,0,P|329:153|392:151,2,110,6|12|8,0:1|0:0|0:0,0:0:0:0:
232,212,54826,2,0,P|177:207|127:185,1,110,6|4,0:1|0:3,0:0:0:0:
91,144,55388,2,0,L|78:82,2,55,12|6|6,0:0|0:1|0:1,0:0:0:0:
72,196,55951,5,6,0:1:0:0:
38,299,56326,2,0,P|92:306|141:281,1,110,8|6,0:0|0:0,0:0:0:0:
218,203,57076,2,0,L|220:139,2,55,6|6|12,0:0|0:0|0:0,0:0:0:0:
279,294,57826,1,2,0:0:0:0:
371,235,58201,6,0,P|423:252|477:253,2,110,6|8|0,0:1|0:0|0:0,0:0:0:0:
322,209,59138,1,2,0:0:0:0:
291,163,59326,2,0,L|294:104,2,55,6|12|6,0:0|0:0|0:0,0:0:0:0:
196,219,60076,1,12,0:0:0:0:
89,187,60451,5,6,0:1:0:0:
256,192,60636,12,6,62673,0:1:0:0:
47,164,72851,6,0,P|109:166|158:135,1,110,6|8,0:1|0:0,0:0:0:0:
203,115,73396,2,0,P|265:113|314:144,2,110,2|2|2,0:0|0:0|0:0,0:0:0:0:
100,153,74486,1,10,0:0:0:0:
65,196,74668,2,0,L|74:309,2,110,2|8|2,0:0|0:0|0:0,0:0:0:0:
154,132,75758,6,0,L|229:122,1,55,10|0,0:0|0:0,0:0:0:0:
259,145,76122,2,0,P|329:139|363:105,1,110,2|8,0:0|0:0,0:0:0:0:
392,72,76667,2,0,L|415:186,2,110,2|8|2,0:0|0:0|0:0,0:0:0:0:
353,34,77576,2,0,L|291:23,1,55,2|8,0:0|0:0,0:0:0:0:
244,14,77939,6,0,B|192:18|154:65|154:65|121:51|95:52,1,165,2|8,0:0|0:0,0:0:0:0:
48,77,78666,2,0,P|38:131|31:185,1,110,2|8,0:0|0:0,0:0:0:0:
42,238,79211,2,0,P|83:274|137:274,2,110,2|8|0,0:0|0:0|0:0,0:0:0:0:
123,164,80301,5,8,0:3:0:0:
173,142,80483,2,0,L|282:153,1,110,2|8,0:0|0:0,0:0:0:0:
332,131,81028,2,0,L|352:252,1,110,2|2,0:0|0:0,0:0:0:0:
382,344,81755,2,0,P|334:374|276:372,1,110,6|0,0:1|0:0,0:0:0:0:
232,340,82318,1,0,0:0:0:0:
194,299,82503,2,0,L|140:310,1,55,8|8,0:0|0:0,0:0:0:0:
98,288,84224,6,0,P|106:233|111:178,1,110,6|0,0:1|0:0,0:0:0:0:
98,124,84786,2,0,P|144:95|198:95,1,110,8|6,0:0|0:0,0:0:0:0:
244,127,85349,2,0,P|269:118|296:111,2,55,2|4|8,0:0|0:0|0:0,0:0:0:0:
226,179,85911,1,6,0:0:0:0:
257,283,86286,6,0,P|331:316|405:284,1,165,6|8,0:1|0:0,0:0:0:0:
434,178,87224,2,0,L|423:124,1,55,4|6,0:3|0:0,0:0:0:0:
384,82,87598,2,0,L|317:76,1,55,4|12,0:0|0:0,0:0:0:0:
284,108,87973,6,0,P|241:141|187:135,2,110,14|6|12,0:1|0:1|0:0,0:0:0:0:
301,57,88910,2,0,L|290:2,2,55,8|6|6,0:0|0:0|0:0,0:0:0:0:
354,69,89473,1,6,0:0:0:0:
446,128,89848,1,8,0:0:0:0:
463,178,90035,2,0,P|461:233|454:288,1,110,6|12,0:0|0:0,0:0:0:0:
429,337,90598,6,0,B|354:308|354:308|325:314,1,110,6|8,0:0|0:0,0:0:0:0:
280,346,91160,2,0,P|244:354|206:351,1,55,8|6,0:0|0:0,0:0:0:0:
175,331,91535,1,6,0:0:0:0:
127,302,91723,2,0,P|119:249|90:189,1,110,6|8,0:1|0:0,0:0:0:0:
50,166,92285,1,6,0:0:0:0:
40,111,92473,2,0,P|50:85|70:66,1,55,6|10,0:0|0:0,0:0:0:0:
123,51,92848,5,6,0:1:0:0:
217,105,93223,2,0,P|268:125|323:121,1,110,8|6,0:0|0:0,0:0:0:0:
420,70,93973,2,0,L|424:16,2,55,6|14|12,0:0|0:0|0:0,0:0:0:0:
471,167,94723,1,6,0:0:0:0:
399,250,95098,6,0,P|416:302|417:356,2,110,6|8|6,0:1|0:0|0:0,0:0:0:0:
356,214,96035,1,12,0:0:0:0:
308,189,96223,2,0,P|306:159|311:130,2,55,2|8|2,0:0|0:0|0:0,0:0:0:0:
231,272,97023,2,0,P|204:279|176:281,1,55,2|12,0:0|0:0,0:0:0:0:
73,248,97631,5,14,0:1:0:0:
256,192,97837,12,0,100733,0:0:0:0:
