osu file format v14

[General]
AudioFilename: audio.mp3
AudioLeadIn: 0
PreviewTime: 73291
Countdown: 0
SampleSet: Normal
StackLeniency: 0.7
Mode: 0
LetterboxInBreaks: 0
WidescreenStoryboard: 0

[Editor]
Bookmarks: 21794,103965
DistanceSpacing: 0.9
BeatDivisor: 4
GridSize: 16
TimelineZoom: 4.199998

[Metadata]
Title:Yukiyo no Mori no Plyaska
TitleUnicode:雪夜の森のプリャースカ
Artist:m@sumi & kidlit
ArtistUnicode:m@sumi & kidlit
Creator:2lewd
Version:Plyaska Dance
Source:pop'n music peace
Tags:popn music peace russian japanese music game multi bpm
BeatmapID:1826550
BeatmapSetID:873868

[Difficulty]
HPDrainRate:5
CircleSize:4.3
OverallDifficulty:9
ApproachRate:9.7
SliderMultiplier:2.5
SliderTickRate:1

[Events]
//Background and Video events
0,0,"bgpic.png",0,0
//Break Periods
2,108409,111942
//Storyboard Layer 0 (Background)
//Storyboard Layer 1 (Fail)
//Storyboard Layer 2 (Pass)
//Storyboard Layer 3 (Foreground)
//Storyboard Sound Samples

[TimingPoints]
853,333.333333333333,4,1,0,100,1,0
853,-200,4,1,0,25,0,0
4852,-250,4,1,0,20,0,0
5352,-250,4,1,1,15,0,0
10853,352.941176470588,4,1,0,100,1,0
10853,-400,4,1,0,15,0,0
12970,-250,4,1,0,25,0,0
20382,-333.333333333333,4,1,0,20,0,0
21794,-200,4,1,0,30,0,0
32029,375,4,1,0,100,1,0
32029,-200,4,1,0,25,0,0
34279,545.454545454546,4,1,0,100,1,0
34279,-200,4,1,0,35,0,0
35369,480,4,1,0,100,1,0
35369,-200,4,1,0,40,0,0
36329,461.538461538462,4,1,0,100,1,0
36329,-200,4,1,0,40,0,0
37252,444.444444444444,4,1,0,100,1,0
37252,-133.333333333333,4,1,0,40,0,0
38363,428.571428571429,4,1,0,100,1,0
38363,-133.333333333333,4,1,0,45,0,0
40077,-125,4,1,0,55,0,0
48434,-142.857142857143,4,1,0,30,0,0
50148,-100,4,1,0,40,0,0
52720,-142.857142857143,4,1,0,25,0,0
59148,-142.857142857143,4,1,0,30,0,0
71577,-111.111111111111,4,1,0,35,0,0
72005,-100,4,1,0,40,0,0
73291,413.793103448276,4,1,0,50,1,1
79911,400,4,1,0,55,1,1
84711,-80,4,1,0,45,0,1
85911,-76.9230769230769,4,1,0,50,0,1
86311,363.636363636364,4,1,0,100,1,1
86311,-80,4,1,0,60,0,1
90856,-74.0740740740741,4,1,0,50,0,1
92129,-76.9230769230769,4,1,0,65,0,1
97947,333.333333333333,4,1,0,100,1,1
97947,-76.9230769230769,4,1,0,70,0,1
103280,342.857142857143,4,1,0,100,1,1
103280,-76.9230769230769,4,1,0,70,0,1
104651,352.941176470588,4,1,0,100,1,1
104651,-76.9230769230769,4,1,0,70,0,1
105709,500,4,1,0,100,1,0
105709,-200,4,1,0,25,0,0
110037,600,4,1,0,100,1,0
112437,-500,4,1,0,30,0,0
113637,500,4,1,0,100,1,0
113637,-250,4,1,0,40,0,0
114637,315.789473684211,4,1,0,100,1,1
114637,-100,4,1,0,50,0,1
114952,-90.9090909090909,4,1,0,55,0,1
115268,-83.3333333333333,4,1,0,60,0,1
115584,-76.9230769230769,4,1,0,65,0,1
115900,-66.6666666666667,4,1,0,75,0,1
120637,-58.8235294117647,4,1,0,85,0,0

[HitObjects]
90,199,852,5,0,0:0:0:0:
193,67,1186,2,0,L|274:81,1,62.5
355,130,1519,2,0,L|273:144,1,62.5
199,274,2186,2,0,L|240:227,1,62.5
131,321,2519,2,0,L|73:345,1,62.5
77,211,3186,6,0,P|116:214|147:238,1,62.5
257,259,3519,2,0,P|218:262|187:286,1,62.5
128,362,3852,1,0,0:0:0:0:
239,349,4019,1,0,0:0:0:0:
350,332,4186,1,0,0:0:0:0:
471,243,4519,2,0,L|485:158,1,62.5
334,103,4852,6,0,B|382:84|382:84|433:103,1,100
380,194,5352,5,0,0:0:0:0:
353,216,5436,1,0,0:0:0:0:
320,229,5519,1,0,0:0:0:0:
285,225,5602,1,0,0:0:0:0:
253,208,5686,1,0,0:0:0:0:
236,177,5769,1,0,0:0:0:0:
226,143,5852,1,0,0:0:0:0:
211,110,5936,1,0,0:0:0:0:
179,94,6019,5,0,0:0:0:0:
144,98,6102,1,0,0:0:0:0:
114,117,6186,1,0,0:0:0:0:
94,145,6269,1,0,0:0:0:0:
90,179,6352,1,0,0:0:0:0:
97,213,6436,1,0,0:0:0:0:
118,240,6519,1,0,0:0:0:0:
150,252,6602,1,0,0:0:0:0:
184,246,6686,5,0,0:0:0:0:
215,230,6769,1,0,0:0:0:0:
255,217,6852,1,0,0:0:0:0:
297,220,6936,1,0,0:0:0:0:
332,242,7019,1,0,0:0:0:0:
352,279,7102,1,0,0:0:0:0:
346,321,7186,1,0,0:0:0:0:
318,352,7269,1,0,0:0:0:0:
275,351,7352,5,0,0:0:0:0:
241,324,7436,1,0,0:0:0:0:
235,282,7519,1,0,0:0:0:0:
257,246,7602,1,0,0:0:0:0:
297,220,7686,1,0,0:0:0:0:
328,191,7769,1,0,0:0:0:0:
346,153,7852,1,0,0:0:0:0:
339,110,7936,1,0,0:0:0:0:
310,79,8019,5,0,0:0:0:0:
271,69,8102,1,0,0:0:0:0:
231,75,8186,1,0,0:0:0:0:
201,98,8269,1,0,0:0:0:0:
178,128,8352,1,0,0:0:0:0:
147,150,8436,1,0,0:0:0:0:
113,158,8519,1,0,0:0:0:0:
80,154,8602,1,0,0:0:0:0:
174,276,10853,6,0,P|205:297|241:296,1,62.5
342,174,11911,2,0,L|330:239,1,62.5
463,356,12970,6,0,L|445:255,1,100
480,76,13676,2,0,P|447:109|389:116,1,100
228,56,14735,1,0,0:0:0:0:
228,56,15088,6,0,P|181:70|141:124,1,100
27,85,15794,1,0,0:0:0:0:
27,85,16147,2,0,L|44:183,1,100
94,326,16852,5,0,0:0:0:0:
94,326,17205,2,0,P|140:306|203:308,1,100
339,361,17911,1,0,0:0:0:0:
339,361,18264,2,0,P|363:317|369:268,1,100
353,98,18970,1,0,0:0:0:0:
293,180,19323,6,0,P|264:157|261:76,1,100
447,26,20029,1,0,0:0:0:0:
447,26,20382,2,0,B|420:76|469:114|431:187,1,150
479,260,21794,6,0,P|421:267|361:233,1,125
254,115,22500,1,0,0:0:0:0:
189,76,22676,1,0,0:0:0:0:
114,73,22852,1,0,0:0:0:0:
59,124,23029,1,0,0:0:0:0:
59,198,23205,1,0,0:0:0:0:
105,257,23382,1,0,0:0:0:0:
157,204,23558,5,0,0:0:0:0:
231,196,23735,1,0,0:0:0:0:
295,234,23911,1,0,0:0:0:0:
301,307,24088,1,0,0:0:0:0:
251,363,24264,1,0,0:0:0:0:
177,379,24441,1,0,0:0:0:0:
107,350,24617,1,0,0:0:0:0:
85,277,24794,1,0,0:0:0:0:
157,295,24970,5,0,0:0:0:0:
231,286,25147,1,0,0:0:0:0:
285,234,25323,1,0,0:0:0:0:
303,161,25500,1,0,0:0:0:0:
275,91,25676,1,0,0:0:0:0:
203,70,25852,1,0,0:0:0:0:
129,88,26029,1,0,0:0:0:0:
93,153,26205,1,0,0:0:0:0:
92,228,26382,6,0,P|126:296|184:314,1,125
392,291,27088,1,0,0:0:0:0:
296,214,27441,2,0,L|156:238,1,125
14,296,28147,2,0,P|25:355|79:382,1,125,0|0,2:0|0:0,0:0:0:0:
238,355,28852,1,0,0:0:0:0:
396,380,29205,6,0,L|407:250,1,125
467,97,29911,2,0,P|443:122|345:106,1,125
224,28,30617,1,0,0:0:0:0:
111,165,30970,2,0,L|251:189,1,125,0|0,3:0|3:0,3:0:0:0:
431,206,31676,1,0,0:0:0:0:
278,272,32029,6,0,L|136:246,1,125
35,176,32779,1,0,0:0:0:0:
146,33,33154,1,0,0:0:0:0:
226,20,33341,1,0,0:0:0:0:
293,59,33529,1,0,0:0:0:0:
293,59,33904,2,0,P|319:76|358:85,1,62.5
475,53,34279,6,0,L|475:119,1,62.5
424,239,34824,2,0,L|424:176,1,62.5
284,98,35369,2,0,L|207:98,1,62.5
95,169,35849,2,0,L|172:169,1,62.5
308,296,36329,6,0,L|308:229,1,62.5
387,97,36790,2,0,L|387:164,1,62.5
453,244,37252,2,0,L|384:244,1,46.8750017881394
337,304,37474,2,0,L|273:304,1,46.8750017881394
223,364,37696,2,0,L|156:364,1,46.8750017881394
29,271,37918,2,0,L|141:271,1,93.7500035762788
279,143,38363,5,0,0:0:0:0:
279,143,38577,2,0,L|279:30,1,93.7500035762788
136,14,39005,2,0,L|136:116,1,93.7500035762788
24,92,39434,2,0,L|24:194,1,93.7500035762788
22,340,40077,6,0,B|75:346|75:346|132:321,1,100
211,270,40505,1,0,0:0:0:0:
263,172,40720,1,0,0:0:0:0:
363,216,40934,1,0,0:0:0:0:
413,118,41148,1,0,0:0:0:0:
483,309,41577,2,0,P|460:349|410:368,1,100
276,277,42005,6,0,P|301:234|347:218,1,100
164,322,42434,2,0,P|188:364|234:382,1,100
41,298,42863,2,0,P|78:266|87:218,1,100
50,62,43291,1,0,0:0:0:0:
84,197,43505,5,0,0:0:0:0:
219,163,43720,1,0,0:0:0:0:
185,28,43934,1,0,0:0:0:0:
84,197,44148,1,0,0:0:0:0:
185,28,44363,1,0,0:0:0:0:
219,163,44577,1,0,0:0:0:0:
375,23,44791,2,0,L|395:140,1,100
483,213,45220,5,0,0:0:0:0:
304,288,45434,2,0,L|186:308,1,100
166,315,45755,1,0,0:0:0:0:
126,320,45863,2,0,P|89:271|79:215,1,100
82,128,46291,5,0,0:0:0:0:
235,70,46505,1,0,0:0:0:0:
304,288,46720,1,0,0:0:0:0:
235,70,46934,1,0,0:0:0:0:
414,292,47148,1,0,0:0:0:0:
235,70,47363,1,0,0:0:0:0:
512,241,47577,1,0,0:0:0:0:
186,192,47791,1,0,0:0:0:0:
489,17,48005,1,0,0:0:0:0:
391,152,48434,6,0,P|349:124|301:116,1,87.499997329712
198,161,48863,2,0,P|189:118|197:75,1,87.499997329712
59,74,49291,2,0,P|67:117|58:160,1,87.499997329712
58,281,49720,2,0,P|99:269|134:243,1,87.499997329712
214,331,50148,6,0,P|272:359|336:314,1,125
374,248,50577,1,0,0:0:0:0:
343,153,50791,1,0,0:0:0:0:
286,70,51005,6,0,P|344:42|408:87,1,125
452,148,51434,6,0,P|394:176|330:131,1,125
286,70,51863,1,0,0:0:0:0:
195,27,52077,1,0,0:0:0:0:
99,54,52291,6,0,P|56:97|63:157,1,125
111,231,52720,1,0,0:0:0:0:
198,231,52934,1,0,0:0:0:0:
285,231,53148,1,0,0:0:0:0:
372,231,53363,1,0,0:0:0:0:
285,231,53577,1,0,0:0:0:0:
198,231,53791,1,0,0:0:0:0:
111,231,54005,1,0,0:0:0:0:
111,99,54220,5,0,0:0:0:0:
198,99,54434,1,0,0:0:0:0:
285,99,54648,1,0,0:0:0:0:
372,99,54863,1,0,0:0:0:0:
285,99,55077,1,0,0:0:0:0:
198,99,55291,1,0,0:0:0:0:
111,231,56148,5,0,0:0:0:0:
198,99,56363,1,0,0:0:0:0:
285,231,56577,1,0,0:0:0:0:
372,99,56791,1,0,0:0:0:0:
372,231,57005,1,0,0:0:0:0:
285,99,57220,1,0,0:0:0:0:
198,231,57434,1,0,0:0:0:0:
111,99,57648,1,0,0:0:0:0:
198,231,57863,5,0,0:0:0:0:
111,99,58077,1,0,0:0:0:0:
285,99,58291,1,0,0:0:0:0:
372,231,58505,1,0,0:0:0:0:
111,231,58720,1,0,0:0:0:0:
111,231,59148,6,0,L|129:334,1,87.499997329712
238,364,59577,2,0,L|253:277,1,87.499997329712
285,123,60005,1,0,0:0:0:0:
230,24,60434,6,0,P|189:57|177:116,1,87.499997329712
178,247,60863,1,0,0:0:0:0:
77,299,61291,6,0,P|108:341|167:356,1,87.499997329712
297,355,61720,1,0,0:0:0:0:
222,269,62148,6,0,P|266:240|326:247,1,87.499997329712
440,313,62577,1,0,0:0:0:0:
433,155,62791,1,0,0:0:0:0:
300,239,63005,6,0,P|256:234|221:209,1,87.499997329712
156,65,63434,1,0,0:0:0:0:
312,80,63648,1,0,0:0:0:0:
220,208,63863,6,0,P|185:233|142:237,1,87.499997329712
0,172,64291,1,0,0:0:0:0:
85,96,64720,6,0,P|109:131|114:174,1,87.499997329712
30,309,65148,1,0,0:0:0:0:
187,312,65363,1,0,0:0:0:0:
114,174,65577,6,0,P|158:145|218:152,1,87.499997329712
341,191,66005,1,0,0:0:0:0:
187,312,66220,1,0,0:0:0:0:
114,174,66434,5,0,0:0:0:0:
105,135,66541,1,0,0:0:0:0:
112,96,66648,1,0,0:0:0:0:
137,66,66755,1,0,0:0:0:0:
173,50,66863,1,0,0:0:0:0:
211,56,66970,1,0,0:0:0:0:
246,72,67077,1,0,0:0:0:0:
273,100,67184,1,0,0:0:0:0:
299,129,67291,5,0,0:0:0:0:
337,134,67398,1,0,0:0:0:0:
370,113,67505,1,0,0:0:0:0:
389,78,67613,1,0,0:0:0:0:
384,38,67720,1,0,0:0:0:0:
349,18,67827,1,0,0:0:0:0:
310,26,67934,1,0,0:0:0:0:
288,58,68041,1,0,0:0:0:0:
286,97,68148,5,0,0:0:0:0:
303,132,68255,1,0,0:0:0:0:
339,147,68363,1,0,0:0:0:0:
378,148,68470,1,0,0:0:0:0:
415,159,68577,1,0,0:0:0:0:
445,183,68684,1,0,0:0:0:0:
453,221,68791,1,0,0:0:0:0:
438,257,68898,1,0,0:0:0:0:
400,268,69005,6,0,L|300:250,1,87.499997329712
141,217,69434,1,0,0:0:0:0:
294,249,69648,1,0,0:0:0:0:
50,243,69863,2,0,P|53:188|79:147,1,87.499997329712
207,164,70291,2,0,P|167:182|140:216,1,87.499997329712
113,315,70720,2,0,P|161:288|209:288,1,87.499997329712
299,358,71148,2,0,P|256:347|214:355,1,87.499997329712
448,352,71577,6,0,L|470:224,1,112.499996566773
357,276,72005,2,0,L|335:152,1,125
72,103,72434,2,0,B|144:117|150:189|150:189|155:267|317:272|353:94,1,375
400,57,73291,6,0,L|400:203,1,125
455,303,74325,2,0,P|396:332|340:293,1,125
227,348,74739,2,0,L|202:211,1,125
177,27,75773,5,0,0:0:0:0:
191,128,75980,1,0,0:0:0:0:
205,224,76187,1,0,0:0:0:0:
177,27,76394,2,0,L|320:27,1,125
479,65,77635,6,0,B|406:89|445:107|354:127,1,125
241,51,78049,2,0,P|193:90|237:161,1,125
316,260,78463,2,0,P|264:286|174:269,1,125
36,192,78877,1,0,0:0:0:0:
337,167,79084,6,0,B|410:191|371:209|462:229,1,125
303,334,79497,2,0,B|237:325|237:325|190:272,1,125,0|0,3:0|3:0,3:0:0:0:
160,104,79911,5,0,0:0:0:0:
273,258,80111,1,0,0:0:0:0:
74,177,80311,1,0,0:0:0:0:
322,161,80511,1,0,0:0:0:0:
95,305,80711,2,0,P|153:342|215:344,1,125
204,183,81111,2,0,P|267:155|328:163,1,125
467,299,81511,5,0,0:0:0:0:
275,229,81711,1,0,0:0:0:0:
408,156,81911,1,0,0:0:0:0:
312,352,82111,1,0,0:0:0:0:
467,299,82311,1,0,0:0:0:0:
257,129,82511,1,0,0:0:0:0:
408,156,82711,1,0,0:0:0:0:
157,314,82911,2,0,P|128:247|135:192,1,125
162,23,83311,5,0,0:0:0:0:
137,183,83511,1,0,0:0:0:0:
277,78,83711,1,0,0:0:0:0:
137,183,83911,1,0,0:0:0:0:
308,219,84111,1,0,0:0:0:0:
137,183,84311,1,0,0:0:0:0:
277,78,84511,1,0,0:0:0:0:
12,78,84711,6,0,L|12:237,1,156.25
117,365,85111,2,0,L|117:208,1,156.25
118,5,85511,1,0,0:0:0:0:
295,103,85711,1,0,0:0:0:0:
117,208,85911,1,0,0:0:0:0:
135,253,86011,1,0,0:0:0:0:
169,287,86111,1,0,0:0:0:0:
217,291,86211,1,0,0:0:0:0:
268,275,86311,5,0,0:0:0:0:
464,126,86492,1,0,0:0:0:0:
274,86,86674,1,0,0:0:0:0:
433,307,86856,1,0,0:0:0:0:
464,126,87038,2,0,P|388:168|306:177,1,156.25
289,322,87401,2,0,P|211:283|156:221,1,156.25
104,21,87765,5,0,0:0:0:0:
260,224,87947,1,0,0:0:0:0:
68,188,88129,1,0,0:0:0:0:
347,118,88311,1,0,0:0:0:0:
260,224,88492,1,0,0:0:0:0:
98,12,88674,1,0,0:0:0:0:
347,118,88856,1,0,0:0:0:0:
36,292,89038,6,0,P|121:318|211:295,1,156.25
398,252,89401,1,0,0:0:0:0:
106,220,89583,1,0,0:0:0:0:
470,141,89765,1,0,0:0:0:0:
465,332,89947,1,0,0:0:0:0:
292,71,90129,1,0,0:0:0:0:
470,141,90311,1,0,0:0:0:0:
302,222,90492,2,0,L|137:193,1,156.25
55,42,90856,6,0,L|235:42,1,168.75000064373
407,42,91220,1,0,0:0:0:0:
267,152,91401,2,2,L|87:152,1,168.75000064373
4,267,91765,2,0,L|184:267,1,168.75000064373
435,226,92129,5,0,0:0:0:0:
157,324,92311,1,0,0:0:0:0:
371,345,92492,1,0,0:0:0:0:
38,226,92674,1,0,0:0:0:0:
157,324,92856,1,0,0:0:0:0:
115,24,93038,1,0,0:0:0:0:
157,324,93220,6,0,P|241:324|315:268,1,162.499992561341
413,81,93583,1,0,0:0:0:0:
217,252,93765,1,0,0:0:0:0:
404,235,93947,1,0,0:0:0:0:
225,3,94129,1,0,0:0:0:0:
413,81,94311,1,0,0:0:0:0:
24,168,94492,1,0,0:0:0:0:
217,252,94674,1,0,0:0:0:0:
52,7,94856,6,0,L|17:201,1,162.499992561341
19,376,95220,1,0,0:0:0:0:
256,368,95401,1,0,0:0:0:0:
137,154,95583,1,0,0:0:0:0:
256,368,95765,1,0,0:0:0:0:
374,154,95947,1,0,0:0:0:0:
256,368,96129,1,0,0:0:0:0:
499,376,96311,1,0,0:0:0:0:
254,124,96492,5,0,0:0:0:0:
107,249,96674,1,0,0:0:0:0:
483,146,96856,1,0,0:0:0:0:
254,124,97038,1,0,0:0:0:0:
495,379,97220,1,0,0:0:0:0:
259,323,97401,1,0,0:0:0:0:
382,35,97583,2,0,P|296:71|253:124,1,162.499992561341
258,325,97947,5,0,0:0:0:0:
210,320,98030,1,0,0:0:0:0:
165,263,98113,1,0,0:0:0:0:
118,245,98196,1,0,0:0:0:0:
77,183,98280,1,0,0:0:0:0:
123,167,98363,1,0,0:0:0:0:
171,111,98447,1,0,0:0:0:0:
217,95,98530,1,0,0:0:0:0:
289,84,98613,5,2,0:0:0:0:
357,85,98696,1,0,0:0:0:0:
418,118,98779,1,0,0:0:0:0:
457,176,98862,1,0,0:0:0:0:
465,244,98946,1,0,0:0:0:0:
440,309,99029,1,0,0:0:0:0:
389,355,99112,1,0,0:0:0:0:
320,360,99196,1,0,0:0:0:0:
290,297,99280,6,0,P|190:263|118:297,1,162.499992561341
165,383,99613,6,0,P|241:361|289:297,1,162.499992561341
300,98,99947,1,0,0:0:0:0:
107,284,100113,1,0,0:0:0:0:
55,239,100196,1,0,0:0:0:0:
37,173,100279,1,0,0:0:0:0:
58,108,100362,1,0,0:0:0:0:
111,66,100446,1,0,0:0:0:0:
179,60,100529,1,0,0:0:0:0:
242,88,100613,5,0,0:0:0:0:
417,68,100780,1,0,0:0:0:0:
463,119,100864,1,0,0:0:0:0:
478,185,100947,1,0,0:0:0:0:
454,249,101031,1,0,0:0:0:0:
399,289,101114,1,0,0:0:0:0:
331,292,101197,1,0,0:0:0:0:
272,256,101280,5,0,0:0:0:0:
111,272,101447,1,0,0:0:0:0:
61,223,101530,1,0,0:0:0:0:
45,157,101613,1,0,0:0:0:0:
70,93,101697,1,0,0:0:0:0:
124,53,101780,1,0,0:0:0:0:
192,46,101864,1,0,0:0:0:0:
261,48,101947,5,0,0:0:0:0:
333,48,102030,1,0,0:0:0:0:
405,48,102113,1,0,0:0:0:0:
464,165,102280,1,0,0:0:0:0:
171,157,102447,1,0,0:0:0:0:
464,165,102613,1,0,0:0:0:0:
193,276,102780,1,0,0:0:0:0:
464,165,102947,1,0,0:0:0:0:
254,367,103113,1,0,0:0:0:0:
464,165,103280,5,0,0:0:0:0:
211,142,103451,5,0,0:0:0:0:
162,147,103537,1,0,0:0:0:0:
117,205,103622,1,0,0:0:0:0:
70,223,103708,1,0,0:0:0:0:
19,284,103794,1,0,0:0:0:0:
65,299,103880,1,0,0:0:0:0:
111,314,103965,5,0,0:0:0:0:
283,360,104137,1,0,0:0:0:0:
346,363,104222,1,0,0:0:0:0:
402,331,104308,1,0,0:0:0:0:
431,272,104394,1,0,0:0:0:0:
412,209,104480,1,0,0:0:0:0:
356,175,104565,1,0,0:0:0:0:
292,178,104651,5,0,0:0:0:0:
239,229,104739,1,0,0:0:0:0:
249,300,104827,1,0,0:0:0:0:
304,348,104915,1,0,0:0:0:0:
379,320,105003,1,0,0:0:0:0:
426,252,105092,1,0,0:0:0:0:
385,173,105180,1,0,0:0:0:0:
302,138,105268,1,0,0:0:0:0:
232,193,105356,5,0,0:0:0:0:
201,278,105445,1,0,0:0:0:0:
111,314,105533,1,0,0:0:0:0:
25,268,105621,1,0,0:0:0:0:
19,166,105709,6,0,B|81:31|279:68|222:303|508:294|504:98,1,625
307,42,112437,5,0,0:0:0:0:
345,106,112737,1,0,0:0:0:0:
313,174,113037,1,0,0:0:0:0:
188,96,113637,2,0,L|160:250,1,150
110,360,114637,6,0,P|185:372|240:332,1,125
417,286,114952,2,0,P|332:295|306:361,1,137.500004196167
347,181,115268,2,0,P|429:181|484:116,1,149.999995422363
372,52,115584,2,0,P|274:4|207:20,1,162.499992561341
69,120,115900,5,0,0:0:0:0:
50,202,115979,1,0,0:0:0:0:
64,285,116058,1,0,0:0:0:0:
130,337,116137,1,0,0:0:0:0:
213,330,116215,1,0,0:0:0:0:
282,282,116294,1,0,0:0:0:0:
340,220,116373,1,0,0:0:0:0:
423,210,116452,1,0,0:0:0:0:
469,280,116531,5,0,0:0:0:0:
420,348,116610,1,0,0:0:0:0:
335,346,116689,1,0,0:0:0:0:
266,296,116768,1,0,0:0:0:0:
242,214,116847,1,0,0:0:0:0:
251,130,116926,1,0,0:0:0:0:
299,60,117005,1,0,0:0:0:0:
380,39,117084,1,0,0:0:0:0:
453,80,117163,5,0,0:0:0:0:
468,163,117242,1,0,0:0:0:0:
415,228,117321,1,0,0:0:0:0:
332,244,117400,1,0,0:0:0:0:
252,214,117479,1,0,0:0:0:0:
193,153,117558,1,0,0:0:0:0:
204,69,117637,1,0,0:0:0:0:
268,16,117715,1,0,0:0:0:0:
348,40,117794,5,0,0:0:0:0:
393,111,117873,1,0,0:0:0:0:
365,190,117952,1,0,0:0:0:0:
299,242,118031,1,0,0:0:0:0:
217,262,118110,1,0,0:0:0:0:
137,233,118189,1,0,0:0:0:0:
77,173,118268,1,0,0:0:0:0:
100,91,118347,1,0,0:0:0:0:
184,77,118426,6,0,L|217:266,1,187.500007152558
336,370,118742,2,0,L|369:179,1,187.500007152558
474,72,119058,6,0,P|381:42|293:89,1,187.500007152558
146,171,119373,2,0,P|230:207|316:176,1,187.500007152558
465,292,119689,6,0,L|270:292,1,187.500007152558
26,222,120005,2,0,L|229:222,1,187.500007152558
365,222,120321,5,0,0:0:0:0:
146,116,120479,1,0,0:0:0:0:
426,36,120637,2,0,P|409:169|157:192,1,425.000008106232
