osu file format v14

[General]
AudioFilename: audio.ogg
AudioLeadIn: 0
PreviewTime: 52658
Countdown: 0
SampleSet: Soft
StackLeniency: 0.7
Mode: 3
LetterboxInBreaks: 0
SpecialStyle: 0
WidescreenStoryboard: 1

[Editor]
Bookmarks: 2315,21085,42538,53264,74717,82761,85108,88795
DistanceSpacing: 0.8
BeatDivisor: 4
GridSize: 16
TimelineZoom: 1.9

[Metadata]
Title:Kakuriyo (TV Size)
TitleUnicode:幽世 (TV Size)
Artist:luz
ArtistUnicode:luz
Creator:Noch Einen
Version:Normal
Source:ダークギャザリング
Tags:すりぃ three surii 3 岸利至 岸 利至 toshiyuki kishi opening op dark gathering japanese rock jrock j-rock anime damaree joof12 chen_sawthis01
BeatmapID:4270089
BeatmapSetID:2044648

[Difficulty]
HPDrainRate:7.2
CircleSize:5
OverallDifficulty:7.2
ApproachRate:5
SliderMultiplier:1.4
SliderTickRate:1

[Events]
//Background and Video events
0,0,"DG.jpeg",0,0
//Break Periods
//Storyboard Layer 0 (Background)
//Storyboard Layer 1 (Fail)
//Storyboard Layer 2 (Pass)
//Storyboard Layer 3 (Foreground)
//Storyboard Layer 4 (Overlay)
//Storyboard Sound Samples

[TimingPoints]
2295,335.195530726257,4,2,1,50,1,0
53244,-100,4,2,1,50,0,1
63635,-100,4,2,1,50,0,0
63970,-100,4,2,1,50,0,1
74697,-100,4,2,1,50,0,0

[HitObjects]
460,192,842,5,0,0:0:0:0:
153,192,954,128,0,1289:0:0:0:0:
256,192,1289,128,0,1624:0:0:0:0:
460,192,1624,1,0,0:0:0:0:
358,192,1736,1,0,0:0:0:0:
256,192,1848,1,0,0:0:0:0:
153,192,1959,1,0,0:0:0:0:
256,192,2071,1,0,0:0:0:0:
358,192,2183,1,0,0:0:0:0:
51,192,2295,128,2,3635:0:0:0:0:
460,192,2295,1,4,0:0:0:0:
460,192,2965,128,0,3635:0:0:0:0:
153,192,3635,128,2,4976:0:0:0:0:
358,192,3635,128,4,4976:0:0:0:0:
51,192,4976,1,4,0:0:0:0:
460,192,4976,128,2,6317:0:0:0:0:
51,192,5479,1,2,0:0:0:0:
256,192,5646,1,8,0:0:0:0:
153,192,5898,1,0,0:0:0:0:
51,192,6116,1,0,0:0:0:0:
256,192,6317,128,2,7658:0:0:0:0:
358,192,6317,1,4,0:0:0:0:
460,192,6987,128,0,7658:0:0:0:0:
153,192,7658,1,8,0:0:0:0:
358,192,7658,1,4,0:0:0:0:
51,192,7825,1,0,0:0:0:0:
358,192,7993,1,2,0:0:0:0:
51,192,8160,1,8,0:0:0:0:
153,192,8160,1,4,0:0:0:0:
460,192,8328,1,0,0:0:0:0:
358,192,8496,1,2,0:0:0:0:
51,192,8663,1,8,0:0:0:0:
256,192,8663,1,0,0:0:0:0:
153,192,8998,1,8,0:0:0:0:
460,192,8998,1,0,0:0:0:0:
256,192,9166,1,8,0:0:0:0:
51,192,9334,1,8,0:0:0:0:
153,192,9501,1,8,0:0:0:0:
358,192,9669,1,10,0:0:0:0:
51,192,9836,1,8,0:0:0:0:
460,192,9836,1,2,0:0:0:0:
358,192,10339,1,2,0:0:0:0:
460,192,10339,1,4,0:0:0:0:
256,192,10674,1,8,0:0:0:0:
460,192,10842,128,0,11010:0:0:0:0:
51,192,11010,1,2,0:0:0:0:
153,192,11177,1,0,0:0:0:0:
358,192,11345,128,8,11512:0:0:0:0:
256,192,11512,1,0,0:0:0:0:
153,192,11680,1,2,0:0:0:0:
51,192,11848,128,0,12015:0:0:0:0:
460,192,12015,1,8,0:0:0:0:
358,192,12183,1,0,0:0:0:0:
256,192,12350,128,2,12518:0:0:0:0:
460,192,12518,1,0,0:0:0:0:
153,192,12686,128,8,12853:0:0:0:0:
358,192,12853,1,0,0:0:0:0:
256,192,13021,1,2,0:0:0:0:
153,192,13356,1,8,0:0:0:0:
460,192,13524,128,0,13691:0:0:0:0:
51,192,13691,1,2,0:0:0:0:
153,192,13859,1,0,0:0:0:0:
358,192,14026,128,8,14194:0:0:0:0:
460,192,14194,1,0,0:0:0:0:
153,192,14362,1,2,0:0:0:0:
256,192,14529,1,2,0:0:0:0:
358,192,14697,1,8,0:0:0:0:
51,192,14864,1,8,0:0:0:0:
256,192,14948,1,8,0:0:0:0:
460,192,15032,1,8,0:0:0:0:
153,192,15200,1,2,0:0:0:0:
358,192,15200,1,4,0:0:0:0:
51,192,15367,1,8,0:0:0:0:
358,192,15451,1,8,0:0:0:0:
256,192,15535,1,8,0:0:0:0:
153,192,15619,1,8,0:0:0:0:
460,192,15702,1,2,0:0:0:0:
358,192,15870,1,2,0:0:0:0:
51,192,16038,1,8,0:0:0:0:
256,192,16038,1,0,0:0:0:0:
460,192,16205,128,0,16373:0:0:0:0:
51,192,16373,1,2,0:0:0:0:
358,192,16540,1,0,0:0:0:0:
153,192,16708,128,8,16876:0:0:0:0:
460,192,16876,1,0,0:0:0:0:
358,192,17043,1,2,0:0:0:0:
256,192,17211,128,0,17378:0:0:0:0:
51,192,17378,1,8,0:0:0:0:
153,192,17546,1,0,0:0:0:0:
358,192,17713,128,2,17881:0:0:0:0:
51,192,17881,1,0,0:0:0:0:
256,192,18049,128,8,18216:0:0:0:0:
460,192,18216,1,0,0:0:0:0:
153,192,18384,1,2,0:0:0:0:
358,192,18719,1,8,0:0:0:0:
51,192,18887,128,0,19054:0:0:0:0:
460,192,19054,1,2,0:0:0:0:
358,192,19222,1,0,0:0:0:0:
153,192,19389,128,8,19557:0:0:0:0:
256,192,19557,1,0,0:0:0:0:
51,192,19725,1,2,0:0:0:0:
358,192,19725,1,4,0:0:0:0:
153,192,19892,1,8,0:0:0:0:
460,192,20060,1,2,0:0:0:0:
51,192,20227,1,8,0:0:0:0:
256,192,20311,1,8,0:0:0:0:
460,192,20395,1,8,0:0:0:0:
153,192,20563,1,8,0:0:0:0:
460,192,20730,1,8,0:0:0:0:
358,192,20814,1,8,0:0:0:0:
256,192,20898,1,8,0:0:0:0:
153,192,20982,1,8,0:0:0:0:
51,192,21065,1,2,0:0:0:0:
460,192,21065,1,4,0:0:0:0:
256,192,21233,1,2,0:0:0:0:
51,192,21401,1,8,0:0:0:0:
51,192,22071,1,8,0:0:0:0:
256,192,22406,1,0,0:0:0:0:
256,192,22574,1,2,0:0:0:0:
51,192,22741,1,8,0:0:0:0:
51,192,23412,1,8,0:0:0:0:
153,192,23747,1,2,0:0:0:0:
460,192,23831,1,0,0:0:0:0:
256,192,23915,1,2,0:0:0:0:
51,192,23998,1,0,0:0:0:0:
358,192,24082,1,8,0:0:0:0:
256,192,24417,128,0,24585:0:0:0:0:
460,192,24585,128,0,24753:0:0:0:0:
358,192,24753,1,8,0:0:0:0:
51,192,24920,128,0,25088:0:0:0:0:
153,192,25255,128,2,25423:0:0:0:0:
358,192,25423,1,8,0:0:0:0:
153,192,25758,128,0,25926:0:0:0:0:
358,192,25926,128,0,26093:0:0:0:0:
51,192,26093,128,8,26429:0:0:0:0:
256,192,26261,128,0,26429:0:0:0:0:
460,192,26429,1,2,0:0:0:0:
358,192,26596,1,2,0:0:0:0:
256,192,26764,1,8,0:0:0:0:
256,192,27434,1,8,0:0:0:0:
51,192,27769,1,0,0:0:0:0:
51,192,27937,1,2,0:0:0:0:
256,192,28105,1,8,0:0:0:0:
256,192,28775,1,8,0:0:0:0:
460,192,29110,1,2,0:0:0:0:
460,192,29278,1,2,0:0:0:0:
256,192,29445,1,8,0:0:0:0:
256,192,30116,1,8,0:0:0:0:
460,192,30451,1,2,0:0:0:0:
460,192,30619,1,2,0:0:0:0:
256,192,30786,1,8,0:0:0:0:
51,192,31038,1,8,0:0:0:0:
256,192,31121,1,8,0:0:0:0:
51,192,31289,1,2,0:0:0:0:
460,192,31289,1,4,0:0:0:0:
358,192,31457,1,8,0:0:0:0:
256,192,31540,1,8,0:0:0:0:
153,192,31624,1,8,0:0:0:0:
460,192,31708,1,8,0:0:0:0:
51,192,31792,1,2,0:0:0:0:
358,192,31792,1,4,0:0:0:0:
51,192,32127,1,8,0:0:0:0:
358,192,32630,1,2,0:0:0:0:
51,192,32797,1,8,0:0:0:0:
358,192,33132,1,2,0:0:0:0:
358,192,33300,1,2,0:0:0:0:
51,192,33468,1,8,0:0:0:0:
358,192,33635,1,2,0:0:0:0:
256,192,33803,1,0,0:0:0:0:
153,192,33970,1,2,0:0:0:0:
460,192,34138,1,8,0:0:0:0:
358,192,34473,1,2,0:0:0:0:
153,192,34808,1,8,0:0:0:0:
358,192,35311,1,2,0:0:0:0:
153,192,35479,1,8,0:0:0:0:
358,192,35646,128,2,35814:0:0:0:0:
51,192,35814,1,0,0:0:0:0:
256,192,35982,128,2,36149:0:0:0:0:
460,192,36149,128,8,36317:0:0:0:0:
153,192,36317,128,2,36484:0:0:0:0:
358,192,36484,128,0,36652:0:0:0:0:
256,192,36652,128,2,36820:0:0:0:0:
51,192,36820,128,8,37155:0:0:0:0:
153,192,36987,128,0,37155:0:0:0:0:
460,192,37155,1,2,0:0:0:0:
256,192,37490,1,8,0:0:0:0:
460,192,37993,1,2,0:0:0:0:
256,192,38160,1,8,0:0:0:0:
460,192,38496,1,2,0:0:0:0:
460,192,38663,1,2,0:0:0:0:
256,192,38831,1,8,0:0:0:0:
51,192,38998,1,2,0:0:0:0:
358,192,39166,1,0,0:0:0:0:
51,192,39334,1,2,0:0:0:0:
256,192,39501,1,8,0:0:0:0:
460,192,39669,1,0,0:0:0:0:
358,192,39836,128,2,40172:0:0:0:0:
153,192,40172,1,8,0:0:0:0:
51,192,40339,128,0,40507:0:0:0:0:
256,192,40507,128,0,40674:0:0:0:0:
153,192,40674,128,2,40842:0:0:0:0:
358,192,40842,128,8,41010:0:0:0:0:
256,192,41010,128,0,41177:0:0:0:0:
51,192,41177,1,2,0:0:0:0:
460,192,41177,1,0,0:0:0:0:
153,192,41345,1,2,0:0:0:0:
256,192,41512,1,8,0:0:0:0:
460,192,41512,1,0,0:0:0:0:
51,192,41680,1,8,0:0:0:0:
358,192,41848,1,8,0:0:0:0:
51,192,42015,1,2,0:0:0:0:
153,192,42015,1,4,0:0:0:0:
460,192,42183,1,8,0:0:0:0:
358,192,42350,1,8,0:0:0:0:
256,192,42518,1,2,0:0:0:0:
460,192,42518,1,4,0:0:0:0:
153,192,42686,1,0,0:0:0:0:
51,192,42853,1,2,0:0:0:0:
256,192,43188,1,2,0:0:0:0:
153,192,43356,1,0,0:0:0:0:
51,192,43524,1,2,0:0:0:0:
51,192,43859,1,2,0:0:0:0:
256,192,44026,1,0,0:0:0:0:
460,192,44194,1,2,0:0:0:0:
256,192,44362,1,0,0:0:0:0:
51,192,44529,1,2,0:0:0:0:
51,192,44864,1,2,0:0:0:0:
358,192,45200,1,2,0:0:0:0:
153,192,45367,1,0,0:0:0:0:
460,192,45535,1,2,0:0:0:0:
51,192,45702,1,0,0:0:0:0:
153,192,45870,1,2,0:0:0:0:
358,192,46038,1,0,0:0:0:0:
256,192,46205,1,2,0:0:0:0:
460,192,46373,1,0,0:0:0:0:
153,192,46540,1,2,0:0:0:0:
256,192,46708,1,0,0:0:0:0:
51,192,46876,1,2,0:0:0:0:
358,192,47043,1,0,0:0:0:0:
153,192,47211,1,2,0:0:0:0:
153,192,47546,1,2,0:0:0:0:
51,192,47881,128,8,48551:0:0:0:0:
460,192,47881,1,4,0:0:0:0:
460,192,48216,1,2,0:0:0:0:
460,192,48551,128,2,48887:0:0:0:0:
256,192,48887,1,2,0:0:0:0:
51,192,49054,128,0,49557:0:0:0:0:
460,192,49222,1,2,0:0:0:0:
256,192,49557,128,2,49892:0:0:0:0:
358,192,49892,128,8,50227:0:0:0:0:
460,192,49892,1,2,0:0:0:0:
51,192,50227,1,2,0:0:0:0:
153,192,50227,128,8,50563:0:0:0:0:
256,192,50563,128,2,51233:0:0:0:0:
460,192,50563,1,0,0:0:0:0:
51,192,50730,1,8,0:0:0:0:
153,192,50898,1,2,0:0:0:0:
358,192,51065,1,8,0:0:0:0:
51,192,51233,1,10,0:0:0:0:
460,192,51401,1,10,0:0:0:0:
153,192,51568,1,10,0:0:0:0:
256,192,51736,128,2,52406:0:0:0:0:
460,192,51736,1,8,0:0:0:0:
460,192,52071,1,10,0:0:0:0:
51,192,52406,1,2,0:0:0:0:
153,192,52406,1,8,0:0:0:0:
358,192,52574,1,2,0:0:0:0:
460,192,52574,1,8,0:0:0:0:
153,192,52741,1,2,0:0:0:0:
256,192,52825,1,2,0:0:0:0:
51,192,52909,1,8,0:0:0:0:
358,192,52909,1,0,0:0:0:0:
153,192,53244,1,2,0:0:0:0:
460,192,53244,1,4,0:0:0:0:
51,192,53579,1,8,0:0:0:0:
460,192,53747,1,0,0:0:0:0:
358,192,53915,1,2,0:0:0:0:
153,192,54082,1,0,0:0:0:0:
51,192,54250,1,8,0:0:0:0:
256,192,54417,1,0,0:0:0:0:
51,192,54585,1,2,0:0:0:0:
460,192,54585,128,0,55591:0:0:0:0:
153,192,54920,1,8,0:0:0:0:
358,192,55088,128,0,55591:0:0:0:0:
51,192,55255,1,2,0:0:0:0:
153,192,55591,1,8,0:0:0:0:
256,192,55758,1,0,0:0:0:0:
358,192,55926,1,2,0:0:0:0:
460,192,55926,1,0,0:0:0:0:
51,192,56093,1,0,0:0:0:0:
256,192,56261,1,8,0:0:0:0:
358,192,56429,1,0,0:0:0:0:
153,192,56596,1,2,0:0:0:0:
256,192,56764,1,0,0:0:0:0:
460,192,56931,1,8,0:0:0:0:
51,192,57099,1,0,0:0:0:0:
256,192,57267,1,2,0:0:0:0:
460,192,57267,1,4,0:0:0:0:
153,192,57434,1,2,0:0:0:0:
51,192,57602,1,8,0:0:0:0:
51,192,57937,1,2,0:0:0:0:
256,192,57937,1,4,0:0:0:0:
358,192,58105,1,2,0:0:0:0:
460,192,58272,1,8,0:0:0:0:
358,192,58440,1,8,0:0:0:0:
256,192,58524,1,8,0:0:0:0:
51,192,58607,1,2,0:0:0:0:
153,192,58607,1,4,0:0:0:0:
358,192,58943,1,8,0:0:0:0:
153,192,59278,1,2,0:0:0:0:
256,192,59445,1,0,0:0:0:0:
358,192,59613,1,8,0:0:0:0:
51,192,59781,128,0,59948:0:0:0:0:
256,192,59948,1,2,0:0:0:0:
460,192,60283,128,8,60451:0:0:0:0:
153,192,60451,1,0,0:0:0:0:
256,192,60619,128,2,60786:0:0:0:0:
358,192,60786,1,0,0:0:0:0:
153,192,60954,128,8,61289:0:0:0:0:
51,192,61289,128,2,61624:0:0:0:0:
460,192,61289,1,0,0:0:0:0:
358,192,61457,1,0,0:0:0:0:
256,192,61624,1,8,0:0:0:0:
460,192,61959,1,2,0:0:0:0:
358,192,62127,1,0,0:0:0:0:
153,192,62295,1,8,0:0:0:0:
51,192,62462,128,2,62797:0:0:0:0:
460,192,62462,1,4,0:0:0:0:
256,192,62797,128,2,62965:0:0:0:0:
153,192,62965,128,8,63132:0:0:0:0:
460,192,62965,1,0,0:0:0:0:
358,192,63132,128,2,63300:0:0:0:0:
256,192,63300,128,8,63468:0:0:0:0:
460,192,63300,1,0,0:0:0:0:
153,192,63468,128,8,63635:0:0:0:0:
51,192,63635,1,10,0:0:0:0:
460,192,63719,1,8,0:0:0:0:
358,192,63803,1,8,0:0:0:0:
256,192,63887,1,8,0:0:0:0:
51,192,63970,1,2,0:0:0:0:
153,192,63970,1,4,0:0:0:0:
358,192,64306,1,8,0:0:0:0:
460,192,64306,1,0,0:0:0:0:
153,192,64473,1,0,0:0:0:0:
256,192,64641,1,2,0:0:0:0:
358,192,64808,1,0,0:0:0:0:
256,192,64976,1,8,0:0:0:0:
153,192,65144,1,0,0:0:0:0:
460,192,65311,128,2,65479:0:0:0:0:
256,192,65479,1,0,0:0:0:0:
51,192,65646,1,8,0:0:0:0:
358,192,65814,128,0,66317:0:0:0:0:
153,192,65982,1,2,0:0:0:0:
51,192,66149,1,0,0:0:0:0:
460,192,66317,128,8,66652:0:0:0:0:
51,192,66652,1,2,0:0:0:0:
153,192,66652,1,0,0:0:0:0:
358,192,66820,1,0,0:0:0:0:
256,192,66987,1,8,0:0:0:0:
51,192,67155,1,0,0:0:0:0:
460,192,67322,1,2,0:0:0:0:
51,192,67490,1,0,0:0:0:0:
153,192,67658,1,8,0:0:0:0:
358,192,67825,1,0,0:0:0:0:
51,192,67993,1,2,0:0:0:0:
460,192,67993,1,4,0:0:0:0:
153,192,68160,1,2,0:0:0:0:
256,192,68328,1,8,0:0:0:0:
460,192,68579,1,8,0:0:0:0:
51,192,68663,1,2,0:0:0:0:
153,192,68663,1,4,0:0:0:0:
256,192,68831,1,2,0:0:0:0:
358,192,68998,1,8,0:0:0:0:
51,192,69082,1,8,0:0:0:0:
153,192,69166,1,8,0:0:0:0:
256,192,69250,1,8,0:0:0:0:
358,192,69334,1,2,0:0:0:0:
460,192,69334,1,4,0:0:0:0:
153,192,69669,1,8,0:0:0:0:
256,192,70004,1,2,0:0:0:0:
51,192,70172,1,0,0:0:0:0:
358,192,70339,1,8,0:0:0:0:
153,192,70507,128,0,70674:0:0:0:0:
460,192,70674,1,2,0:0:0:0:
256,192,70842,1,0,0:0:0:0:
460,192,71010,128,8,71177:0:0:0:0:
153,192,71177,1,0,0:0:0:0:
51,192,71345,128,2,71512:0:0:0:0:
358,192,71512,1,0,0:0:0:0:
460,192,71680,128,8,72015:0:0:0:0:
51,192,72015,1,2,0:0:0:0:
153,192,72015,1,0,0:0:0:0:
358,192,72350,1,8,0:0:0:0:
256,192,72518,1,0,0:0:0:0:
51,192,72686,1,2,0:0:0:0:
153,192,72686,1,0,0:0:0:0:
460,192,72853,1,0,0:0:0:0:
358,192,73021,1,8,0:0:0:0:
256,192,73188,128,0,74026:0:0:0:0:
51,192,73356,1,2,0:0:0:0:
358,192,73524,1,8,0:0:0:0:
153,192,73691,1,8,0:0:0:0:
460,192,73859,1,8,0:0:0:0:
358,192,73943,1,8,0:0:0:0:
51,192,74026,1,8,0:0:0:0:
153,192,74194,1,8,0:0:0:0:
256,192,74278,1,8,0:0:0:0:
358,192,74362,1,10,0:0:0:0:
256,192,74529,1,8,0:0:0:0:
358,192,74613,1,8,0:0:0:0:
51,192,74697,1,2,0:0:0:0:
460,192,74697,1,4,0:0:0:0:
256,192,75032,1,8,0:0:0:0:
460,192,75283,1,0,0:0:0:0:
256,192,75367,1,2,0:0:0:0:
51,192,75535,1,2,0:0:0:0:
460,192,75702,1,8,0:0:0:0:
358,192,76038,1,2,0:0:0:0:
460,192,76038,1,0,0:0:0:0:
153,192,76205,1,2,0:0:0:0:
358,192,76373,1,8,0:0:0:0:
51,192,76540,1,0,0:0:0:0:
153,192,76624,1,0,0:0:0:0:
256,192,76708,1,2,0:0:0:0:
358,192,76792,1,2,0:0:0:0:
460,192,76876,1,2,0:0:0:0:
51,192,77043,1,8,0:0:0:0:
51,192,77378,1,2,0:0:0:0:
153,192,77378,1,0,0:0:0:0:
358,192,77546,1,2,0:0:0:0:
153,192,77713,1,8,0:0:0:0:
358,192,77965,1,0,0:0:0:0:
153,192,78049,1,2,0:0:0:0:
256,192,78216,1,2,0:0:0:0:
358,192,78384,1,8,0:0:0:0:
460,192,78635,1,0,0:0:0:0:
51,192,78719,1,2,0:0:0:0:
153,192,78719,1,0,0:0:0:0:
256,192,78887,1,2,0:0:0:0:
358,192,79054,1,8,0:0:0:0:
256,192,79222,1,2,0:0:0:0:
153,192,79389,1,8,0:0:0:0:
460,192,79557,1,0,0:0:0:0:
51,192,79725,1,8,0:0:0:0:
153,192,79808,1,8,0:0:0:0:
256,192,79892,1,8,0:0:0:0:
358,192,79976,1,8,0:0:0:0:
51,192,80060,1,2,0:0:0:0:
460,192,80060,1,4,0:0:0:0:
153,192,80395,1,8,0:0:0:0:
358,192,80395,1,0,0:0:0:0:
153,192,80730,1,2,0:0:0:0:
256,192,80898,1,2,0:0:0:0:
358,192,81065,1,8,0:0:0:0:
460,192,81065,1,0,0:0:0:0:
51,192,81401,1,2,0:0:0:0:
153,192,81401,1,0,0:0:0:0:
358,192,81568,1,2,0:0:0:0:
51,192,81736,1,8,0:0:0:0:
153,192,81736,1,0,0:0:0:0:
358,192,82071,1,2,0:0:0:0:
256,192,82239,1,8,0:0:0:0:
153,192,82406,1,8,0:0:0:0:
460,192,82490,1,8,0:0:0:0:
358,192,82574,1,8,0:0:0:0:
256,192,82658,1,8,0:0:0:0:
51,192,82741,128,2,83747:0:0:0:0:
153,192,82741,1,4,0:0:0:0:
358,192,83077,1,8,0:0:0:0:
153,192,83244,128,2,83747:0:0:0:0:
460,192,83579,1,2,0:0:0:0:
256,192,83747,1,8,0:0:0:0:
358,192,83747,1,0,0:0:0:0:
51,192,84082,1,2,0:0:0:0:
358,192,84082,128,0,85088:0:0:0:0:
51,192,84417,1,8,0:0:0:0:
153,192,84585,1,2,0:0:0:0:
460,192,84585,128,4,85088:0:0:0:0:
153,192,84920,1,2,0:0:0:0:
51,192,85088,1,0,0:0:0:0:
256,192,85255,1,2,0:0:0:0:
51,192,85423,1,8,0:0:0:0:
460,192,85423,1,4,0:0:0:0:
358,192,85591,1,2,0:0:0:0:
51,192,85758,1,8,0:0:0:0:
153,192,85758,1,0,0:0:0:0:
256,192,85926,1,2,0:0:0:0:
358,192,86093,1,8,0:0:0:0:
460,192,86093,1,0,0:0:0:0:
153,192,86261,1,2,0:0:0:0:
51,192,86429,1,8,0:0:0:0:
358,192,86429,1,0,0:0:0:0:
256,192,86596,1,2,0:0:0:0:
153,192,86764,1,8,0:0:0:0:
460,192,86764,1,0,0:0:0:0:
153,192,86931,128,0,87099:0:0:0:0:
256,192,87099,128,0,87267:0:0:0:0:
358,192,87267,128,0,87434:0:0:0:0:
51,192,87434,128,0,87602:0:0:0:0:
256,192,87602,128,8,87769:0:0:0:0:
358,192,87769,128,8,87937:0:0:0:0:
460,192,87937,128,8,88105:0:0:0:0:
