osu file format v14

[General]
AudioFilename: audio.mp3
AudioLeadIn: 0
PreviewTime: 70350
Countdown: 0
SampleSet: None
StackLeniency: 0.7
Mode: 0
LetterboxInBreaks: 0
WidescreenStoryboard: 0

[Editor]
DistanceSpacing: 1
BeatDivisor: 4
GridSize: 4
TimelineZoom: 1.3

[Metadata]
Title:Camellia Complex
TitleUnicode:カメリア . コンプレックス
Artist:luz
ArtistUnicode:luz
Creator:Erein
Version:Insane
Source:
Tags:Utaite buzzg
BeatmapID:1647066
BeatmapSetID:784487

[Difficulty]
HPDrainRate:7
CircleSize:4
OverallDifficulty:7
ApproachRate:9.3
SliderMultiplier:1.7
SliderTickRate:1

[Events]
//Background and Video events
0,0,"Screenshot 2018-05-21 00.17.29.png",0,0
//Break Periods
2,143159,147405
//Storyboard Layer 0 (Background)
//Storyboard Layer 1 (Fail)
//Storyboard Layer 2 (Pass)
//Storyboard Layer 3 (Foreground)
//Storyboard Sound Samples

[TimingPoints]
2090,434.782608695652,4,3,0,70,1,0
16002,-83.3333333333333,4,1,0,70,0,0
22415,-83.3333333333333,4,1,0,5,0,0
22524,-83.3333333333333,4,1,0,70,0,0
22850,-83.3333333333333,4,1,0,5,0,0
22959,-83.3333333333333,4,1,0,70,0,0
25894,-83.3333333333333,4,1,0,5,0,0
26002,-83.3333333333333,4,1,0,70,0,0
26328,-83.3333333333333,4,1,0,5,0,0
26437,-83.3333333333333,4,1,0,70,0,0
29915,-166.666666666667,4,2,0,50,0,0
42089,-125,4,1,0,50,0,0
57741,-100,4,2,0,50,0,0
68176,-90.9090909090909,4,2,0,70,0,0
70350,-200,4,2,0,50,0,0
71654,-66.6666666666667,4,3,0,70,0,1
99480,-100,4,1,0,70,0,0
113394,-125,4,1,0,70,0,0
127307,-100,4,1,0,70,0,0
147959,-76.9230769230769,4,1,0,70,0,0
152850,-76.9230769230769,4,1,0,5,0,0
152959,-76.9230769230769,4,1,0,70,0,0
153068,-76.9230769230769,4,1,0,5,0,0
153176,-76.9230769230769,4,1,0,70,0,0
153285,-76.9230769230769,4,1,0,5,0,0
153394,-76.9230769230769,4,1,0,70,0,0
153503,-76.9230769230769,4,1,0,5,0,0
153611,-76.9230769230769,4,1,0,70,0,0
153720,-76.9230769230769,4,1,0,5,0,0
153829,-76.9230769230769,4,1,0,70,0,0
153937,-76.9230769230769,4,1,0,5,0,0
154046,-76.9230769230769,4,1,0,70,0,0
169046,-200,4,2,0,70,0,0
176002,-142.857142857143,4,2,0,70,0,0
182959,-100,4,2,0,70,0,0
189915,-125,4,2,0,70,0,0
196872,-66.6666666666667,4,3,0,70,0,1
224698,-100,4,2,0,70,0,0

[Colours]
Combo1 : 255,199,66
Combo2 : 57,185,51
Combo3 : 123,231,242

[HitObjects]
0,88,2091,5,2,0:0:0:0:
68,216,2307,2,0,P|104:241|175:227,1,85,0|0,3:3|3:3,3:3:0:0:
256,120,2741,1,2,0:0:0:0:
372,44,2959,2,0,P|412:64|444:128,1,85
319,167,3394,1,2,0:0:0:0:
372,44,3612,1,0,0:0:0:0:
479,131,3829,6,0,P|467:183|415:215,2,85,0|2|0,0:0|0:0|0:1,0:0:0:0:
383,127,4480,1,0,0:0:0:0:
220,48,4698,2,0,P|116:40|68:80,1,170,2|4,0:0|0:1,0:0:0:0:
140,324,5567,5,2,0:1:0:0:
272,264,5785,2,0,L|358:340,1,85,0|0,0:0|0:1,0:0:0:0:
128,256,6220,1,2,0:0:0:0:
261,200,6437,2,0,L|370:239,1,85
94,197,6872,1,2,0:0:0:0:
147,36,7089,1,0,0:0:0:0:
296,118,7307,6,0,P|242:110|194:142,1,85,0|2,0:0|0:0,0:0:0:0:
366,43,7741,2,0,P|420:35|468:67,1,85,0|0,0:1|0:0,0:0:0:0:
423,164,8176,1,2,0:0:0:0:
317,306,8394,1,0,0:0:0:0:
294,266,8502,1,0,0:0:0:0:
254,242,8611,1,0,0:1:0:0:
211,224,8720,1,0,0:0:0:0:
166,215,8828,1,0,0:0:0:0:
123,197,8937,1,0,0:0:0:0:
87,168,9046,6,0,P|50:137|43:67,1,85,6|0,0:1|0:0,0:0:0:0:
108,304,9480,1,0,0:0:0:0:
163,169,9698,2,0,P|170:107|192:78,1,85,2|0,0:0|0:0,0:0:0:0:
108,304,10133,1,0,0:0:0:0:
230,200,10350,2,0,P|270:156|312:153,1,85,2|0,0:0|0:0,0:0:0:0:
108,304,10785,5,0,0:0:0:0:
268,324,11002,2,0,P|320:328|356:370,1,85,2|0,0:0|0:0,0:3:0:0:
228,198,11437,1,0,0:0:0:0:
363,95,11654,1,2,0:0:0:0:
459,236,11872,1,0,0:0:0:0:
321,335,12089,2,0,P|250:341|203:322,1,85
92,198,12524,5,4,0:1:0:0:
188,58,12741,1,0,0:0:0:0:
358,73,12959,1,0,0:0:0:0:
175,158,13176,1,2,0:0:0:0:
345,151,13394,1,0,0:0:0:0:
494,233,13611,1,0,0:0:0:0:
332,283,13828,2,0,L|223:253,1,85,2|0,0:0|0:0,0:0:0:0:
173,221,14263,5,0,0:0:0:0:
133,206,14372,1,0,0:0:0:0:
101,177,14480,1,0,0:0:0:0:
82,138,14589,1,0,0:0:0:0:
86,95,14698,1,0,0:0:0:0:
111,60,14807,1,0,0:0:0:0:
145,35,14915,1,0,0:0:0:0:
186,27,15024,1,0,0:0:0:0:
228,30,15133,1,0,0:0:0:0:
266,47,15241,1,0,0:0:0:0:
292,80,15350,1,0,0:0:0:0:
308,119,15459,1,0,0:0:0:0:
309,161,15567,1,0,0:0:0:0:
289,198,15676,1,0,0:0:0:0:
259,224,15785,1,0,0:0:0:0:
217,227,15894,1,0,0:0:0:0:
174,230,16002,6,0,P|125:262|107:320,2,101.999996887207,6|0|8,1:3|0:0|0:0,0:0:0:0:
303,85,16763,1,0,3:3:0:0:
316,98,16872,2,0,L|398:166,2,101.999996887207,0|0|8,3:3|0:0|0:0,0:0:0:0:
165,184,17633,1,0,3:3:0:0:
149,196,17741,5,0,3:3:0:0:
305,90,17959,2,0,L|205:160,1,101.999996887207,0|8,0:0|0:0,0:0:0:0:
416,218,18502,1,0,3:3:0:0:
429,233,18611,1,0,3:3:0:0:
305,90,18828,2,0,L|372:171,1,101.999996887207,0|8,0:0|0:0,0:0:0:0:
185,284,19372,1,0,3:3:0:0:
172,272,19481,6,0,P|139:230|135:174,2,101.999996887207,4|0|8,1:1|0:0|0:0,0:0:0:0:
291,131,20241,1,0,3:3:0:0:
291,131,20350,1,0,3:3:0:0:
237,60,20567,2,0,P|284:38|335:60,1,101.999996887207,0|8,0:0|0:0,0:0:0:0:
176,243,21111,1,0,3:3:0:0:
176,243,21220,5,0,3:3:0:0:
103,289,21437,2,0,P|135:326|184:331,1,101.999996887207,0|8,0:0|0:0,0:0:0:0:
85,125,21980,1,0,0:0:0:0:
97,106,22089,2,0,P|143:70|232:102,1,152.999995330811,0|0,0:0|2:2,0:0:0:0:
253,118,22524,2,0,P|338:142|388:88,1,152.999995330811,8|0,0:1|0:3,0:3:0:0:
460,138,22959,5,4,0:1:0:0:
311,67,23176,1,0,0:0:0:0:
167,148,23394,1,8,0:0:0:0:
188,324,23720,1,0,3:3:0:0:
188,324,23828,1,0,3:3:0:0:
312,233,24046,1,0,0:0:0:0:
411,349,24263,1,8,0:0:0:0:
184,320,24589,1,0,3:3:0:0:
176,301,24698,6,0,L|132:201,1,101.999996887207,0|0,3:3|0:0,0:0:0:0:
104,133,25133,1,8,0:0:0:0:
316,56,25459,1,0,3:0:0:0:
301,78,25568,2,0,P|288:150|340:202,1,152.999995330811,0|0,3:0|2:2,0:0:0:0:
340,202,26003,2,0,P|267:213|236:279,1,152.999995330811,8|0,0:0|0:0,0:0:0:0:
381,280,26437,6,0,P|426:239|400:163,2,101.999996887207
220,162,27089,1,0,1:3:0:0:
206,155,27198,1,0,1:3:0:0:
192,147,27307,1,0,1:3:0:0:
15,46,27524,1,0,1:3:0:0:
28,55,27633,1,0,1:3:0:0:
40,65,27741,1,0,1:3:0:0:
24,218,27959,1,4,0:0:0:0:
434,296,28394,5,0,3:0:0:0:
265,104,28611,1,0,3:0:0:0:
150,323,28828,1,0,3:0:0:0:
389,34,29263,1,0,3:0:0:0:
176,173,29480,1,0,3:0:0:0:
50,48,29915,6,2,L|95:95,1,50.9999984436036
98,186,30241,2,2,L|133:149,1,50.9999984436036
150,53,30567,2,2,L|195:100,1,50.9999984436036
210,176,30894,2,2,L|245:139,1,50.9999984436036
270,52,31220,2,2,L|315:99,1,50.9999984436036
482,219,31654,6,2,L|446:255,1,50.9999984436036
434,357,31980,2,2,L|398:320,1,50.9999984436036
382,224,32306,2,2,L|346:260,1,50.9999984436036
322,347,32633,2,2,L|286:310,1,50.9999984436036
262,223,32959,2,2,L|226:259,1,50.9999984436036
64,301,33394,6,2,P|39:339|48:360,1,50.9999984436036
64,301,33720,2,2,P|87:339|110:340,1,50.9999984436036
64,301,34046,2,2,P|107:287|114:266,1,50.9999984436036
64,301,34372,2,2,P|62:255|43:243,1,50.9999984436036
64,301,34698,2,2,P|19:290|3:306,1,50.9999984436036
182,175,35133,6,2,P|157:213|166:234,1,50.9999984436036
252,179,35459,2,2,P|275:217|298:218,1,50.9999984436036
278,117,35785,2,2,P|321:103|328:82,1,50.9999984436036
231,69,36111,2,2,P|229:23|210:11,1,50.9999984436036
179,108,36437,2,2,P|134:97|118:113,1,50.9999984436036
435,78,36872,6,0,P|472:89|443:67,1,101.999996887207,0|2,0:0|0:0,0:0:0:0:
352,312,37524,2,0,P|384:289|358:320,1,101.999996887207
188,320,38176,1,2,0:0:0:0:
84,209,38394,1,0,0:0:0:0:
90,54,38611,6,0,P|107:26|75:48,1,101.999996887207,0|2,0:0|0:0,0:0:0:0:
202,126,39263,1,0,0:0:0:0:
352,125,39480,1,0,0:0:0:0:
274,258,39698,1,0,0:0:0:0:
487,204,39915,1,2,0:0:0:0:
426,336,40133,1,0,0:0:0:0:
405,202,40350,6,2,L|430:157,1,50.9999984436036
370,266,40676,2,2,L|345:311,1,50.9999984436036
332,199,41002,2,2,L|289:171,1,50.9999984436036
442,260,41328,2,2,L|494:285,1,50.9999984436036
388,233,41654,2,2,P|383:244|391:232,1,50.9999984436036
66,191,42307,5,0,3:0:0:0:
201,57,42524,1,0,3:0:0:0:
259,248,42741,1,0,3:0:0:0:
259,248,42850,1,0,3:0:0:0:
259,248,42959,2,0,L|315:297,2,68,0|0|0,3:0|3:0|3:0,3:0:0:0:
135,123,43611,1,4,3:1:0:0:
329,65,43828,6,0,P|386:52|417:68,2,68,0|0|8,2:3|2:3|2:3,2:3:0:0:
271,273,44480,2,0,P|240:286|206:283,2,68,0|0|0,2:3|2:3|2:3,2:3:0:0:
372,131,45133,1,10,2:3:0:0:
226,210,45350,1,2,2:3:0:0:
100,48,45785,5,0,2:3:0:0:
112,65,45894,1,0,2:3:0:0:
125,81,46002,1,8,2:3:0:0:
314,42,46220,1,0,2:3:0:0:
303,59,46328,1,0,2:3:0:0:
291,76,46437,1,0,2:3:0:0:
212,196,46654,2,0,L|212:273,2,68,0|8|0,2:3|2:3|2:3,2:3:0:0:
119,270,47307,6,0,P|68:241|57:208,2,68,0|0|8,2:3|2:3|2:3,2:3:0:0:
303,158,47959,2,0,P|335:169|358:195,2,68,0|0|0,2:3|2:3|2:3,2:3:0:0:
133,193,48611,1,10,2:3:0:0:
293,234,48829,1,2,2:3:0:0:
68,73,49263,5,0,2:3:0:0:
87,64,49372,1,0,2:3:0:0:
105,54,49480,1,10,2:3:0:0:
163,206,49698,1,0,2:3:0:0:
424,100,49915,1,0,2:3:0:0:
264,271,50133,1,0,2:3:0:0:
296,61,50350,1,10,2:3:0:0:
415,251,50567,1,0,2:3:0:0:
282,144,50785,6,0,P|247:134|226:106,1,68,0|0,2:3|2:3,2:3:0:0:
384,40,51220,1,10,2:3:0:0:
437,188,51437,1,0,2:3:0:0:
437,205,51546,1,0,2:3:0:0:
427,219,51654,1,0,2:3:0:0:
333,283,51872,2,0,P|312:330|332:366,1,68,0|10,2:3|2:3,2:3:0:0:
467,336,52307,1,0,2:3:0:0:
384,40,52742,5,0,2:3:0:0:
372,52,52850,1,0,2:3:0:0:
360,64,52959,2,0,P|330:97|284:121,1,68,0|0,2:3|2:0,2:0:0:0:
110,69,53394,1,0,2:0:0:0:
37,205,53611,1,0,2:0:0:0:
175,275,53828,1,0,2:0:0:0:
257,132,54046,1,0,2:0:0:0:
218,32,54263,6,0,P|265:26|304:43,2,68,0|0|10,2:3|2:3|2:3,2:3:0:0:
150,189,54915,1,0,2:3:0:0:
322,199,55133,1,0,2:3:0:0:
238,321,55350,2,0,P|273:354|312:351,2,68,0|10|4,2:3|2:3|1:3,2:3:0:0:
445,68,56220,6,0,L|487:34,2,34,0|0|0,3:3|3:3|3:3,3:3:0:0:
314,174,56654,2,0,L|276:148,2,34,0|0|0,3:3|3:3|3:3,3:3:0:0:
463,260,57089,1,0,3:3:0:0:
448,290,57198,1,0,3:3:0:0:
428,318,57307,1,0,3:3:0:0:
401,339,57415,1,0,3:3:0:0:
369,351,57524,1,0,3:3:0:0:
185,337,57741,6,2,P|140:305|178:294,1,85,10|2,0:0|0:0,0:0:0:0:
173,234,58067,2,2,P|224:207|234:247,1,85,10|2,0:0|0:0,0:0:0:0:
278,269,58394,2,2,P|271:326|231:312,1,85,10|2,0:0|0:0,0:0:0:0:
214,283,58828,1,0,3:0:0:0:
214,283,58937,1,0,3:0:0:0:
214,283,59046,1,0,3:0:0:0:
371,68,59481,6,2,P|419:42|412:81,1,85,10|2,0:0|0:0,0:0:0:0:
469,103,59806,2,2,P|470:161|430:152,1,85,10|2,0:0|0:0,0:0:0:0:
392,182,60133,2,2,P|343:150|373:121,1,85,10|2,0:0|0:0,0:0:0:0:
407,118,60567,1,0,3:0:0:0:
407,118,60676,1,0,3:0:0:0:
407,118,60785,1,0,3:0:0:0:
154,57,61220,6,2,P|187:99|147:99,1,85,10|2,0:0|0:0,0:0:0:0:
135,159,61546,2,2,P|77:169|80:127,1,85,10|2,0:0|0:0,0:0:0:0:
45,94,61873,2,2,P|68:40|101:66,1,85,10|2,0:0|0:0,0:0:0:0:
110,100,62307,1,0,3:0:0:0:
110,100,62415,1,0,3:0:0:0:
110,100,62525,1,0,3:0:0:0:
445,63,62959,6,0,L|483:28,3,42.5,0|0|0|0,3:0|3:0|3:0|3:0,3:0:0:0:
345,159,63394,2,0,L|309:128,3,42.5,0|0|0|0,3:0|3:0|3:0|3:0,3:0:0:0:
459,273,63828,2,0,L|494:238,3,42.5,0|0|0|0,3:0|3:0|3:0|3:0,3:0:0:0:
348,348,64263,2,0,L|317:315,3,42.5,0|0|0|0,3:0|3:0|3:0|3:0,3:0:0:0:
423,313,64698,5,10,0:0:0:0:
203,82,65024,1,10,0:0:0:0:
97,317,65350,1,10,0:0:0:0:
249,227,65785,1,0,3:0:0:0:
249,227,65894,1,0,3:0:0:0:
249,227,66003,1,0,3:0:0:0:
307,101,66437,5,10,0:0:0:0:
72,220,66763,1,10,0:0:0:0:
329,365,67089,1,10,0:0:0:0:
245,188,67524,1,2,0:0:0:0:
215,257,67741,1,2,0:0:0:0:
287,250,67959,1,2,0:0:0:0:
310,50,68176,5,0,3:0:0:0:
137,228,68394,1,0,3:0:0:0:
365,133,68611,1,0,3:0:0:0:
120,58,68828,1,0,3:0:0:0:
324,196,69046,1,0,3:0:0:0:
90,134,69263,1,0,3:0:0:0:
311,44,69480,1,0,3:0:0:0:
219,266,69698,1,4,3:1:0:0:
356,353,70133,6,4,P|399:305|406:240,1,93.5000028533936,4|4,1:0|1:0,1:0:0:0:
447,142,70567,1,2,0:0:0:0:
336,37,70785,2,2,P|298:29|276:34,1,42.5
155,90,71220,2,2,P|182:115|203:115,1,42.5
105,302,71654,5,0,0:0:0:0:
60,173,71872,2,0,P|145:166|201:216,1,127.500004863739,0|8,0:0|0:0,0:0:0:0:
305,208,72307,1,0,0:0:0:0:
356,204,72415,1,0,0:0:0:0:
397,171,72524,1,0,0:0:0:0:
412,122,72633,1,0,0:0:0:0:
405,74,72741,1,0,0:0:0:0:
306,106,72959,1,8,0:0:0:0:
95,88,73176,1,0,0:0:0:0:
76,125,73285,1,0,0:0:0:0:
94,166,73394,5,0,0:0:0:0:
199,246,73611,2,0,P|271:197|317:216,1,127.500004863739,0|8,0:0|0:0,0:0:0:0:
381,327,74046,2,0,L|433:290,1,63.7500024318696
428,227,74263,2,0,L|368:199,1,63.7500024318696
304,207,74480,2,0,L|319:353,1,127.500004863739,0|8,0:0|0:0,0:0:0:0:
196,327,74915,1,0,0:0:0:0:
164,309,75024,1,0,0:0:0:0:
140,282,75133,6,0,P|103:224|96:147,1,127.500004863739
244,73,75567,1,8,0:0:0:0:
136,42,75785,1,0,0:0:0:0:
124,68,75894,1,0,0:0:0:0:
135,96,76002,1,0,0:0:0:0:
353,100,76220,1,0,0:0:0:0:
365,74,76329,1,0,0:0:0:0:
354,46,76437,1,8,0:0:0:0:
245,73,76654,1,0,0:0:0:0:
160,226,76872,5,0,0:0:0:0:
329,340,77089,1,0,0:0:0:0:
462,184,77307,1,8,0:0:0:0:
314,228,77524,2,0,L|308:161,2,63.7500024318696
213,339,77959,1,0,0:0:0:0:
63,317,78176,1,8,0:0:0:0:
37,279,78285,1,0,0:0:0:0:
23,234,78394,1,0,0:0:0:0:
33,190,78502,1,0,0:0:0:0:
52,149,78611,5,4,0:1:0:0:
210,41,78828,1,0,0:0:0:0:
356,189,79046,1,8,0:0:0:0:
434,80,79263,2,0,L|388:142,1,63.7500024318696
274,85,79480,2,0,L|321:140,1,63.7500024318696
296,246,79697,2,0,B|358:307|421:249,1,127.500004863739,0|8,0:0|0:0,0:0:0:0:
221,170,80133,1,0,0:0:0:0:
190,205,80241,1,0,0:0:0:0:
195,252,80350,5,0,0:0:0:0:
389,177,80568,2,0,P|468:189|494:251,1,127.500004863739,0|8,0:0|0:0,0:0:0:0:
321,73,81002,1,0,0:0:0:0:
281,48,81111,1,0,0:0:0:0:
237,30,81220,1,0,0:0:0:0:
191,36,81328,1,0,0:0:0:0:
149,55,81437,1,0,0:0:0:0:
39,152,81654,2,0,P|54:220|101:245,1,127.500004863739,8|0,0:0|0:0,0:0:0:0:
325,242,82089,5,0,0:0:0:0:
126,162,82307,1,0,0:0:0:0:
356,170,82524,1,8,0:0:0:0:
196,128,82741,2,0,P|135:90|100:114,1,63.7500024318696
80,101,82959,2,0,P|56:121|49:152,1,63.7500024318696
126,162,83176,1,0,0:0:0:0:
252,256,83394,1,8,0:0:0:0:
275,296,83502,1,0,0:0:0:0:
318,313,83611,1,4,0:1:0:0:
459,177,84046,5,0,0:0:0:0:
345,68,84263,1,0,0:0:0:0:
321,57,84372,1,0,0:0:0:0:
296,51,84480,2,0,P|184:60|110:174,1,255.000009727478,4|0,0:1|0:0,0:0:0:0:
81,259,85133,2,0,L|152:287,1,63.7500024318696
196,358,85350,2,0,L|268:329,1,63.7500024318696
364,253,85567,6,0,L|492:286,2,127.500004863739,0|0|8,0:0|0:0|0:2,0:0:0:0:
266,243,86220,1,0,0:0:0:0:
225,222,86328,1,0,0:0:0:0:
185,197,86437,1,0,0:0:0:0:
304,104,86654,2,0,L|178:46,1,127.500004863739,0|8,0:0|0:2,0:0:0:0:
102,153,87089,1,0,0:0:0:0:
145,174,87198,1,0,0:0:0:0:
185,197,87306,5,0,0:0:0:0:
36,280,87524,2,0,L|152:334,1,127.500004863739,0|8,0:0|0:2,0:0:0:0:
373,246,87959,2,0,L|451:218,2,63.7500024318696
315,189,88394,2,0,P|293:271|341:316,1,127.500004863739,0|8,0:0|0:2,0:0:0:0:
372,246,88828,1,0,0:0:0:0:
231,48,89046,6,0,P|133:45|83:106,1,127.500004863739
52,241,89480,1,8,0:2:0:0:
200,363,89698,2,0,P|239:364|294:342,2,63.7500024318696
52,241,90133,1,0,0:0:0:0:
219,149,90350,1,8,0:2:0:0:
379,57,90567,2,0,L|430:98,1,63.7500024318696
452,117,90785,5,0,0:0:0:0:
302,122,91002,2,0,L|407:211,1,127.500004863739,0|8,0:0|0:2,0:0:0:0:
209,226,91437,2,0,P|172:208|153:167,2,63.7500024318696
355,214,91872,1,0,0:0:0:0:
337,336,92089,1,8,0:2:0:0:
305,351,92198,1,0,0:0:0:0:
269,358,92307,1,0,0:0:0:0:
96,305,92524,6,2,P|166:209|127:134,1,191.250007295609
8,204,93176,1,0,0:0:0:0:
25,85,93394,2,2,P|98:23|214:65,1,191.250007295609
389,125,94046,1,0,0:0:0:0:
338,264,94263,6,2,P|257:249|340:275,1,255.000009727478,2|10,0:0|0:0,0:0:0:0:
295,281,94915,1,0,0:0:0:0:
295,281,95024,1,0,0:0:0:0:
295,281,95133,1,0,0:0:0:0:
452,178,95350,2,0,P|443:59|394:46,1,127.500004863739,0|8,0:0|0:0,0:0:0:0:
254,92,95785,1,0,0:0:0:0:
163,262,96002,5,0,3:1:0:0:
357,116,96220,1,0,3:1:0:0:
364,288,96437,1,0,3:1:0:0:
169,106,96654,1,0,3:1:0:0:
390,211,96872,1,0,3:1:0:0:
195,305,97089,1,0,3:1:0:0:
251,93,97307,2,4,P|213:37|152:27,1,127.500004863739,4|4,3:1|3:1,3:1:0:0:
207,241,97959,5,4,0:1:0:0:
414,86,98176,1,4,0:1:0:0:
34,68,98611,1,4,0:1:0:0:
274,208,98828,1,4,0:1:0:0:
88,188,99046,6,2,P|46:230|100:304,1,127.500004863739
237,225,99698,2,2,P|260:120|215:79,1,170
376,208,100351,1,0,0:0:0:0:
388,32,100568,1,0,0:0:0:0:
220,80,100786,2,0,P|208:148|220:200,1,85,8|0,0:0|0:0,0:0:0:0:
368,320,101220,5,0,0:3:0:0:
348,336,101328,1,0,0:3:0:0:
324,348,101437,1,0,0:3:0:0:
112,272,101654,1,8,0:0:0:0:
296,192,101872,1,0,0:0:0:0:
140,108,102089,1,0,0:0:0:0:
288,36,102307,2,0,P|368:40|384:68,2,85,0|8|0,0:0|0:0|0:0,0:0:0:0:
80,92,102959,5,0,0:0:0:0:
44,260,103176,1,0,0:0:0:0:
200,292,103394,1,8,0:0:0:0:
248,128,103611,2,0,L|300:96,2,42.5,0|0|0,0:3|0:3|0:3,0:3:0:0:
448,48,104046,1,0,0:0:0:0:
184,36,104263,1,8,0:0:0:0:
304,204,104480,1,0,0:3:0:0:
320,220,104589,1,0,0:3:0:0:
336,236,104697,5,0,0:3:0:0:
320,60,104915,1,0,0:0:0:0:
132,172,105133,1,8,0:0:0:0:
376,148,105350,1,0,0:0:0:0:
232,264,105567,2,0,P|300:276|320:264,1,85
324,60,106002,2,0,P|264:48|240:60,1,85,8|0,0:0|0:0,0:0:0:0:
176,224,106437,6,0,P|126:254|85:234,1,85
324,60,106872,2,0,P|366:37|406:57,1,85,8|0,0:0|0:3,0:0:0:0:
416,65,107198,1,0,0:3:0:0:
430,83,107307,1,0,0:3:0:0:
416,280,107524,1,0,0:0:0:0:
208,328,107742,2,0,P|136:316|116:284,1,85,8|0,0:0|0:0,0:0:0:0:
212,184,108176,5,0,0:0:0:0:
168,60,108394,2,0,P|140:68|116:88,2,42.5,0|0|8,0:3|0:3|3:1,0:3:0:0:
356,132,108828,1,0,0:0:0:0:
132,200,109046,1,0,0:0:0:0:
328,276,109263,1,0,0:0:0:0:
192,96,109480,1,8,0:0:0:0:
364,48,109698,1,0,0:0:0:0:
276,216,109915,6,0,P|320:196|380:216,1,85
192,96,110350,1,8,0:0:0:0:
60,224,110567,1,0,0:3:0:0:
68,244,110676,1,0,0:3:0:0:
88,256,110785,1,0,0:3:0:0:
248,348,111002,1,0,0:0:0:0:
340,204,111220,1,8,0:3:0:0:
360,216,111328,1,0,0:3:0:0:
376,232,111437,1,4,3:1:0:0:
68,72,111872,6,0,P|140:56|168:68,1,85,0|8,0:0|0:0,0:0:0:0:
416,176,112415,2,0,L|440:220,1,42.5,0|0,1:3|1:3,1:3:0:0:
356,104,112633,2,0,L|332:60,1,42.5,0|0,1:3|1:3,1:3:0:0:
148,40,112959,1,8,1:3:0:0:
128,48,113067,1,0,1:3:0:0:
108,56,113176,1,0,1:3:0:0:
88,64,113285,1,0,1:3:0:0:
68,72,113394,5,4,1:3:0:0:
120,316,113828,2,0,P|180:304|200:284,1,68,8|0,0:0|0:0,0:0:0:0:
296,200,114263,1,0,0:0:0:0:
400,308,114480,2,0,P|380:328|352:332,2,34,0|0|8,1:3|1:3|1:3,1:3:0:0:
480,192,114915,1,0,0:0:0:0:
236,60,115350,6,0,P|216:60|200:72,2,34,0|0|8,1:3|1:3|1:3,1:3:0:0:
376,136,115785,1,0,0:0:0:0:
272,260,116002,1,0,0:0:0:0:
152,152,116220,1,0,0:0:0:0:
276,56,116437,1,8,0:0:0:0:
344,184,116654,1,0,0:0:0:0:
220,116,116872,6,0,P|192:84|144:80,1,68
36,168,117307,1,8,0:0:0:0:
136,272,117524,2,0,P|156:288|176:284,2,34,0|0|0,1:3|1:3|1:3,1:3:0:0:
224,120,117959,2,2,P|268:68|336:56,1,136
460,304,118828,5,0,1:3:0:0:
440,320,118937,1,0,1:3:0:0:
420,336,119046,1,8,1:3:0:0:
264,292,119263,1,0,0:0:0:0:
148,188,119480,2,0,P|92:168|68:144,1,68
280,116,119915,2,0,P|312:88|344:84,1,68,8|0,0:0|0:0,0:0:0:0:
241,269,120350,6,0,P|220:323|187:343,1,68
374,188,120785,1,8,0:0:0:0:
250,75,121002,2,0,P|299:37|332:37,1,68
137,181,121437,2,2,P|129:140|126:187,1,136
281,215,122089,5,0,0:0:0:0:
335,73,122307,1,0,0:0:0:0:
457,209,122524,1,8,0:0:0:0:
279,217,122741,1,0,0:0:0:0:
395,345,122959,1,0,0:0:0:0:
233,340,123176,1,0,0:0:0:0:
93,355,123394,2,0,P|56:315|54:275,1,68,8|0,0:0|0:0,0:0:0:0:
65,148,123828,6,0,P|36:196|39:225,1,68
185,214,124263,1,8,0:0:0:0:
215,53,124480,1,0,1:3:0:0:
185,59,124588,1,0,1:3:0:0:
155,66,124697,1,0,1:3:0:0:
390,117,124915,1,0,0:0:0:0:
215,53,125133,1,8,0:0:0:0:
343,173,125350,1,0,0:0:0:0:
411,278,125785,6,0,P|376:315|331:316,1,68,0|8,0:0|0:0,0:0:0:0:
219,318,126220,1,0,1:3:0:0:
185,314,126328,1,0,1:3:0:0:
152,305,126437,1,0,1:3:0:0:
123,284,126546,1,0,1:3:0:0:
101,257,126654,1,0,1:3:0:0:
93,221,126763,1,0,1:3:0:0:
96,187,126872,1,8,1:3:0:0:
109,156,126980,1,0,1:3:0:0:
128,127,127089,1,0,1:3:0:0:
154,106,127198,1,0,1:3:0:0:
183,84,127307,6,0,P|226:71|271:74,2,85,4|0|8,0:0|0:0|0:0,0:0:0:0:
278,204,127959,1,0,0:0:0:0:
381,93,128176,1,0,0:0:0:0:
444,236,128394,1,0,0:0:0:0:
342,337,128611,1,8,1:3:0:0:
310,324,128720,1,0,1:3:0:0:
281,304,128828,1,0,1:3:0:0:
137,242,129046,6,0,P|83:301|83:341,2,85,0|0|8,0:0|0:0|0:0,0:0:0:0:
68,115,129698,1,0,0:0:0:0:
205,64,129915,1,0,0:0:0:0:
338,140,130133,1,0,0:0:0:0:
461,47,130350,1,8,1:3:0:0:
430,36,130459,1,0,1:3:0:0:
400,25,130567,1,0,1:3:0:0:
419,190,130785,6,0,P|364:230|318:225,2,85,0|0|8,0:0|0:0|0:0,0:0:0:0:
263,212,131437,1,0,0:0:0:0:
185,331,131654,1,0,0:0:0:0:
345,335,131872,2,0,P|387:318|403:283,1,85,0|8,0:0|0:0,0:0:0:0:
426,109,132307,1,0,1:3:0:0:
426,109,132415,1,0,1:3:0:0:
426,109,132524,6,0,L|455:146,3,42.5,0|0|0|0,1:3|1:3|1:3|1:3,1:3:0:0:
337,214,132959,2,0,L|307:249,3,42.5,8|0|0|0,1:3|1:3|1:3|1:3,1:3:0:0:
249,72,133394,2,0,L|219:41,3,42.5,0|0|0|0,1:3|1:3|1:3|1:3,1:3:0:0:
160,191,133828,2,0,L|115:213,3,42.5,8|0|0|0,1:3|1:3|1:3|1:3,1:3:0:0:
274,272,134263,5,4,0:0:0:0:
397,208,134480,1,0,0:0:0:0:
392,335,134698,1,8,0:0:0:0:
310,205,134915,1,0,0:0:0:0:
407,98,135133,1,0,0:0:0:0:
261,53,135350,1,0,0:0:0:0:
161,146,135567,2,0,L|119:191,2,42.5,8|0|0,1:0|1:0|1:0,1:0:0:0:
92,268,136002,5,0,0:0:0:0:
228,347,136220,1,0,0:0:0:0:
182,218,136437,2,2,L|211:175,1,42.5,10|2,2:0|2:0,2:0:0:0:
331,231,136654,2,2,L|306:273,1,42.5,2|2,2:0|2:0,2:0:0:0:
448,195,136872,2,2,L|481:233,1,42.5,2|2,2:0|2:0,2:0:0:0:
442,77,137089,2,2,L|480:42,1,42.5,2|2,2:0|2:0,2:0:0:0:
327,61,137307,2,10,L|305:10,1,42.5,10|10,2:0|2:0,2:0:0:0:
266,137,137524,2,2,L|202:138,1,42.5,2|2,2:0|2:0,2:0:0:0:
88,59,137741,5,0,3:3:0:0:
211,161,137959,1,0,3:3:0:0:
325,49,138176,1,0,3:3:0:0:
167,26,138394,1,0,3:3:0:0:
133,175,138611,1,0,3:3:0:0:
297,317,138828,1,0,3:3:0:0:
393,121,139046,1,0,3:3:0:0:
179,94,139263,1,0,0:3:0:0:
169,113,139372,1,0,0:3:0:0:
163,138,139480,5,0,0:3:0:0:
158,163,139589,1,0,0:3:0:0:
155,192,139698,1,0,0:3:0:0:
158,221,139807,1,0,0:3:0:0:
176,248,139915,1,8,0:3:0:0:
199,272,140024,1,0,0:3:0:0:
231,294,140133,1,0,0:3:0:0:
266,308,140241,1,0,0:3:0:0:
308,309,140350,1,0,0:3:0:0:
348,293,140459,1,0,0:3:0:0:
384,263,140567,1,0,0:3:0:0:
390,217,140676,1,0,0:3:0:0:
380,167,140785,1,8,0:3:0:0:
364,119,140894,1,0,0:3:0:0:
387,69,141002,1,0,0:3:0:0:
438,46,141111,1,0,0:3:0:0:
256,192,141220,12,4,142959,0:3:0:0:
194,89,147959,6,2,P|152:88|112:142,2,110.499994941712
26,261,148611,1,10,0:0:0:0:
147,317,148829,2,2,P|230:338|332:256,1,220.999989883423
312,184,149481,2,2,P|382:186|409:249,1,110.499994941712,10|2,0:0|0:0,0:0:0:0:
425,46,149916,5,2,0:0:0:0:
496,86,150133,2,2,P|368:92|368:-10,1,220.999989883423
218,57,150785,2,2,P|194:113|242:150,1,110.499994941712
286,279,151220,2,2,P|315:235|290:190,1,110.499994941712,10|2,0:0|0:0,0:0:0:0:
133,30,151655,6,2,P|116:149|212:235,1,220.999989883423,2|10,0:0|0:0,0:0:0:0:
353,151,152307,2,2,P|387:215|373:284,1,110.499994941712
468,362,152742,2,2,P|434:339|423:304,1,55.2499974708558
356,323,152959,2,2,P|337:290|352:246,1,55.2499974708558,10|2,0:0|0:0,0:0:0:0:
396,227,153176,2,2,P|414:206|411:175,1,55.2499974708558
356,140,153394,6,2,P|332:111|353:72,1,55.2499974708558
405,86,153611,2,2,P|421:66|422:38,1,55.2499974708558
342,36,153829,2,2,P|325:13|301:1,1,55.2499974708558
220,31,154046,2,2,B|159:6|101:19|101:19|154:100|227:82,1,220.999989883423
289,169,154698,1,2,0:0:0:0:
88,151,154916,1,2,0:0:0:0:
200,186,155133,6,2,P|219:235|270:254,2,110.499994941712,2|2|10,0:0|0:0|0:0,0:0:0:0:
210,357,155785,2,2,B|53:353|53:353|105:291,1,220.999989883423
141,215,156437,2,2,B|176:169|176:169|226:249,1,110.499994941712,10|2,0:0|0:0,0:0:0:0:
297,319,156872,6,2,P|365:340|423:323,2,110.499994941712,2|2|10,0:0|0:0|0:0,0:0:0:0:
474,227,157524,2,2,B|337:156|337:156|349:228,1,220.999989883423
405,335,158176,1,10,0:0:0:0:
473,228,158394,1,2,0:0:0:0:
384,77,158611,6,2,B|314:89|274:41|274:41|301:105|245:164,1,220.999989883423,2|10,0:0|0:0,0:0:0:0:
350,1,159263,1,2,0:0:0:0:
194,80,159481,1,2,0:0:0:0:
337,148,159698,1,2,0:0:0:0:
175,8,159916,1,10,0:0:0:0:
43,89,160133,6,2,P|44:198|148:226,1,220.999989883423
111,146,160785,1,10,0:0:0:0:
242,105,161003,2,2,B|200:167|138:55|245:12|357:25|273:171|273:171|336:137,1,331.499984825135,2|10,0:0|0:0,0:0:0:0:
467,40,161872,1,2,0:0:0:0:
285,58,162089,6,2,P|280:129|326:166,1,110.499994941712
132,34,162524,1,10,0:0:0:0:
303,155,162742,2,2,P|314:207|284:252,1,110.499994941712
472,229,163176,1,2,0:0:0:0:
284,252,163394,2,2,P|272:304|302:349,1,110.499994941712,10|2,0:0|0:0,0:0:0:0:
402,203,163829,6,2,P|418:148|379:97,2,110.499994941712,2|2|10,0:0|0:0|0:0,0:0:0:0:
381,329,164481,2,2,P|442:367|490:329,1,110.499994941712
442,273,164916,2,2,P|358:246|316:366,1,220.999989883423
382,325,165568,5,0,3:0:0:0:
199,260,165785,1,0,3:0:0:0:
339,160,166003,1,0,3:0:0:0:
231,49,166220,2,0,L|188:89,1,55.2499974708558,0|0,3:0|3:0,3:0:0:0:
99,165,166437,2,0,L|140:129,2,55.2499974708558,0|0|0,3:0|3:0|3:0,3:0:0:0:
73,42,166872,1,0,3:0:0:0:
66,37,166981,1,0,3:0:0:0:
60,31,167089,1,4,3:2:0:0:
256,192,167307,12,0,168829,0:0:0:0:
364,212,169046,6,0,P|360:247|268:285,1,127.5,4|0,0:0|0:0,0:0:0:0:
125,235,170133,1,0,0:0:0:0:
252,123,170567,1,0,0:0:0:0:
272,125,170676,1,0,0:0:0:0:
291,127,170785,6,0,P|355:165|364:219,1,127.5,4|0,0:0|0:0,0:0:0:0:
205,291,171872,1,0,0:0:0:0:
366,209,172307,1,0,0:0:0:0:
381,194,172415,1,0,0:0:0:0:
394,177,172524,6,0,P|419:112|390:59,1,127.5,4|0,0:0|0:0,0:0:0:0:
203,144,173611,1,0,0:0:0:0:
90,278,174046,1,0,0:0:0:0:
105,292,174154,1,0,0:0:0:0:
123,303,174263,6,0,P|195:330|241:311,1,127.5,4|0,0:0|0:0,0:0:0:0:
148,162,175350,1,0,0:0:0:0:
334,55,175785,1,0,0:0:0:0:
352,65,175894,1,0,0:0:0:0:
368,77,176002,5,4,0:0:0:0:
327,280,176437,1,0,0:0:0:0:
177,286,176872,1,0,0:0:0:0:
217,156,177307,1,0,0:0:0:0:
70,163,177524,1,0,0:0:0:0:
85,137,177633,1,0,0:0:0:0:
103,111,177742,5,4,0:0:0:0:
257,57,178176,1,0,0:0:0:0:
166,222,178611,1,0,0:0:0:0:
356,172,179046,1,0,0:0:0:0:
257,313,179263,1,0,0:0:0:0:
279,322,179372,1,0,0:0:0:0:
306,330,179480,5,4,0:0:0:0:
444,202,179915,1,0,0:0:0:0:
240,236,180350,1,0,0:0:0:0:
279,62,180785,1,0,0:0:0:0:
423,165,181002,1,0,0:0:0:0:
425,195,181111,1,0,0:0:0:0:
428,224,181220,5,4,0:0:0:0:
302,333,181654,2,2,L|255:278,1,59.4999981842042
408,305,182089,1,0,0:0:0:0:
286,226,182307,1,0,0:0:0:0:
301,331,182524,1,0,0:0:0:0:
392,211,182741,1,0,0:0:0:0:
303,49,182959,5,4,0:0:0:0:
145,128,183176,2,0,P|126:173|130:244,1,85
303,49,183611,1,0,0:0:0:0:
217,203,183828,2,0,P|212:251|238:317,1,85
303,49,184263,1,0,0:0:0:0:
128,100,184480,1,0,0:0:0:0:
65,260,184698,5,4,0:0:0:0:
182,319,184915,2,0,P|250:357|295:356,1,85
65,260,185350,1,0,0:0:0:0:
220,252,185567,2,0,P|297:260|338:241,1,85
65,260,186002,1,0,0:0:0:0:
206,162,186220,1,0,0:0:0:0:
390,129,186437,5,4,0:0:0:0:
239,41,186654,2,0,P|159:35|118:50,1,85
390,129,187089,1,0,0:0:0:0:
218,155,187307,2,0,P|146:191|118:225,1,85
390,129,187741,1,0,0:0:0:0:
289,257,187959,1,0,0:0:0:0:
455,274,188176,5,4,0:0:0:0:
390,129,188394,2,0,P|436:90|450:59,2,85
192,84,189046,1,8,0:3:0:0:
35,264,189372,1,8,0:3:0:0:
278,314,189698,1,8,0:3:0:0:
314,288,189807,1,8,0:3:0:0:
345,258,189915,6,4,P|390:191|361:93,1,170,4|0,0:0|0:0,0:0:0:0:
352,81,190567,1,4,0:0:0:0:
149,58,191002,1,4,0:0:0:0:
314,175,191437,1,4,0:0:0:0:
84,320,191872,5,0,0:0:0:0:
250,278,192089,1,0,0:0:0:0:
101,203,192307,1,0,0:0:0:0:
220,345,192524,1,0,0:0:0:0:
266,179,192741,1,0,0:0:0:0:
103,128,192959,1,0,0:0:0:0:
172,293,193176,1,0,0:0:0:0:
228,113,193394,5,0,0:0:0:0:
415,122,193611,1,0,0:0:0:0:
326,247,193828,1,0,0:0:0:0:
183,239,194046,1,8,0:3:0:0:
164,220,194154,1,8,0:3:0:0:
148,198,194263,1,8,0:3:0:0:
218,46,194480,1,0,0:0:0:0:
354,158,194698,1,0,0:0:0:0:
256,192,194915,12,2,196437,0:0:0:0:
106,173,196872,5,0,0:0:0:0:
245,62,197089,1,0,0:0:0:0:
188,224,197307,1,8,0:0:0:0:
343,102,197524,1,0,0:0:0:0:
385,141,197633,1,0,0:0:0:0:
415,190,197741,1,0,0:0:0:0:
432,248,197850,1,0,0:0:0:0:
428,306,197959,1,0,0:0:0:0:
297,311,198176,2,0,P|296:220|253:190,1,127.500004863739,8|0,0:0|0:0,0:0:0:0:
100,135,198611,5,0,0:0:0:0:
86,298,198828,1,0,0:0:0:0:
139,328,198937,1,0,0:0:0:0:
199,329,199046,1,8,0:0:0:0:
352,264,199263,1,0,0:0:0:0:
179,199,199480,1,0,0:0:0:0:
86,298,199698,1,0,0:0:0:0:
139,328,199807,1,0,0:0:0:0:
199,329,199916,1,8,0:0:0:0:
179,199,200133,1,0,0:0:0:0:
254,57,200350,6,0,P|317:108|330:183,2,127.500004863739,0|0|8,0:0|0:0|0:0,0:0:0:0:
115,103,201002,1,0,0:0:0:0:
138,157,201111,1,0,0:0:0:0:
179,199,201220,1,0,0:0:0:0:
236,213,201328,1,0,0:0:0:0:
295,212,201437,1,0,0:0:0:0:
458,178,201654,1,8,0:0:0:0:
374,322,201872,1,0,0:0:0:0:
210,352,202089,6,0,P|145:302|65:288,2,127.500004863739,0|0|8,0:0|0:0|0:0,0:0:0:0:
277,268,202741,1,0,0:0:0:0:
229,232,202850,1,0,0:0:0:0:
179,199,202958,1,0,0:0:0:0:
127,171,203067,1,0,0:0:0:0:
76,141,203176,1,0,0:0:0:0:
177,36,203394,1,8,0:0:0:0:
228,66,203503,1,0,0:0:0:0:
280,94,203612,1,0,0:0:0:0:
330,127,203720,1,0,0:0:0:0:
378,163,203829,5,4,0:1:0:0:
397,315,204046,1,0,0:0:0:0:
253,267,204263,1,8,0:0:0:0:
94,224,204480,2,0,L|153:248,1,63.7500024318696
209,213,204698,2,0,L|189:152,1,63.7500024318696
52,168,204915,2,0,P|100:109|177:103,1,127.500004863739,0|8,0:0|0:0,0:0:0:0:
360,66,205350,1,0,0:0:0:0:
394,107,205459,1,0,0:0:0:0:
421,150,205567,6,0,P|442:202|414:269,2,127.500004863739,0|0|8,0:0|0:0|0:0,0:0:0:0:
324,208,206220,1,0,0:0:0:0:
296,265,206328,1,0,0:0:0:0:
243,297,206437,1,0,0:0:0:0:
181,296,206546,1,0,0:0:0:0:
129,260,206654,1,0,0:0:0:0:
217,193,206872,1,8,0:0:0:0:
317,65,207089,2,0,L|258:40,1,63.7500024318696
194,38,207307,5,0,0:1:0:0:
56,193,207524,1,0,0:1:0:0:
246,291,207741,1,0,0:1:0:0:
345,74,207959,1,0,0:1:0:0:
92,93,208176,1,0,0:1:0:0:
333,268,208394,1,0,0:1:0:0:
166,44,208611,1,0,0:1:0:0:
217,47,208720,1,0,0:1:0:0:
266,61,208828,1,4,0:1:0:0:
443,246,209263,5,0,0:0:0:0:
399,293,209372,1,0,0:0:0:0:
346,327,209480,1,8,0:0:0:0:
282,327,209589,1,0,0:0:0:0:
224,299,209698,1,0,0:0:0:0:
196,241,209807,1,0,0:0:0:0:
217,181,209915,1,0,0:0:0:0:
270,146,210024,1,0,0:0:0:0:
288,84,210133,1,0,0:0:0:0:
255,29,210241,1,0,0:0:0:0:
192,15,210350,1,8,0:0:0:0:
136,46,210459,1,0,0:0:0:0:
115,106,210567,1,0,0:0:0:0:
126,168,210676,1,0,0:0:0:0:
127,226,210785,6,0,P|108:293|47:344,2,127.500004863739,4|0|8,0:1|0:0|0:0,0:0:0:0:
248,124,211437,1,0,0:0:0:0:
307,149,211546,1,0,0:0:0:0:
354,191,211654,1,0,0:0:0:0:
298,348,211872,2,0,P|214:319|200:282,1,127.500004863739,0|8,0:0|0:0,0:0:0:0:
170,180,212307,1,0,0:0:0:0:
115,209,212415,1,0,0:0:0:0:
77,260,212524,5,0,0:0:0:0:
277,271,212741,2,0,P|348:250|387:210,1,127.500004863739,0|8,0:0|0:0,0:0:0:0:
166,85,213176,2,0,P|104:100|58:142,2,127.500004863739
291,184,213828,1,8,0:0:0:0:
143,170,214046,1,0,0:0:0:0:
205,304,214263,5,0,0:0:0:0:
217,176,214481,2,0,L|225:102,2,63.7500024318696,0|0|8,0:0|0:0|0:0,0:0:0:0:
97,293,214915,2,0,L|50:343,2,63.7500024318696
50,140,215350,1,0,0:0:0:0:
186,44,215567,1,8,0:0:0:0:
319,143,215785,1,0,0:0:0:0:
192,258,216002,5,0,0:0:0:0:
392,322,216220,1,0,0:0:0:0:
416,268,216328,1,0,0:0:0:0:
429,207,216437,1,8,0:0:0:0:
322,46,216654,1,0,0:0:0:0:
225,157,216872,2,2,P|173:263|88:264,1,191.250007295609,0|0,0:0|0:0,0:0:0:0:
133,179,217524,1,0,0:0:0:0:
23,284,217741,6,2,P|98:361|217:333,1,191.250007295609
303,268,218394,1,0,0:0:0:0:
338,120,218611,2,2,P|257:135|340:109,1,255.000009727478,2|10,0:0|0:0,0:0:0:0:
295,103,219263,1,0,0:0:0:0:
295,103,219372,1,0,0:0:0:0:
295,103,219480,5,0,0:0:0:0:
452,206,219698,2,0,P|443:325|394:338,1,127.500004863739,0|8,0:0|0:0,0:0:0:0:
323,294,220133,1,0,0:0:0:0:
234,218,220350,1,0,0:0:0:0:
352,173,220568,1,0,0:0:0:0:
249,98,220785,1,8,0:0:0:0:
169,278,221002,1,0,0:0:0:0:
390,173,221220,5,2,0:0:0:0:
195,79,221437,1,2,0:0:0:0:
362,233,221654,1,2,0:0:0:0:
103,142,221872,1,2,0:0:0:0:
353,297,222089,1,2,0:0:0:0:
39,250,222307,1,2,0:0:0:0:
359,356,222524,1,2,0:0:0:0:
29,358,222741,1,2,0:0:0:0:
278,168,222959,5,2,0:0:0:0:
33,35,223176,1,2,0:0:0:0:
143,252,223394,1,2,0:0:0:0:
248,42,223611,1,2,0:0:0:0:
26,136,223828,1,2,0:0:0:0:
278,169,224046,1,2,0:0:0:0:
135,29,224263,1,2,0:0:0:0:
153,220,224480,1,2,0:0:0:0:
193,260,224589,1,2,0:0:0:0:
247,278,224697,5,2,0:0:0:0:
379,291,225133,1,2,0:0:0:0:
445,189,225567,1,2,0:0:0:0:
417,106,225785,2,4,P|374:140|366:196,2,85
86,86,226654,5,4,0:0:0:0:
353,296,226871,1,4,0:0:0:0:
392,44,227306,1,4,0:0:0:0:
134,266,227524,1,4,0:0:0:0:
