osu file format v14

[General]
AudioFilename: audio.mp3
AudioLeadIn: 0
PreviewTime: 10296
Countdown: 0
SampleSet: Normal
StackLeniency: 0.7
Mode: 1
LetterboxInBreaks: 0
WidescreenStoryboard: 1

[Editor]
DistanceSpacing: 0.9
BeatDivisor: 4
GridSize: 16
TimelineZoom: 1

[Metadata]
Title:tbh i dont like being social
TitleUnicode:tbh i dont like being social
Artist:luvlxckdown
ArtistUnicode:luvlxckdown
Creator:Yasuho
Version:what i have is plenty
Source:
Tags:mappers' guild mg mpg fa featured artist english hiphop hip hop hip-hop glitchcore hyperpop hyper pop lovelockdown to be honest don't
BeatmapID:3563795
BeatmapSetID:1739529

[Difficulty]
HPDrainRate:6
CircleSize:7
OverallDifficulty:6
ApproachRate:10
SliderMultiplier:1.4
SliderTickRate:1

[Events]
//Background and Video events
0,0,"pexels-pixabay-290164.jpg",0,0
//Break Periods
//Storyboard Layer 0 (Background)
//Storyboard Layer 1 (Fail)
//Storyboard Layer 2 (Pass)
//Storyboard Layer 3 (Foreground)
//Storyboard Layer 4 (Overlay)
//Storyboard Sound Samples

[TimingPoints]
154,349.752258816671,4,1,0,75,1,0
154,-111.111111111111,4,1,0,75,0,0
9597,-111.111111111111,4,1,0,75,0,0
9947,-111.111111111111,4,1,0,75,0,0
10121,-109.89010989011,4,1,0,75,0,0
10296,-108.695652173913,4,1,0,75,0,0
10471,-107.52688172043,4,1,0,75,0,0
10559,-106.382978723404,4,1,0,75,0,0
10646,-105.263157894737,4,1,0,75,0,0
10821,-104.166666666667,4,1,0,75,0,0
10996,-103.092783505155,4,1,0,75,0,0
11171,-102.040816326531,4,1,0,75,0,0
11258,-101.010101010101,4,1,0,75,0,0
11346,-100,4,1,0,90,0,0
34036,-100,4,1,0,60,0,0
36484,-100,4,1,0,80,0,0
65907,-100,4,1,0,80,0,0
66082,-101.010101010101,4,1,0,80,0,0
66169,-102.040816326531,4,1,0,80,0,0
66257,-103.092783505155,4,1,0,80,0,0
66432,-104.166666666667,4,1,0,80,0,0
66781,-106.382978723404,4,1,0,80,0,0
66956,-107.52688172043,4,1,0,80,0,0
67131,-108.695652173913,4,1,0,80,0,0
67262,-109.89010989011,4,1,0,60,0,0
67306,-111.111111111111,4,1,0,60,0,0
78498,-100,4,1,0,90,0,0
112074,-100,4,1,0,90,0,0
112118,-100,4,1,0,75,0,0
112424,-111.111111111111,4,1,0,75,0,0
123223,-100,4,1,0,80,0,0

[HitObjects]
256,176,154,5,8,0:0:0:0:
256,176,328,1,0,0:0:0:0:
256,176,503,1,8,0:0:0:0:
256,176,678,1,8,0:0:0:0:
167,182,853,1,0,0:0:0:0:
170,183,1028,1,0,0:0:0:0:
256,176,1203,1,0,0:0:0:0:
256,176,1553,1,8,0:0:0:0:
256,176,2077,1,8,0:0:0:0:
176,182,2252,1,8,0:0:0:0:
256,176,2427,1,0,0:0:0:0:
256,176,2952,1,8,0:0:0:0:
256,176,3126,1,0,0:0:0:0:
256,176,3301,1,8,0:0:0:0:
166,137,3476,1,0,0:0:0:0:
165,141,3651,1,0,0:0:0:0:
170,143,3826,1,0,0:0:0:0:
171,143,4001,1,8,0:0:0:0:
256,192,4176,1,0,0:0:0:0:
256,192,4351,1,8,0:0:0:0:
178,143,4525,1,0,0:0:0:0:
256,192,4875,1,8,0:0:0:0:
256,192,5050,1,8,0:0:0:0:
256,192,5225,1,0,0:0:0:0:
256,192,5750,1,8,0:0:0:0:
272,192,5924,1,0,0:0:0:0:
272,192,6099,1,8,0:0:0:0:
288,192,6274,1,8,0:0:0:0:
186,145,6449,1,0,0:0:0:0:
186,145,6624,1,0,0:0:0:0:
288,192,6799,1,0,0:0:0:0:
288,192,7149,1,8,0:0:0:0:
288,192,7498,1,0,0:0:0:0:
288,192,7673,1,8,0:0:0:0:
188,145,7848,1,0,0:0:0:0:
288,192,8023,1,0,0:0:0:0:
288,192,8198,1,8,0:0:0:0:
288,192,8548,1,8,0:0:0:0:
288,192,8722,1,0,0:0:0:0:
240,192,8897,1,8,0:0:0:0:
240,192,9072,1,8,0:0:0:0:
189,144,9247,1,0,0:0:0:0:
189,144,9422,1,0,0:0:0:0:
240,192,9597,1,0,0:0:0:0:
256,192,9947,1,8,0:0:0:0:
275,211,10121,1,8,0:0:0:0:
256,192,10296,1,0,0:0:0:0:
275,211,10471,1,0,0:0:0:0:
236,113,10559,1,0,0:0:0:0:
272,208,10646,1,8,0:0:0:0:
275,211,10821,1,0,0:0:0:0:
256,192,10996,1,0,0:0:0:0:
279,209,11171,1,8,0:0:0:0:
279,209,11258,1,8,0:0:0:0:
256,192,11346,5,4,0:0:0:0:
256,192,11695,1,8,0:0:0:0:
256,192,11870,1,0,0:0:0:0:
256,192,12045,1,8,0:0:0:0:
256,192,12220,1,0,0:0:0:0:
256,192,12307,1,0,0:0:0:0:
256,192,12395,1,8,0:0:0:0:
256,192,12570,1,0,0:0:0:0:
199,163,12657,1,0,0:0:0:0:
256,192,12745,1,0,0:0:0:0:
145,189,12919,1,0,0:0:0:0:
256,192,13094,1,8,0:0:0:0:
256,192,13444,1,8,0:0:0:0:
256,192,13619,1,0,0:0:0:0:
266,168,13706,1,0,0:0:0:0:
256,192,13794,1,8,0:0:0:0:
272,192,13969,1,8,0:0:0:0:
256,192,14144,1,0,0:0:0:0:
256,192,14493,1,8,0:0:0:0:
272,192,14668,1,0,0:0:0:0:
272,192,14756,1,8,0:0:0:0:
272,192,14843,1,8,0:0:0:0:
256,192,15018,1,0,0:0:0:0:
256,192,15193,1,8,0:0:0:0:
256,192,15368,1,0,0:0:0:0:
189,47,15455,1,0,0:0:0:0:
256,192,15543,1,0,0:0:0:0:
256,192,15892,1,8,0:0:0:0:
256,192,16067,1,0,0:0:0:0:
256,192,16242,1,0,0:0:0:0:
256,192,16417,1,8,0:0:0:0:
256,192,16504,1,0,0:0:0:0:
256,192,16592,1,0,0:0:0:0:
256,192,16767,1,0,0:0:0:0:
191,47,16942,1,0,0:0:0:0:
256,192,17291,1,8,0:0:0:0:
272,192,17466,1,0,0:0:0:0:
272,192,17641,1,8,0:0:0:0:
196,117,17729,1,8,0:0:0:0:
271,66,17816,1,0,0:0:0:0:
196,117,17903,1,0,0:0:0:0:
256,192,17991,1,8,0:0:0:0:
256,192,18166,1,0,0:0:0:0:
256,192,18341,1,0,0:0:0:0:
256,192,18690,1,8,0:0:0:0:
272,192,18865,1,0,0:0:0:0:
272,192,19040,1,8,0:0:0:0:
208,125,19128,1,8,0:0:0:0:
272,192,19215,1,0,0:0:0:0:
256,208,19302,1,0,0:0:0:0:
272,192,19390,1,8,0:0:0:0:
272,192,19565,1,8,0:0:0:0:
272,192,19740,1,0,0:0:0:0:
272,192,20089,1,8,0:0:0:0:
272,192,20264,1,0,0:0:0:0:
272,192,20439,1,8,0:0:0:0:
272,192,20614,1,0,0:0:0:0:
275,79,20701,1,0,0:0:0:0:
272,192,20789,1,8,0:0:0:0:
272,192,20964,1,0,0:0:0:0:
272,192,21139,1,0,0:0:0:0:
272,192,21314,1,0,0:0:0:0:
272,192,21488,1,0,0:0:0:0:
288,192,21663,1,8,0:0:0:0:
288,192,21751,1,8,0:0:0:0:
288,192,21838,1,8,0:0:0:0:
272,192,22013,1,0,0:0:0:0:
272,192,22188,1,8,0:0:0:0:
277,80,22363,1,8,0:0:0:0:
256,192,22538,1,4,0:0:0:0:
256,192,22887,1,8,0:0:0:0:
256,192,23062,1,0,0:0:0:0:
256,192,23237,1,8,0:0:0:0:
189,92,23325,1,0,0:0:0:0:
256,192,23412,1,0,0:0:0:0:
256,192,23499,1,0,0:0:0:0:
256,192,23587,1,8,0:0:0:0:
256,192,23762,1,0,0:0:0:0:
256,192,23937,1,0,0:0:0:0:
166,106,24112,1,0,0:0:0:0:
256,192,24286,1,8,0:0:0:0:
256,192,24636,1,8,0:0:0:0:
256,192,24811,1,0,0:0:0:0:
166,106,24898,1,8,0:0:0:0:
256,192,24986,1,8,0:0:0:0:
256,192,25161,1,8,0:0:0:0:
256,192,25336,1,0,0:0:0:0:
256,192,25685,1,8,0:0:0:0:
256,192,25860,1,8,0:0:0:0:
193,168,25948,1,0,0:0:0:0:
256,192,26035,1,8,0:0:0:0:
256,192,26210,1,0,0:0:0:0:
256,192,26385,1,8,0:0:0:0:
256,192,26560,1,0,0:0:0:0:
234,100,26647,1,0,0:0:0:0:
256,192,26735,1,0,0:0:0:0:
256,192,27084,1,8,0:0:0:0:
256,192,27259,1,0,0:0:0:0:
256,192,27434,1,0,0:0:0:0:
251,204,27522,1,0,0:0:0:0:
256,192,27609,1,8,0:0:0:0:
226,96,27696,1,8,0:0:0:0:
256,192,27784,1,0,0:0:0:0:
256,192,27959,1,0,0:0:0:0:
256,192,28134,1,0,0:0:0:0:
256,192,28483,1,8,0:0:0:0:
256,192,28658,1,0,0:0:0:0:
272,192,28833,1,8,0:0:0:0:
256,192,29008,1,8,0:0:0:0:
272,192,29095,1,0,0:0:0:0:
256,192,29183,1,8,0:0:0:0:
256,192,29358,1,0,0:0:0:0:
256,192,29533,1,0,0:0:0:0:
222,169,29708,1,0,0:0:0:0:
256,192,29882,1,8,0:0:0:0:
272,192,30057,1,0,0:0:0:0:
248,182,30145,1,0,0:0:0:0:
272,192,30232,1,8,0:0:0:0:
272,192,30407,1,0,0:0:0:0:
272,192,30582,1,0,0:0:0:0:
272,192,30669,1,0,0:0:0:0:
272,192,30757,1,0,0:0:0:0:
272,192,30844,1,0,0:0:0:0:
272,192,30932,1,8,0:0:0:0:
272,192,31281,1,8,0:0:0:0:
272,192,31456,1,0,0:0:0:0:
272,192,31631,1,8,0:0:0:0:
272,192,31806,1,8,0:0:0:0:
260,182,31894,1,0,0:0:0:0:
272,192,31981,1,8,0:0:0:0:
272,208,32156,1,0,0:0:0:0:
272,208,32331,1,0,0:0:0:0:
258,195,32506,1,8,0:0:0:0:
259,195,32593,1,8,0:0:0:0:
272,208,32680,1,8,0:0:0:0:
272,208,32855,1,0,0:0:0:0:
272,208,33030,1,0,0:0:0:0:
272,208,33205,1,8,0:0:0:0:
262,194,33293,1,8,0:0:0:0:
272,208,33380,1,0,0:0:0:0:
272,208,33555,1,0,0:0:0:0:
272,208,33730,1,8,0:0:0:0:
272,208,34079,1,8,0:0:0:0:
288,208,34254,1,0,0:0:0:0:
263,193,34429,1,0,0:0:0:0:
272,208,34604,1,0,0:0:0:0:
272,208,34779,1,8,0:0:0:0:
288,208,35129,1,0,0:0:0:0:
272,208,35304,1,0,0:0:0:0:
272,208,35478,1,8,0:0:0:0:
264,193,35653,1,8,0:0:0:0:
288,208,35828,1,0,0:0:0:0:
259,97,36178,1,8,0:0:0:0:
272,208,36528,1,0,0:0:0:0:
240,118,36703,1,0,0:0:0:0:
272,208,36877,1,8,0:0:0:0:
272,144,37052,1,8,0:0:0:0:
240,118,37140,1,8,0:0:0:0:
272,144,37227,1,0,0:0:0:0:
272,208,37402,1,0,0:0:0:0:
272,208,37577,1,8,0:0:0:0:
272,208,37752,1,0,0:0:0:0:
272,208,37927,1,0,0:0:0:0:
288,208,38276,1,0,0:0:0:0:
288,208,38626,1,0,0:0:0:0:
288,208,38976,1,0,0:0:0:0:
288,208,39151,1,8,0:0:0:0:
288,208,39326,1,0,0:0:0:0:
288,208,39676,1,8,0:0:0:0:
272,144,39850,1,0,0:0:0:0:
241,114,39938,1,0,0:0:0:0:
272,144,40025,1,8,0:0:0:0:
288,208,40200,1,0,0:0:0:0:
288,208,40375,1,8,0:0:0:0:
288,208,40550,1,0,0:0:0:0:
288,208,40725,1,0,0:0:0:0:
288,208,41075,1,8,0:0:0:0:
272,144,41424,1,8,0:0:0:0:
288,208,41599,1,0,0:0:0:0:
241,113,41687,1,0,0:0:0:0:
288,208,41774,1,8,0:0:0:0:
272,144,41949,1,8,0:0:0:0:
139,207,42036,1,8,0:0:0:0:
288,208,42124,1,0,0:0:0:0:
304,208,42474,1,8,0:0:0:0:
272,192,42823,1,8,0:0:0:0:
304,208,42998,1,0,0:0:0:0:
241,112,43086,1,8,0:0:0:0:
304,208,43173,1,8,0:0:0:0:
304,208,43348,1,0,0:0:0:0:
304,208,43523,1,0,0:0:0:0:
304,208,43698,1,0,0:0:0:0:
304,208,44047,1,8,0:0:0:0:
304,208,44397,1,0,0:0:0:0:
295,207,44572,1,8,0:0:0:0:
304,208,44747,1,0,0:0:0:0:
304,208,44922,1,8,0:0:0:0:
304,208,45272,1,8,0:0:0:0:
304,208,45796,1,0,0:0:0:0:
304,208,45971,1,8,0:0:0:0:
304,208,46146,1,0,0:0:0:0:
304,208,46321,1,0,0:0:0:0:
283,194,46496,1,8,0:0:0:0:
283,194,46583,1,8,0:0:0:0:
320,208,46671,1,8,0:0:0:0:
272,192,46845,1,8,0:0:0:0:
272,192,47020,1,0,0:0:0:0:
320,208,47195,1,0,0:0:0:0:
320,208,47370,1,8,0:0:0:0:
320,208,47720,1,0,0:0:0:0:
282,192,47895,1,0,0:0:0:0:
320,208,48070,1,8,0:0:0:0:
272,192,48244,1,0,0:0:0:0:
263,184,48332,1,0,0:0:0:0:
272,192,48419,1,8,0:0:0:0:
320,208,48594,1,0,0:0:0:0:
320,208,48769,1,8,0:0:0:0:
320,208,48944,1,0,0:0:0:0:
320,208,49119,1,8,0:0:0:0:
235,157,49206,1,8,0:0:0:0:
263,184,49294,1,0,0:0:0:0:
320,208,49469,1,8,0:0:0:0:
320,208,49643,1,0,0:0:0:0:
320,208,49818,1,0,0:0:0:0:
320,208,49993,1,8,0:0:0:0:
320,208,50518,1,0,0:0:0:0:
266,183,50693,1,0,0:0:0:0:
320,208,50868,1,8,0:0:0:0:
256,152,51042,1,8,0:0:0:0:
320,187,51130,1,8,0:0:0:0:
272,192,51217,1,8,0:0:0:0:
320,208,51392,1,0,0:0:0:0:
320,208,51567,1,8,0:0:0:0:
320,208,51742,1,0,0:0:0:0:
320,208,51917,1,0,0:0:0:0:
229,134,52092,1,8,0:0:0:0:
262,150,52179,1,0,0:0:0:0:
320,224,52267,1,8,0:0:0:0:
229,134,52441,1,0,0:0:0:0:
320,208,52616,1,8,0:0:0:0:
320,224,52791,1,0,0:0:0:0:
320,224,52966,1,0,0:0:0:0:
272,192,53054,1,0,0:0:0:0:
272,192,53141,1,0,0:0:0:0:
256,192,53228,1,0,0:0:0:0:
272,192,53316,1,8,0:0:0:0:
272,192,53666,1,8,0:0:0:0:
288,208,54015,1,8,0:0:0:0:
272,192,54190,1,0,0:0:0:0:
225,128,54278,1,8,0:0:0:0:
256,176,54365,1,8,0:0:0:0:
256,176,54540,1,0,0:0:0:0:
256,176,54715,1,0,0:0:0:0:
256,176,55065,1,8,0:0:0:0:
256,176,55239,1,0,0:0:0:0:
256,176,55414,1,0,0:0:0:0:
163,119,55502,1,0,0:0:0:0:
240,160,55589,1,0,0:0:0:0:
163,119,55677,1,0,0:0:0:0:
240,160,55764,1,8,0:0:0:0:
240,176,55939,1,8,0:0:0:0:
240,176,56114,1,0,0:0:0:0:
240,176,56464,1,8,0:0:0:0:
240,160,56638,1,0,0:0:0:0:
241,113,56813,1,8,0:0:0:0:
240,176,56988,1,0,0:0:0:0:
176,160,57163,1,8,0:0:0:0:
208,176,57338,1,0,0:0:0:0:
208,176,57513,1,0,0:0:0:0:
208,176,57863,1,8,0:0:0:0:
224,176,58037,1,8,0:0:0:0:
243,112,58125,1,8,0:0:0:0:
224,176,58212,1,0,0:0:0:0:
208,176,58387,1,0,0:0:0:0:
208,176,58562,1,8,0:0:0:0:
208,176,58912,1,0,0:0:0:0:
208,176,59262,1,8,0:0:0:0:
176,176,59437,1,8,0:0:0:0:
176,176,59611,1,0,0:0:0:0:
208,176,59786,1,8,0:0:0:0:
243,112,59874,1,0,0:0:0:0:
208,176,59961,1,8,0:0:0:0:
208,176,60136,1,0,0:0:0:0:
208,176,60311,1,0,0:0:0:0:
155,119,60486,1,0,0:0:0:0:
208,176,60661,1,8,0:0:0:0:
208,176,60836,1,0,0:0:0:0:
208,176,61010,1,0,0:0:0:0:
208,176,61185,1,8,0:0:0:0:
189,167,61273,1,8,0:0:0:0:
208,176,61360,1,0,0:0:0:0:
208,176,61535,1,0,0:0:0:0:
208,176,61710,1,8,0:0:0:0:
208,176,62060,1,8,0:0:0:0:
176,176,62235,1,0,0:0:0:0:
176,176,62409,1,8,0:0:0:0:
171,103,62584,1,8,0:0:0:0:
204,151,62672,1,0,0:0:0:0:
224,176,62759,1,8,0:0:0:0:
240,176,62934,1,0,0:0:0:0:
240,176,63109,1,0,0:0:0:0:
174,169,63284,1,8,0:0:0:0:
240,144,63459,1,8,0:0:0:0:
192,176,63808,1,8,0:0:0:0:
240,144,63983,1,0,0:0:0:0:
240,144,64158,1,0,0:0:0:0:
240,144,64246,1,0,0:0:0:0:
240,144,64333,1,0,0:0:0:0:
224,160,64420,1,0,0:0:0:0:
240,144,64508,1,8,0:0:0:0:
240,144,64858,1,8,0:0:0:0:
199,168,65033,1,0,0:0:0:0:
240,160,65207,1,8,0:0:0:0:
240,160,65382,1,0,0:0:0:0:
240,160,65557,1,8,0:0:0:0:
240,160,65732,1,0,0:0:0:0:
240,160,65907,1,0,0:0:0:0:
201,165,66082,1,8,0:0:0:0:
204,165,66169,1,0,0:0:0:0:
240,160,66257,1,8,0:0:0:0:
240,160,66432,1,8,0:0:0:0:
208,160,66781,1,0,0:0:0:0:
208,160,66956,1,0,0:0:0:0:
204,165,67131,1,8,0:0:0:0:
256,192,67306,1,0,0:0:0:0:
208,160,67831,1,0,0:0:0:0:
208,176,68005,1,8,0:0:0:0:
211,162,68180,1,8,0:0:0:0:
208,176,68355,1,0,0:0:0:0:
212,162,68530,1,0,0:0:0:0:
256,192,68705,1,8,0:0:0:0:
211,162,69055,1,0,0:0:0:0:
234,190,69317,1,0,0:0:0:0:
224,176,69404,1,8,0:0:0:0:
218,174,69579,1,8,0:0:0:0:
224,176,69754,1,8,0:0:0:0:
220,174,69929,1,0,0:0:0:0:
240,192,70104,1,0,0:0:0:0:
235,188,70629,1,0,0:0:0:0:
224,176,70803,1,8,0:0:0:0:
237,188,70978,1,8,0:0:0:0:
224,176,71153,1,0,0:0:0:0:
235,188,71328,1,0,0:0:0:0:
256,192,71503,1,0,0:0:0:0:
237,188,71853,1,8,0:0:0:0:
241,190,72028,1,0,0:0:0:0:
224,176,72202,1,8,0:0:0:0:
282,181,72377,1,8,0:0:0:0:
224,176,72552,1,0,0:0:0:0:
271,189,72727,1,0,0:0:0:0:
256,192,72902,1,8,0:0:0:0:
243,156,73427,1,0,0:0:0:0:
272,176,73601,1,8,0:0:0:0:
220,153,73776,1,8,0:0:0:0:
256,176,73951,1,8,0:0:0:0:
220,153,74126,1,0,0:0:0:0:
256,192,74301,1,0,0:0:0:0:
220,153,74651,1,8,0:0:0:0:
220,153,74826,1,0,0:0:0:0:
216,179,74913,1,0,0:0:0:0:
256,176,75000,1,0,0:0:0:0:
220,153,75175,1,8,0:0:0:0:
256,176,75350,1,0,0:0:0:0:
183,155,75525,1,8,0:0:0:0:
256,192,75700,1,0,0:0:0:0:
183,155,76225,1,0,0:0:0:0:
256,176,76399,1,8,0:0:0:0:
188,155,76574,1,8,0:0:0:0:
256,176,76749,1,0,0:0:0:0:
191,155,76924,1,0,0:0:0:0:
256,192,77099,1,8,0:0:0:0:
256,192,78498,1,4,0:0:0:0:
256,192,78847,1,8,0:0:0:0:
272,192,79023,1,8,0:0:0:0:
240,176,79110,1,0,0:0:0:0:
272,192,79198,1,8,0:0:0:0:
256,192,79372,1,0,0:0:0:0:
197,113,79460,1,0,0:0:0:0:
256,192,79547,1,0,0:0:0:0:
256,192,79722,1,8,0:0:0:0:
256,192,79897,1,0,0:0:0:0:
256,192,80246,1,8,0:0:0:0:
272,192,80422,1,0,0:0:0:0:
272,192,80597,1,8,0:0:0:0:
256,192,80771,1,8,0:0:0:0:
240,176,80859,1,8,0:0:0:0:
256,192,80946,1,0,0:0:0:0:
256,192,81121,1,8,0:0:0:0:
256,192,81296,1,0,0:0:0:0:
256,192,81645,1,8,0:0:0:0:
256,192,81821,1,0,0:0:0:0:
256,192,81996,1,8,0:0:0:0:
202,124,82083,1,0,0:0:0:0:
256,192,82170,1,0,0:0:0:0:
256,192,82345,1,8,0:0:0:0:
256,192,82520,1,0,0:0:0:0:
256,192,82695,1,0,0:0:0:0:
256,192,83044,1,8,0:0:0:0:
256,192,83219,1,0,0:0:0:0:
256,192,83394,1,0,0:0:0:0:
154,145,83482,1,0,0:0:0:0:
256,192,83569,1,8,0:0:0:0:
154,145,83657,1,8,0:0:0:0:
256,192,83744,1,0,0:0:0:0:
256,192,83919,1,8,0:0:0:0:
256,192,84094,1,0,0:0:0:0:
256,192,84443,1,8,0:0:0:0:
256,192,84794,1,0,0:0:0:0:
256,192,84968,1,0,0:0:0:0:
176,127,85056,1,8,0:0:0:0:
256,192,85143,1,8,0:0:0:0:
256,192,85318,1,0,0:0:0:0:
256,192,85493,1,0,0:0:0:0:
256,192,85842,1,8,0:0:0:0:
256,192,86018,1,0,0:0:0:0:
256,192,86193,1,8,0:0:0:0:
272,192,86367,1,0,0:0:0:0:
272,192,86542,1,0,0:0:0:0:
272,192,86630,1,0,0:0:0:0:
272,192,86717,1,0,0:0:0:0:
272,192,86805,1,0,0:0:0:0:
272,192,86892,1,8,0:0:0:0:
272,192,87241,1,8,0:0:0:0:
256,192,87417,1,0,0:0:0:0:
256,192,87592,1,8,0:0:0:0:
272,192,87766,1,8,0:0:0:0:
193,115,87854,1,0,0:0:0:0:
272,192,87941,1,8,0:0:0:0:
272,192,88116,1,0,0:0:0:0:
272,192,88291,1,0,0:0:0:0:
272,192,88466,1,8,0:0:0:0:
272,192,88553,1,8,0:0:0:0:
272,192,88641,1,8,0:0:0:0:
256,192,88816,1,0,0:0:0:0:
256,192,88991,1,0,0:0:0:0:
160,51,89165,1,0,0:0:0:0:
256,192,89340,1,8,0:0:0:0:
180,108,89515,1,8,0:0:0:0:
256,192,89690,1,4,0:0:0:0:
256,192,90039,1,8,0:0:0:0:
256,192,90214,1,0,0:0:0:0:
104,159,90302,1,0,0:0:0:0:
256,192,90389,1,8,0:0:0:0:
256,192,90564,1,8,0:0:0:0:
170,68,90652,1,0,0:0:0:0:
256,192,90739,1,8,0:0:0:0:
256,192,90914,1,0,0:0:0:0:
256,192,91089,1,0,0:0:0:0:
166,106,91264,1,8,0:0:0:0:
256,192,91439,1,0,0:0:0:0:
171,159,91614,1,0,0:0:0:0:
171,159,91701,1,0,0:0:0:0:
256,192,91788,1,8,0:0:0:0:
256,192,91963,1,0,0:0:0:0:
166,106,92050,1,8,0:0:0:0:
256,192,92138,1,8,0:0:0:0:
256,192,92313,1,8,0:0:0:0:
256,192,92488,1,0,0:0:0:0:
256,192,92837,1,8,0:0:0:0:
256,192,93012,1,0,0:0:0:0:
256,192,93100,1,0,0:0:0:0:
256,192,93187,1,8,0:0:0:0:
256,192,93362,1,0,0:0:0:0:
256,192,93537,1,8,0:0:0:0:
256,192,93712,1,0,0:0:0:0:
234,100,93799,1,0,0:0:0:0:
256,192,93887,1,0,0:0:0:0:
256,192,94236,1,8,0:0:0:0:
256,192,94411,1,0,0:0:0:0:
256,192,94586,1,0,0:0:0:0:
251,204,94674,1,0,0:0:0:0:
256,192,94761,1,8,0:0:0:0:
226,96,94848,1,8,0:0:0:0:
256,192,94936,1,0,0:0:0:0:
256,192,95111,1,8,0:0:0:0:
256,192,95286,1,0,0:0:0:0:
256,192,95635,1,8,0:0:0:0:
256,192,95810,1,0,0:0:0:0:
272,192,95985,1,8,0:0:0:0:
256,192,96160,1,8,0:0:0:0:
272,192,96247,1,0,0:0:0:0:
256,192,96335,1,8,0:0:0:0:
256,192,96510,1,0,0:0:0:0:
256,192,96685,1,0,0:0:0:0:
222,169,96860,1,0,0:0:0:0:
256,192,97034,1,8,0:0:0:0:
272,192,97209,1,0,0:0:0:0:
248,182,97297,1,0,0:0:0:0:
272,192,97384,1,8,0:0:0:0:
272,192,97559,1,0,0:0:0:0:
272,192,97734,1,0,0:0:0:0:
272,192,97821,1,0,0:0:0:0:
272,192,97909,1,0,0:0:0:0:
272,192,97996,1,0,0:0:0:0:
272,192,98084,1,8,0:0:0:0:
272,192,98433,1,8,0:0:0:0:
272,192,98608,1,0,0:0:0:0:
272,192,98783,1,8,0:0:0:0:
272,192,98958,1,0,0:0:0:0:
260,182,99046,1,0,0:0:0:0:
272,192,99133,1,8,0:0:0:0:
272,208,99308,1,0,0:0:0:0:
272,208,99483,1,0,0:0:0:0:
258,195,99658,1,8,0:0:0:0:
259,195,99745,1,8,0:0:0:0:
272,208,99832,1,8,0:0:0:0:
272,208,100007,1,0,0:0:0:0:
152,135,100095,1,0,0:0:0:0:
272,208,100182,1,0,0:0:0:0:
272,208,100357,1,8,0:0:0:0:
262,194,100445,1,8,0:0:0:0:
272,208,100532,1,0,0:0:0:0:
272,208,100707,1,8,0:0:0:0:
256,192,100882,1,4,0:0:0:0:
256,192,101231,1,8,0:0:0:0:
256,192,101406,1,0,0:0:0:0:
256,192,101494,1,0,0:0:0:0:
256,192,101581,1,8,0:0:0:0:
256,192,101756,1,0,0:0:0:0:
256,192,101931,1,8,0:0:0:0:
256,192,102106,1,0,0:0:0:0:
199,163,102193,1,0,0:0:0:0:
256,192,102281,1,0,0:0:0:0:
145,189,102455,1,0,0:0:0:0:
256,192,102630,1,8,0:0:0:0:
256,192,102980,1,8,0:0:0:0:
256,192,103155,1,0,0:0:0:0:
266,168,103242,1,0,0:0:0:0:
256,192,103330,1,8,0:0:0:0:
272,192,103505,1,8,0:0:0:0:
256,192,103680,1,0,0:0:0:0:
256,192,104029,1,8,0:0:0:0:
272,192,104204,1,0,0:0:0:0:
272,192,104292,1,0,0:0:0:0:
272,192,104379,1,8,0:0:0:0:
256,192,104554,1,0,0:0:0:0:
256,192,104729,1,8,0:0:0:0:
256,192,104904,1,0,0:0:0:0:
189,47,104991,1,0,0:0:0:0:
256,192,105079,1,0,0:0:0:0:
165,162,105254,1,8,0:0:0:0:
256,192,105428,1,8,0:0:0:0:
256,192,105603,1,0,0:0:0:0:
256,192,105779,1,0,0:0:0:0:
179,151,105866,1,0,0:0:0:0:
256,192,105953,1,8,0:0:0:0:
256,192,106041,1,8,0:0:0:0:
256,192,106128,1,0,0:0:0:0:
256,192,106303,1,0,0:0:0:0:
191,47,106478,1,0,0:0:0:0:
256,192,106827,1,8,0:0:0:0:
272,192,107002,1,0,0:0:0:0:
272,192,107177,1,8,0:0:0:0:
196,117,107265,1,8,0:0:0:0:
271,66,107352,1,0,0:0:0:0:
196,117,107439,1,0,0:0:0:0:
256,192,107527,1,8,0:0:0:0:
256,192,107702,1,0,0:0:0:0:
256,192,107877,1,0,0:0:0:0:
256,192,108226,1,8,0:0:0:0:
272,192,108401,1,0,0:0:0:0:
272,192,108576,1,8,0:0:0:0:
272,192,108751,1,0,0:0:0:0:
272,192,108926,1,0,0:0:0:0:
147,158,109014,1,0,0:0:0:0:
272,192,109101,1,0,0:0:0:0:
156,157,109189,1,0,0:0:0:0:
272,192,109276,1,8,0:0:0:0:
272,192,109625,1,8,0:0:0:0:
272,192,109800,1,0,0:0:0:0:
275,79,109888,1,0,0:0:0:0:
272,192,109975,1,8,0:0:0:0:
272,192,110150,1,0,0:0:0:0:
272,192,110325,1,8,0:0:0:0:
272,192,110500,1,0,0:0:0:0:
272,192,110675,1,8,0:0:0:0:
272,192,110850,1,0,0:0:0:0:
272,192,111024,1,0,0:0:0:0:
288,192,111199,1,8,0:0:0:0:
288,192,111287,1,8,0:0:0:0:
288,192,111374,1,8,0:0:0:0:
272,192,111549,1,0,0:0:0:0:
272,192,111724,1,8,0:0:0:0:
277,80,111899,1,0,0:0:0:0:
256,192,112074,1,12,0:0:0:0:
272,192,112424,1,8,0:0:0:0:
272,192,112599,1,0,0:0:0:0:
194,161,112774,1,8,0:0:0:0:
272,192,113123,1,0,0:0:0:0:
272,192,113473,1,8,0:0:0:0:
288,192,113823,1,0,0:0:0:0:
288,192,113998,1,8,0:0:0:0:
153,163,114173,1,0,0:0:0:0:
159,165,114348,1,8,0:0:0:0:
288,192,114522,1,0,0:0:0:0:
179,164,114697,1,8,0:0:0:0:
288,192,114872,1,0,0:0:0:0:
288,192,115047,1,0,0:0:0:0:
288,192,115222,1,8,0:0:0:0:
288,192,115572,1,8,0:0:0:0:
288,192,115921,1,8,0:0:0:0:
288,192,116096,1,0,0:0:0:0:
288,192,116271,1,8,0:0:0:0:
197,161,116621,1,0,0:0:0:0:
288,192,116796,1,8,0:0:0:0:
197,161,116971,1,8,0:0:0:0:
197,161,117146,1,0,0:0:0:0:
288,192,117321,1,0,0:0:0:0:
197,161,117495,1,0,0:0:0:0:
197,161,117583,1,0,0:0:0:0:
288,192,117670,1,8,0:0:0:0:
288,192,118020,1,8,0:0:0:0:
288,192,118195,1,0,0:0:0:0:
288,192,118720,1,0,0:0:0:0:
288,192,119069,1,8,0:0:0:0:
207,94,119244,1,0,0:0:0:0:
288,192,119419,1,8,0:0:0:0:
288,192,119594,1,0,0:0:0:0:
207,94,119769,1,8,0:0:0:0:
207,94,119944,1,8,0:0:0:0:
288,192,120119,1,0,0:0:0:0:
210,97,120293,1,8,0:0:0:0:
288,192,120468,1,0,0:0:0:0:
288,192,120818,1,8,0:0:0:0:
288,192,120993,1,0,0:0:0:0:
288,192,121518,1,0,0:0:0:0:
288,192,121867,1,8,0:0:0:0:
288,192,122217,1,0,0:0:0:0:
288,192,122392,1,8,0:0:0:0:
211,98,122567,1,8,0:0:0:0:
211,98,122742,1,0,0:0:0:0:
288,192,122917,1,0,0:0:0:0:
201,167,123091,1,8,0:0:0:0:
256,192,123266,5,4,0:0:0:0:
256,192,123616,1,8,0:0:0:0:
215,101,123966,1,8,0:0:0:0:
272,192,124141,1,0,0:0:0:0:
272,192,124316,1,8,0:0:0:0:
272,192,124490,1,0,0:0:0:0:
272,192,124665,1,0,0:0:0:0:
272,192,125015,1,8,0:0:0:0:
256,192,125190,1,0,0:0:0:0:
272,192,125365,1,8,0:0:0:0:
272,192,125540,1,0,0:0:0:0:
216,103,125627,1,0,0:0:0:0:
272,192,125715,1,8,0:0:0:0:
288,192,126064,1,0,0:0:0:0:
272,192,126239,1,0,0:0:0:0:
288,192,126414,1,8,0:0:0:0:
272,192,126764,1,8,0:0:0:0:
288,192,126939,1,0,0:0:0:0:
186,91,127026,1,0,0:0:0:0:
288,192,127114,1,8,0:0:0:0:
288,192,127288,1,0,0:0:0:0:
288,192,127463,1,0,0:0:0:0:
272,192,127638,1,8,0:0:0:0:
272,192,127726,1,8,0:0:0:0:
288,192,127813,1,8,0:0:0:0:
304,192,127988,1,0,0:0:0:0:
304,192,128163,1,0,0:0:0:0:
304,192,128338,1,8,0:0:0:0:
187,93,128425,1,8,0:0:0:0:
304,192,128513,1,0,0:0:0:0:
304,192,128687,1,0,0:0:0:0:
304,192,128862,1,0,0:0:0:0:
304,192,129212,1,8,0:0:0:0:
189,93,129562,1,8,0:0:0:0:
304,192,129737,1,0,0:0:0:0:
189,93,129824,1,0,0:0:0:0:
304,192,129912,1,8,0:0:0:0:
304,192,130086,1,0,0:0:0:0:
304,192,130261,1,0,0:0:0:0:
203,168,130436,1,0,0:0:0:0:
304,192,130611,1,8,0:0:0:0:
272,192,130786,1,0,0:0:0:0:
280,171,130873,1,0,0:0:0:0:
192,97,130961,1,8,0:0:0:0:
304,192,131136,1,0,0:0:0:0:
304,192,131311,1,8,0:0:0:0:
320,192,131660,1,0,0:0:0:0:
320,192,132010,1,8,0:0:0:0:
194,97,132360,1,8,0:0:0:0:
320,192,132535,1,0,0:0:0:0:
194,97,132622,1,0,0:0:0:0:
320,192,132710,1,8,0:0:0:0:
320,192,132884,1,0,0:0:0:0:
272,192,133059,1,8,0:0:0:0:
194,97,133147,1,8,0:0:0:0:
320,192,133234,1,0,0:0:0:0:
320,192,133409,1,8,0:0:0:0:
320,192,133759,1,0,0:0:0:0:
320,192,133934,1,0,0:0:0:0:
288,192,134458,1,12,0:0:0:0:
