osu file format v14

[General]
AudioFilename: audio.mp3
AudioLeadIn: 0
PreviewTime: 10296
Countdown: 0
SampleSet: Normal
StackLeniency: 0.7
Mode: 1
LetterboxInBreaks: 0
WidescreenStoryboard: 1

[Editor]
DistanceSpacing: 0.9
BeatDivisor: 4
GridSize: 16
TimelineZoom: 1

[Metadata]
Title:tbh i dont like being social
TitleUnicode:tbh i dont like being social
Artist:luvlxckdown
ArtistUnicode:luvlxckdown
Creator:Yasuho
Version:futsuu
Source:
Tags:mappers' guild mg mpg fa featured artist english hiphop hip hop hip-hop glitchcore hyperpop hyper pop lovelockdown to be honest don't
BeatmapID:3555273
BeatmapSetID:1739529

[Difficulty]
HPDrainRate:7
CircleSize:7
OverallDifficulty:3
ApproachRate:10
SliderMultiplier:1.4
SliderTickRate:1

[Events]
//Background and Video events
0,0,"pexels-pixabay-290164.jpg",0,0
//Break Periods
2,112274,122816
//Storyboard Layer 0 (Background)
//Storyboard Layer 1 (Fail)
//Storyboard Layer 2 (Pass)
//Storyboard Layer 3 (Foreground)
//Storyboard Layer 4 (Overlay)
//Storyboard Sound Samples

[TimingPoints]
154,349.752258816671,4,1,0,75,1,0
154,-100,4,1,0,75,0,0
11346,-100,4,1,0,90,0,0
34036,-100,4,1,0,60,0,0
36484,-100,4,1,0,80,0,0
67262,-100,4,1,0,60,0,0
78498,-100,4,1,0,90,0,0
112074,-100,4,1,0,90,0,0
112118,-100,4,1,0,75,0,0
123223,-100,4,1,0,80,0,0

[HitObjects]
256,192,11346,5,4,0:0:0:0:
256,192,11695,1,8,0:0:0:0:
256,192,12220,1,0,0:0:0:0:
256,192,12395,1,8,0:0:0:0:
256,192,12745,1,0,0:0:0:0:
256,192,13094,1,8,0:0:0:0:
256,192,13619,1,8,0:0:0:0:
256,192,13794,1,8,0:0:0:0:
256,192,14144,1,0,0:0:0:0:
256,192,14493,1,8,0:0:0:0:
256,192,15018,1,0,0:0:0:0:
256,192,15193,1,8,0:0:0:0:
256,192,15543,1,0,0:0:0:0:
256,192,15892,1,8,0:0:0:0:
256,192,16067,1,0,0:0:0:0:
256,192,16417,1,8,0:0:0:0:
256,192,16592,1,0,0:0:0:0:
256,192,16942,1,0,0:0:0:0:
256,192,17291,1,8,0:0:0:0:
256,192,17816,1,0,0:0:0:0:
256,192,17991,1,8,0:0:0:0:
256,192,18341,1,0,0:0:0:0:
256,192,18690,1,8,0:0:0:0:
272,192,19215,1,8,0:0:0:0:
272,192,19390,1,8,0:0:0:0:
272,192,19740,1,0,0:0:0:0:
272,192,20089,1,8,0:0:0:0:
272,192,20614,1,0,0:0:0:0:
272,192,20789,1,8,0:0:0:0:
272,192,21139,1,0,0:0:0:0:
272,192,21314,1,0,0:0:0:0:
272,192,21488,1,0,0:0:0:0:
272,192,22013,1,0,0:0:0:0:
256,192,22538,1,4,0:0:0:0:
256,192,22887,1,8,0:0:0:0:
256,192,23412,1,0,0:0:0:0:
256,192,23587,1,8,0:0:0:0:
256,192,23937,1,0,0:0:0:0:
256,192,24286,1,8,0:0:0:0:
256,192,24811,1,8,0:0:0:0:
256,192,24986,1,8,0:0:0:0:
256,192,25336,1,0,0:0:0:0:
256,192,25685,1,8,0:0:0:0:
256,192,26210,1,0,0:0:0:0:
256,192,26385,1,8,0:0:0:0:
256,192,26735,1,0,0:0:0:0:
256,192,27084,1,8,0:0:0:0:
256,192,27259,1,0,0:0:0:0:
256,192,27609,1,8,0:0:0:0:
256,192,27784,1,0,0:0:0:0:
256,192,28134,1,0,0:0:0:0:
256,192,28483,1,8,0:0:0:0:
256,192,29008,1,0,0:0:0:0:
256,192,29183,1,8,0:0:0:0:
256,192,29533,1,0,0:0:0:0:
256,192,29882,1,8,0:0:0:0:
272,192,30407,1,0,0:0:0:0:
272,192,30582,1,0,0:0:0:0:
272,192,30757,1,0,0:0:0:0:
272,192,30932,1,8,0:0:0:0:
272,192,31281,1,8,0:0:0:0:
272,192,31806,1,0,0:0:0:0:
272,192,31981,1,8,0:0:0:0:
272,208,32331,1,0,0:0:0:0:
272,208,32680,1,8,0:0:0:0:
272,208,32855,1,0,0:0:0:0:
272,208,33030,1,0,0:0:0:0:
272,208,33380,1,8,0:0:0:0:
272,208,33730,1,0,0:0:0:0:
272,208,34079,1,8,0:0:0:0:
272,208,34779,1,8,0:0:0:0:
272,208,35478,1,8,0:0:0:0:
272,208,36528,1,0,0:0:0:0:
272,208,36877,1,8,0:0:0:0:
272,208,37402,1,0,0:0:0:0:
272,208,37577,1,8,0:0:0:0:
272,208,37927,1,0,0:0:0:0:
288,208,38276,1,0,0:0:0:0:
288,208,38626,1,0,0:0:0:0:
288,208,39151,1,8,0:0:0:0:
288,208,39326,1,0,0:0:0:0:
288,208,39676,1,8,0:0:0:0:
288,208,40200,1,0,0:0:0:0:
288,208,40375,1,8,0:0:0:0:
288,208,40725,1,0,0:0:0:0:
288,208,41075,1,8,0:0:0:0:
288,208,41599,1,0,0:0:0:0:
288,208,41774,1,8,0:0:0:0:
288,208,42124,1,0,0:0:0:0:
304,208,42474,1,8,0:0:0:0:
304,208,42998,1,8,0:0:0:0:
304,208,43173,1,8,0:0:0:0:
304,208,43523,1,0,0:0:0:0:
304,208,44047,1,8,0:0:0:0:
304,208,44397,1,0,0:0:0:0:
304,208,44922,1,8,0:0:0:0:
304,208,45272,1,8,0:0:0:0:
304,208,45796,1,0,0:0:0:0:
304,208,45971,1,8,0:0:0:0:
304,208,46321,1,0,0:0:0:0:
320,208,46671,1,8,0:0:0:0:
320,208,47195,1,8,0:0:0:0:
320,208,47370,1,8,0:0:0:0:
320,208,47720,1,0,0:0:0:0:
320,208,48070,1,8,0:0:0:0:
320,208,48594,1,0,0:0:0:0:
320,208,48769,1,8,0:0:0:0:
320,208,49119,1,0,0:0:0:0:
320,208,49469,1,8,0:0:0:0:
320,208,49818,1,0,0:0:0:0:
320,208,49993,1,8,0:0:0:0:
320,208,50518,1,0,0:0:0:0:
320,208,50868,1,8,0:0:0:0:
320,208,51392,1,0,0:0:0:0:
320,208,51567,1,8,0:0:0:0:
320,208,51917,1,0,0:0:0:0:
320,224,52267,1,8,0:0:0:0:
320,224,52791,1,0,0:0:0:0:
320,224,52966,1,0,0:0:0:0:
272,192,53141,1,0,0:0:0:0:
272,192,53316,1,8,0:0:0:0:
272,192,53666,1,8,0:0:0:0:
272,192,54190,1,0,0:0:0:0:
256,176,54365,1,8,0:0:0:0:
256,176,54715,1,0,0:0:0:0:
256,176,55065,1,8,0:0:0:0:
256,176,55239,1,0,0:0:0:0:
240,160,55589,1,0,0:0:0:0:
240,160,55764,1,8,0:0:0:0:
240,176,56114,1,0,0:0:0:0:
240,176,56464,1,8,0:0:0:0:
240,176,56988,1,8,0:0:0:0:
176,160,57163,1,8,0:0:0:0:
208,176,57513,1,0,0:0:0:0:
208,176,57863,1,8,0:0:0:0:
208,176,58387,1,0,0:0:0:0:
208,176,58562,1,8,0:0:0:0:
208,176,58912,1,0,0:0:0:0:
208,176,59262,1,8,0:0:0:0:
208,176,59786,1,0,0:0:0:0:
208,176,59961,1,8,0:0:0:0:
208,176,60311,1,0,0:0:0:0:
208,176,60661,1,8,0:0:0:0:
208,176,60836,1,0,0:0:0:0:
208,176,61185,1,8,0:0:0:0:
208,176,61360,1,8,0:0:0:0:
208,176,61710,1,0,0:0:0:0:
208,176,62060,1,8,0:0:0:0:
224,176,62584,1,0,0:0:0:0:
224,176,62759,1,8,0:0:0:0:
240,176,63109,1,0,0:0:0:0:
240,144,63459,1,8,0:0:0:0:
240,144,63983,1,0,0:0:0:0:
240,144,64158,1,0,0:0:0:0:
240,144,64333,1,0,0:0:0:0:
240,144,64508,1,8,0:0:0:0:
240,144,64858,1,8,0:0:0:0:
240,160,65382,1,0,0:0:0:0:
240,160,65557,1,8,0:0:0:0:
240,160,65907,1,0,0:0:0:0:
256,192,67306,1,0,0:0:0:0:
240,192,70104,1,0,0:0:0:0:
256,192,72902,1,8,0:0:0:0:
256,192,75700,1,0,0:0:0:0:
256,192,77099,1,8,0:0:0:0:
256,192,78498,1,4,0:0:0:0:
256,192,78847,1,8,0:0:0:0:
256,192,79372,1,0,0:0:0:0:
256,192,79547,1,8,0:0:0:0:
256,192,79897,1,0,0:0:0:0:
256,192,80246,1,8,0:0:0:0:
256,192,80771,1,8,0:0:0:0:
256,192,80946,1,8,0:0:0:0:
256,192,81296,1,0,0:0:0:0:
256,192,81645,1,8,0:0:0:0:
256,192,82170,1,0,0:0:0:0:
256,192,82345,1,8,0:0:0:0:
256,192,82695,1,0,0:0:0:0:
256,192,83044,1,8,0:0:0:0:
256,192,83219,1,0,0:0:0:0:
256,192,83569,1,8,0:0:0:0:
256,192,83744,1,0,0:0:0:0:
256,192,84094,1,0,0:0:0:0:
256,192,84443,1,8,0:0:0:0:
256,192,84968,1,8,0:0:0:0:
256,192,85143,1,8,0:0:0:0:
256,192,85493,1,0,0:0:0:0:
256,192,85842,1,8,0:0:0:0:
272,192,86367,1,0,0:0:0:0:
272,192,86542,1,0,0:0:0:0:
272,192,86717,1,0,0:0:0:0:
272,192,86892,1,8,0:0:0:0:
272,192,87241,1,8,0:0:0:0:
272,192,87766,1,0,0:0:0:0:
272,192,87941,1,8,0:0:0:0:
272,192,88291,1,0,0:0:0:0:
272,192,88641,1,8,0:0:0:0:
256,192,89690,1,4,0:0:0:0:
256,192,90039,1,8,0:0:0:0:
256,192,90564,1,0,0:0:0:0:
256,192,90739,1,8,0:0:0:0:
256,192,91089,1,0,0:0:0:0:
256,192,91438,1,8,0:0:0:0:
256,192,91963,1,8,0:0:0:0:
256,192,92138,1,8,0:0:0:0:
256,192,92488,1,0,0:0:0:0:
256,192,92837,1,8,0:0:0:0:
256,192,93362,1,0,0:0:0:0:
256,192,93537,1,8,0:0:0:0:
256,192,93887,1,0,0:0:0:0:
256,192,94236,1,8,0:0:0:0:
256,192,94411,1,0,0:0:0:0:
256,192,94761,1,8,0:0:0:0:
256,192,94936,1,0,0:0:0:0:
256,192,95286,1,0,0:0:0:0:
256,192,95635,1,8,0:0:0:0:
256,192,96160,1,8,0:0:0:0:
256,192,96335,1,8,0:0:0:0:
256,192,96685,1,0,0:0:0:0:
256,192,97034,1,8,0:0:0:0:
272,192,97559,1,0,0:0:0:0:
272,192,97734,1,0,0:0:0:0:
272,192,97909,1,0,0:0:0:0:
272,192,98084,1,8,0:0:0:0:
272,192,98433,1,8,0:0:0:0:
272,192,98959,1,0,0:0:0:0:
272,192,99133,1,0,0:0:0:0:
256,176,99483,1,0,0:0:0:0:
256,176,99833,1,8,0:0:0:0:
256,176,100008,1,0,0:0:0:0:
272,192,100357,1,0,0:0:0:0:
256,176,100532,1,8,0:0:0:0:
256,192,100882,1,4,0:0:0:0:
256,192,101231,1,8,0:0:0:0:
256,192,101757,1,8,0:0:0:0:
256,192,101931,1,8,0:0:0:0:
256,192,102281,1,0,0:0:0:0:
256,192,102630,1,8,0:0:0:0:
256,192,103155,1,0,0:0:0:0:
256,192,103330,1,8,0:0:0:0:
256,192,103680,1,0,0:0:0:0:
256,192,104029,1,8,0:0:0:0:
256,192,104554,1,0,0:0:0:0:
256,192,104729,1,8,0:0:0:0:
256,192,105079,1,0,0:0:0:0:
256,192,105428,1,8,0:0:0:0:
256,192,105603,1,0,0:0:0:0:
256,192,105953,1,8,0:0:0:0:
256,192,106128,1,0,0:0:0:0:
256,192,106478,1,0,0:0:0:0:
256,192,106827,1,8,0:0:0:0:
256,192,107353,1,8,0:0:0:0:
256,192,107527,1,8,0:0:0:0:
256,192,107877,1,0,0:0:0:0:
256,192,108226,1,8,0:0:0:0:
272,192,108751,1,0,0:0:0:0:
272,192,108926,1,0,0:0:0:0:
272,192,109101,1,0,0:0:0:0:
272,192,109276,1,8,0:0:0:0:
272,192,109625,1,8,0:0:0:0:
272,192,110150,1,0,0:0:0:0:
272,192,110325,1,8,0:0:0:0:
272,192,110675,1,0,0:0:0:0:
272,192,111025,1,8,0:0:0:0:
272,192,111200,1,0,0:0:0:0:
272,192,111549,1,0,0:0:0:0:
272,192,111724,1,0,0:0:0:0:
272,192,112074,1,12,0:0:0:0:
256,192,123266,5,4,0:0:0:0:
256,192,123616,1,8,0:0:0:0:
272,192,124141,1,0,0:0:0:0:
272,192,124316,1,8,0:0:0:0:
272,192,124665,1,0,0:0:0:0:
272,192,125015,1,8,0:0:0:0:
272,192,125540,1,0,0:0:0:0:
272,192,125715,1,8,0:0:0:0:
288,192,126064,1,0,0:0:0:0:
288,192,126414,1,8,0:0:0:0:
288,192,126939,1,0,0:0:0:0:
288,192,127114,1,8,0:0:0:0:
288,192,127463,1,0,0:0:0:0:
288,192,127813,1,8,0:0:0:0:
304,192,127988,1,0,0:0:0:0:
304,192,128338,1,8,0:0:0:0:
304,192,128513,1,0,0:0:0:0:
304,192,128862,1,0,0:0:0:0:
304,192,129212,1,8,0:0:0:0:
304,192,129737,1,0,0:0:0:0:
304,192,129912,1,8,0:0:0:0:
304,192,130261,1,0,0:0:0:0:
304,192,130611,1,8,0:0:0:0:
304,192,131136,1,0,0:0:0:0:
304,192,131311,1,8,0:0:0:0:
320,192,131660,1,0,0:0:0:0:
320,192,132010,1,8,0:0:0:0:
320,192,132535,1,0,0:0:0:0:
320,192,132710,1,8,0:0:0:0:
320,192,133234,1,0,0:0:0:0:
320,192,133409,1,8,0:0:0:0:
320,192,133759,1,0,0:0:0:0:
320,192,133934,1,0,0:0:0:0:
288,192,134458,1,12,0:0:0:0:
