osu file format v14

[General]
AudioFilename: audio.mp3
AudioLeadIn: 0
PreviewTime: 38621
Countdown: 0
SampleSet: Soft
StackLeniency: 0.7
Mode: 3
LetterboxInBreaks: 0
SpecialStyle: 0
WidescreenStoryboard: 0

[Editor]
DistanceSpacing: 0.6
BeatDivisor: 4
GridSize: 16
TimelineZoom: 1.7

[Metadata]
Title:Denparadigm
TitleUnicode:デンパラダイム
Artist:lumo
ArtistUnicode:lumo
Creator:Crisper
Version:Electric Wave
Source:Hatsune Miku: Project DIVA Future Tone
Tags:Hatsune Miku 初音ミク electronic japanese rock jrock j-rock 電波 nukogenome nukokaze ぬこかぜ Tsuzura つずら vocaloid ボカロ singing voice synthesis software rice jack SEGA CHUNITHM AMAZON PLUS チュウニズム アマゾンプラス niconico Electric Paradigm
BeatmapID:3815990
BeatmapSetID:1856730

[Difficulty]
HPDrainRate:8.5
CircleSize:4
OverallDifficulty:9
ApproachRate:5
SliderMultiplier:1.4
SliderTickRate:1

[Events]
//Background and Video events
0,0,"bg.jpg",0,0
//Break Periods
//Storyboard Layer 0 (Background)
//Storyboard Layer 1 (Fail)
//Storyboard Layer 2 (Pass)
//Storyboard Layer 3 (Foreground)
//Storyboard Layer 4 (Overlay)
//Storyboard Sound Samples

[TimingPoints]
508,272.727272727273,4,2,1,40,1,0
38689,-100,4,2,1,40,0,1
56144,-100,4,2,1,40,0,0
151053,-100,4,2,1,40,0,1
168508,-100,4,2,1,40,0,0
169053,272.727272727273,4,2,1,40,1,0

[HitObjects]
64,192,508,5,0,0:0:0:0:
448,192,508,1,0,0:0:0:0:
192,192,508,1,0,0:0:0:0:
64,192,780,1,0,0:0:0:0:
448,192,780,1,0,0:0:0:0:
192,192,780,1,0,0:0:0:0:
64,192,1053,1,0,0:0:0:0:
448,192,1053,1,0,0:0:0:0:
192,192,1053,1,0,0:0:0:0:
64,192,1189,1,0,0:0:0:0:
448,192,1189,1,0,0:0:0:0:
192,192,1189,1,0,0:0:0:0:
448,192,1326,1,0,0:0:0:0:
64,192,1326,1,0,0:0:0:0:
192,192,1326,1,0,0:0:0:0:
64,192,1462,1,0,0:0:0:0:
448,192,1462,1,0,0:0:0:0:
192,192,1462,1,0,0:0:0:0:
448,192,1598,1,0,0:0:0:0:
64,192,1598,1,0,0:0:0:0:
320,192,1598,1,0,0:0:0:0:
320,192,1735,1,0,0:0:0:0:
64,192,1871,1,0,0:0:0:0:
192,192,1871,1,0,0:0:0:0:
192,192,2008,1,0,0:0:0:0:
320,192,2008,1,0,0:0:0:0:
448,192,2144,1,0,0:0:0:0:
64,192,2144,1,0,0:0:0:0:
320,192,2280,1,0,0:0:0:0:
64,192,2417,1,0,0:0:0:0:
448,192,2485,1,0,0:0:0:0:
192,192,2553,1,0,0:0:0:0:
320,192,2621,1,0,0:0:0:0:
64,192,2689,1,0,0:0:0:0:
192,192,2689,1,0,0:0:0:0:
448,192,2758,1,0,0:0:0:0:
320,192,2758,1,0,0:0:0:0:
64,192,2826,1,0,0:0:0:0:
192,192,2826,1,0,0:0:0:0:
320,192,2894,1,0,0:0:0:0:
448,192,2962,1,0,0:0:0:0:
64,192,2962,1,0,0:0:0:0:
64,192,3098,1,0,0:0:0:0:
448,192,3235,1,0,0:0:0:0:
192,192,3235,1,0,0:0:0:0:
448,192,3371,1,0,0:0:0:0:
192,192,3508,1,0,0:0:0:0:
320,192,3508,1,0,0:0:0:0:
192,192,3644,1,0,0:0:0:0:
448,192,3780,1,0,0:0:0:0:
320,192,3780,1,0,0:0:0:0:
448,192,3917,1,0,0:0:0:0:
320,192,3917,1,0,0:0:0:0:
192,192,4053,1,0,0:0:0:0:
64,192,4053,1,0,0:0:0:0:
320,192,4121,1,0,0:0:0:0:
64,192,4189,1,0,0:0:0:0:
320,192,4258,1,0,0:0:0:0:
448,192,4326,1,0,0:0:0:0:
64,192,4326,1,0,0:0:0:0:
192,192,4462,1,0,0:0:0:0:
320,192,4530,1,0,0:0:0:0:
448,192,4598,1,0,0:0:0:0:
64,192,4598,1,0,0:0:0:0:
320,192,4735,1,0,0:0:0:0:
192,192,4803,1,0,0:0:0:0:
448,192,4871,1,0,0:0:0:0:
64,192,4871,1,0,0:0:0:0:
320,192,5008,1,0,0:0:0:0:
192,192,5008,1,0,0:0:0:0:
448,192,5076,1,0,0:0:0:0:
64,192,5144,1,0,0:0:0:0:
192,192,5144,1,0,0:0:0:0:
64,192,5280,1,0,0:0:0:0:
448,192,5417,1,0,0:0:0:0:
320,192,5417,1,0,0:0:0:0:
192,192,5485,1,0,0:0:0:0:
320,192,5553,1,0,0:0:0:0:
192,192,5621,1,0,0:0:0:0:
64,192,5689,1,0,0:0:0:0:
448,192,5689,1,0,0:0:0:0:
448,192,5826,1,0,0:0:0:0:
64,192,5962,1,0,0:0:0:0:
192,192,5962,1,0,0:0:0:0:
320,192,5962,1,0,0:0:0:0:
64,192,6098,1,0,0:0:0:0:
448,192,6235,1,0,0:0:0:0:
320,192,6235,1,0,0:0:0:0:
192,192,6371,1,0,0:0:0:0:
320,192,6371,1,0,0:0:0:0:
448,192,6508,1,0,0:0:0:0:
64,192,6508,1,0,0:0:0:0:
320,192,6576,1,0,0:0:0:0:
192,192,6644,1,0,0:0:0:0:
192,192,6780,1,0,0:0:0:0:
320,192,6848,1,0,0:0:0:0:
448,192,6917,1,0,0:0:0:0:
192,192,7053,1,0,0:0:0:0:
64,192,7053,1,0,0:0:0:0:
64,192,7189,1,0,0:0:0:0:
448,192,7326,1,0,0:0:0:0:
192,192,7326,1,0,0:0:0:0:
320,192,7462,1,0,0:0:0:0:
192,192,7462,1,0,0:0:0:0:
448,192,7598,1,0,0:0:0:0:
64,192,7598,1,0,0:0:0:0:
320,192,7735,1,0,0:0:0:0:
448,192,7871,1,0,0:0:0:0:
64,192,7871,1,0,0:0:0:0:
320,192,7939,1,0,0:0:0:0:
192,192,8008,1,0,0:0:0:0:
320,192,8076,1,0,0:0:0:0:
64,192,8144,1,0,0:0:0:0:
192,192,8144,1,0,0:0:0:0:
64,192,8280,1,0,0:0:0:0:
448,192,8553,1,0,0:0:0:0:
320,192,8553,1,0,0:0:0:0:
64,192,8689,1,0,0:0:0:0:
448,192,8689,1,0,0:0:0:0:
64,192,8826,1,0,0:0:0:0:
448,192,8962,1,0,0:0:0:0:
320,192,8996,1,0,0:0:0:0:
192,192,9030,1,0,0:0:0:0:
64,192,9064,1,0,0:0:0:0:
320,192,9098,1,0,0:0:0:0:
448,192,9098,1,0,0:0:0:0:
192,192,9235,1,0,0:0:0:0:
64,192,9235,1,0,0:0:0:0:
320,192,9303,1,0,0:0:0:0:
448,192,9371,1,0,0:0:0:0:
64,192,9508,1,0,0:0:0:0:
448,192,9508,1,0,0:0:0:0:
192,192,9644,1,0,0:0:0:0:
320,192,9644,1,0,0:0:0:0:
448,192,9712,1,0,0:0:0:0:
64,192,9780,1,0,0:0:0:0:
192,192,9780,1,0,0:0:0:0:
64,192,9917,1,0,0:0:0:0:
448,192,9917,1,0,0:0:0:0:
320,192,10053,1,0,0:0:0:0:
448,192,10053,1,0,0:0:0:0:
64,192,10121,1,0,0:0:0:0:
192,192,10121,1,0,0:0:0:0:
320,192,10189,1,0,0:0:0:0:
448,192,10189,1,0,0:0:0:0:
192,192,10258,1,0,0:0:0:0:
64,192,10326,1,0,0:0:0:0:
320,192,10326,1,0,0:0:0:0:
448,192,10326,1,0,0:0:0:0:
192,192,10462,1,0,0:0:0:0:
64,192,10598,1,0,0:0:0:0:
448,192,10598,1,0,0:0:0:0:
320,192,10735,1,0,0:0:0:0:
192,192,10871,1,0,0:0:0:0:
448,192,10871,1,0,0:0:0:0:
192,192,11008,1,0,0:0:0:0:
320,192,11076,1,0,0:0:0:0:
64,192,11144,1,0,0:0:0:0:
448,192,11144,1,0,0:0:0:0:
448,192,11280,1,0,0:0:0:0:
64,192,11417,1,0,0:0:0:0:
192,192,11417,1,0,0:0:0:0:
448,192,11553,1,0,0:0:0:0:
448,192,11689,1,0,0:0:0:0:
64,192,11689,1,0,0:0:0:0:
192,192,11826,1,0,0:0:0:0:
320,192,11962,1,0,0:0:0:0:
448,192,11962,1,0,0:0:0:0:
64,192,12098,1,0,0:0:0:0:
192,192,12235,1,0,0:0:0:0:
320,192,12235,1,0,0:0:0:0:
448,192,12371,1,0,0:0:0:0:
64,192,12508,1,0,0:0:0:0:
192,192,12508,1,0,0:0:0:0:
320,192,12644,1,0,0:0:0:0:
64,192,12780,1,0,0:0:0:0:
448,192,12780,1,0,0:0:0:0:
192,192,12917,1,0,0:0:0:0:
64,192,13053,1,0,0:0:0:0:
320,192,13053,1,0,0:0:0:0:
320,192,13189,1,0,0:0:0:0:
192,192,13258,1,0,0:0:0:0:
64,192,13326,1,0,0:0:0:0:
448,192,13326,1,0,0:0:0:0:
64,192,13462,1,0,0:0:0:0:
192,192,13598,1,0,0:0:0:0:
320,192,13598,1,0,0:0:0:0:
448,192,13598,1,0,0:0:0:0:
448,192,13735,1,0,0:0:0:0:
64,192,13871,1,0,0:0:0:0:
192,192,13871,1,0,0:0:0:0:
320,192,13871,1,0,0:0:0:0:
192,192,14008,1,0,0:0:0:0:
64,192,14144,1,0,0:0:0:0:
320,192,14144,1,0,0:0:0:0:
448,192,14144,1,0,0:0:0:0:
64,192,14280,1,0,0:0:0:0:
320,192,14280,1,0,0:0:0:0:
448,192,14280,1,0,0:0:0:0:
64,192,14417,1,0,0:0:0:0:
320,192,14417,1,0,0:0:0:0:
448,192,14417,1,0,0:0:0:0:
64,192,14553,1,0,0:0:0:0:
320,192,14553,1,0,0:0:0:0:
448,192,14553,1,0,0:0:0:0:
64,192,14689,1,0,0:0:0:0:
192,192,14689,1,0,0:0:0:0:
320,192,14689,1,0,0:0:0:0:
448,192,14689,1,0,0:0:0:0:
192,192,14826,1,0,0:0:0:0:
64,192,14962,1,0,0:0:0:0:
320,192,14962,1,0,0:0:0:0:
448,192,14962,1,0,0:0:0:0:
448,192,15098,1,0,0:0:0:0:
320,192,15098,1,0,0:0:0:0:
192,192,15235,1,0,0:0:0:0:
64,192,15235,1,0,0:0:0:0:
64,192,15371,1,0,0:0:0:0:
320,192,15371,1,0,0:0:0:0:
448,192,15371,1,0,0:0:0:0:
64,192,15508,1,0,0:0:0:0:
448,192,15508,1,0,0:0:0:0:
448,192,15644,1,0,0:0:0:0:
192,192,15644,1,0,0:0:0:0:
320,192,15644,1,0,0:0:0:0:
64,192,15780,1,0,0:0:0:0:
192,192,15780,1,0,0:0:0:0:
320,192,15780,1,0,0:0:0:0:
448,192,15917,1,0,0:0:0:0:
64,192,15917,1,0,0:0:0:0:
192,192,15985,1,0,0:0:0:0:
64,192,16053,1,0,0:0:0:0:
320,192,16053,1,0,0:0:0:0:
448,192,16053,1,0,0:0:0:0:
192,192,16189,1,0,0:0:0:0:
448,192,16189,1,0,0:0:0:0:
320,192,16258,1,0,0:0:0:0:
64,192,16326,1,0,0:0:0:0:
192,192,16326,1,0,0:0:0:0:
64,192,16462,1,0,0:0:0:0:
448,192,16462,1,0,0:0:0:0:
448,192,16598,1,0,0:0:0:0:
320,192,16598,1,0,0:0:0:0:
192,192,16667,1,0,0:0:0:0:
64,192,16667,1,0,0:0:0:0:
448,192,16735,1,0,0:0:0:0:
320,192,16735,1,0,0:0:0:0:
192,192,16803,1,0,0:0:0:0:
448,192,16871,1,0,0:0:0:0:
320,192,16871,1,0,0:0:0:0:
64,192,16871,1,0,0:0:0:0:
192,192,17008,1,0,0:0:0:0:
320,192,17076,1,0,0:0:0:0:
64,192,17144,1,0,0:0:0:0:
192,192,17144,1,0,0:0:0:0:
448,192,17144,1,0,0:0:0:0:
64,192,17280,1,0,0:0:0:0:
320,192,17417,1,0,0:0:0:0:
448,192,17417,1,0,0:0:0:0:
64,192,17553,1,0,0:0:0:0:
192,192,17553,1,0,0:0:0:0:
448,192,17553,1,0,0:0:0:0:
320,192,17621,1,0,0:0:0:0:
64,192,17689,1,0,0:0:0:0:
192,192,17689,1,0,0:0:0:0:
320,192,17826,1,0,0:0:0:0:
192,192,17826,1,0,0:0:0:0:
64,192,17826,1,0,0:0:0:0:
320,192,17962,1,0,0:0:0:0:
448,192,17962,1,0,0:0:0:0:
448,192,18098,1,0,0:0:0:0:
320,192,18098,1,0,0:0:0:0:
64,192,18167,1,0,0:0:0:0:
320,192,18235,1,0,0:0:0:0:
192,192,18235,1,0,0:0:0:0:
448,192,18235,1,0,0:0:0:0:
192,192,18371,1,0,0:0:0:0:
320,192,18371,1,0,0:0:0:0:
448,192,18371,1,0,0:0:0:0:
64,192,18508,1,0,0:0:0:0:
192,192,18508,1,0,0:0:0:0:
192,192,18644,1,0,0:0:0:0:
64,192,18644,1,0,0:0:0:0:
448,192,18712,1,0,0:0:0:0:
192,192,18780,1,0,0:0:0:0:
320,192,18780,1,0,0:0:0:0:
64,192,18780,1,0,0:0:0:0:
192,192,18917,1,0,0:0:0:0:
320,192,18917,1,0,0:0:0:0:
64,192,18917,1,0,0:0:0:0:
64,192,19053,1,0,0:0:0:0:
320,192,19053,1,0,0:0:0:0:
448,192,19053,1,0,0:0:0:0:
192,192,19121,1,0,0:0:0:0:
64,192,19189,1,0,0:0:0:0:
320,192,19258,1,0,0:0:0:0:
64,192,19326,1,0,0:0:0:0:
192,192,19326,1,0,0:0:0:0:
448,192,19326,1,0,0:0:0:0:
320,192,19394,1,0,0:0:0:0:
448,192,19462,1,0,0:0:0:0:
64,192,19530,1,0,0:0:0:0:
448,192,19598,1,0,0:0:0:0:
192,192,19598,1,0,0:0:0:0:
320,192,19598,1,0,0:0:0:0:
64,192,19667,1,0,0:0:0:0:
448,192,19735,1,0,0:0:0:0:
192,192,19735,1,0,0:0:0:0:
320,192,19735,1,0,0:0:0:0:
64,192,19803,1,0,0:0:0:0:
320,192,19871,1,0,0:0:0:0:
448,192,19871,1,0,0:0:0:0:
64,192,19939,1,0,0:0:0:0:
192,192,19939,1,0,0:0:0:0:
320,192,20008,1,0,0:0:0:0:
448,192,20008,1,0,0:0:0:0:
64,192,20076,1,0,0:0:0:0:
192,192,20076,1,0,0:0:0:0:
320,192,20144,1,0,0:0:0:0:
320,192,20212,1,0,0:0:0:0:
64,192,20280,1,0,0:0:0:0:
192,192,20280,1,0,0:0:0:0:
448,192,20280,1,0,0:0:0:0:
320,192,20348,1,0,0:0:0:0:
192,192,20417,1,0,0:0:0:0:
64,192,20417,1,0,0:0:0:0:
448,192,20485,1,0,0:0:0:0:
320,192,20553,1,0,0:0:0:0:
64,192,20621,1,0,0:0:0:0:
192,192,20689,1,0,0:0:0:0:
320,192,20689,1,0,0:0:0:0:
448,192,20689,1,0,0:0:0:0:
64,192,20758,1,0,0:0:0:0:
448,192,20826,1,0,0:0:0:0:
320,192,20894,1,0,0:0:0:0:
64,192,20962,1,0,0:0:0:0:
192,192,20962,1,0,0:0:0:0:
320,192,21030,1,0,0:0:0:0:
64,192,21098,1,0,0:0:0:0:
192,192,21098,1,0,0:0:0:0:
448,192,21098,1,0,0:0:0:0:
64,192,21235,1,0,0:0:0:0:
320,192,21235,1,0,0:0:0:0:
448,192,21235,1,0,0:0:0:0:
320,192,21371,1,0,0:0:0:0:
64,192,21508,1,0,0:0:0:0:
192,192,21508,1,0,0:0:0:0:
448,192,21508,1,0,0:0:0:0:
192,192,21644,1,0,0:0:0:0:
64,192,21780,1,0,0:0:0:0:
320,192,21780,1,0,0:0:0:0:
192,192,21917,1,0,0:0:0:0:
320,192,21917,1,0,0:0:0:0:
448,192,21917,1,0,0:0:0:0:
64,192,22053,1,0,0:0:0:0:
448,192,22053,1,0,0:0:0:0:
64,192,22189,1,0,0:0:0:0:
192,192,22189,1,0,0:0:0:0:
320,192,22189,1,0,0:0:0:0:
448,192,22326,1,0,0:0:0:0:
320,192,22326,1,0,0:0:0:0:
64,192,22394,1,0,0:0:0:0:
192,192,22462,1,0,0:0:0:0:
320,192,22462,1,0,0:0:0:0:
448,192,22462,1,0,0:0:0:0:
64,192,22530,1,0,0:0:0:0:
192,192,22598,1,0,0:0:0:0:
448,192,22598,1,0,0:0:0:0:
320,192,22667,1,0,0:0:0:0:
64,192,22735,1,0,0:0:0:0:
192,192,22735,1,0,0:0:0:0:
448,192,22735,1,0,0:0:0:0:
320,192,22803,1,0,0:0:0:0:
64,192,22871,1,0,0:0:0:0:
192,192,22871,1,0,0:0:0:0:
320,192,22939,1,0,0:0:0:0:
448,192,22939,1,0,0:0:0:0:
64,192,23008,1,0,0:0:0:0:
192,192,23008,1,0,0:0:0:0:
320,192,23076,1,0,0:0:0:0:
448,192,23076,1,0,0:0:0:0:
64,192,23144,1,0,0:0:0:0:
192,192,23144,1,0,0:0:0:0:
320,192,23280,1,0,0:0:0:0:
448,192,23280,1,0,0:0:0:0:
64,192,23280,1,0,0:0:0:0:
448,192,23417,1,0,0:0:0:0:
64,192,23417,1,0,0:0:0:0:
448,192,23553,1,0,0:0:0:0:
448,192,23689,1,0,0:0:0:0:
192,192,23689,1,0,0:0:0:0:
64,192,23689,1,0,0:0:0:0:
448,192,23826,1,0,0:0:0:0:
64,192,23826,1,0,0:0:0:0:
192,192,23894,1,0,0:0:0:0:
448,192,23962,1,0,0:0:0:0:
320,192,23962,1,0,0:0:0:0:
448,192,24098,1,0,0:0:0:0:
64,192,24098,1,0,0:0:0:0:
192,192,24098,1,0,0:0:0:0:
448,192,24235,1,0,0:0:0:0:
320,192,24235,1,0,0:0:0:0:
192,192,24303,1,0,0:0:0:0:
448,192,24371,1,0,0:0:0:0:
320,192,24371,1,0,0:0:0:0:
64,192,24371,1,0,0:0:0:0:
64,192,24508,1,0,0:0:0:0:
192,192,24508,1,0,0:0:0:0:
64,192,24644,1,0,0:0:0:0:
448,192,24644,1,0,0:0:0:0:
320,192,24644,1,0,0:0:0:0:
64,192,24780,1,0,0:0:0:0:
320,192,24780,1,0,0:0:0:0:
448,192,24848,1,0,0:0:0:0:
64,192,24917,1,0,0:0:0:0:
448,192,24985,1,0,0:0:0:0:
64,192,25053,1,0,0:0:0:0:
192,192,25053,1,0,0:0:0:0:
320,192,25053,1,0,0:0:0:0:
64,192,25189,1,0,0:0:0:0:
64,192,25326,1,0,0:0:0:0:
448,192,25326,1,0,0:0:0:0:
320,192,25462,1,0,0:0:0:0:
64,192,25462,1,0,0:0:0:0:
192,192,25462,1,0,0:0:0:0:
320,192,25598,1,0,0:0:0:0:
448,192,25598,1,0,0:0:0:0:
448,192,25735,1,0,0:0:0:0:
64,192,25871,1,0,0:0:0:0:
64,192,26008,1,0,0:0:0:0:
448,192,26144,1,0,0:0:0:0:
448,192,26280,1,0,0:0:0:0:
64,192,26417,1,0,0:0:0:0:
64,192,26553,1,0,0:0:0:0:
448,192,26689,1,0,0:0:0:0:
192,192,26689,1,0,0:0:0:0:
448,192,26758,1,0,0:0:0:0:
320,192,26826,1,0,0:0:0:0:
192,192,26894,1,0,0:0:0:0:
64,192,26894,1,0,0:0:0:0:
320,192,26962,1,0,0:0:0:0:
448,192,26962,1,0,0:0:0:0:
192,192,27030,1,0,0:0:0:0:
64,192,27098,1,0,0:0:0:0:
448,192,27098,1,0,0:0:0:0:
320,192,27167,1,0,0:0:0:0:
192,192,27235,1,0,0:0:0:0:
64,192,27235,1,0,0:0:0:0:
320,192,27303,1,0,0:0:0:0:
448,192,27371,1,0,0:0:0:0:
64,192,27439,1,0,0:0:0:0:
192,192,27439,1,0,0:0:0:0:
320,192,27508,1,0,0:0:0:0:
448,192,27508,1,0,0:0:0:0:
320,192,27644,1,0,0:0:0:0:
192,192,27644,1,0,0:0:0:0:
64,192,27780,1,0,0:0:0:0:
192,192,27780,1,0,0:0:0:0:
448,192,27780,1,0,0:0:0:0:
64,192,27917,1,0,0:0:0:0:
192,192,27917,1,0,0:0:0:0:
448,192,27917,1,0,0:0:0:0:
64,192,28053,1,0,0:0:0:0:
320,192,28053,1,0,0:0:0:0:
448,192,28053,1,0,0:0:0:0:
64,192,28189,1,0,0:0:0:0:
320,192,28189,1,0,0:0:0:0:
448,192,28189,1,0,0:0:0:0:
192,192,28462,1,0,0:0:0:0:
320,192,28462,1,0,0:0:0:0:
448,192,28462,1,0,0:0:0:0:
64,192,28735,1,0,0:0:0:0:
192,192,28735,1,0,0:0:0:0:
320,192,28735,1,0,0:0:0:0:
64,192,29008,1,0,0:0:0:0:
192,192,29008,1,0,0:0:0:0:
448,192,29008,1,0,0:0:0:0:
64,192,29280,1,0,0:0:0:0:
320,192,29280,1,0,0:0:0:0:
448,192,29280,1,0,0:0:0:0:
64,192,29553,1,0,0:0:0:0:
192,192,29553,1,0,0:0:0:0:
320,192,29553,1,0,0:0:0:0:
64,192,29689,1,0,0:0:0:0:
192,192,29689,1,0,0:0:0:0:
448,192,29689,1,0,0:0:0:0:
320,192,29826,1,0,0:0:0:0:
448,192,29826,1,0,0:0:0:0:
64,192,29826,1,0,0:0:0:0:
192,192,29826,1,0,0:0:0:0:
320,192,29962,1,0,0:0:0:0:
192,192,30098,1,0,0:0:0:0:
448,192,30098,1,0,0:0:0:0:
64,192,30235,1,0,0:0:0:0:
320,192,30235,1,0,0:0:0:0:
448,192,30235,1,0,0:0:0:0:
192,192,30371,1,0,0:0:0:0:
64,192,30371,1,0,0:0:0:0:
320,192,30508,1,0,0:0:0:0:
64,192,30644,1,0,0:0:0:0:
448,192,30644,1,0,0:0:0:0:
320,192,30780,1,0,0:0:0:0:
448,192,30780,1,0,0:0:0:0:
192,192,30780,1,0,0:0:0:0:
64,192,30917,1,0,0:0:0:0:
192,192,30917,1,0,0:0:0:0:
320,192,30917,1,0,0:0:0:0:
448,192,30917,1,0,0:0:0:0:
64,192,31053,1,0,0:0:0:0:
320,192,31189,1,0,0:0:0:0:
448,192,31189,1,0,0:0:0:0:
64,192,31326,1,0,0:0:0:0:
192,192,31326,1,0,0:0:0:0:
448,192,31326,1,0,0:0:0:0:
320,192,31462,1,0,0:0:0:0:
192,192,31462,1,0,0:0:0:0:
64,192,31530,1,0,0:0:0:0:
320,192,31598,1,0,0:0:0:0:
448,192,31598,1,0,0:0:0:0:
320,192,31871,1,0,0:0:0:0:
448,192,31871,1,0,0:0:0:0:
320,192,32008,1,0,0:0:0:0:
448,192,32008,1,0,0:0:0:0:
320,192,32144,1,0,0:0:0:0:
448,192,32144,1,0,0:0:0:0:
64,192,32144,1,0,0:0:0:0:
192,192,32144,1,0,0:0:0:0:
64,192,32280,1,0,0:0:0:0:
192,192,32417,1,0,0:0:0:0:
448,192,32417,1,0,0:0:0:0:
320,192,32417,1,0,0:0:0:0:
64,192,32553,1,0,0:0:0:0:
320,192,32553,1,0,0:0:0:0:
448,192,32553,1,0,0:0:0:0:
64,192,32689,1,0,0:0:0:0:
192,192,32689,1,0,0:0:0:0:
192,192,32826,1,0,0:0:0:0:
320,192,32826,1,0,0:0:0:0:
64,192,32962,1,0,0:0:0:0:
320,192,32962,1,0,0:0:0:0:
448,192,32962,1,0,0:0:0:0:
64,192,33098,1,0,0:0:0:0:
448,192,33098,1,0,0:0:0:0:
320,192,33098,1,0,0:0:0:0:
192,192,33098,1,0,0:0:0:0:
192,192,33235,1,0,0:0:0:0:
320,192,33371,1,0,0:0:0:0:
448,192,33371,1,0,0:0:0:0:
64,192,33508,1,0,0:0:0:0:
192,192,33508,1,0,0:0:0:0:
320,192,33508,1,0,0:0:0:0:
64,192,33644,1,0,0:0:0:0:
448,192,33644,1,0,0:0:0:0:
448,192,33780,1,0,0:0:0:0:
192,192,33917,1,0,0:0:0:0:
320,192,33917,1,0,0:0:0:0:
64,192,34053,1,0,0:0:0:0:
192,192,34053,1,0,0:0:0:0:
448,192,34053,1,0,0:0:0:0:
64,192,34189,1,0,0:0:0:0:
448,192,34189,1,0,0:0:0:0:
192,192,34189,1,0,0:0:0:0:
320,192,34189,1,0,0:0:0:0:
320,192,34326,1,0,0:0:0:0:
64,192,34462,1,0,0:0:0:0:
192,192,34462,1,0,0:0:0:0:
192,192,34598,1,0,0:0:0:0:
320,192,34598,1,0,0:0:0:0:
448,192,34598,1,0,0:0:0:0:
448,192,34735,1,0,0:0:0:0:
192,192,34871,1,0,0:0:0:0:
64,192,34871,1,0,0:0:0:0:
192,192,35008,1,0,0:0:0:0:
320,192,35008,1,0,0:0:0:0:
64,192,35144,1,0,0:0:0:0:
448,192,35144,1,0,0:0:0:0:
320,192,35144,1,0,0:0:0:0:
64,192,35280,1,0,0:0:0:0:
320,192,35280,1,0,0:0:0:0:
448,192,35280,1,0,0:0:0:0:
192,192,35280,1,0,0:0:0:0:
192,192,35417,1,0,0:0:0:0:
320,192,35553,1,0,0:0:0:0:
448,192,35553,1,0,0:0:0:0:
64,192,35689,1,0,0:0:0:0:
192,192,35689,1,0,0:0:0:0:
448,192,35689,1,0,0:0:0:0:
64,192,35826,1,0,0:0:0:0:
320,192,35962,1,0,0:0:0:0:
448,192,35962,1,0,0:0:0:0:
192,192,36098,1,0,0:0:0:0:
320,192,36098,1,0,0:0:0:0:
64,192,36235,1,0,0:0:0:0:
192,192,36235,1,0,0:0:0:0:
448,192,36235,1,0,0:0:0:0:
64,192,36371,1,0,0:0:0:0:
192,192,36371,1,0,0:0:0:0:
448,192,36371,1,0,0:0:0:0:
320,192,36371,1,0,0:0:0:0:
320,192,36644,1,0,0:0:0:0:
448,192,36644,1,0,0:0:0:0:
192,192,36712,1,0,0:0:0:0:
64,192,36780,1,0,0:0:0:0:
320,192,36780,1,0,0:0:0:0:
448,192,36780,1,0,0:0:0:0:
64,192,36917,1,0,0:0:0:0:
192,192,36917,1,0,0:0:0:0:
320,192,36985,1,0,0:0:0:0:
192,192,37053,1,0,0:0:0:0:
448,192,37053,1,0,0:0:0:0:
64,192,37121,1,0,0:0:0:0:
320,192,37189,1,0,0:0:0:0:
448,192,37189,1,0,0:0:0:0:
192,192,37258,1,0,0:0:0:0:
64,192,37326,1,0,0:0:0:0:
320,192,37326,1,0,0:0:0:0:
448,192,37326,1,0,0:0:0:0:
64,192,37462,1,0,0:0:0:0:
192,192,37462,1,0,0:0:0:0:
448,192,37462,1,0,0:0:0:0:
320,192,37735,1,0,0:0:0:0:
64,192,37735,1,0,0:0:0:0:
448,192,37735,1,0,0:0:0:0:
320,192,37871,1,0,0:0:0:0:
64,192,37871,1,0,0:0:0:0:
448,192,37871,1,0,0:0:0:0:
64,192,38144,1,0,0:0:0:0:
192,192,38144,1,0,0:0:0:0:
448,192,38144,1,0,0:0:0:0:
64,192,38689,1,0,0:0:0:0:
192,192,38689,1,0,0:0:0:0:
320,192,38689,1,0,0:0:0:0:
448,192,38689,1,0,0:0:0:0:
64,192,38826,1,0,0:0:0:0:
192,192,38826,1,0,0:0:0:0:
448,192,38826,1,0,0:0:0:0:
320,192,38826,1,0,0:0:0:0:
64,192,38962,1,0,0:0:0:0:
192,192,38962,1,0,0:0:0:0:
320,192,38962,1,0,0:0:0:0:
448,192,38962,1,0,0:0:0:0:
64,192,39098,1,0,0:0:0:0:
192,192,39098,1,0,0:0:0:0:
448,192,39098,1,0,0:0:0:0:
320,192,39098,1,0,0:0:0:0:
64,192,39235,1,0,0:0:0:0:
192,192,39235,1,0,0:0:0:0:
320,192,39235,1,0,0:0:0:0:
448,192,39235,1,0,0:0:0:0:
320,192,39371,1,0,0:0:0:0:
192,192,39371,1,0,0:0:0:0:
64,192,39508,1,0,0:0:0:0:
192,192,39508,1,0,0:0:0:0:
448,192,39508,1,0,0:0:0:0:
320,192,39644,1,0,0:0:0:0:
448,192,39644,1,0,0:0:0:0:
64,192,39644,1,0,0:0:0:0:
320,192,39780,1,0,0:0:0:0:
64,192,39917,1,0,0:0:0:0:
192,192,39917,1,0,0:0:0:0:
64,192,40053,1,0,0:0:0:0:
320,192,40053,1,0,0:0:0:0:
448,192,40053,1,0,0:0:0:0:
448,192,40189,1,0,0:0:0:0:
320,192,40258,1,0,0:0:0:0:
64,192,40326,1,0,0:0:0:0:
192,192,40326,1,0,0:0:0:0:
64,192,40462,1,0,0:0:0:0:
448,192,40462,1,0,0:0:0:0:
192,192,40598,1,0,0:0:0:0:
320,192,40598,1,0,0:0:0:0:
448,192,40598,1,0,0:0:0:0:
64,192,40735,1,0,0:0:0:0:
192,192,40735,1,0,0:0:0:0:
320,192,40735,1,0,0:0:0:0:
64,192,40871,1,0,0:0:0:0:
320,192,41008,1,0,0:0:0:0:
448,192,41008,1,0,0:0:0:0:
64,192,41144,1,0,0:0:0:0:
192,192,41144,1,0,0:0:0:0:
448,192,41144,1,0,0:0:0:0:
192,192,41280,1,0,0:0:0:0:
448,192,41417,1,0,0:0:0:0:
320,192,41417,1,0,0:0:0:0:
64,192,41553,1,0,0:0:0:0:
448,192,41553,1,0,0:0:0:0:
64,192,41689,1,0,0:0:0:0:
192,192,41689,1,0,0:0:0:0:
320,192,41689,1,0,0:0:0:0:
192,192,41826,1,0,0:0:0:0:
448,192,41826,1,0,0:0:0:0:
320,192,41826,1,0,0:0:0:0:
448,192,41962,1,0,0:0:0:0:
64,192,42098,1,0,0:0:0:0:
192,192,42098,1,0,0:0:0:0:
64,192,42235,1,0,0:0:0:0:
448,192,42235,1,0,0:0:0:0:
320,192,42235,1,0,0:0:0:0:
192,192,42371,1,0,0:0:0:0:
448,192,42371,1,0,0:0:0:0:
192,192,42508,1,0,0:0:0:0:
320,192,42508,1,0,0:0:0:0:
64,192,42644,1,0,0:0:0:0:
448,192,42644,1,0,0:0:0:0:
320,192,42780,1,0,0:0:0:0:
448,192,42780,1,0,0:0:0:0:
192,192,42780,1,0,0:0:0:0:
448,192,42917,1,0,0:0:0:0:
192,192,42917,1,0,0:0:0:0:
320,192,42917,1,0,0:0:0:0:
64,192,43053,1,0,0:0:0:0:
192,192,43053,1,0,0:0:0:0:
320,192,43053,1,0,0:0:0:0:
64,192,43189,1,0,0:0:0:0:
192,192,43258,1,0,0:0:0:0:
448,192,43326,1,0,0:0:0:0:
320,192,43326,1,0,0:0:0:0:
64,192,43326,1,0,0:0:0:0:
448,192,43462,1,0,0:0:0:0:
320,192,43530,1,0,0:0:0:0:
448,192,43598,1,0,0:0:0:0:
192,192,43598,1,0,0:0:0:0:
64,192,43598,1,0,0:0:0:0:
192,192,43735,1,0,0:0:0:0:
320,192,43735,1,0,0:0:0:0:
64,192,43871,1,0,0:0:0:0:
448,192,43871,1,0,0:0:0:0:
320,192,43871,1,0,0:0:0:0:
64,192,44008,1,0,0:0:0:0:
192,192,44008,1,0,0:0:0:0:
448,192,44008,1,0,0:0:0:0:
192,192,44144,1,0,0:0:0:0:
448,192,44280,1,0,0:0:0:0:
320,192,44280,1,0,0:0:0:0:
192,192,44417,1,0,0:0:0:0:
448,192,44417,1,0,0:0:0:0:
64,192,44417,1,0,0:0:0:0:
320,192,44553,1,0,0:0:0:0:
192,192,44553,1,0,0:0:0:0:
448,192,44689,1,0,0:0:0:0:
320,192,44689,1,0,0:0:0:0:
64,192,44689,1,0,0:0:0:0:
192,192,44826,1,0,0:0:0:0:
64,192,44826,1,0,0:0:0:0:
448,192,44962,1,0,0:0:0:0:
320,192,44962,1,0,0:0:0:0:
192,192,44962,1,0,0:0:0:0:
448,192,45098,1,0,0:0:0:0:
320,192,45098,1,0,0:0:0:0:
192,192,45098,1,0,0:0:0:0:
448,192,45235,1,0,0:0:0:0:
320,192,45235,1,0,0:0:0:0:
64,192,45235,1,0,0:0:0:0:
64,192,45371,1,0,0:0:0:0:
320,192,45439,1,0,0:0:0:0:
448,192,45508,1,0,0:0:0:0:
192,192,45508,1,0,0:0:0:0:
64,192,45508,1,0,0:0:0:0:
448,192,45644,1,0,0:0:0:0:
192,192,45712,1,0,0:0:0:0:
448,192,45780,1,0,0:0:0:0:
320,192,45780,1,0,0:0:0:0:
64,192,45780,1,0,0:0:0:0:
320,192,45917,1,0,0:0:0:0:
192,192,45917,1,0,0:0:0:0:
192,192,46053,1,0,0:0:0:0:
448,192,46053,1,0,0:0:0:0:
448,192,46189,1,0,0:0:0:0:
320,192,46189,1,0,0:0:0:0:
64,192,46189,1,0,0:0:0:0:
64,192,46326,1,0,0:0:0:0:
320,192,46462,1,0,0:0:0:0:
448,192,46462,1,0,0:0:0:0:
64,192,46598,1,0,0:0:0:0:
192,192,46598,1,0,0:0:0:0:
448,192,46598,1,0,0:0:0:0:
64,192,46735,1,0,0:0:0:0:
320,192,46735,1,0,0:0:0:0:
192,192,46803,1,0,0:0:0:0:
64,192,46871,1,0,0:0:0:0:
320,192,46871,1,0,0:0:0:0:
448,192,46871,1,0,0:0:0:0:
192,192,47008,1,0,0:0:0:0:
448,192,47008,1,0,0:0:0:0:
64,192,47144,1,0,0:0:0:0:
320,192,47144,1,0,0:0:0:0:
448,192,47144,1,0,0:0:0:0:
192,192,47280,1,0,0:0:0:0:
64,192,47280,1,0,0:0:0:0:
64,192,47417,1,0,0:0:0:0:
192,192,47417,1,0,0:0:0:0:
320,192,47417,1,0,0:0:0:0:
448,192,47417,1,0,0:0:0:0:
64,192,47553,1,0,0:0:0:0:
192,192,47553,1,0,0:0:0:0:
320,192,47553,1,0,0:0:0:0:
448,192,47553,1,0,0:0:0:0:
64,192,47689,1,0,0:0:0:0:
192,192,47689,1,0,0:0:0:0:
320,192,47689,1,0,0:0:0:0:
448,192,47689,1,0,0:0:0:0:
64,192,47826,1,0,0:0:0:0:
192,192,47826,1,0,0:0:0:0:
320,192,47826,1,0,0:0:0:0:
448,192,47826,1,0,0:0:0:0:
64,192,47962,1,0,0:0:0:0:
192,192,47962,1,0,0:0:0:0:
320,192,47962,1,0,0:0:0:0:
448,192,47962,1,0,0:0:0:0:
192,192,48098,1,0,0:0:0:0:
320,192,48098,1,0,0:0:0:0:
64,192,48235,1,0,0:0:0:0:
320,192,48235,1,0,0:0:0:0:
448,192,48235,1,0,0:0:0:0:
64,192,48371,1,0,0:0:0:0:
192,192,48371,1,0,0:0:0:0:
448,192,48371,1,0,0:0:0:0:
192,192,48508,1,0,0:0:0:0:
320,192,48644,1,0,0:0:0:0:
448,192,48644,1,0,0:0:0:0:
64,192,48780,1,0,0:0:0:0:
192,192,48780,1,0,0:0:0:0:
448,192,48780,1,0,0:0:0:0:
64,192,48917,1,0,0:0:0:0:
192,192,48985,1,0,0:0:0:0:
320,192,49053,1,0,0:0:0:0:
448,192,49053,1,0,0:0:0:0:
448,192,49189,1,0,0:0:0:0:
64,192,49189,1,0,0:0:0:0:
64,192,49326,1,0,0:0:0:0:
192,192,49326,1,0,0:0:0:0:
320,192,49326,1,0,0:0:0:0:
192,192,49462,1,0,0:0:0:0:
320,192,49462,1,0,0:0:0:0:
448,192,49462,1,0,0:0:0:0:
448,192,49598,1,0,0:0:0:0:
64,192,49735,1,0,0:0:0:0:
192,192,49735,1,0,0:0:0:0:
64,192,49871,1,0,0:0:0:0:
448,192,49871,1,0,0:0:0:0:
320,192,49871,1,0,0:0:0:0:
64,192,50008,1,0,0:0:0:0:
448,192,50008,1,0,0:0:0:0:
320,192,50008,1,0,0:0:0:0:
192,192,50144,1,0,0:0:0:0:
448,192,50144,1,0,0:0:0:0:
192,192,50280,1,0,0:0:0:0:
64,192,50280,1,0,0:0:0:0:
448,192,50417,1,0,0:0:0:0:
64,192,50417,1,0,0:0:0:0:
320,192,50417,1,0,0:0:0:0:
448,192,50553,1,0,0:0:0:0:
192,192,50553,1,0,0:0:0:0:
320,192,50553,1,0,0:0:0:0:
192,192,50689,1,0,0:0:0:0:
320,192,50826,1,0,0:0:0:0:
448,192,50826,1,0,0:0:0:0:
64,192,50962,1,0,0:0:0:0:
192,192,50962,1,0,0:0:0:0:
448,192,50962,1,0,0:0:0:0:
64,192,51098,1,0,0:0:0:0:
320,192,51098,1,0,0:0:0:0:
192,192,51235,1,0,0:0:0:0:
320,192,51235,1,0,0:0:0:0:
192,192,51371,1,0,0:0:0:0:
448,192,51371,1,0,0:0:0:0:
64,192,51508,1,0,0:0:0:0:
320,192,51508,1,0,0:0:0:0:
448,192,51508,1,0,0:0:0:0:
64,192,51644,1,0,0:0:0:0:
320,192,51644,1,0,0:0:0:0:
448,192,51644,1,0,0:0:0:0:
64,192,51780,1,0,0:0:0:0:
192,192,51780,1,0,0:0:0:0:
448,192,51780,1,0,0:0:0:0:
192,192,51917,1,0,0:0:0:0:
320,192,51985,1,0,0:0:0:0:
64,192,52053,1,0,0:0:0:0:
448,192,52053,1,0,0:0:0:0:
64,192,52189,1,0,0:0:0:0:
192,192,52189,1,0,0:0:0:0:
448,192,52189,1,0,0:0:0:0:
64,192,52462,1,0,0:0:0:0:
320,192,52462,1,0,0:0:0:0:
448,192,52462,1,0,0:0:0:0:
64,192,52598,1,0,0:0:0:0:
192,192,52598,1,0,0:0:0:0:
320,192,52667,1,0,0:0:0:0:
448,192,52667,1,0,0:0:0:0:
64,192,52735,1,0,0:0:0:0:
192,192,52735,1,0,0:0:0:0:
448,192,52803,1,0,0:0:0:0:
64,192,52871,1,0,0:0:0:0:
192,192,52871,1,0,0:0:0:0:
320,192,52871,1,0,0:0:0:0:
192,192,53008,1,0,0:0:0:0:
320,192,53008,1,0,0:0:0:0:
448,192,53008,1,0,0:0:0:0:
64,192,53144,1,0,0:0:0:0:
448,192,53144,1,0,0:0:0:0:
64,192,53280,1,0,0:0:0:0:
192,192,53280,1,0,0:0:0:0:
320,192,53280,1,0,0:0:0:0:
320,192,53417,1,0,0:0:0:0:
64,192,53553,1,0,0:0:0:0:
192,192,53553,1,0,0:0:0:0:
448,192,53553,1,0,0:0:0:0:
320,192,53689,1,0,0:0:0:0:
448,192,53689,1,0,0:0:0:0:
320,192,53780,1,0,0:0:0:0:
448,192,53780,1,0,0:0:0:0:
192,192,53871,1,0,0:0:0:0:
64,192,53871,1,0,0:0:0:0:
64,192,53962,1,0,0:0:0:0:
192,192,53962,1,0,0:0:0:0:
448,192,53962,1,0,0:0:0:0:
448,192,54098,1,0,0:0:0:0:
192,192,54235,1,0,0:0:0:0:
320,192,54235,1,0,0:0:0:0:
64,192,54371,1,0,0:0:0:0:
320,192,54371,1,0,0:0:0:0:
64,192,54508,1,0,0:0:0:0:
192,192,54508,1,0,0:0:0:0:
448,192,54508,1,0,0:0:0:0:
320,192,54644,1,0,0:0:0:0:
448,192,54644,1,0,0:0:0:0:
64,192,54780,1,0,0:0:0:0:
192,192,54780,1,0,0:0:0:0:
320,192,54917,1,0,0:0:0:0:
192,192,54917,1,0,0:0:0:0:
320,192,55053,1,0,0:0:0:0:
448,192,55053,1,0,0:0:0:0:
64,192,55189,1,0,0:0:0:0:
448,192,55189,1,0,0:0:0:0:
64,192,55326,1,0,0:0:0:0:
192,192,55326,1,0,0:0:0:0:
192,192,55462,1,0,0:0:0:0:
448,192,55462,1,0,0:0:0:0:
64,192,55598,1,0,0:0:0:0:
320,192,55598,1,0,0:0:0:0:
448,192,55598,1,0,0:0:0:0:
320,192,55735,1,0,0:0:0:0:
192,192,55735,1,0,0:0:0:0:
64,192,55871,1,0,0:0:0:0:
192,192,55871,1,0,0:0:0:0:
448,192,55871,1,0,0:0:0:0:
320,192,56008,1,0,0:0:0:0:
448,192,56008,1,0,0:0:0:0:
64,192,56144,1,0,0:0:0:0:
192,192,56189,1,0,0:0:0:0:
448,192,56235,1,0,0:0:0:0:
64,192,56280,1,0,0:0:0:0:
320,192,56326,1,0,0:0:0:0:
448,192,56371,1,0,0:0:0:0:
192,192,56417,1,0,0:0:0:0:
64,192,56462,1,0,0:0:0:0:
320,192,56508,1,0,0:0:0:0:
192,192,56553,1,0,0:0:0:0:
448,192,56598,1,0,0:0:0:0:
320,192,56644,1,0,0:0:0:0:
64,192,56689,1,0,0:0:0:0:
192,192,56735,1,0,0:0:0:0:
320,192,56780,1,0,0:0:0:0:
64,192,56826,1,0,0:0:0:0:
192,192,56871,1,0,0:0:0:0:
448,192,56917,1,0,0:0:0:0:
320,192,56962,1,0,0:0:0:0:
192,192,57008,1,0,0:0:0:0:
448,192,57053,1,0,0:0:0:0:
320,192,57098,1,0,0:0:0:0:
64,192,57144,1,0,0:0:0:0:
192,192,57189,1,0,0:0:0:0:
320,192,57235,1,0,0:0:0:0:
448,192,57235,1,0,0:0:0:0:
448,192,57371,1,0,0:0:0:0:
192,192,57508,1,0,0:0:0:0:
64,192,57508,1,0,0:0:0:0:
64,192,57644,1,0,0:0:0:0:
448,192,57644,1,0,0:0:0:0:
320,192,57780,1,0,0:0:0:0:
448,192,57780,1,0,0:0:0:0:
64,192,57917,1,0,0:0:0:0:
320,192,57917,1,0,0:0:0:0:
192,192,58053,1,0,0:0:0:0:
320,192,58189,1,0,0:0:0:0:
192,192,58189,1,0,0:0:0:0:
64,192,58326,1,0,0:0:0:0:
448,192,58326,1,0,0:0:0:0:
320,192,58394,1,0,0:0:0:0:
64,192,58462,1,0,0:0:0:0:
320,192,58530,1,0,0:0:0:0:
64,192,58598,1,0,0:0:0:0:
192,192,58598,1,0,0:0:0:0:
448,192,58667,1,0,0:0:0:0:
192,192,58735,1,0,0:0:0:0:
320,192,58803,1,0,0:0:0:0:
448,192,58871,1,0,0:0:0:0:
64,192,58871,1,0,0:0:0:0:
320,192,59008,1,0,0:0:0:0:
64,192,59008,1,0,0:0:0:0:
320,192,59144,1,0,0:0:0:0:
448,192,59144,1,0,0:0:0:0:
64,192,59280,1,0,0:0:0:0:
64,192,59417,1,0,0:0:0:0:
448,192,59417,1,0,0:0:0:0:
64,192,59689,1,0,0:0:0:0:
320,192,59689,1,0,0:0:0:0:
192,192,59826,1,0,0:0:0:0:
448,192,59826,1,0,0:0:0:0:
192,192,59962,1,0,0:0:0:0:
64,192,59962,1,0,0:0:0:0:
64,192,60053,1,0,0:0:0:0:
192,192,60053,1,0,0:0:0:0:
448,192,60144,1,0,0:0:0:0:
320,192,60144,1,0,0:0:0:0:
448,192,60235,1,0,0:0:0:0:
320,192,60235,1,0,0:0:0:0:
64,192,60371,1,0,0:0:0:0:
320,192,60439,1,0,0:0:0:0:
192,192,60508,1,0,0:0:0:0:
448,192,60508,1,0,0:0:0:0:
192,192,60644,1,0,0:0:0:0:
320,192,60644,1,0,0:0:0:0:
448,192,60780,1,0,0:0:0:0:
320,192,60780,1,0,0:0:0:0:
64,192,60917,1,0,0:0:0:0:
192,192,60917,1,0,0:0:0:0:
64,192,61053,1,0,0:0:0:0:
448,192,61053,1,0,0:0:0:0:
192,192,61189,1,0,0:0:0:0:
448,192,61189,1,0,0:0:0:0:
192,192,61326,1,0,0:0:0:0:
320,192,61326,1,0,0:0:0:0:
320,192,61598,1,0,0:0:0:0:
448,192,61598,1,0,0:0:0:0:
64,192,61667,1,0,0:0:0:0:
448,192,61735,1,0,0:0:0:0:
64,192,61803,1,0,0:0:0:0:
448,192,61871,1,0,0:0:0:0:
64,192,62008,1,0,0:0:0:0:
192,192,62008,1,0,0:0:0:0:
320,192,62076,1,0,0:0:0:0:
64,192,62144,1,0,0:0:0:0:
448,192,62144,1,0,0:0:0:0:
320,192,62280,1,0,0:0:0:0:
448,192,62280,1,0,0:0:0:0:
192,192,62348,1,0,0:0:0:0:
320,192,62417,1,0,0:0:0:0:
448,192,62485,1,0,0:0:0:0:
64,192,62553,1,0,0:0:0:0:
192,192,62553,1,0,0:0:0:0:
192,192,62689,1,0,0:0:0:0:
320,192,62689,1,0,0:0:0:0:
448,192,62826,1,0,0:0:0:0:
320,192,62894,1,0,0:0:0:0:
192,192,62962,1,0,0:0:0:0:
64,192,62962,1,0,0:0:0:0:
320,192,63098,1,0,0:0:0:0:
64,192,63098,1,0,0:0:0:0:
192,192,63235,1,0,0:0:0:0:
448,192,63235,1,0,0:0:0:0:
448,192,63371,1,0,0:0:0:0:
320,192,63371,1,0,0:0:0:0:
64,192,63439,1,0,0:0:0:0:
192,192,63508,1,0,0:0:0:0:
320,192,63508,1,0,0:0:0:0:
192,192,63644,1,0,0:0:0:0:
64,192,63780,1,0,0:0:0:0:
448,192,63780,1,0,0:0:0:0:
320,192,63848,1,0,0:0:0:0:
192,192,63917,1,0,0:0:0:0:
320,192,63985,1,0,0:0:0:0:
64,192,64053,1,0,0:0:0:0:
448,192,64121,1,0,0:0:0:0:
64,192,64189,1,0,0:0:0:0:
320,192,64258,1,0,0:0:0:0:
448,192,64326,1,0,0:0:0:0:
192,192,64394,1,0,0:0:0:0:
448,192,64462,1,0,0:0:0:0:
192,192,64530,1,0,0:0:0:0:
64,192,64598,1,0,0:0:0:0:
448,192,64667,1,0,0:0:0:0:
64,192,64735,1,0,0:0:0:0:
192,192,64803,1,0,0:0:0:0:
320,192,64871,1,0,0:0:0:0:
64,192,64939,1,0,0:0:0:0:
320,192,65008,1,0,0:0:0:0:
448,192,65076,1,0,0:0:0:0:
192,192,65144,1,0,0:0:0:0:
320,192,65212,1,0,0:0:0:0:
192,192,65280,1,0,0:0:0:0:
64,192,65348,1,0,0:0:0:0:
448,192,65417,1,0,0:0:0:0:
320,192,65485,1,0,0:0:0:0:
192,192,65553,1,0,0:0:0:0:
448,192,65689,1,0,0:0:0:0:
320,192,65758,1,0,0:0:0:0:
192,192,65826,1,0,0:0:0:0:
64,192,65962,1,0,0:0:0:0:
320,192,65962,1,0,0:0:0:0:
448,192,65962,1,0,0:0:0:0:
192,192,66030,1,0,0:0:0:0:
448,192,66098,1,0,0:0:0:0:
320,192,66167,1,0,0:0:0:0:
192,192,66235,1,0,0:0:0:0:
64,192,66235,1,0,0:0:0:0:
192,192,66371,1,0,0:0:0:0:
448,192,66508,1,0,0:0:0:0:
320,192,66576,1,0,0:0:0:0:
64,192,66644,1,0,0:0:0:0:
192,192,66712,1,0,0:0:0:0:
320,192,66780,1,0,0:0:0:0:
448,192,66780,1,0,0:0:0:0:
320,192,66917,1,0,0:0:0:0:
64,192,67053,1,0,0:0:0:0:
192,192,67053,1,0,0:0:0:0:
448,192,67053,1,0,0:0:0:0:
64,192,67326,1,0,0:0:0:0:
64,192,67462,1,0,0:0:0:0:
448,192,67462,1,0,0:0:0:0:
320,192,67598,1,0,0:0:0:0:
192,192,67598,1,0,0:0:0:0:
192,192,67735,1,0,0:0:0:0:
64,192,67803,1,0,0:0:0:0:
320,192,67871,1,0,0:0:0:0:
448,192,67939,1,0,0:0:0:0:
64,192,68008,1,0,0:0:0:0:
192,192,68008,1,0,0:0:0:0:
320,192,68144,1,0,0:0:0:0:
448,192,68144,1,0,0:0:0:0:
64,192,68144,1,0,0:0:0:0:
192,192,68212,1,0,0:0:0:0:
320,192,68280,1,0,0:0:0:0:
448,192,68280,1,0,0:0:0:0:
192,192,68348,1,0,0:0:0:0:
320,192,68417,1,0,0:0:0:0:
448,192,68417,1,0,0:0:0:0:
64,192,68485,1,0,0:0:0:0:
320,192,68553,1,0,0:0:0:0:
448,192,68553,1,0,0:0:0:0:
64,192,68621,1,0,0:0:0:0:
320,192,68689,1,0,0:0:0:0:
448,192,68689,1,0,0:0:0:0:
192,192,68689,1,0,0:0:0:0:
64,192,68962,1,0,0:0:0:0:
448,192,68962,1,0,0:0:0:0:
448,192,69098,1,0,0:0:0:0:
192,192,69098,1,0,0:0:0:0:
64,192,69235,1,0,0:0:0:0:
192,192,69235,1,0,0:0:0:0:
320,192,69235,1,0,0:0:0:0:
448,192,69371,1,0,0:0:0:0:
192,192,69508,1,0,0:0:0:0:
320,192,69576,1,0,0:0:0:0:
192,192,69644,1,0,0:0:0:0:
64,192,69712,1,0,0:0:0:0:
448,192,69780,1,0,0:0:0:0:
320,192,69848,1,0,0:0:0:0:
192,192,69917,1,0,0:0:0:0:
320,192,69985,1,0,0:0:0:0:
64,192,70053,1,0,0:0:0:0:
448,192,70053,1,0,0:0:0:0:
192,192,70326,1,0,0:0:0:0:
448,192,70326,1,0,0:0:0:0:
64,192,70326,1,0,0:0:0:0:
64,192,70553,1,0,0:0:0:0:
192,192,70553,1,0,0:0:0:0:
320,192,70553,1,0,0:0:0:0:
192,192,70735,1,0,0:0:0:0:
320,192,70735,1,0,0:0:0:0:
448,192,70735,1,0,0:0:0:0:
64,192,70917,1,0,0:0:0:0:
320,192,70917,1,0,0:0:0:0:
448,192,70917,1,0,0:0:0:0:
320,192,71098,1,0,0:0:0:0:
192,192,71098,1,0,0:0:0:0:
64,192,71098,1,0,0:0:0:0:
448,192,71280,1,0,0:0:0:0:
64,192,71280,1,0,0:0:0:0:
192,192,71280,1,0,0:0:0:0:
64,192,71417,1,0,0:0:0:0:
448,192,71417,1,0,0:0:0:0:
320,192,71417,1,0,0:0:0:0:
192,192,71485,1,0,0:0:0:0:
320,192,71553,1,0,0:0:0:0:
64,192,71621,1,0,0:0:0:0:
448,192,71689,1,0,0:0:0:0:
192,192,71758,1,0,0:0:0:0:
448,192,71826,1,0,0:0:0:0:
320,192,71894,1,0,0:0:0:0:
64,192,71962,1,0,0:0:0:0:
192,192,71962,1,0,0:0:0:0:
448,192,72030,1,0,0:0:0:0:
64,192,72098,1,0,0:0:0:0:
192,192,72167,1,0,0:0:0:0:
320,192,72167,1,0,0:0:0:0:
448,192,72235,1,0,0:0:0:0:
192,192,72303,1,0,0:0:0:0:
320,192,72371,1,0,0:0:0:0:
64,192,72371,1,0,0:0:0:0:
448,192,72439,1,0,0:0:0:0:
64,192,72508,1,0,0:0:0:0:
192,192,72508,1,0,0:0:0:0:
320,192,72576,1,0,0:0:0:0:
448,192,72644,1,0,0:0:0:0:
192,192,72712,1,0,0:0:0:0:
448,192,72780,1,0,0:0:0:0:
320,192,72848,1,0,0:0:0:0:
64,192,72917,1,0,0:0:0:0:
192,192,72917,1,0,0:0:0:0:
320,192,72985,1,0,0:0:0:0:
64,192,73053,1,0,0:0:0:0:
448,192,73053,1,0,0:0:0:0:
192,192,73121,1,0,0:0:0:0:
320,192,73189,1,0,0:0:0:0:
64,192,73258,1,0,0:0:0:0:
320,192,73326,1,0,0:0:0:0:
192,192,73394,1,0,0:0:0:0:
448,192,73462,1,0,0:0:0:0:
192,192,73530,1,0,0:0:0:0:
448,192,73598,1,0,0:0:0:0:
64,192,73598,1,0,0:0:0:0:
320,192,73598,1,0,0:0:0:0:
192,192,73735,1,0,0:0:0:0:
320,192,73803,1,0,0:0:0:0:
448,192,73803,1,0,0:0:0:0:
192,192,73871,1,0,0:0:0:0:
64,192,73939,1,0,0:0:0:0:
448,192,74008,1,0,0:0:0:0:
64,192,74076,1,0,0:0:0:0:
192,192,74076,1,0,0:0:0:0:
320,192,74144,1,0,0:0:0:0:
448,192,74144,1,0,0:0:0:0:
448,192,74326,1,0,0:0:0:0:
64,192,74326,1,0,0:0:0:0:
320,192,74326,1,0,0:0:0:0:
448,192,74508,1,0,0:0:0:0:
320,192,74508,1,0,0:0:0:0:
64,192,74508,1,0,0:0:0:0:
448,192,74689,1,0,0:0:0:0:
192,192,74689,1,0,0:0:0:0:
64,192,74689,1,0,0:0:0:0:
320,192,74689,1,0,0:0:0:0:
320,192,75235,1,0,0:0:0:0:
192,192,75280,1,0,0:0:0:0:
64,192,75326,1,0,0:0:0:0:
448,192,75371,1,0,0:0:0:0:
320,192,75417,1,0,0:0:0:0:
192,192,75462,1,0,0:0:0:0:
448,192,75508,1,0,0:0:0:0:
320,192,75553,1,0,0:0:0:0:
64,192,75598,1,0,0:0:0:0:
192,192,75644,1,0,0:0:0:0:
320,192,75689,1,0,0:0:0:0:
448,192,75735,1,0,0:0:0:0:
64,192,75780,1,0,0:0:0:0:
64,192,76189,1,0,0:0:0:0:
448,192,76235,1,0,0:0:0:0:
320,192,76235,1,0,0:0:0:0:
192,192,76280,1,0,0:0:0:0:
320,192,76326,1,0,0:0:0:0:
448,192,76326,1,0,0:0:0:0:
192,192,76371,1,0,0:0:0:0:
64,192,76417,1,0,0:0:0:0:
320,192,76559,1,0,0:0:0:0:
192,192,76559,1,0,0:0:0:0:
448,192,76637,1,0,0:0:0:0:
64,192,76637,1,0,0:0:0:0:
320,192,76715,1,0,0:0:0:0:
192,192,76793,1,0,0:0:0:0:
64,192,76793,1,0,0:0:0:0:
448,192,76871,1,0,0:0:0:0:
320,192,76871,1,0,0:0:0:0:
192,192,76917,1,0,0:0:0:0:
64,192,76962,1,0,0:0:0:0:
448,192,77008,1,0,0:0:0:0:
320,192,77053,1,0,0:0:0:0:
64,192,77098,1,0,0:0:0:0:
192,192,77098,1,0,0:0:0:0:
320,192,77265,1,0,0:0:0:0:
448,192,77265,1,0,0:0:0:0:
320,192,77356,1,0,0:0:0:0:
448,192,77356,1,0,0:0:0:0:
192,192,77447,1,0,0:0:0:0:
64,192,77447,1,0,0:0:0:0:
192,192,77538,1,0,0:0:0:0:
64,192,77538,1,0,0:0:0:0:
64,192,77689,1,0,0:0:0:0:
448,192,77689,1,0,0:0:0:0:
192,192,77735,1,0,0:0:0:0:
320,192,77780,1,0,0:0:0:0:
448,192,77826,1,0,0:0:0:0:
192,192,77871,1,0,0:0:0:0:
64,192,77871,1,0,0:0:0:0:
320,192,77917,1,0,0:0:0:0:
448,192,77962,1,0,0:0:0:0:
64,192,77962,1,0,0:0:0:0:
320,192,78098,1,0,0:0:0:0:
448,192,78098,1,0,0:0:0:0:
192,192,78204,1,0,0:0:0:0:
64,192,78204,1,0,0:0:0:0:
320,192,78252,1,0,0:0:0:0:
448,192,78303,1,0,0:0:0:0:
64,192,78371,1,0,0:0:0:0:
320,192,78439,1,0,0:0:0:0:
448,192,78439,1,0,0:0:0:0:
64,192,78508,1,0,0:0:0:0:
192,192,78508,1,0,0:0:0:0:
320,192,78553,1,0,0:0:0:0:
448,192,78553,1,0,0:0:0:0:
64,192,78598,1,0,0:0:0:0:
192,192,78598,1,0,0:0:0:0:
64,192,78780,1,0,0:0:0:0:
448,192,78780,1,0,0:0:0:0:
192,192,78826,1,0,0:0:0:0:
320,192,78871,1,0,0:0:0:0:
448,192,78917,1,0,0:0:0:0:
64,192,79053,1,0,0:0:0:0:
192,192,79053,1,0,0:0:0:0:
64,192,79189,1,0,0:0:0:0:
448,192,79428,1,0,0:0:0:0:
320,192,79479,1,0,0:0:0:0:
192,192,79530,1,0,0:0:0:0:
64,192,79581,1,0,0:0:0:0:
320,192,79633,1,0,0:0:0:0:
448,192,79633,1,0,0:0:0:0:
192,192,79701,1,0,0:0:0:0:
320,192,79752,1,0,0:0:0:0:
448,192,79803,1,0,0:0:0:0:
64,192,79854,1,0,0:0:0:0:
192,192,79905,1,0,0:0:0:0:
320,192,79956,1,0,0:0:0:0:
192,192,80008,1,0,0:0:0:0:
64,192,80059,1,0,0:0:0:0:
448,192,80144,1,0,0:0:0:0:
320,192,80189,1,0,0:0:0:0:
192,192,80235,1,0,0:0:0:0:
448,192,80280,1,0,0:0:0:0:
320,192,80326,1,0,0:0:0:0:
64,192,80371,1,0,0:0:0:0:
192,192,80417,1,0,0:0:0:0:
320,192,80462,1,0,0:0:0:0:
64,192,80508,1,0,0:0:0:0:
192,192,80553,1,0,0:0:0:0:
448,192,80598,1,0,0:0:0:0:
320,192,80644,1,0,0:0:0:0:
192,192,80689,1,0,0:0:0:0:
64,192,80689,1,0,0:0:0:0:
448,192,80735,1,0,0:0:0:0:
320,192,80780,1,0,0:0:0:0:
64,192,80826,1,0,0:0:0:0:
192,192,80871,1,0,0:0:0:0:
320,192,80917,1,0,0:0:0:0:
448,192,80962,1,0,0:0:0:0:
64,192,81030,1,0,0:0:0:0:
320,192,81098,1,0,0:0:0:0:
448,192,81098,1,0,0:0:0:0:
192,192,81167,1,0,0:0:0:0:
64,192,81167,1,0,0:0:0:0:
448,192,81235,1,0,0:0:0:0:
320,192,81235,1,0,0:0:0:0:
320,192,81417,1,0,0:0:0:0:
448,192,81417,1,0,0:0:0:0:
64,192,81530,1,0,0:0:0:0:
192,192,81576,1,0,0:0:0:0:
448,192,81576,1,0,0:0:0:0:
320,192,81627,1,0,0:0:0:0:
192,192,81678,1,0,0:0:0:0:
64,192,81729,1,0,0:0:0:0:
320,192,81780,1,0,0:0:0:0:
448,192,81780,1,0,0:0:0:0:
192,192,81848,1,0,0:0:0:0:
64,192,81900,1,0,0:0:0:0:
320,192,81962,1,0,0:0:0:0:
448,192,81962,1,0,0:0:0:0:
192,192,82008,1,0,0:0:0:0:
320,192,82053,1,0,0:0:0:0:
448,192,82098,1,0,0:0:0:0:
64,192,82144,1,0,0:0:0:0:
192,192,82189,1,0,0:0:0:0:
320,192,82235,1,0,0:0:0:0:
448,192,82280,1,0,0:0:0:0:
64,192,82326,1,0,0:0:0:0:
320,192,82462,1,0,0:0:0:0:
448,192,82462,1,0,0:0:0:0:
64,192,82598,1,0,0:0:0:0:
192,192,82598,1,0,0:0:0:0:
192,192,82667,1,0,0:0:0:0:
448,192,82735,1,0,0:0:0:0:
320,192,82780,1,0,0:0:0:0:
192,192,82826,1,0,0:0:0:0:
64,192,82871,1,0,0:0:0:0:
448,192,82871,1,0,0:0:0:0:
320,192,82917,1,0,0:0:0:0:
192,192,82962,1,0,0:0:0:0:
64,192,83008,1,0,0:0:0:0:
64,192,83144,1,0,0:0:0:0:
192,192,83144,1,0,0:0:0:0:
448,192,83280,1,0,0:0:0:0:
320,192,83280,1,0,0:0:0:0:
192,192,83417,1,0,0:0:0:0:
64,192,83417,1,0,0:0:0:0:
448,192,83417,1,0,0:0:0:0:
192,192,83553,1,0,0:0:0:0:
64,192,83689,1,0,0:0:0:0:
320,192,83689,1,0,0:0:0:0:
448,192,83689,1,0,0:0:0:0:
320,192,83826,1,0,0:0:0:0:
64,192,83871,1,0,0:0:0:0:
192,192,83917,1,0,0:0:0:0:
320,192,83962,1,0,0:0:0:0:
448,192,83962,1,0,0:0:0:0:
64,192,84008,1,0,0:0:0:0:
192,192,84053,1,0,0:0:0:0:
320,192,84098,1,0,0:0:0:0:
448,192,84098,1,0,0:0:0:0:
64,192,84144,1,0,0:0:0:0:
192,192,84189,1,0,0:0:0:0:
448,192,84235,1,0,0:0:0:0:
64,192,84371,1,0,0:0:0:0:
192,192,84371,1,0,0:0:0:0:
320,192,84371,1,0,0:0:0:0:
192,192,84508,1,0,0:0:0:0:
320,192,84644,1,0,0:0:0:0:
448,192,84644,1,0,0:0:0:0:
64,192,84780,1,0,0:0:0:0:
192,192,84780,1,0,0:0:0:0:
448,192,84780,1,0,0:0:0:0:
64,192,84917,1,0,0:0:0:0:
192,192,84985,1,0,0:0:0:0:
320,192,85053,1,0,0:0:0:0:
448,192,85053,1,0,0:0:0:0:
192,192,85189,1,0,0:0:0:0:
64,192,85189,1,0,0:0:0:0:
64,192,85326,1,0,0:0:0:0:
320,192,85326,1,0,0:0:0:0:
448,192,85326,1,0,0:0:0:0:
192,192,85462,1,0,0:0:0:0:
320,192,85462,1,0,0:0:0:0:
448,192,85462,1,0,0:0:0:0:
192,192,85598,1,0,0:0:0:0:
448,192,85735,1,0,0:0:0:0:
64,192,85735,1,0,0:0:0:0:
64,192,85871,1,0,0:0:0:0:
320,192,85871,1,0,0:0:0:0:
448,192,85871,1,0,0:0:0:0:
64,192,86008,1,0,0:0:0:0:
192,192,86008,1,0,0:0:0:0:
320,192,86053,1,0,0:0:0:0:
448,192,86098,1,0,0:0:0:0:
192,192,86144,1,0,0:0:0:0:
320,192,86189,1,0,0:0:0:0:
448,192,86235,1,0,0:0:0:0:
192,192,86280,1,0,0:0:0:0:
64,192,86280,1,0,0:0:0:0:
320,192,86348,1,0,0:0:0:0:
448,192,86417,1,0,0:0:0:0:
192,192,86417,1,0,0:0:0:0:
64,192,86417,1,0,0:0:0:0:
448,192,86553,1,0,0:0:0:0:
320,192,86553,1,0,0:0:0:0:
64,192,86553,1,0,0:0:0:0:
320,192,86689,1,0,0:0:0:0:
64,192,86826,1,0,0:0:0:0:
192,192,86826,1,0,0:0:0:0:
64,192,86962,1,0,0:0:0:0:
320,192,86962,1,0,0:0:0:0:
448,192,86962,1,0,0:0:0:0:
448,192,87098,1,0,0:0:0:0:
320,192,87098,1,0,0:0:0:0:
64,192,87235,1,0,0:0:0:0:
192,192,87235,1,0,0:0:0:0:
448,192,87235,1,0,0:0:0:0:
64,192,87371,1,0,0:0:0:0:
192,192,87371,1,0,0:0:0:0:
448,192,87508,1,0,0:0:0:0:
320,192,87508,1,0,0:0:0:0:
64,192,87553,1,0,0:0:0:0:
192,192,87598,1,0,0:0:0:0:
320,192,87644,1,0,0:0:0:0:
64,192,87689,1,0,0:0:0:0:
192,192,87735,1,0,0:0:0:0:
448,192,87780,1,0,0:0:0:0:
320,192,87780,1,0,0:0:0:0:
448,192,87917,1,0,0:0:0:0:
320,192,88053,1,0,0:0:0:0:
192,192,88053,1,0,0:0:0:0:
64,192,88053,1,0,0:0:0:0:
64,192,88189,1,0,0:0:0:0:
320,192,88235,1,0,0:0:0:0:
448,192,88280,1,0,0:0:0:0:
192,192,88326,1,0,0:0:0:0:
64,192,88326,1,0,0:0:0:0:
320,192,88371,1,0,0:0:0:0:
448,192,88417,1,0,0:0:0:0:
192,192,88462,1,0,0:0:0:0:
64,192,88462,1,0,0:0:0:0:
320,192,88508,1,0,0:0:0:0:
448,192,88553,1,0,0:0:0:0:
192,192,88598,1,0,0:0:0:0:
448,192,88735,1,0,0:0:0:0:
320,192,88735,1,0,0:0:0:0:
64,192,88735,1,0,0:0:0:0:
320,192,88871,1,0,0:0:0:0:
192,192,89008,1,0,0:0:0:0:
64,192,89008,1,0,0:0:0:0:
448,192,89144,1,0,0:0:0:0:
320,192,89144,1,0,0:0:0:0:
64,192,89144,1,0,0:0:0:0:
448,192,89280,1,0,0:0:0:0:
320,192,89280,1,0,0:0:0:0:
192,192,89280,1,0,0:0:0:0:
192,192,89417,1,0,0:0:0:0:
320,192,89553,1,0,0:0:0:0:
448,192,89553,1,0,0:0:0:0:
448,192,89689,1,0,0:0:0:0:
192,192,89689,1,0,0:0:0:0:
320,192,89689,1,0,0:0:0:0:
448,192,89826,1,0,0:0:0:0:
64,192,89826,1,0,0:0:0:0:
192,192,89826,1,0,0:0:0:0:
320,192,89962,1,0,0:0:0:0:
192,192,89962,1,0,0:0:0:0:
64,192,89962,1,0,0:0:0:0:
320,192,90098,1,0,0:0:0:0:
64,192,90235,1,0,0:0:0:0:
192,192,90235,1,0,0:0:0:0:
448,192,90235,1,0,0:0:0:0:
448,192,90371,1,0,0:0:0:0:
320,192,90371,1,0,0:0:0:0:
192,192,90417,1,0,0:0:0:0:
64,192,90462,1,0,0:0:0:0:
320,192,90508,1,0,0:0:0:0:
192,192,90553,1,0,0:0:0:0:
64,192,90598,1,0,0:0:0:0:
320,192,90644,1,0,0:0:0:0:
448,192,90644,1,0,0:0:0:0:
192,192,90689,1,0,0:0:0:0:
64,192,90735,1,0,0:0:0:0:
320,192,90780,1,0,0:0:0:0:
448,192,90780,1,0,0:0:0:0:
64,192,90917,1,0,0:0:0:0:
192,192,90917,1,0,0:0:0:0:
448,192,90917,1,0,0:0:0:0:
64,192,91053,1,0,0:0:0:0:
448,192,91189,1,0,0:0:0:0:
320,192,91189,1,0,0:0:0:0:
320,192,91326,1,0,0:0:0:0:
192,192,91326,1,0,0:0:0:0:
64,192,91326,1,0,0:0:0:0:
448,192,91462,1,0,0:0:0:0:
192,192,91462,1,0,0:0:0:0:
64,192,91462,1,0,0:0:0:0:
320,192,91530,1,0,0:0:0:0:
64,192,91598,1,0,0:0:0:0:
448,192,91598,1,0,0:0:0:0:
192,192,91667,1,0,0:0:0:0:
448,192,91735,1,0,0:0:0:0:
64,192,91735,1,0,0:0:0:0:
320,192,91803,1,0,0:0:0:0:
192,192,91871,1,0,0:0:0:0:
64,192,91871,1,0,0:0:0:0:
448,192,91917,1,0,0:0:0:0:
320,192,91962,1,0,0:0:0:0:
192,192,92008,1,0,0:0:0:0:
448,192,92053,1,0,0:0:0:0:
320,192,92098,1,0,0:0:0:0:
192,192,92144,1,0,0:0:0:0:
64,192,92144,1,0,0:0:0:0:
64,192,92417,1,0,0:0:0:0:
448,192,92417,1,0,0:0:0:0:
64,192,92723,1,0,0:0:0:0:
448,192,92723,1,0,0:0:0:0:
64,192,92962,1,0,0:0:0:0:
192,192,92962,1,0,0:0:0:0:
448,192,92962,1,0,0:0:0:0:
64,192,93098,1,0,0:0:0:0:
320,192,93098,1,0,0:0:0:0:
448,192,93098,1,0,0:0:0:0:
320,192,93371,1,0,0:0:0:0:
192,192,93439,1,0,0:0:0:0:
64,192,93508,1,0,0:0:0:0:
320,192,93576,1,0,0:0:0:0:
192,192,93644,1,0,0:0:0:0:
64,192,93712,1,0,0:0:0:0:
320,192,93780,1,0,0:0:0:0:
448,192,93848,1,0,0:0:0:0:
192,192,93917,1,0,0:0:0:0:
320,192,93985,1,0,0:0:0:0:
448,192,94053,1,0,0:0:0:0:
192,192,94121,1,0,0:0:0:0:
320,192,94189,1,0,0:0:0:0:
64,192,94258,1,0,0:0:0:0:
320,192,94326,1,0,0:0:0:0:
192,192,94326,1,0,0:0:0:0:
448,192,94326,1,0,0:0:0:0:
192,192,95008,1,0,0:0:0:0:
320,192,95144,1,0,0:0:0:0:
64,192,95280,1,0,0:0:0:0:
448,192,95280,1,0,0:0:0:0:
192,192,95280,1,0,0:0:0:0:
64,192,95553,1,0,0:0:0:0:
448,192,95826,1,0,0:0:0:0:
192,192,95962,1,0,0:0:0:0:
320,192,95962,1,0,0:0:0:0:
64,192,96030,1,0,0:0:0:0:
448,192,96098,1,0,0:0:0:0:
320,192,96167,1,0,0:0:0:0:
64,192,96235,1,0,0:0:0:0:
192,192,96235,1,0,0:0:0:0:
320,192,96303,1,0,0:0:0:0:
448,192,96371,1,0,0:0:0:0:
192,192,96439,1,0,0:0:0:0:
64,192,96508,1,0,0:0:0:0:
448,192,96508,1,0,0:0:0:0:
320,192,96508,1,0,0:0:0:0:
64,192,96644,1,0,0:0:0:0:
192,192,96644,1,0,0:0:0:0:
192,192,96780,1,0,0:0:0:0:
320,192,96780,1,0,0:0:0:0:
448,192,96780,1,0,0:0:0:0:
448,192,96917,1,0,0:0:0:0:
64,192,96917,1,0,0:0:0:0:
64,192,97053,1,0,0:0:0:0:
192,192,97053,1,0,0:0:0:0:
320,192,97053,1,0,0:0:0:0:
448,192,97189,1,0,0:0:0:0:
64,192,97189,1,0,0:0:0:0:
320,192,97326,1,0,0:0:0:0:
448,192,97326,1,0,0:0:0:0:
64,192,97326,1,0,0:0:0:0:
320,192,97462,1,0,0:0:0:0:
448,192,97462,1,0,0:0:0:0:
192,192,97462,1,0,0:0:0:0:
64,192,97598,1,0,0:0:0:0:
192,192,97598,1,0,0:0:0:0:
448,192,97598,1,0,0:0:0:0:
320,192,97735,1,0,0:0:0:0:
64,192,97735,1,0,0:0:0:0:
320,192,97871,1,0,0:0:0:0:
448,192,97871,1,0,0:0:0:0:
192,192,97871,1,0,0:0:0:0:
64,192,98008,1,0,0:0:0:0:
448,192,98008,1,0,0:0:0:0:
64,192,98144,1,0,0:0:0:0:
320,192,98144,1,0,0:0:0:0:
192,192,98144,1,0,0:0:0:0:
64,192,98280,1,0,0:0:0:0:
448,192,98280,1,0,0:0:0:0:
448,192,98417,1,0,0:0:0:0:
64,192,98417,1,0,0:0:0:0:
320,192,98417,1,0,0:0:0:0:
448,192,98553,1,0,0:0:0:0:
192,192,98553,1,0,0:0:0:0:
64,192,98689,1,0,0:0:0:0:
448,192,98689,1,0,0:0:0:0:
320,192,98689,1,0,0:0:0:0:
192,192,98826,1,0,0:0:0:0:
64,192,98826,1,0,0:0:0:0:
320,192,98962,1,0,0:0:0:0:
192,192,98962,1,0,0:0:0:0:
448,192,98962,1,0,0:0:0:0:
64,192,99098,1,0,0:0:0:0:
320,192,99167,1,0,0:0:0:0:
64,192,99235,1,0,0:0:0:0:
448,192,99235,1,0,0:0:0:0:
192,192,99235,1,0,0:0:0:0:
64,192,99371,1,0,0:0:0:0:
448,192,99371,1,0,0:0:0:0:
192,192,99508,1,0,0:0:0:0:
448,192,99508,1,0,0:0:0:0:
320,192,99508,1,0,0:0:0:0:
64,192,99644,1,0,0:0:0:0:
320,192,99644,1,0,0:0:0:0:
192,192,99644,1,0,0:0:0:0:
64,192,99780,1,0,0:0:0:0:
448,192,99917,1,0,0:0:0:0:
320,192,99917,1,0,0:0:0:0:
64,192,100053,1,0,0:0:0:0:
192,192,100053,1,0,0:0:0:0:
320,192,100053,1,0,0:0:0:0:
64,192,100189,1,0,0:0:0:0:
192,192,100189,1,0,0:0:0:0:
448,192,100189,1,0,0:0:0:0:
64,192,100462,1,0,0:0:0:0:
320,192,100462,1,0,0:0:0:0:
448,192,100462,1,0,0:0:0:0:
192,192,100598,1,0,0:0:0:0:
320,192,100598,1,0,0:0:0:0:
192,192,100735,1,0,0:0:0:0:
320,192,100735,1,0,0:0:0:0:
64,192,100871,1,0,0:0:0:0:
448,192,100871,1,0,0:0:0:0:
448,192,101008,1,0,0:0:0:0:
192,192,101076,1,0,0:0:0:0:
64,192,101144,1,0,0:0:0:0:
448,192,101144,1,0,0:0:0:0:
320,192,101144,1,0,0:0:0:0:
64,192,101280,1,0,0:0:0:0:
64,192,101417,1,0,0:0:0:0:
448,192,101417,1,0,0:0:0:0:
192,192,101553,1,0,0:0:0:0:
448,192,101553,1,0,0:0:0:0:
192,192,101689,1,0,0:0:0:0:
64,192,101826,1,0,0:0:0:0:
448,192,101826,1,0,0:0:0:0:
320,192,101826,1,0,0:0:0:0:
320,192,101962,1,0,0:0:0:0:
64,192,102098,1,0,0:0:0:0:
192,192,102098,1,0,0:0:0:0:
192,192,102235,1,0,0:0:0:0:
320,192,102235,1,0,0:0:0:0:
448,192,102235,1,0,0:0:0:0:
64,192,102371,1,0,0:0:0:0:
320,192,102508,1,0,0:0:0:0:
448,192,102508,1,0,0:0:0:0:
64,192,102644,1,0,0:0:0:0:
192,192,102644,1,0,0:0:0:0:
64,192,102780,1,0,0:0:0:0:
320,192,102780,1,0,0:0:0:0:
448,192,102780,1,0,0:0:0:0:
192,192,102917,1,0,0:0:0:0:
448,192,102917,1,0,0:0:0:0:
320,192,102917,1,0,0:0:0:0:
192,192,103053,1,0,0:0:0:0:
320,192,103189,1,0,0:0:0:0:
64,192,103189,1,0,0:0:0:0:
64,192,103326,1,0,0:0:0:0:
192,192,103326,1,0,0:0:0:0:
448,192,103326,1,0,0:0:0:0:
320,192,103462,1,0,0:0:0:0:
64,192,103598,1,0,0:0:0:0:
192,192,103598,1,0,0:0:0:0:
64,192,103735,1,0,0:0:0:0:
320,192,103735,1,0,0:0:0:0:
64,192,103871,1,0,0:0:0:0:
448,192,103871,1,0,0:0:0:0:
192,192,104008,1,0,0:0:0:0:
320,192,104008,1,0,0:0:0:0:
448,192,104008,1,0,0:0:0:0:
192,192,104144,1,0,0:0:0:0:
320,192,104280,1,0,0:0:0:0:
448,192,104280,1,0,0:0:0:0:
192,192,104417,1,0,0:0:0:0:
64,192,104417,1,0,0:0:0:0:
448,192,104417,1,0,0:0:0:0:
192,192,104553,1,0,0:0:0:0:
320,192,104553,1,0,0:0:0:0:
64,192,104621,1,0,0:0:0:0:
448,192,104689,1,0,0:0:0:0:
320,192,104689,1,0,0:0:0:0:
192,192,104860,1,0,0:0:0:0:
320,192,105133,1,0,0:0:0:0:
64,192,105405,1,0,0:0:0:0:
448,192,105542,1,0,0:0:0:0:
64,192,108508,1,0,0:0:0:0:
192,192,108508,1,0,0:0:0:0:
64,192,109053,1,0,0:0:0:0:
192,192,109053,1,0,0:0:0:0:
64,192,109598,1,0,0:0:0:0:
192,192,109598,1,0,0:0:0:0:
192,192,110144,1,0,0:0:0:0:
448,192,110144,1,0,0:0:0:0:
320,192,110417,1,0,0:0:0:0:
64,192,110553,1,0,0:0:0:0:
192,192,110553,1,0,0:0:0:0:
320,192,110689,1,0,0:0:0:0:
448,192,110689,1,0,0:0:0:0:
320,192,111235,1,0,0:0:0:0:
448,192,111235,1,0,0:0:0:0:
192,192,111780,1,0,0:0:0:0:
192,192,112053,1,0,0:0:0:0:
192,192,112326,1,0,0:0:0:0:
448,192,112326,1,0,0:0:0:0:
192,192,112598,1,0,0:0:0:0:
64,192,112871,1,0,0:0:0:0:
448,192,112871,1,0,0:0:0:0:
448,192,113144,1,0,0:0:0:0:
448,192,113417,1,0,0:0:0:0:
64,192,113417,1,0,0:0:0:0:
448,192,113689,1,0,0:0:0:0:
64,192,113962,1,0,0:0:0:0:
320,192,113962,1,0,0:0:0:0:
64,192,114235,1,0,0:0:0:0:
320,192,114508,1,0,0:0:0:0:
64,192,114508,1,0,0:0:0:0:
64,192,114780,1,0,0:0:0:0:
448,192,114917,1,0,0:0:0:0:
192,192,114917,1,0,0:0:0:0:
320,192,115053,1,0,0:0:0:0:
64,192,115053,1,0,0:0:0:0:
320,192,115326,1,0,0:0:0:0:
320,192,115598,1,0,0:0:0:0:
320,192,115871,1,0,0:0:0:0:
192,192,116144,1,0,0:0:0:0:
448,192,116144,1,0,0:0:0:0:
192,192,116417,1,0,0:0:0:0:
192,192,116689,1,0,0:0:0:0:
448,192,116689,1,0,0:0:0:0:
192,192,116962,1,0,0:0:0:0:
448,192,117235,1,0,0:0:0:0:
320,192,117235,1,0,0:0:0:0:
448,192,117508,1,0,0:0:0:0:
448,192,117780,1,0,0:0:0:0:
64,192,117780,1,0,0:0:0:0:
448,192,118053,1,0,0:0:0:0:
448,192,118326,1,0,0:0:0:0:
448,192,118598,1,0,0:0:0:0:
448,192,118871,1,0,0:0:0:0:
64,192,118871,1,0,0:0:0:0:
320,192,119144,1,0,0:0:0:0:
192,192,119417,1,0,0:0:0:0:
320,192,119417,1,0,0:0:0:0:
64,192,119689,1,0,0:0:0:0:
64,192,119962,1,0,0:0:0:0:
448,192,119962,1,0,0:0:0:0:
64,192,120235,1,0,0:0:0:0:
64,192,120508,1,0,0:0:0:0:
64,192,120780,1,0,0:0:0:0:
64,192,121053,1,0,0:0:0:0:
448,192,121053,1,0,0:0:0:0:
320,192,121326,1,0,0:0:0:0:
64,192,121462,1,0,0:0:0:0:
192,192,121598,1,0,0:0:0:0:
320,192,121598,1,0,0:0:0:0:
448,192,121871,1,0,0:0:0:0:
448,192,122144,1,0,0:0:0:0:
64,192,122144,1,0,0:0:0:0:
448,192,122417,1,0,0:0:0:0:
448,192,122689,1,0,0:0:0:0:
192,192,122689,1,0,0:0:0:0:
448,192,122962,1,0,0:0:0:0:
448,192,123235,1,0,0:0:0:0:
64,192,123235,1,0,0:0:0:0:
448,192,123508,1,0,0:0:0:0:
448,192,123780,1,0,0:0:0:0:
192,192,123780,1,0,0:0:0:0:
448,192,124053,1,0,0:0:0:0:
448,192,124326,1,0,0:0:0:0:
64,192,124326,1,0,0:0:0:0:
320,192,124598,1,0,0:0:0:0:
64,192,124871,1,0,0:0:0:0:
192,192,124871,1,0,0:0:0:0:
64,192,125417,1,0,0:0:0:0:
448,192,125417,1,0,0:0:0:0:
192,192,125962,1,0,0:0:0:0:
320,192,126098,1,0,0:0:0:0:
64,192,126235,1,0,0:0:0:0:
320,192,126371,1,0,0:0:0:0:
192,192,126508,1,0,0:0:0:0:
448,192,126508,1,0,0:0:0:0:
64,192,126644,1,0,0:0:0:0:
320,192,126780,1,0,0:0:0:0:
192,192,126917,1,0,0:0:0:0:
448,192,127189,1,0,0:0:0:0:
64,192,127326,1,0,0:0:0:0:
320,192,127462,1,0,0:0:0:0:
64,192,127598,1,0,0:0:0:0:
192,192,127644,1,0,0:0:0:0:
320,192,127689,1,0,0:0:0:0:
448,192,127735,1,0,0:0:0:0:
64,192,127780,1,0,0:0:0:0:
192,192,127826,1,0,0:0:0:0:
320,192,127871,1,0,0:0:0:0:
192,192,127939,1,0,0:0:0:0:
320,192,128008,1,0,0:0:0:0:
448,192,128008,1,0,0:0:0:0:
64,192,128008,1,0,0:0:0:0:
64,192,128144,1,0,0:0:0:0:
320,192,128280,1,0,0:0:0:0:
448,192,128280,1,0,0:0:0:0:
64,192,128417,1,0,0:0:0:0:
192,192,128417,1,0,0:0:0:0:
320,192,128417,1,0,0:0:0:0:
448,192,128553,1,0,0:0:0:0:
64,192,128689,1,0,0:0:0:0:
192,192,128689,1,0,0:0:0:0:
320,192,128826,1,0,0:0:0:0:
448,192,128826,1,0,0:0:0:0:
64,192,128962,1,0,0:0:0:0:
192,192,128962,1,0,0:0:0:0:
448,192,128962,1,0,0:0:0:0:
64,192,129098,1,0,0:0:0:0:
192,192,129098,1,0,0:0:0:0:
320,192,129098,1,0,0:0:0:0:
448,192,129098,1,0,0:0:0:0:
320,192,129235,1,0,0:0:0:0:
64,192,129371,1,0,0:0:0:0:
192,192,129371,1,0,0:0:0:0:
192,192,129508,1,0,0:0:0:0:
320,192,129508,1,0,0:0:0:0:
448,192,129508,1,0,0:0:0:0:
64,192,129644,1,0,0:0:0:0:
320,192,129780,1,0,0:0:0:0:
448,192,129780,1,0,0:0:0:0:
64,192,129917,1,0,0:0:0:0:
192,192,129917,1,0,0:0:0:0:
64,192,130053,1,0,0:0:0:0:
320,192,130053,1,0,0:0:0:0:
448,192,130053,1,0,0:0:0:0:
192,192,130189,1,0,0:0:0:0:
320,192,130189,1,0,0:0:0:0:
448,192,130189,1,0,0:0:0:0:
64,192,130189,1,0,0:0:0:0:
192,192,130326,1,0,0:0:0:0:
320,192,130462,1,0,0:0:0:0:
448,192,130462,1,0,0:0:0:0:
64,192,130598,1,0,0:0:0:0:
192,192,130598,1,0,0:0:0:0:
320,192,130598,1,0,0:0:0:0:
448,192,130735,1,0,0:0:0:0:
64,192,130871,1,0,0:0:0:0:
192,192,130871,1,0,0:0:0:0:
320,192,131008,1,0,0:0:0:0:
448,192,131008,1,0,0:0:0:0:
64,192,131144,1,0,0:0:0:0:
192,192,131144,1,0,0:0:0:0:
320,192,131144,1,0,0:0:0:0:
64,192,131280,1,0,0:0:0:0:
192,192,131280,1,0,0:0:0:0:
320,192,131280,1,0,0:0:0:0:
448,192,131280,1,0,0:0:0:0:
448,192,131417,1,0,0:0:0:0:
64,192,131553,1,0,0:0:0:0:
192,192,131553,1,0,0:0:0:0:
192,192,131689,1,0,0:0:0:0:
320,192,131689,1,0,0:0:0:0:
448,192,131689,1,0,0:0:0:0:
64,192,131826,1,0,0:0:0:0:
320,192,131962,1,0,0:0:0:0:
448,192,131962,1,0,0:0:0:0:
64,192,132098,1,0,0:0:0:0:
192,192,132098,1,0,0:0:0:0:
64,192,132235,1,0,0:0:0:0:
320,192,132235,1,0,0:0:0:0:
448,192,132235,1,0,0:0:0:0:
64,192,132371,1,0,0:0:0:0:
192,192,132371,1,0,0:0:0:0:
320,192,132371,1,0,0:0:0:0:
448,192,132371,1,0,0:0:0:0:
192,192,132508,1,0,0:0:0:0:
320,192,132644,1,0,0:0:0:0:
448,192,132644,1,0,0:0:0:0:
192,192,132712,1,0,0:0:0:0:
64,192,132780,1,0,0:0:0:0:
448,192,132780,1,0,0:0:0:0:
320,192,132780,1,0,0:0:0:0:
64,192,132917,1,0,0:0:0:0:
192,192,132985,1,0,0:0:0:0:
320,192,133053,1,0,0:0:0:0:
448,192,133053,1,0,0:0:0:0:
192,192,133121,1,0,0:0:0:0:
64,192,133189,1,0,0:0:0:0:
448,192,133258,1,0,0:0:0:0:
192,192,133326,1,0,0:0:0:0:
320,192,133326,1,0,0:0:0:0:
64,192,133326,1,0,0:0:0:0:
192,192,133462,1,0,0:0:0:0:
320,192,133462,1,0,0:0:0:0:
448,192,133462,1,0,0:0:0:0:
64,192,133735,1,0,0:0:0:0:
448,192,133735,1,0,0:0:0:0:
320,192,133735,1,0,0:0:0:0:
192,192,134008,1,0,0:0:0:0:
448,192,134008,1,0,0:0:0:0:
64,192,134008,1,0,0:0:0:0:
320,192,134144,1,0,0:0:0:0:
192,192,134189,1,0,0:0:0:0:
64,192,134235,1,0,0:0:0:0:
320,192,134280,1,0,0:0:0:0:
448,192,134326,1,0,0:0:0:0:
64,192,134371,1,0,0:0:0:0:
192,192,134417,1,0,0:0:0:0:
320,192,134462,1,0,0:0:0:0:
448,192,134508,1,0,0:0:0:0:
64,192,134553,1,0,0:0:0:0:
192,192,134598,1,0,0:0:0:0:
320,192,134644,1,0,0:0:0:0:
64,192,134689,1,0,0:0:0:0:
448,192,134689,1,0,0:0:0:0:
192,192,134689,1,0,0:0:0:0:
448,192,134826,1,0,0:0:0:0:
192,192,134826,1,0,0:0:0:0:
64,192,134826,1,0,0:0:0:0:
448,192,134962,1,0,0:0:0:0:
192,192,134962,1,0,0:0:0:0:
64,192,134962,1,0,0:0:0:0:
448,192,135098,1,0,0:0:0:0:
192,192,135098,1,0,0:0:0:0:
64,192,135098,1,0,0:0:0:0:
448,192,135235,1,0,0:0:0:0:
192,192,135235,1,0,0:0:0:0:
64,192,135235,1,0,0:0:0:0:
64,192,135371,1,0,0:0:0:0:
320,192,135371,1,0,0:0:0:0:
192,192,135508,1,0,0:0:0:0:
320,192,135508,1,0,0:0:0:0:
192,192,135644,1,0,0:0:0:0:
448,192,135644,1,0,0:0:0:0:
64,192,135644,1,0,0:0:0:0:
320,192,135780,1,0,0:0:0:0:
64,192,135917,1,0,0:0:0:0:
192,192,135917,1,0,0:0:0:0:
64,192,136053,1,0,0:0:0:0:
448,192,136053,1,0,0:0:0:0:
320,192,136189,1,0,0:0:0:0:
448,192,136258,1,0,0:0:0:0:
64,192,136326,1,0,0:0:0:0:
192,192,136326,1,0,0:0:0:0:
192,192,136462,1,0,0:0:0:0:
320,192,136462,1,0,0:0:0:0:
448,192,136598,1,0,0:0:0:0:
64,192,136598,1,0,0:0:0:0:
192,192,136735,1,0,0:0:0:0:
320,192,136735,1,0,0:0:0:0:
448,192,136735,1,0,0:0:0:0:
64,192,137008,1,0,0:0:0:0:
64,192,137144,1,0,0:0:0:0:
320,192,137280,1,0,0:0:0:0:
192,192,137280,1,0,0:0:0:0:
448,192,137280,1,0,0:0:0:0:
448,192,137553,1,0,0:0:0:0:
448,192,137689,1,0,0:0:0:0:
192,192,137826,1,0,0:0:0:0:
320,192,137826,1,0,0:0:0:0:
64,192,137826,1,0,0:0:0:0:
192,192,138098,1,0,0:0:0:0:
448,192,138235,1,0,0:0:0:0:
64,192,138371,1,0,0:0:0:0:
192,192,138439,1,0,0:0:0:0:
320,192,138508,1,0,0:0:0:0:
192,192,138644,1,0,0:0:0:0:
320,192,138712,1,0,0:0:0:0:
448,192,138780,1,0,0:0:0:0:
192,192,138917,1,0,0:0:0:0:
320,192,139053,1,0,0:0:0:0:
64,192,139053,1,0,0:0:0:0:
448,192,139053,1,0,0:0:0:0:
64,192,139326,1,0,0:0:0:0:
448,192,139326,1,0,0:0:0:0:
192,192,139462,1,0,0:0:0:0:
64,192,139598,1,0,0:0:0:0:
320,192,139598,1,0,0:0:0:0:
448,192,139735,1,0,0:0:0:0:
64,192,139871,1,0,0:0:0:0:
192,192,139871,1,0,0:0:0:0:
320,192,140008,1,0,0:0:0:0:
448,192,140008,1,0,0:0:0:0:
64,192,140008,1,0,0:0:0:0:
448,192,140280,1,0,0:0:0:0:
192,192,140280,1,0,0:0:0:0:
320,192,140417,1,0,0:0:0:0:
64,192,140417,1,0,0:0:0:0:
320,192,140689,1,0,0:0:0:0:
192,192,140689,1,0,0:0:0:0:
448,192,140826,1,0,0:0:0:0:
64,192,140962,1,0,0:0:0:0:
192,192,140962,1,0,0:0:0:0:
320,192,141098,1,0,0:0:0:0:
192,192,141167,1,0,0:0:0:0:
448,192,141235,1,0,0:0:0:0:
64,192,141235,1,0,0:0:0:0:
320,192,141235,1,0,0:0:0:0:
448,192,141508,1,0,0:0:0:0:
192,192,141508,1,0,0:0:0:0:
64,192,141644,1,0,0:0:0:0:
448,192,141780,1,0,0:0:0:0:
320,192,141780,1,0,0:0:0:0:
192,192,141917,1,0,0:0:0:0:
64,192,142053,1,0,0:0:0:0:
320,192,142053,1,0,0:0:0:0:
64,192,142189,1,0,0:0:0:0:
448,192,142189,1,0,0:0:0:0:
192,192,142189,1,0,0:0:0:0:
192,192,142394,1,0,0:0:0:0:
320,192,142462,1,0,0:0:0:0:
448,192,142462,1,0,0:0:0:0:
64,192,142530,1,0,0:0:0:0:
192,192,142598,1,0,0:0:0:0:
448,192,142598,1,0,0:0:0:0:
320,192,142667,1,0,0:0:0:0:
192,192,142735,1,0,0:0:0:0:
64,192,142803,1,0,0:0:0:0:
448,192,142871,1,0,0:0:0:0:
320,192,142871,1,0,0:0:0:0:
192,192,142939,1,0,0:0:0:0:
448,192,143008,1,0,0:0:0:0:
320,192,143076,1,0,0:0:0:0:
64,192,143144,1,0,0:0:0:0:
192,192,143144,1,0,0:0:0:0:
320,192,143212,1,0,0:0:0:0:
64,192,143280,1,0,0:0:0:0:
448,192,143280,1,0,0:0:0:0:
192,192,143417,1,0,0:0:0:0:
192,192,143553,1,0,0:0:0:0:
192,192,143689,1,0,0:0:0:0:
192,192,143826,1,0,0:0:0:0:
192,192,143962,1,0,0:0:0:0:
320,192,144098,1,0,0:0:0:0:
64,192,144235,1,0,0:0:0:0:
192,192,144371,1,0,0:0:0:0:
448,192,144508,1,0,0:0:0:0:
192,192,144644,1,0,0:0:0:0:
320,192,144780,1,0,0:0:0:0:
64,192,144917,1,0,0:0:0:0:
448,192,145053,1,0,0:0:0:0:
192,192,145326,1,0,0:0:0:0:
64,192,145462,1,0,0:0:0:0:
320,192,145462,1,0,0:0:0:0:
448,192,145462,1,0,0:0:0:0:
64,192,145735,1,0,0:0:0:0:
448,192,145871,1,0,0:0:0:0:
192,192,146008,1,0,0:0:0:0:
320,192,146076,1,0,0:0:0:0:
448,192,146144,1,0,0:0:0:0:
64,192,146280,1,0,0:0:0:0:
192,192,146280,1,0,0:0:0:0:
64,192,146553,1,0,0:0:0:0:
448,192,146553,1,0,0:0:0:0:
320,192,146826,1,0,0:0:0:0:
448,192,146826,1,0,0:0:0:0:
192,192,146962,1,0,0:0:0:0:
448,192,147098,1,0,0:0:0:0:
320,192,147167,1,0,0:0:0:0:
64,192,147235,1,0,0:0:0:0:
192,192,147235,1,0,0:0:0:0:
320,192,147371,1,0,0:0:0:0:
64,192,147508,1,0,0:0:0:0:
448,192,147508,1,0,0:0:0:0:
192,192,147644,1,0,0:0:0:0:
320,192,147780,1,0,0:0:0:0:
448,192,147780,1,0,0:0:0:0:
64,192,147780,1,0,0:0:0:0:
192,192,147917,1,0,0:0:0:0:
320,192,148053,1,0,0:0:0:0:
64,192,148189,1,0,0:0:0:0:
448,192,148326,1,0,0:0:0:0:
192,192,148462,1,0,0:0:0:0:
320,192,148598,1,0,0:0:0:0:
64,192,148735,1,0,0:0:0:0:
448,192,148735,1,0,0:0:0:0:
192,192,149008,1,0,0:0:0:0:
320,192,149280,1,0,0:0:0:0:
448,192,149553,1,0,0:0:0:0:
64,192,149826,1,0,0:0:0:0:
192,192,149826,1,0,0:0:0:0:
448,192,150098,5,0,0:0:0:0:
320,192,150235,1,0,0:0:0:0:
192,192,150371,1,0,0:0:0:0:
64,192,150644,1,0,0:0:0:0:
448,192,150780,1,0,0:0:0:0:
448,192,151053,5,0,0:0:0:0:
320,192,151053,1,0,0:0:0:0:
192,192,151053,1,0,0:0:0:0:
64,192,151053,1,0,0:0:0:0:
448,192,151189,1,0,0:0:0:0:
320,192,151189,1,0,0:0:0:0:
64,192,151189,1,0,0:0:0:0:
192,192,151189,1,0,0:0:0:0:
448,192,151326,1,0,0:0:0:0:
320,192,151326,1,0,0:0:0:0:
192,192,151326,1,0,0:0:0:0:
64,192,151326,1,0,0:0:0:0:
448,192,151462,1,0,0:0:0:0:
320,192,151462,1,0,0:0:0:0:
64,192,151462,1,0,0:0:0:0:
192,192,151462,1,0,0:0:0:0:
448,192,151598,1,0,0:0:0:0:
320,192,151598,1,0,0:0:0:0:
192,192,151598,1,0,0:0:0:0:
64,192,151598,1,0,0:0:0:0:
192,192,151735,1,0,0:0:0:0:
320,192,151735,1,0,0:0:0:0:
448,192,151871,1,0,0:0:0:0:
320,192,151871,1,0,0:0:0:0:
64,192,151871,1,0,0:0:0:0:
192,192,152008,1,0,0:0:0:0:
64,192,152008,1,0,0:0:0:0:
448,192,152008,1,0,0:0:0:0:
192,192,152144,1,0,0:0:0:0:
448,192,152280,1,0,0:0:0:0:
320,192,152280,1,0,0:0:0:0:
448,192,152417,1,0,0:0:0:0:
192,192,152417,1,0,0:0:0:0:
64,192,152417,1,0,0:0:0:0:
64,192,152553,1,0,0:0:0:0:
192,192,152621,1,0,0:0:0:0:
448,192,152689,1,0,0:0:0:0:
320,192,152689,1,0,0:0:0:0:
448,192,152826,1,0,0:0:0:0:
64,192,152826,1,0,0:0:0:0:
320,192,152962,1,0,0:0:0:0:
192,192,152962,1,0,0:0:0:0:
64,192,152962,1,0,0:0:0:0:
448,192,153098,1,0,0:0:0:0:
320,192,153098,1,0,0:0:0:0:
192,192,153098,1,0,0:0:0:0:
448,192,153235,1,0,0:0:0:0:
192,192,153371,1,0,0:0:0:0:
64,192,153371,1,0,0:0:0:0:
448,192,153508,1,0,0:0:0:0:
320,192,153508,1,0,0:0:0:0:
64,192,153508,1,0,0:0:0:0:
320,192,153644,1,0,0:0:0:0:
64,192,153780,1,0,0:0:0:0:
192,192,153780,1,0,0:0:0:0:
448,192,153917,1,0,0:0:0:0:
64,192,153917,1,0,0:0:0:0:
448,192,154053,1,0,0:0:0:0:
320,192,154053,1,0,0:0:0:0:
192,192,154053,1,0,0:0:0:0:
320,192,154189,1,0,0:0:0:0:
64,192,154189,1,0,0:0:0:0:
192,192,154189,1,0,0:0:0:0:
64,192,154326,1,0,0:0:0:0:
448,192,154462,1,0,0:0:0:0:
320,192,154462,1,0,0:0:0:0:
448,192,154598,1,0,0:0:0:0:
64,192,154598,1,0,0:0:0:0:
192,192,154598,1,0,0:0:0:0:
320,192,154735,1,0,0:0:0:0:
64,192,154735,1,0,0:0:0:0:
320,192,154871,1,0,0:0:0:0:
192,192,154871,1,0,0:0:0:0:
448,192,155008,1,0,0:0:0:0:
64,192,155008,1,0,0:0:0:0:
192,192,155144,1,0,0:0:0:0:
64,192,155144,1,0,0:0:0:0:
320,192,155144,1,0,0:0:0:0:
64,192,155280,1,0,0:0:0:0:
320,192,155280,1,0,0:0:0:0:
192,192,155280,1,0,0:0:0:0:
448,192,155417,1,0,0:0:0:0:
320,192,155417,1,0,0:0:0:0:
192,192,155417,1,0,0:0:0:0:
448,192,155553,1,0,0:0:0:0:
320,192,155621,1,0,0:0:0:0:
64,192,155689,1,0,0:0:0:0:
192,192,155689,1,0,0:0:0:0:
448,192,155689,1,0,0:0:0:0:
64,192,155826,1,0,0:0:0:0:
192,192,155894,1,0,0:0:0:0:
64,192,155962,1,0,0:0:0:0:
320,192,155962,1,0,0:0:0:0:
448,192,155962,1,0,0:0:0:0:
320,192,156098,1,0,0:0:0:0:
192,192,156098,1,0,0:0:0:0:
448,192,156235,1,0,0:0:0:0:
64,192,156235,1,0,0:0:0:0:
192,192,156235,1,0,0:0:0:0:
448,192,156371,1,0,0:0:0:0:
320,192,156371,1,0,0:0:0:0:
64,192,156371,1,0,0:0:0:0:
320,192,156508,1,0,0:0:0:0:
64,192,156644,1,0,0:0:0:0:
192,192,156644,1,0,0:0:0:0:
320,192,156780,1,0,0:0:0:0:
64,192,156780,1,0,0:0:0:0:
448,192,156780,1,0,0:0:0:0:
192,192,156917,1,0,0:0:0:0:
320,192,156917,1,0,0:0:0:0:
64,192,157053,1,0,0:0:0:0:
192,192,157053,1,0,0:0:0:0:
448,192,157053,1,0,0:0:0:0:
320,192,157189,1,0,0:0:0:0:
448,192,157189,1,0,0:0:0:0:
64,192,157326,1,0,0:0:0:0:
192,192,157326,1,0,0:0:0:0:
320,192,157326,1,0,0:0:0:0:
64,192,157462,1,0,0:0:0:0:
192,192,157462,1,0,0:0:0:0:
320,192,157462,1,0,0:0:0:0:
64,192,157598,1,0,0:0:0:0:
192,192,157598,1,0,0:0:0:0:
448,192,157598,1,0,0:0:0:0:
448,192,157735,1,0,0:0:0:0:
192,192,157803,1,0,0:0:0:0:
64,192,157871,1,0,0:0:0:0:
320,192,157871,1,0,0:0:0:0:
448,192,157871,1,0,0:0:0:0:
64,192,158008,1,0,0:0:0:0:
320,192,158076,1,0,0:0:0:0:
64,192,158144,1,0,0:0:0:0:
192,192,158144,1,0,0:0:0:0:
448,192,158144,1,0,0:0:0:0:
192,192,158280,1,0,0:0:0:0:
320,192,158280,1,0,0:0:0:0:
320,192,158417,1,0,0:0:0:0:
64,192,158417,1,0,0:0:0:0:
64,192,158553,1,0,0:0:0:0:
192,192,158553,1,0,0:0:0:0:
448,192,158553,1,0,0:0:0:0:
448,192,158689,1,0,0:0:0:0:
192,192,158826,1,0,0:0:0:0:
64,192,158826,1,0,0:0:0:0:
448,192,158962,1,0,0:0:0:0:
320,192,158962,1,0,0:0:0:0:
64,192,158962,1,0,0:0:0:0:
448,192,159098,1,0,0:0:0:0:
192,192,159098,1,0,0:0:0:0:
320,192,159167,1,0,0:0:0:0:
448,192,159235,1,0,0:0:0:0:
192,192,159235,1,0,0:0:0:0:
64,192,159235,1,0,0:0:0:0:
320,192,159371,1,0,0:0:0:0:
64,192,159371,1,0,0:0:0:0:
448,192,159508,1,0,0:0:0:0:
192,192,159508,1,0,0:0:0:0:
64,192,159508,1,0,0:0:0:0:
320,192,159644,1,0,0:0:0:0:
448,192,159644,1,0,0:0:0:0:
448,192,159780,1,0,0:0:0:0:
320,192,159780,1,0,0:0:0:0:
192,192,159780,1,0,0:0:0:0:
64,192,159780,1,0,0:0:0:0:
448,192,159917,1,0,0:0:0:0:
320,192,159917,1,0,0:0:0:0:
192,192,159917,1,0,0:0:0:0:
64,192,159917,1,0,0:0:0:0:
448,192,160053,1,0,0:0:0:0:
320,192,160053,1,0,0:0:0:0:
192,192,160053,1,0,0:0:0:0:
64,192,160053,1,0,0:0:0:0:
448,192,160189,1,0,0:0:0:0:
320,192,160189,1,0,0:0:0:0:
192,192,160189,1,0,0:0:0:0:
64,192,160189,1,0,0:0:0:0:
448,192,160326,1,0,0:0:0:0:
320,192,160326,1,0,0:0:0:0:
192,192,160326,1,0,0:0:0:0:
64,192,160326,1,0,0:0:0:0:
320,192,160462,1,0,0:0:0:0:
192,192,160462,1,0,0:0:0:0:
448,192,160598,1,0,0:0:0:0:
192,192,160598,1,0,0:0:0:0:
64,192,160598,1,0,0:0:0:0:
448,192,160735,1,0,0:0:0:0:
320,192,160735,1,0,0:0:0:0:
64,192,160735,1,0,0:0:0:0:
320,192,160871,1,0,0:0:0:0:
192,192,161008,1,0,0:0:0:0:
64,192,161008,1,0,0:0:0:0:
448,192,161144,1,0,0:0:0:0:
320,192,161144,1,0,0:0:0:0:
64,192,161144,1,0,0:0:0:0:
448,192,161280,1,0,0:0:0:0:
320,192,161348,1,0,0:0:0:0:
192,192,161417,1,0,0:0:0:0:
64,192,161417,1,0,0:0:0:0:
64,192,161553,1,0,0:0:0:0:
448,192,161553,1,0,0:0:0:0:
448,192,161689,1,0,0:0:0:0:
320,192,161689,1,0,0:0:0:0:
192,192,161689,1,0,0:0:0:0:
320,192,161826,1,0,0:0:0:0:
192,192,161826,1,0,0:0:0:0:
64,192,161826,1,0,0:0:0:0:
64,192,161962,1,0,0:0:0:0:
448,192,162098,1,0,0:0:0:0:
320,192,162098,1,0,0:0:0:0:
448,192,162235,1,0,0:0:0:0:
64,192,162235,1,0,0:0:0:0:
192,192,162235,1,0,0:0:0:0:
448,192,162371,1,0,0:0:0:0:
64,192,162371,1,0,0:0:0:0:
192,192,162371,1,0,0:0:0:0:
320,192,162508,1,0,0:0:0:0:
64,192,162508,1,0,0:0:0:0:
320,192,162644,1,0,0:0:0:0:
448,192,162644,1,0,0:0:0:0:
64,192,162780,1,0,0:0:0:0:
448,192,162780,1,0,0:0:0:0:
192,192,162780,1,0,0:0:0:0:
64,192,162917,1,0,0:0:0:0:
320,192,162917,1,0,0:0:0:0:
192,192,162917,1,0,0:0:0:0:
320,192,163053,1,0,0:0:0:0:
192,192,163189,1,0,0:0:0:0:
64,192,163189,1,0,0:0:0:0:
448,192,163326,1,0,0:0:0:0:
320,192,163326,1,0,0:0:0:0:
64,192,163326,1,0,0:0:0:0:
448,192,163462,1,0,0:0:0:0:
192,192,163462,1,0,0:0:0:0:
320,192,163598,1,0,0:0:0:0:
192,192,163598,1,0,0:0:0:0:
320,192,163735,1,0,0:0:0:0:
64,192,163735,1,0,0:0:0:0:
448,192,163871,1,0,0:0:0:0:
192,192,163871,1,0,0:0:0:0:
64,192,163871,1,0,0:0:0:0:
448,192,164008,1,0,0:0:0:0:
192,192,164008,1,0,0:0:0:0:
64,192,164008,1,0,0:0:0:0:
448,192,164144,1,0,0:0:0:0:
320,192,164144,1,0,0:0:0:0:
64,192,164144,1,0,0:0:0:0:
320,192,164280,1,0,0:0:0:0:
192,192,164348,1,0,0:0:0:0:
448,192,164417,1,0,0:0:0:0:
64,192,164417,1,0,0:0:0:0:
448,192,164553,1,0,0:0:0:0:
320,192,164553,1,0,0:0:0:0:
64,192,164553,1,0,0:0:0:0:
448,192,164826,1,0,0:0:0:0:
192,192,164826,1,0,0:0:0:0:
64,192,164826,1,0,0:0:0:0:
448,192,164962,1,0,0:0:0:0:
320,192,164962,1,0,0:0:0:0:
192,192,165030,1,0,0:0:0:0:
64,192,165030,1,0,0:0:0:0:
448,192,165098,1,0,0:0:0:0:
320,192,165098,1,0,0:0:0:0:
64,192,165167,1,0,0:0:0:0:
448,192,165235,1,0,0:0:0:0:
320,192,165235,1,0,0:0:0:0:
192,192,165235,1,0,0:0:0:0:
320,192,165371,1,0,0:0:0:0:
192,192,165371,1,0,0:0:0:0:
64,192,165371,1,0,0:0:0:0:
448,192,165508,1,0,0:0:0:0:
64,192,165508,1,0,0:0:0:0:
448,192,165644,1,0,0:0:0:0:
320,192,165644,1,0,0:0:0:0:
192,192,165644,1,0,0:0:0:0:
192,192,165780,1,0,0:0:0:0:
448,192,165917,1,0,0:0:0:0:
320,192,165917,1,0,0:0:0:0:
64,192,165917,1,0,0:0:0:0:
192,192,166053,1,0,0:0:0:0:
64,192,166053,1,0,0:0:0:0:
192,192,166144,1,0,0:0:0:0:
64,192,166144,1,0,0:0:0:0:
320,192,166235,1,0,0:0:0:0:
448,192,166235,1,0,0:0:0:0:
448,192,166326,1,0,0:0:0:0:
320,192,166326,1,0,0:0:0:0:
64,192,166326,1,0,0:0:0:0:
64,192,166462,1,0,0:0:0:0:
320,192,166598,1,0,0:0:0:0:
192,192,166598,1,0,0:0:0:0:
448,192,166735,1,0,0:0:0:0:
192,192,166735,1,0,0:0:0:0:
448,192,166871,1,0,0:0:0:0:
64,192,166871,1,0,0:0:0:0:
320,192,166871,1,0,0:0:0:0:
64,192,167008,1,0,0:0:0:0:
192,192,167008,1,0,0:0:0:0:
448,192,167144,1,0,0:0:0:0:
320,192,167144,1,0,0:0:0:0:
192,192,167280,1,0,0:0:0:0:
320,192,167280,1,0,0:0:0:0:
64,192,167417,1,0,0:0:0:0:
192,192,167417,1,0,0:0:0:0:
448,192,167553,1,0,0:0:0:0:
64,192,167553,1,0,0:0:0:0:
448,192,167689,1,0,0:0:0:0:
320,192,167689,1,0,0:0:0:0:
320,192,167826,1,0,0:0:0:0:
64,192,167826,1,0,0:0:0:0:
448,192,167962,1,0,0:0:0:0:
192,192,167962,1,0,0:0:0:0:
64,192,167962,1,0,0:0:0:0:
192,192,168098,1,0,0:0:0:0:
320,192,168098,1,0,0:0:0:0:
448,192,168235,1,0,0:0:0:0:
320,192,168235,1,0,0:0:0:0:
64,192,168235,1,0,0:0:0:0:
192,192,168371,1,0,0:0:0:0:
64,192,168371,1,0,0:0:0:0:
320,192,168508,1,0,0:0:0:0:
448,192,168508,1,0,0:0:0:0:
320,192,168644,1,0,0:0:0:0:
448,192,168644,1,0,0:0:0:0:
192,192,168712,1,0,0:0:0:0:
64,192,168712,1,0,0:0:0:0:
448,192,168780,1,0,0:0:0:0:
320,192,168814,1,0,0:0:0:0:
192,192,168848,1,0,0:0:0:0:
64,192,168883,1,0,0:0:0:0:
448,192,168917,1,0,0:0:0:0:
320,192,168951,1,0,0:0:0:0:
192,192,168985,1,0,0:0:0:0:
64,192,169019,1,0,0:0:0:0:
320,192,169053,1,0,0:0:0:0:
448,192,169053,1,0,0:0:0:0:
64,192,169189,1,0,0:0:0:0:
192,192,169189,1,0,0:0:0:0:
320,192,169325,1,0,0:0:0:0:
64,192,169325,1,0,0:0:0:0:
320,192,169462,1,0,0:0:0:0:
448,192,169462,1,0,0:0:0:0:
192,192,169598,1,0,0:0:0:0:
64,192,169598,1,0,0:0:0:0:
64,192,169734,1,0,0:0:0:0:
192,192,169734,1,0,0:0:0:0:
320,192,169734,1,0,0:0:0:0:
320,192,169871,1,0,0:0:0:0:
448,192,169871,1,0,0:0:0:0:
64,192,170007,1,0,0:0:0:0:
192,192,170007,1,0,0:0:0:0:
64,192,170143,1,0,0:0:0:0:
320,192,170143,1,0,0:0:0:0:
320,192,170280,1,0,0:0:0:0:
448,192,170280,1,0,0:0:0:0:
64,192,170416,1,0,0:0:0:0:
192,192,170416,1,0,0:0:0:0:
64,192,170553,1,0,0:0:0:0:
320,192,170553,1,0,0:0:0:0:
320,192,170689,1,0,0:0:0:0:
448,192,170689,1,0,0:0:0:0:
192,192,170825,1,0,0:0:0:0:
448,192,170825,1,0,0:0:0:0:
192,192,170962,1,0,0:0:0:0:
64,192,170962,1,0,0:0:0:0:
64,192,171098,1,0,0:0:0:0:
448,192,171098,1,0,0:0:0:0:
320,192,171098,1,0,0:0:0:0:
192,192,171234,1,0,0:0:0:0:
448,192,171234,1,0,0:0:0:0:
64,192,171371,1,0,0:0:0:0:
192,192,171371,1,0,0:0:0:0:
320,192,171507,1,0,0:0:0:0:
448,192,171507,1,0,0:0:0:0:
64,192,171507,1,0,0:0:0:0:
192,192,171643,1,0,0:0:0:0:
448,192,171643,1,0,0:0:0:0:
192,192,171780,1,0,0:0:0:0:
64,192,171780,1,0,0:0:0:0:
64,192,171916,1,0,0:0:0:0:
448,192,171916,1,0,0:0:0:0:
320,192,172053,1,0,0:0:0:0:
448,192,172053,1,0,0:0:0:0:
192,192,172189,1,0,0:0:0:0:
320,192,172189,1,0,0:0:0:0:
64,192,172189,1,0,0:0:0:0:
448,192,172325,1,0,0:0:0:0:
192,192,172393,1,0,0:0:0:0:
448,192,172462,1,0,0:0:0:0:
320,192,172462,1,0,0:0:0:0:
320,192,172598,1,0,0:0:0:0:
192,192,172598,1,0,0:0:0:0:
64,192,172734,1,0,0:0:0:0:
192,192,172734,1,0,0:0:0:0:
320,192,172803,1,0,0:0:0:0:
64,192,172871,1,0,0:0:0:0:
320,192,172939,1,0,0:0:0:0:
64,192,173007,1,0,0:0:0:0:
448,192,173007,1,0,0:0:0:0:
192,192,173075,1,0,0:0:0:0:
320,192,173143,1,0,0:0:0:0:
448,192,173143,1,0,0:0:0:0:
192,192,173280,1,0,0:0:0:0:
320,192,173280,1,0,0:0:0:0:
64,192,173416,1,0,0:0:0:0:
192,192,173416,1,0,0:0:0:0:
448,192,173416,1,0,0:0:0:0:
64,192,173553,1,0,0:0:0:0:
448,192,173553,1,0,0:0:0:0:
192,192,173689,1,0,0:0:0:0:
320,192,173689,1,0,0:0:0:0:
64,192,173825,1,0,0:0:0:0:
192,192,173825,1,0,0:0:0:0:
448,192,173825,1,0,0:0:0:0:
64,192,174098,1,0,0:0:0:0:
192,192,174098,1,0,0:0:0:0:
448,192,174098,1,0,0:0:0:0:
64,192,174234,1,0,0:0:0:0:
320,192,174234,1,0,0:0:0:0:
192,192,174303,1,0,0:0:0:0:
320,192,174371,1,0,0:0:0:0:
448,192,174371,1,0,0:0:0:0:
192,192,174439,1,0,0:0:0:0:
64,192,174507,1,0,0:0:0:0:
320,192,174507,1,0,0:0:0:0:
448,192,174507,1,0,0:0:0:0:
64,192,174643,1,0,0:0:0:0:
448,192,174643,1,0,0:0:0:0:
192,192,174780,1,0,0:0:0:0:
320,192,174780,1,0,0:0:0:0:
64,192,174916,1,0,0:0:0:0:
320,192,174916,1,0,0:0:0:0:
448,192,174916,1,0,0:0:0:0:
64,192,175189,1,0,0:0:0:0:
320,192,175189,1,0,0:0:0:0:
448,192,175189,1,0,0:0:0:0:
192,192,175325,1,0,0:0:0:0:
192,192,175416,1,0,0:0:0:0:
320,192,175507,1,0,0:0:0:0:
448,192,175598,1,0,0:0:0:0:
64,192,175598,1,0,0:0:0:0:
320,192,175598,1,0,0:0:0:0:
192,192,175734,1,0,0:0:0:0:
320,192,175803,1,0,0:0:0:0:
64,192,175871,1,0,0:0:0:0:
448,192,175871,1,0,0:0:0:0:
192,192,175939,1,0,0:0:0:0:
448,192,176007,1,0,0:0:0:0:
320,192,176007,1,0,0:0:0:0:
320,192,176143,1,0,0:0:0:0:
64,192,176143,1,0,0:0:0:0:
192,192,176143,1,0,0:0:0:0:
448,192,176212,1,0,0:0:0:0:
64,192,176280,1,0,0:0:0:0:
192,192,176280,1,0,0:0:0:0:
320,192,176348,1,0,0:0:0:0:
448,192,176416,1,0,0:0:0:0:
192,192,176553,1,0,0:0:0:0:
320,192,176553,1,0,0:0:0:0:
448,192,176621,1,0,0:0:0:0:
64,192,176689,1,0,0:0:0:0:
192,192,176757,1,0,0:0:0:0:
448,192,176825,1,0,0:0:0:0:
320,192,176825,1,0,0:0:0:0:
64,192,176962,1,0,0:0:0:0:
192,192,176962,1,0,0:0:0:0:
320,192,177030,1,0,0:0:0:0:
192,192,177098,1,0,0:0:0:0:
64,192,177166,1,0,0:0:0:0:
320,192,177234,1,0,0:0:0:0:
448,192,177234,1,0,0:0:0:0:
64,192,177303,1,0,0:0:0:0:
192,192,177303,1,0,0:0:0:0:
320,192,177371,1,0,0:0:0:0:
448,192,177371,1,0,0:0:0:0:
192,192,177439,1,0,0:0:0:0:
320,192,177507,1,0,0:0:0:0:
448,192,177507,1,0,0:0:0:0:
64,192,177575,1,0,0:0:0:0:
192,192,177575,1,0,0:0:0:0:
320,192,177643,1,0,0:0:0:0:
448,192,177643,1,0,0:0:0:0:
64,192,177712,1,0,0:0:0:0:
320,192,177780,1,0,0:0:0:0:
448,192,177780,1,0,0:0:0:0:
192,192,177780,1,0,0:0:0:0:
