osu file format v14

[General]
AudioFilename: mGwm5yPah7hn.128.mp3
AudioLeadIn: 0
PreviewTime: -1
Countdown: 1
SampleSet: None
StackLeniency: 0.7
Mode: 0
LetterboxInBreaks: 0
WidescreenStoryboard: 0

[Editor]
DistanceSpacing: 1
BeatDivisor: 4
GridSize: 4
TimelineZoom: 3.500001

[Metadata]
Title:This Christmas Lovely Day (Yunomi Remix)
TitleUnicode:This Christmas Lovely Day (Yunomi Remix)
Artist:lulu + Mikeneko Homeless
ArtistUnicode:lulu + Mikeneko Homeless
Creator:- Neiru -
Version:Insane
Source:
Tags:
BeatmapID:865941
BeatmapSetID:398218

[Difficulty]
HPDrainRate:5
CircleSize:4
OverallDifficulty:6
ApproachRate:9
SliderMultiplier:1.4
SliderTickRate:1

[Events]
//Background and Video events
//Break Periods
//Storyboard Layer 0 (Background)
//Storyboard Layer 1 (Fail)
//Storyboard Layer 2 (Pass)
//Storyboard Layer 3 (Foreground)
//Storyboard Sound Samples

[TimingPoints]
1238,300,4,1,0,100,1,0

[HitObjects]
324,252,1388,5,0,0:0:0:0:
244,264,1538,1,0,0:0:0:0:
168,252,1688,2,0,P|132:236|112:204,1,70
184,164,1988,2,0,P|224:184|256:180,1,70
244,112,2288,1,0,0:0:0:0:
220,208,2438,1,0,0:0:0:0:
316,136,2588,1,0,0:0:0:0:
384,224,2738,1,0,0:0:0:0:
308,244,2888,2,0,P|280:216|260:180,1,70
352,300,3338,1,0,0:0:0:0:
160,108,3788,6,0,P|204:136|216:156,1,70
256,240,4088,1,0,0:0:0:0:
308,148,4238,1,0,0:0:0:0:
356,212,4388,1,0,0:0:0:0:
380,132,4538,1,0,0:0:0:0:
288,212,4688,1,0,0:0:0:0:
228,144,4838,2,0,P|212:176|188:212,2,70
140,132,5288,1,0,0:0:0:0:
64,112,5438,2,0,B|60:152|80:204|80:200,1,70
152,256,5738,1,0,0:0:0:0:
304,280,6188,6,0,P|256:248|224:216,2,70
364,208,6638,1,0,0:0:0:0:
296,224,6788,2,0,P|232:244|212:232,1,70
172,232,7088,1,0,0:0:0:0:
124,188,7238,2,0,P|116:144|136:120,1,70
196,88,7538,1,0,0:0:0:0:
256,44,7688,1,0,0:0:0:0:
328,108,7838,2,0,P|320:148|288:184,1,70
232,216,8138,1,0,0:0:0:0:
344,240,8288,2,0,P|380:240|376:240,2,35
268,296,8588,1,0,0:0:0:0:
188,248,8888,6,0,L|148:256,2,35
256,240,9188,2,0,P|288:200|348:184,1,105
64,192,9638,5,0,0:0:0:0:
440,192,9938,1,0,0:0:0:0:
256,60,10238,1,0,0:0:0:0:
256,192,10538,1,0,0:0:0:0:
256,116,10838,5,0,0:0:0:0:
344,112,11138,2,0,P|400:116|436:128,1,70
196,112,11438,2,0,P|160:120|124:140,1,70
348,280,11738,2,0,P|312:256|300:224,1,70
100,240,12038,2,0,P|152:236|196:216,1,70
368,96,12338,2,0,P|320:136|304:144,1,70
272,296,12638,2,0,P|256:264|264:216,1,70
208,120,12938,1,0,0:0:0:0:
368,148,13088,1,0,0:0:0:0:
148,216,13238,5,0,0:0:0:0:
280,188,13388,1,0,0:0:0:0:
360,236,13538,2,0,P|324:272|288:280,1,70
256,104,13838,2,0,P|216:120|200:148,1,70
392,192,14138,5,0,0:0:0:0:
128,192,14438,1,0,0:0:0:0:
256,232,14738,1,0,0:0:0:0:
112,320,15038,1,0,0:0:0:0:
348,280,15338,1,0,0:0:0:0:
260,192,15488,1,0,0:0:0:0:
216,300,15638,2,0,P|184:284|140:244,1,70
368,120,15938,1,0,0:0:0:0:
124,96,16238,5,0,0:0:0:0:
316,252,16538,1,0,0:0:0:0:
128,272,16838,1,0,0:0:0:0:
296,140,17138,1,0,0:0:0:0:
