osu file format v14

[General]
AudioFilename: audio.mp3
AudioLeadIn: 0
PreviewTime: 131521
Countdown: 0
SampleSet: Normal
StackLeniency: 0.7
Mode: 1
LetterboxInBreaks: 0
WidescreenStoryboard: 1

[Editor]
DistanceSpacing: 0.2
BeatDivisor: 4
GridSize: 32
TimelineZoom: 3.699998

[Metadata]
Title:only toying with me
TitleUnicode:only toying with me
Artist:loveaddictspropylhexedrineoverdose
ArtistUnicode:loveaddictspropylhexedrineoverdose
Creator:D3kuu
Version:muzukashii
Source:
Tags:horiiizon english electronic breakcore experimental lolicore isopod & tracks on daydream [isopod disposal ep] anorexianervosa
BeatmapID:2588375
BeatmapSetID:1242468

[Difficulty]
HPDrainRate:5.5
CircleSize:5
OverallDifficulty:5
ApproachRate:5
SliderMultiplier:1.4
SliderTickRate:1

[Events]
//Background and Video events
0,0,"okii.png",0,0
//Break Periods
2,115545,119749
//Storyboard Layer 0 (Background)
//Storyboard Layer 1 (Fail)
//Storyboard Layer 2 (Pass)
//Storyboard Layer 3 (Foreground)
//Storyboard Layer 4 (Overlay)
//Storyboard Sound Samples

[TimingPoints]
28,313.266851146035,4,1,0,70,1,0
2202,-100,4,1,0,68,0,0
2505,-100,4,1,0,64,0,0
2975,-100,4,1,0,65,0,0
3288,-100,4,1,0,54,0,0
3445,-100,4,1,0,50,0,0
3758,-100,4,1,0,48,0,0
4072,-100,4,1,0,55,0,0
5795,-100,4,1,0,60,0,0
9398,-100,4,1,0,65,0,0
10052,-100,4,1,0,80,0,1
20077,-100,4,1,0,45,0,0
29475,-100,4,1,0,55,0,8
40126,-100,4,1,0,60,0,8
45138,-100,4,1,0,80,0,9
50150,-100,4,1,0,80,0,8
50229,-100,4,1,0,40,0,8
51951,-100,4,1,0,60,0,8
52970,-100,4,1,0,40,0,8
53831,-100,4,1,0,60,0,8
54144,-100,4,1,0,40,0,8
55162,-100,4,1,0,60,0,8
60175,-100,4,1,0,80,0,1
70199,-100,4,1,0,60,0,8
70513,-100,4,1,0,70,0,8
90248,-100,4,1,0,80,0,9
100195,-100,4,1,0,70,0,8
100273,-100,4,1,0,30,0,8
101526,-100,4,1,0,50,0,8
110297,-100,4,1,0,60,0,8
111864,-100,4,1,0,30,0,8
112569,-100,4,1,0,70,0,8
112804,-100,4,1,0,30,0,8
113978,-100,4,1,0,60,0,8
115623,-100,4,1,0,30,0,8
116549,-100,4,1,0,50,0,8
131600,-100,4,1,0,50,0,9
136612,-100,4,1,0,50,0,8
137865,-100,4,1,0,70,0,9
151649,-100,4,1,0,50,0,8
160381,-100,4,1,0,60,0,0
160929,-83.3333333333333,4,1,0,70,0,0
161673,313.266851146035,4,1,0,70,1,8
161673,-83.3333333333333,4,1,0,70,0,8

[HitObjects]
210,163,28,5,0,0:0:0:0:
211,49,341,1,8,0:0:0:0:
454,171,497,1,0,0:0:0:0:
435,160,967,1,8,0:0:0:0:
435,160,1281,1,8,0:0:0:0:
290,162,1594,1,0,0:0:0:0:
416,137,1750,1,8,0:0:0:0:
416,137,2220,1,8,0:0:0:0:
181,18,2534,1,8,0:0:0:0:
449,149,3004,1,8,0:0:0:0:
477,160,3317,1,0,0:0:0:0:
421,149,3473,1,8,0:0:0:0:
349,149,3787,1,0,0:0:0:0:
447,164,4100,1,8,0:0:0:0:
441,148,4413,1,0,0:0:0:0:
395,124,4570,1,8,0:0:0:0:
177,38,4727,1,0,0:0:0:0:
385,135,5040,1,0,0:0:0:0:
438,162,5353,1,8,0:0:0:0:
454,150,5823,1,0,0:0:0:0:
278,66,5980,1,8,0:0:0:0:
455,134,6293,1,0,0:0:0:0:
487,166,6606,1,8,0:0:0:0:
141,197,6763,1,0,0:0:0:0:
491,158,7076,1,0,0:0:0:0:
192,67,7233,5,8,0:0:0:0:
440,132,7546,1,8,0:0:0:0:
455,150,7859,1,8,0:0:0:0:
101,71,8329,1,0,0:0:0:0:
491,158,8486,1,8,0:0:0:0:
269,81,8799,1,0,0:0:0:0:
455,150,9112,1,8,0:0:0:0:
393,165,9582,1,0,0:0:0:0:
263,162,9739,1,8,0:0:0:0:
253,121,9895,1,8,0:0:0:0:
466,115,10052,1,0,0:0:0:0:
382,126,10365,1,8,0:0:0:0:
158,72,10679,1,0,0:0:0:0:
498,151,10835,1,8,0:0:0:0:
211,47,10992,1,0,0:0:0:0:
463,153,11148,1,0,0:0:0:0:
449,135,11462,1,8,0:0:0:0:
307,129,11618,5,8,0:0:0:0:
446,127,11932,1,0,0:0:0:0:
472,134,12088,1,8,0:0:0:0:
183,40,12245,1,8,0:0:0:0:
411,124,12402,1,0,0:0:0:0:
365,142,12715,1,0,0:0:0:0:
365,142,12871,1,8,0:0:0:0:
470,149,13185,1,0,0:0:0:0:
496,151,13341,1,0,0:0:0:0:
276,73,13498,5,8,0:0:0:0:
380,149,13655,1,0,0:0:0:0:
446,92,13968,1,8,0:0:0:0:
453,136,14125,1,8,0:0:0:0:
454,128,14438,1,0,0:0:0:0:
465,135,14594,1,8,0:0:0:0:
464,129,14751,1,8,0:0:0:0:
132,75,14829,1,8,0:0:0:0:
464,129,14908,1,8,0:0:0:0:
174,168,15064,1,0,0:0:0:0:
110,45,15378,1,8,0:0:0:0:
203,119,15534,1,0,0:0:0:0:
387,105,15847,1,0,0:0:0:0:
278,125,16004,1,0,0:0:0:0:
318,84,16161,1,8,0:0:0:0:
310,97,16631,1,8,0:0:0:0:
259,132,16787,1,0,0:0:0:0:
443,140,17101,1,8,0:0:0:0:
481,146,17257,1,0,0:0:0:0:
383,91,17414,1,0,0:0:0:0:
434,140,17570,1,8,0:0:0:0:
378,134,17884,1,8,0:0:0:0:
225,59,18040,1,0,0:0:0:0:
442,128,18354,1,0,0:0:0:0:
444,128,18510,1,0,0:0:0:0:
351,117,18667,1,0,0:0:0:0:
267,164,18824,1,8,0:0:0:0:
421,135,19137,1,8,0:0:0:0:
91,121,19293,1,0,0:0:0:0:
460,156,19607,1,8,0:0:0:0:
460,156,19685,1,8,0:0:0:0:
460,156,19763,1,8,0:0:0:0:
376,126,19920,1,0,0:0:0:0:
384,103,20077,1,12,0:0:0:0:
414,153,20390,1,8,0:0:0:0:
235,65,20546,1,0,0:0:0:0:
210,82,21016,1,0,0:0:0:0:
239,124,21330,5,8,0:0:0:0:
404,134,21643,1,8,0:0:0:0:
375,121,21800,1,0,0:0:0:0:
323,164,22269,1,0,0:0:0:0:
417,182,22583,1,0,0:0:0:0:
479,148,22896,1,8,0:0:0:0:
410,178,23053,1,0,0:0:0:0:
376,133,23523,1,0,0:0:0:0:
401,226,23836,1,0,0:0:0:0:
426,158,24149,1,8,0:0:0:0:
426,158,24462,1,8,0:0:0:0:
426,158,24776,1,8,0:0:0:0:
388,164,25089,1,0,0:0:0:0:
241,124,25402,1,8,0:0:0:0:
357,209,25559,1,0,0:0:0:0:
489,165,26029,1,0,0:0:0:0:
405,157,26342,1,8,0:0:0:0:
413,144,26655,1,8,0:0:0:0:
343,126,26812,1,0,0:0:0:0:
429,140,27282,1,0,0:0:0:0:
316,242,27595,1,0,0:0:0:0:
396,126,27908,5,8,0:0:0:0:
325,247,28065,1,0,0:0:0:0:
370,129,28535,5,0,0:0:0:0:
352,197,28848,1,0,0:0:0:0:
478,149,29161,5,8,0:0:0:0:
121,47,29475,1,0,0:0:0:0:
367,149,29631,1,8,0:0:0:0:
367,149,29710,1,8,0:0:0:0:
482,153,29788,1,8,0:0:0:0:
470,165,29944,1,8,0:0:0:0:
436,129,30101,1,0,0:0:0:0:
380,107,30571,1,0,0:0:0:0:
421,153,31041,1,8,0:0:0:0:
412,143,31354,1,0,0:0:0:0:
483,153,31824,1,0,0:0:0:0:
489,147,32294,1,0,0:0:0:0:
210,72,32607,1,0,0:0:0:0:
210,72,32764,1,0,0:0:0:0:
373,138,32921,1,8,0:0:0:0:
472,158,33390,1,0,0:0:0:0:
458,177,33547,1,8,0:0:0:0:
434,126,33860,1,4,0:0:0:0:
419,125,34017,1,8,0:0:0:0:
460,179,34174,1,8,0:0:0:0:
451,144,34487,1,8,0:0:0:0:
451,144,34800,1,8,0:0:0:0:
373,89,35113,1,4,0:0:0:0:
378,149,35427,1,8,0:0:0:0:
378,149,35583,1,8,0:0:0:0:
336,151,36053,1,0,0:0:0:0:
316,143,36366,1,0,0:0:0:0:
481,160,36836,1,0,0:0:0:0:
481,160,37150,1,0,0:0:0:0:
355,155,37306,1,8,0:0:0:0:
407,139,37620,1,0,0:0:0:0:
204,17,38089,1,8,0:0:0:0:
431,162,38559,1,8,0:0:0:0:
495,168,38873,1,0,0:0:0:0:
444,166,39499,1,8,0:0:0:0:
269,55,39812,1,0,0:0:0:0:
269,55,40126,1,0,0:0:0:0:
492,160,40282,1,8,0:0:0:0:
127,159,40361,1,0,0:0:0:0:
435,151,40596,1,0,0:0:0:0:
429,154,40752,1,8,0:0:0:0:
449,138,40909,1,0,0:0:0:0:
461,146,41065,1,8,0:0:0:0:
411,168,41379,1,8,0:0:0:0:
489,164,41535,1,0,0:0:0:0:
489,164,41614,1,0,0:0:0:0:
235,60,41849,1,8,0:0:0:0:
480,166,42005,1,0,0:0:0:0:
475,150,42162,1,0,0:0:0:0:
486,151,42319,1,8,0:0:0:0:
443,155,42632,1,8,0:0:0:0:
443,155,42788,1,8,0:0:0:0:
412,146,42867,1,0,0:0:0:0:
445,143,43102,1,0,0:0:0:0:
491,151,43258,1,8,0:0:0:0:
392,120,43415,1,0,0:0:0:0:
491,151,43572,1,8,0:0:0:0:
411,168,43885,1,0,0:0:0:0:
489,164,44041,1,0,0:0:0:0:
489,164,44120,1,0,0:0:0:0:
151,59,44355,1,8,0:0:0:0:
265,88,44511,1,8,0:0:0:0:
475,150,44668,1,0,0:0:0:0:
486,151,44825,1,8,0:0:0:0:
398,140,45138,1,12,0:0:0:0:
262,193,45451,1,0,0:0:0:0:
327,128,45608,1,8,0:0:0:0:
465,137,46078,1,8,0:0:0:0:
460,131,46234,1,8,0:0:0:0:
395,109,46391,1,0,0:0:0:0:
296,157,46548,1,0,0:0:0:0:
286,160,46704,1,8,0:0:0:0:
181,70,46861,1,0,0:0:0:0:
356,151,47174,1,0,0:0:0:0:
460,145,47331,1,8,0:0:0:0:
442,151,47487,1,8,0:0:0:0:
427,142,47644,1,0,0:0:0:0:
406,138,47957,1,8,0:0:0:0:
429,144,48114,1,0,0:0:0:0:
429,144,48271,1,0,0:0:0:0:
358,89,48427,1,8,0:0:0:0:
438,142,48506,1,8,0:0:0:0:
427,148,48584,1,8,0:0:0:0:
427,149,48740,1,8,0:0:0:0:
389,148,48897,1,0,0:0:0:0:
473,142,49210,1,8,0:0:0:0:
460,150,49524,1,0,0:0:0:0:
494,155,49680,1,8,0:0:0:0:
478,160,49837,1,8,0:0:0:0:
480,153,49915,1,8,0:0:0:0:
492,153,49994,1,8,0:0:0:0:
446,155,50150,1,0,0:0:0:0:
384,171,52030,1,0,0:0:0:0:
440,152,52186,1,8,0:0:0:0:
503,168,52343,1,0,0:0:0:0:
407,169,52656,1,0,0:0:0:0:
434,226,52813,1,0,0:0:0:0:
361,182,52891,1,8,0:0:0:0:
502,170,53909,1,0,0:0:0:0:
502,170,53988,1,0,0:0:0:0:
471,167,54066,1,0,0:0:0:0:
344,182,55162,1,0,0:0:0:0:
340,148,55476,1,8,0:0:0:0:
345,158,55632,1,0,0:0:0:0:
422,161,55789,1,8,0:0:0:0:
459,165,55946,1,0,0:0:0:0:
471,158,56102,1,8,0:0:0:0:
459,141,56416,1,8,0:0:0:0:
394,137,56729,1,8,0:0:0:0:
253,131,56885,1,0,0:0:0:0:
471,158,57042,1,8,0:0:0:0:
479,157,57199,1,0,0:0:0:0:
107,148,57355,1,0,0:0:0:0:
405,148,57669,1,0,0:0:0:0:
499,140,57825,1,0,0:0:0:0:
390,214,57904,1,0,0:0:0:0:
192,22,57982,1,0,0:0:0:0:
419,137,58139,1,8,0:0:0:0:
441,122,58217,1,8,0:0:0:0:
441,122,58295,1,8,0:0:0:0:
442,155,58452,1,0,0:0:0:0:
229,91,58608,1,8,0:0:0:0:
350,382,58922,1,8,0:0:0:0:
265,118,59392,1,0,0:0:0:0:
359,122,59548,1,8,0:0:0:0:
351,99,59705,1,0,0:0:0:0:
257,148,59861,1,0,0:0:0:0:
327,155,60175,1,8,0:0:0:0:
298,195,60331,1,0,0:0:0:0:
298,195,60410,1,0,0:0:0:0:
453,144,60488,1,0,0:0:0:0:
191,149,60645,1,0,0:0:0:0:
205,28,60801,1,8,0:0:0:0:
472,167,60958,1,8,0:0:0:0:
422,152,61115,1,0,0:0:0:0:
368,124,61428,1,8,0:0:0:0:
329,174,61584,1,8,0:0:0:0:
329,174,61663,1,8,0:0:0:0:
394,107,61741,1,8,0:0:0:0:
126,75,61898,1,0,0:0:0:0:
175,41,62054,1,8,0:0:0:0:
491,150,62211,1,0,0:0:0:0:
441,157,62368,1,0,0:0:0:0:
453,124,62681,1,0,0:0:0:0:
216,88,62838,1,0,0:0:0:0:
270,71,62994,1,8,0:0:0:0:
292,115,63151,1,0,0:0:0:0:
355,121,63307,1,8,0:0:0:0:
355,121,63386,1,8,0:0:0:0:
355,121,63464,1,8,0:0:0:0:
462,153,63621,1,8,0:0:0:0:
498,154,63934,1,0,0:0:0:0:
485,149,64404,1,8,0:0:0:0:
438,138,64560,1,0,0:0:0:0:
462,152,64717,1,0,0:0:0:0:
453,146,64874,1,0,0:0:0:0:
327,155,65187,1,8,0:0:0:0:
240,101,65344,1,0,0:0:0:0:
453,144,65500,1,8,0:0:0:0:
313,159,65657,1,0,0:0:0:0:
205,28,65814,1,8,0:0:0:0:
440,157,65892,1,8,0:0:0:0:
472,167,65970,1,8,0:0:0:0:
481,153,66127,1,0,0:0:0:0:
368,124,66440,1,8,0:0:0:0:
366,116,66597,1,8,0:0:0:0:
286,162,66753,1,0,0:0:0:0:
224,77,66910,1,8,0:0:0:0:
221,60,67067,1,0,0:0:0:0:
222,63,67145,1,0,0:0:0:0:
221,59,67223,1,0,0:0:0:0:
441,157,67380,1,0,0:0:0:0:
453,124,67693,1,0,0:0:0:0:
351,113,67850,1,8,0:0:0:0:
270,71,68006,1,0,0:0:0:0:
187,42,68085,1,0,0:0:0:0:
320,164,68163,1,0,0:0:0:0:
323,142,68320,1,8,0:0:0:0:
323,142,68476,1,8,0:0:0:0:
462,153,68633,1,0,0:0:0:0:
321,224,68790,1,0,0:0:0:0:
498,154,68946,5,8,0:0:0:0:
317,92,69259,1,0,0:0:0:0:
485,149,69416,1,0,0:0:0:0:
484,149,69494,1,0,0:0:0:0:
438,138,69573,1,0,0:0:0:0:
462,152,69729,1,8,0:0:0:0:
128,150,70043,1,8,0:0:0:0:
210,163,70199,5,0,0:0:0:0:
211,49,70513,1,8,0:0:0:0:
454,171,70669,1,0,0:0:0:0:
435,160,71139,1,8,0:0:0:0:
435,160,71452,1,8,0:0:0:0:
290,162,71766,1,0,0:0:0:0:
416,137,71922,1,8,0:0:0:0:
416,137,72392,1,8,0:0:0:0:
181,18,72705,1,8,0:0:0:0:
449,149,73175,1,8,0:0:0:0:
477,160,73489,1,0,0:0:0:0:
421,149,73645,1,8,0:0:0:0:
349,149,73958,1,0,0:0:0:0:
447,164,74272,1,8,0:0:0:0:
395,124,74742,1,8,0:0:0:0:
177,38,74898,1,0,0:0:0:0:
385,135,75212,1,0,0:0:0:0:
438,162,75525,1,8,0:0:0:0:
454,150,75995,1,0,0:0:0:0:
278,66,76151,1,8,0:0:0:0:
455,134,76465,1,0,0:0:0:0:
487,166,76778,1,8,0:0:0:0:
141,197,76935,1,0,0:0:0:0:
491,158,77248,1,0,0:0:0:0:
192,67,77404,5,8,0:0:0:0:
440,132,77718,1,8,0:0:0:0:
455,150,78031,1,8,0:0:0:0:
101,71,78501,1,0,0:0:0:0:
491,158,78657,1,8,0:0:0:0:
269,81,78971,1,0,0:0:0:0:
455,150,79284,1,8,0:0:0:0:
271,125,79597,1,8,0:0:0:0:
393,165,79754,1,0,0:0:0:0:
384,136,79911,1,0,0:0:0:0:
400,171,80067,1,8,0:0:0:0:
466,115,80224,1,0,0:0:0:0:
347,115,82730,5,8,0:0:0:0:
342,153,83983,1,0,0:0:0:0:
454,128,84140,1,0,0:0:0:0:
263,79,84218,1,0,0:0:0:0:
230,78,84375,1,8,0:0:0:0:
444,151,84531,1,8,0:0:0:0:
472,153,84610,1,8,0:0:0:0:
435,144,84766,1,0,0:0:0:0:
229,122,84923,1,8,0:0:0:0:
187,158,85236,5,0,0:0:0:0:
467,149,85549,1,8,0:0:0:0:
491,151,85706,1,0,0:0:0:0:
490,145,85863,1,8,0:0:0:0:
387,105,86019,1,0,0:0:0:0:
252,62,86176,1,0,0:0:0:0:
380,94,86489,1,8,0:0:0:0:
356,122,86959,1,0,0:0:0:0:
492,140,87116,1,8,0:0:0:0:
443,140,87272,1,8,0:0:0:0:
481,146,87429,1,0,0:0:0:0:
434,140,87742,1,0,0:0:0:0:
351,117,88055,1,8,0:0:0:0:
443,140,88212,1,0,0:0:0:0:
450,133,88369,1,8,0:0:0:0:
442,128,88525,1,0,0:0:0:0:
444,128,88604,1,0,0:0:0:0:
207,115,88682,1,0,0:0:0:0:
267,164,88995,1,0,0:0:0:0:
161,142,89465,1,0,0:0:0:0:
485,157,89622,1,8,0:0:0:0:
472,156,89700,1,8,0:0:0:0:
460,156,89778,1,8,0:0:0:0:
460,156,89935,1,8,0:0:0:0:
376,126,90092,1,0,0:0:0:0:
342,148,90248,1,0,0:0:0:0:
342,148,90405,1,0,0:0:0:0:
386,154,90562,1,8,0:0:0:0:
450,160,90875,1,0,0:0:0:0:
481,157,91032,1,8,0:0:0:0:
369,105,91188,1,0,0:0:0:0:
201,160,91345,1,0,0:0:0:0:
428,130,91501,1,8,0:0:0:0:
456,157,91815,1,8,0:0:0:0:
474,165,92285,1,8,0:0:0:0:
358,218,92441,1,0,0:0:0:0:
322,142,92598,5,0,0:0:0:0:
406,157,92754,1,8,0:0:0:0:
242,142,93068,1,8,0:0:0:0:
415,147,93381,1,8,0:0:0:0:
456,156,93538,1,8,0:0:0:0:
431,113,93694,5,8,0:0:0:0:
428,108,93773,1,8,0:0:0:0:
383,157,93851,1,8,0:0:0:0:
334,98,94008,1,0,0:0:0:0:
215,69,94164,1,0,0:0:0:0:
387,123,94321,1,8,0:0:0:0:
461,142,94791,1,8,0:0:0:0:
354,221,94947,1,0,0:0:0:0:
342,148,95261,1,0,0:0:0:0:
386,154,95574,1,8,0:0:0:0:
343,154,95731,1,0,0:0:0:0:
481,157,96044,1,0,0:0:0:0:
467,157,96122,1,0,0:0:0:0:
302,111,96200,1,0,0:0:0:0:
377,156,96357,1,0,0:0:0:0:
428,130,96514,1,8,0:0:0:0:
456,157,96827,1,8,0:0:0:0:
457,152,96984,1,8,0:0:0:0:
354,121,97453,1,0,0:0:0:0:
423,137,97610,1,0,0:0:0:0:
440,148,97688,1,0,0:0:0:0:
406,157,97767,1,0,0:0:0:0:
257,124,97923,1,0,0:0:0:0:
242,142,98080,1,8,0:0:0:0:
394,146,98237,1,0,0:0:0:0:
456,156,98550,1,8,0:0:0:0:
431,113,98707,5,8,0:0:0:0:
334,98,99020,1,8,0:0:0:0:
215,69,99176,1,0,0:0:0:0:
260,57,99333,1,8,0:0:0:0:
305,144,99490,1,0,0:0:0:0:
461,142,99803,1,8,0:0:0:0:
299,150,99960,1,0,0:0:0:0:
448,135,100116,1,0,0:0:0:0:
197,54,100195,5,8,0:0:0:0:
450,160,101526,1,0,0:0:0:0:
395,166,101839,1,8,0:0:0:0:
491,158,102309,1,0,0:0:0:0:
395,166,102466,1,8,0:0:0:0:
476,166,102779,1,0,0:0:0:0:
395,182,103092,1,8,0:0:0:0:
421,157,103249,1,0,0:0:0:0:
421,157,103562,1,0,0:0:0:0:
403,162,103719,1,8,0:0:0:0:
457,153,104032,1,0,0:0:0:0:
414,157,104345,1,8,0:0:0:0:
491,160,104815,1,0,0:0:0:0:
387,163,104972,1,8,0:0:0:0:
477,138,105285,1,0,0:0:0:0:
398,132,105598,1,8,0:0:0:0:
398,132,105912,1,8,0:0:0:0:
466,167,106225,1,8,0:0:0:0:
450,160,106538,1,0,0:0:0:0:
395,166,106851,1,8,0:0:0:0:
491,158,107321,1,0,0:0:0:0:
395,166,107478,1,8,0:0:0:0:
476,166,107791,1,0,0:0:0:0:
395,182,108104,1,8,0:0:0:0:
421,157,108261,1,0,0:0:0:0:
421,157,108574,1,0,0:0:0:0:
403,162,108731,1,8,0:0:0:0:
457,153,109044,1,0,0:0:0:0:
414,157,109357,1,8,0:0:0:0:
491,160,109827,1,0,0:0:0:0:
387,163,109984,1,8,0:0:0:0:
233,60,110297,5,0,0:0:0:0:
233,60,110454,1,0,0:0:0:0:
277,93,110611,1,8,0:0:0:0:
354,129,110924,1,0,0:0:0:0:
354,129,111002,1,0,0:0:0:0:
354,129,111081,1,0,0:0:0:0:
392,138,111237,1,8,0:0:0:0:
306,126,111550,1,0,0:0:0:0:
30,113,112647,2,0,L|88:122,1,35
434,148,114057,5,8,0:0:0:0:
428,155,114213,1,8,0:0:0:0:
408,151,114448,1,0,0:0:0:0:
250,117,114605,1,8,0:0:0:0:
388,144,114683,1,8,0:0:0:0:
420,122,114840,1,0,0:0:0:0:
414,122,114996,1,8,0:0:0:0:
452,155,115075,1,8,0:0:0:0:
450,155,115153,1,8,0:0:0:0:
397,151,115310,1,0,0:0:0:0:
432,65,120949,5,0,0:0:0:0:
374,135,121262,1,0,0:0:0:0:
374,135,121575,1,0,0:0:0:0:
359,200,121888,1,8,0:0:0:0:
318,126,122202,1,0,0:0:0:0:
359,200,122358,1,0,0:0:0:0:
350,200,122515,1,8,0:0:0:0:
339,200,122828,1,0,0:0:0:0:
183,73,123141,5,8,0:0:0:0:
426,129,123455,1,8,0:0:0:0:
462,148,123611,1,0,0:0:0:0:
436,148,123768,1,8,0:0:0:0:
452,135,124081,1,8,0:0:0:0:
426,155,124238,1,8,0:0:0:0:
352,139,124394,1,8,0:0:0:0:
442,152,124551,1,0,0:0:0:0:
361,138,124629,1,8,0:0:0:0:
457,153,125021,1,8,0:0:0:0:
423,146,125178,1,8,0:0:0:0:
492,155,125334,1,0,0:0:0:0:
414,141,125413,1,8,0:0:0:0:
343,306,126587,1,0,0:0:0:0:
332,160,126901,1,0,0:0:0:0:
332,160,127057,1,8,0:0:0:0:
332,160,127370,1,0,0:0:0:0:
332,160,127527,1,8,0:0:0:0:
330,152,127840,1,8,0:0:0:0:
330,151,128154,1,0,0:0:0:0:
328,149,128310,1,8,0:0:0:0:
330,152,128624,1,0,0:0:0:0:
330,152,128780,1,8,0:0:0:0:
328,149,129093,1,0,0:0:0:0:
330,152,129407,1,8,0:0:0:0:
330,151,129720,1,0,0:0:0:0:
328,149,129877,1,8,0:0:0:0:
330,152,130033,1,0,0:0:0:0:
356,151,130347,5,0,0:0:0:0:
356,151,130503,1,8,0:0:0:0:
356,151,130660,1,8,0:0:0:0:
356,151,130816,1,0,0:0:0:0:
196,0,130973,1,0,0:0:0:0:
196,0,131051,1,0,0:0:0:0:
196,0,131130,1,0,0:0:0:0:
303,168,131286,1,0,0:0:0:0:
270,91,131365,1,0,0:0:0:0:
303,168,131443,1,0,0:0:0:0:
385,135,131600,1,0,0:0:0:0:
438,162,131913,1,8,0:0:0:0:
454,150,132383,1,0,0:0:0:0:
278,66,132539,1,8,0:0:0:0:
286,195,132853,1,0,0:0:0:0:
487,166,133166,1,8,0:0:0:0:
269,158,133323,5,8,0:0:0:0:
491,158,133636,1,0,0:0:0:0:
192,67,133792,5,8,0:0:0:0:
132,36,134106,1,0,0:0:0:0:
455,150,134419,1,8,0:0:0:0:
101,71,134889,1,0,0:0:0:0:
491,158,135046,1,8,0:0:0:0:
238,69,135359,1,0,0:0:0:0:
455,150,135672,1,8,0:0:0:0:
242,117,135829,1,0,0:0:0:0:
393,165,136142,1,0,0:0:0:0:
384,136,136299,1,8,0:0:0:0:
374,164,136612,1,0,0:0:0:0:
450,150,136925,1,8,0:0:0:0:
435,164,137082,1,0,0:0:0:0:
391,139,137395,1,0,0:0:0:0:
440,142,137552,1,8,0:0:0:0:
425,131,137865,1,12,0:0:0:0:
384,155,138335,1,0,0:0:0:0:
399,126,138648,1,0,0:0:0:0:
456,138,138805,1,8,0:0:0:0:
385,136,139118,1,8,0:0:0:0:
399,162,139431,1,8,0:0:0:0:
448,155,139588,1,0,0:0:0:0:
426,155,139901,1,0,0:0:0:0:
438,159,140058,1,8,0:0:0:0:
403,149,140371,1,0,0:0:0:0:
403,149,140528,1,0,0:0:0:0:
444,160,140684,1,8,0:0:0:0:
402,120,140998,1,0,0:0:0:0:
383,120,141154,1,8,0:0:0:0:
379,99,141233,1,8,0:0:0:0:
454,148,141311,1,8,0:0:0:0:
450,147,141467,1,8,0:0:0:0:
466,115,141624,1,0,0:0:0:0:
240,168,141781,5,0,0:0:0:0:
382,126,141937,1,8,0:0:0:0:
498,151,142407,1,8,0:0:0:0:
211,47,142564,1,0,0:0:0:0:
463,153,142721,1,0,0:0:0:0:
449,135,143034,1,8,0:0:0:0:
307,129,143190,5,8,0:0:0:0:
446,127,143504,1,0,0:0:0:0:
472,134,143660,1,8,0:0:0:0:
183,40,143817,1,8,0:0:0:0:
411,124,143974,1,0,0:0:0:0:
365,142,144287,1,0,0:0:0:0:
365,142,144444,1,8,0:0:0:0:
470,149,144757,1,0,0:0:0:0:
496,151,144913,1,0,0:0:0:0:
276,73,145070,5,8,0:0:0:0:
380,149,145227,1,0,0:0:0:0:
446,92,145540,1,8,0:0:0:0:
453,136,145697,1,8,0:0:0:0:
454,128,146010,1,0,0:0:0:0:
465,135,146166,1,8,0:0:0:0:
132,75,146245,1,8,0:0:0:0:
464,129,146323,1,8,0:0:0:0:
464,129,146480,1,0,0:0:0:0:
174,168,146636,1,0,0:0:0:0:
110,45,146950,1,8,0:0:0:0:
203,119,147106,1,0,0:0:0:0:
387,105,147420,1,0,0:0:0:0:
278,125,147576,1,0,0:0:0:0:
318,84,147733,1,8,0:0:0:0:
310,97,148203,1,8,0:0:0:0:
259,132,148359,1,0,0:0:0:0:
443,140,148673,1,8,0:0:0:0:
481,146,148829,1,0,0:0:0:0:
383,91,148986,1,0,0:0:0:0:
434,140,149143,1,8,0:0:0:0:
378,134,149456,1,8,0:0:0:0:
225,59,149612,1,0,0:0:0:0:
442,128,149926,1,0,0:0:0:0:
444,128,150082,1,0,0:0:0:0:
351,117,150239,5,0,0:0:0:0:
267,164,150396,1,8,0:0:0:0:
421,135,150709,1,8,0:0:0:0:
91,121,150865,1,0,0:0:0:0:
460,156,151179,1,8,0:0:0:0:
460,156,151257,1,8,0:0:0:0:
460,156,151335,1,8,0:0:0:0:
376,126,151492,1,0,0:0:0:0:
384,103,151649,1,8,0:0:0:0:
394,137,151962,5,8,0:0:0:0:
360,151,152432,1,0,0:0:0:0:
271,139,152588,1,8,0:0:0:0:
174,155,152902,1,0,0:0:0:0:
431,143,153215,1,8,0:0:0:0:
364,145,153685,1,8,0:0:0:0:
364,145,153842,1,8,0:0:0:0:
255,68,154155,1,0,0:0:0:0:
404,125,154468,1,8,0:0:0:0:
194,60,154938,1,0,0:0:0:0:
447,140,155095,1,8,0:0:0:0:
436,139,155408,1,0,0:0:0:0:
478,149,155721,1,8,0:0:0:0:
399,137,156191,1,0,0:0:0:0:
458,137,156348,1,8,0:0:0:0:
436,129,156661,1,0,0:0:0:0:
374,133,156974,1,8,0:0:0:0:
360,151,157444,1,0,0:0:0:0:
271,139,157601,1,8,0:0:0:0:
116,31,157914,1,0,0:0:0:0:
431,143,158227,1,8,0:0:0:0:
457,148,158384,1,0,0:0:0:0:
364,145,158697,1,8,0:0:0:0:
364,145,158854,1,8,0:0:0:0:
313,105,159167,1,0,0:0:0:0:
404,125,159480,1,8,0:0:0:0:
343,106,159637,1,0,0:0:0:0:
194,60,159950,5,0,0:0:0:0:
447,140,160107,1,8,0:0:0:0:
436,139,160420,1,0,0:0:0:0:
362,185,160577,1,0,0:0:0:0:
270,161,160733,1,8,0:0:0:0:
256,192,161047,12,0,161907,0:0:0:0:
