osu file format v14

[General]
AudioFilename: audio.mp3
AudioLeadIn: 0
PreviewTime: 131521
Countdown: 0
SampleSet: Normal
StackLeniency: 0.7
Mode: 1
LetterboxInBreaks: 0
WidescreenStoryboard: 1

[Editor]
DistanceSpacing: 0.2
BeatDivisor: 4
GridSize: 32
TimelineZoom: 3.699998

[Metadata]
Title:only toying with me
TitleUnicode:only toying with me
Artist:loveaddictspropylhexedrineoverdose
ArtistUnicode:loveaddictspropylhexedrineoverdose
Creator:D3kuu
Version:kantan
Source:
Tags:horiiizon english electronic breakcore experimental lolicore isopod & tracks on daydream [isopod disposal ep] anorexianervosa
BeatmapID:2639385
BeatmapSetID:1242468

[Difficulty]
HPDrainRate:7
CircleSize:5
OverallDifficulty:4
ApproachRate:5
SliderMultiplier:1.4
SliderTickRate:1

[Events]
//Background and Video events
0,0,"okii.png",0,0
//Break Periods
2,115545,119749
//Storyboard Layer 0 (Background)
//Storyboard Layer 1 (Fail)
//Storyboard Layer 2 (Pass)
//Storyboard Layer 3 (Foreground)
//Storyboard Layer 4 (Overlay)
//Storyboard Sound Samples

[TimingPoints]
28,313.266851146035,4,1,0,70,1,0
2202,-100,4,1,0,68,0,0
2505,-100,4,1,0,64,0,0
2975,-100,4,1,0,65,0,0
3288,-100,4,1,0,54,0,0
3445,-100,4,1,0,50,0,0
3758,-100,4,1,0,48,0,0
4072,-100,4,1,0,55,0,0
5795,-100,4,1,0,60,0,0
9398,-100,4,1,0,65,0,0
10052,-100,4,1,0,80,0,1
20077,-100,4,1,0,45,0,0
29475,-100,4,1,0,55,0,8
40126,-100,4,1,0,60,0,8
45138,-100,4,1,0,80,0,9
50150,-100,4,1,0,80,0,8
50229,-100,4,1,0,40,0,8
51951,-100,4,1,0,60,0,8
52970,-100,4,1,0,40,0,8
53831,-100,4,1,0,60,0,8
54144,-100,4,1,0,40,0,8
55162,-100,4,1,0,60,0,8
60175,-100,4,1,0,80,0,1
70199,-100,4,1,0,60,0,8
70513,-100,4,1,0,70,0,8
90248,-100,4,1,0,80,0,9
100195,-100,4,1,0,70,0,8
100273,-100,4,1,0,30,0,8
101526,-100,4,1,0,50,0,8
110297,-100,4,1,0,60,0,8
111864,-100,4,1,0,30,0,8
112569,-100,4,1,0,70,0,8
112804,-100,4,1,0,30,0,8
113978,-100,4,1,0,60,0,8
115623,-100,4,1,0,30,0,8
116549,-100,4,1,0,50,0,8
131600,-100,4,1,0,50,0,9
136612,-100,4,1,0,50,0,8
137865,-100,4,1,0,70,0,9
151649,-100,4,1,0,50,0,8
160381,-100,4,1,0,60,0,0
160929,-83.3333333333333,4,1,0,70,0,0
161673,313.266851146035,4,1,0,70,1,8
161673,-83.3333333333333,4,1,0,70,0,8

[HitObjects]
210,163,28,5,0,0:0:0:0:
454,171,497,1,0,0:0:0:0:
435,160,1281,1,8,0:0:0:0:
416,137,1750,1,8,0:0:0:0:
181,18,2534,1,8,0:0:0:0:
449,149,3004,1,8,0:0:0:0:
349,149,3787,1,0,0:0:0:0:
441,148,4413,1,0,0:0:0:0:
385,135,5040,1,0,0:0:0:0:
438,162,5353,1,8,0:0:0:0:
278,66,5980,1,8,0:0:0:0:
455,134,6293,1,0,0:0:0:0:
487,166,6606,1,8,0:0:0:0:
192,67,7233,5,8,0:0:0:0:
440,132,7546,1,8,0:0:0:0:
455,150,7859,1,8,0:0:0:0:
491,158,8486,1,8,0:0:0:0:
269,81,8799,1,0,0:0:0:0:
455,150,9112,1,8,0:0:0:0:
263,162,9739,1,8,0:0:0:0:
466,115,10052,1,0,0:0:0:0:
307,129,10991,5,8,0:0:0:0:
446,127,11305,1,0,0:0:0:0:
411,124,11775,1,0,0:0:0:0:
365,142,12244,1,8,0:0:0:0:
470,149,12558,1,0,0:0:0:0:
380,149,13028,1,0,0:0:0:0:
453,136,13498,1,8,0:0:0:0:
454,128,13811,1,0,0:0:0:0:
272,197,14281,1,0,0:0:0:0:
274,142,14751,1,8,0:0:0:0:
233,212,15064,1,0,0:0:0:0:
219,63,16004,1,8,0:0:0:0:
318,84,16317,1,0,0:0:0:0:
259,132,16787,1,0,0:0:0:0:
434,140,17257,1,8,0:0:0:0:
249,149,17570,1,0,0:0:0:0:
225,59,18040,1,0,0:0:0:0:
442,128,18510,1,0,0:0:0:0:
267,164,18824,1,8,0:0:0:0:
91,121,19293,1,0,0:0:0:0:
354,182,19763,1,0,0:0:0:0:
384,103,20077,1,12,0:0:0:0:
210,82,21016,1,0,0:0:0:0:
404,134,21643,1,8,0:0:0:0:
323,164,22269,1,0,0:0:0:0:
479,148,22896,1,8,0:0:0:0:
376,133,23523,1,0,0:0:0:0:
426,158,24149,1,8,0:0:0:0:
310,143,24776,1,8,0:0:0:0:
388,164,25089,1,0,0:0:0:0:
489,165,26029,1,0,0:0:0:0:
413,144,26655,1,8,0:0:0:0:
429,140,27282,1,0,0:0:0:0:
396,126,27908,5,8,0:0:0:0:
370,129,28535,5,0,0:0:0:0:
478,149,29161,5,8,0:0:0:0:
305,129,29788,1,8,0:0:0:0:
436,129,30101,1,0,0:0:0:0:
380,107,30571,1,0,0:0:0:0:
421,153,31041,1,8,0:0:0:0:
412,143,31354,1,0,0:0:0:0:
483,153,31824,1,0,0:0:0:0:
489,147,32294,1,0,0:0:0:0:
210,72,32607,1,0,0:0:0:0:
458,177,33547,1,8,0:0:0:0:
434,126,33860,1,4,0:0:0:0:
451,144,34487,1,8,0:0:0:0:
270,220,34800,1,8,0:0:0:0:
373,89,35113,1,4,0:0:0:0:
172,158,36053,1,0,0:0:0:0:
240,240,36366,1,0,0:0:0:0:
481,160,36836,1,0,0:0:0:0:
355,155,37306,1,8,0:0:0:0:
283,202,37620,1,0,0:0:0:0:
204,17,38089,1,8,0:0:0:0:
431,162,38559,1,8,0:0:0:0:
495,168,38873,1,0,0:0:0:0:
269,55,39812,1,0,0:0:0:0:
269,55,40126,1,0,0:0:0:0:
342,138,40596,1,8,0:0:0:0:
406,187,41065,1,8,0:0:0:0:
400,172,41379,1,0,0:0:0:0:
478,160,41849,1,8,0:0:0:0:
470,111,42319,1,8,0:0:0:0:
263,173,42632,1,0,0:0:0:0:
398,140,45138,5,12,0:0:0:0:
327,128,45608,1,8,0:0:0:0:
465,137,46078,1,8,0:0:0:0:
395,109,46391,1,0,0:0:0:0:
214,79,46861,5,0,0:0:0:0:
460,145,47331,1,8,0:0:0:0:
427,142,47644,1,0,0:0:0:0:
429,144,48114,1,0,0:0:0:0:
427,148,48584,1,8,0:0:0:0:
305,205,48897,5,0,0:0:0:0:
460,150,49524,1,0,0:0:0:0:
478,160,49837,1,8,0:0:0:0:
446,155,50150,1,0,0:0:0:0:
235,182,52030,1,0,0:0:0:0:
502,170,53909,1,0,0:0:0:0:
344,182,55162,1,0,0:0:0:0:
434,111,56102,1,0,0:0:0:0:
399,165,56416,1,8,0:0:0:0:
414,183,57355,1,0,0:0:0:0:
246,151,57669,1,8,0:0:0:0:
350,131,58608,1,8,0:0:0:0:
351,147,58922,1,0,0:0:0:0:
327,155,60175,5,8,0:0:0:0:
191,149,60645,1,0,0:0:0:0:
422,152,61115,1,0,0:0:0:0:
368,124,61428,1,8,0:0:0:0:
126,75,61898,1,8,0:0:0:0:
441,157,62368,1,0,0:0:0:0:
453,124,62681,1,0,0:0:0:0:
438,138,64560,1,0,0:0:0:0:
453,146,64874,1,0,0:0:0:0:
327,155,65187,1,8,0:0:0:0:
313,159,65657,1,0,0:0:0:0:
481,153,66127,1,0,0:0:0:0:
368,124,66440,1,8,0:0:0:0:
286,162,66910,1,0,0:0:0:0:
491,150,67380,1,0,0:0:0:0:
453,124,67693,1,0,0:0:0:0:
320,164,68163,1,0,0:0:0:0:
462,153,68633,1,0,0:0:0:0:
498,154,68946,5,8,0:0:0:0:
438,138,69573,1,0,0:0:0:0:
453,146,69886,1,8,0:0:0:0:
210,163,70199,5,0,0:0:0:0:
454,171,70668,1,0,0:0:0:0:
435,160,71452,1,8,0:0:0:0:
416,137,71921,1,8,0:0:0:0:
181,18,72705,1,8,0:0:0:0:
449,149,73175,1,8,0:0:0:0:
349,149,73958,1,0,0:0:0:0:
441,148,74584,1,0,0:0:0:0:
385,135,75211,1,0,0:0:0:0:
438,162,75524,1,8,0:0:0:0:
278,66,76151,1,8,0:0:0:0:
455,134,76464,1,0,0:0:0:0:
487,166,76777,1,8,0:0:0:0:
192,67,77404,5,8,0:0:0:0:
440,132,77717,1,8,0:0:0:0:
455,150,78030,1,8,0:0:0:0:
491,158,78657,1,8,0:0:0:0:
269,81,78970,1,0,0:0:0:0:
455,150,79283,1,8,0:0:0:0:
263,162,79910,1,8,0:0:0:0:
466,115,80223,1,0,0:0:0:0:
347,115,82730,5,8,0:0:0:0:
342,153,83983,1,0,0:0:0:0:
472,153,84610,1,8,0:0:0:0:
187,158,85236,5,0,0:0:0:0:
490,145,85863,1,8,0:0:0:0:
252,62,86176,1,0,0:0:0:0:
255,145,86489,1,0,0:0:0:0:
492,140,87116,1,8,0:0:0:0:
481,146,87429,1,0,0:0:0:0:
434,140,87742,1,0,0:0:0:0:
359,98,88369,1,0,0:0:0:0:
207,115,88682,1,0,0:0:0:0:
267,164,88995,1,0,0:0:0:0:
485,157,89622,1,8,0:0:0:0:
460,156,89935,1,8,0:0:0:0:
466,115,90248,1,0,0:0:0:0:
307,129,91188,5,8,0:0:0:0:
446,127,91501,1,0,0:0:0:0:
411,124,91971,1,0,0:0:0:0:
365,142,92441,1,8,0:0:0:0:
470,149,92754,1,0,0:0:0:0:
380,149,93224,1,0,0:0:0:0:
453,136,93694,1,8,0:0:0:0:
454,128,94008,1,0,0:0:0:0:
272,197,94477,1,0,0:0:0:0:
283,120,94947,1,8,0:0:0:0:
233,212,95261,1,0,0:0:0:0:
219,63,96200,1,8,0:0:0:0:
318,84,96514,1,0,0:0:0:0:
259,132,96984,1,0,0:0:0:0:
434,140,97453,1,8,0:0:0:0:
249,149,97767,1,0,0:0:0:0:
225,59,98237,1,0,0:0:0:0:
442,128,98707,1,0,0:0:0:0:
267,164,99020,1,8,0:0:0:0:
91,121,99490,5,0,0:0:0:0:
223,196,99960,1,0,0:0:0:0:
287,135,100273,5,8,0:0:0:0:
450,160,101526,5,0,0:0:0:0:
395,166,101839,1,8,0:0:0:0:
395,166,102466,1,8,0:0:0:0:
476,166,102779,1,0,0:0:0:0:
403,162,103719,1,8,0:0:0:0:
457,153,104032,1,0,0:0:0:0:
414,157,104502,1,8,0:0:0:0:
477,138,105285,1,0,0:0:0:0:
398,132,105912,1,8,0:0:0:0:
466,167,106225,1,8,0:0:0:0:
450,160,106538,1,0,0:0:0:0:
395,166,106851,1,8,0:0:0:0:
395,166,107478,1,8,0:0:0:0:
395,182,108104,1,8,0:0:0:0:
403,162,108731,1,8,0:0:0:0:
457,153,109044,1,0,0:0:0:0:
414,157,109357,1,8,0:0:0:0:
387,163,109984,1,8,0:0:0:0:
233,60,110297,5,0,0:0:0:0:
354,129,110924,1,0,0:0:0:0:
392,138,111237,1,8,0:0:0:0:
306,126,111550,1,0,0:0:0:0:
248,158,112647,1,0,0:0:0:0:
434,148,114057,5,8,0:0:0:0:
432,65,120949,5,0,0:0:0:0:
374,135,121262,1,0,0:0:0:0:
374,135,121575,1,0,0:0:0:0:
359,200,122045,1,0,0:0:0:0:
350,200,122515,1,8,0:0:0:0:
339,200,122828,1,0,0:0:0:0:
183,73,123298,5,0,0:0:0:0:
436,148,123768,1,0,0:0:0:0:
452,135,124081,1,0,0:0:0:0:
457,153,125021,1,8,0:0:0:0:
343,306,126587,1,0,0:0:0:0:
332,160,127057,1,8,0:0:0:0:
330,152,127840,1,8,0:0:0:0:
328,149,128310,1,8,0:0:0:0:
328,149,129093,1,0,0:0:0:0:
330,152,129563,1,8,0:0:0:0:
330,152,130033,1,8,0:0:0:0:
279,184,130347,1,0,0:0:0:0:
196,0,130973,1,0,0:0:0:0:
303,168,131286,1,0,0:0:0:0:
385,135,131600,1,0,0:0:0:0:
438,162,132069,1,8,0:0:0:0:
286,195,132853,1,0,0:0:0:0:
269,158,133323,5,8,0:0:0:0:
132,36,134106,1,0,0:0:0:0:
238,69,135359,1,0,0:0:0:0:
350,167,135985,1,8,0:0:0:0:
384,136,136299,1,8,0:0:0:0:
374,164,136612,1,0,0:0:0:0:
435,164,137082,1,0,0:0:0:0:
425,131,137865,1,12,0:0:0:0:
384,155,138335,1,0,0:0:0:0:
385,136,139118,1,8,0:0:0:0:
448,155,139588,1,0,0:0:0:0:
438,159,140058,1,8,0:0:0:0:
403,149,140371,1,0,0:0:0:0:
466,115,141624,1,0,0:0:0:0:
307,129,142564,5,8,0:0:0:0:
446,127,142877,1,0,0:0:0:0:
411,124,143347,1,0,0:0:0:0:
365,142,143817,1,8,0:0:0:0:
470,149,144130,1,0,0:0:0:0:
380,149,144600,1,0,0:0:0:0:
453,136,145070,1,8,0:0:0:0:
454,128,145383,1,0,0:0:0:0:
272,197,145853,1,0,0:0:0:0:
223,165,146323,1,8,0:0:0:0:
233,212,146636,1,0,0:0:0:0:
219,63,147576,1,8,0:0:0:0:
318,84,147889,1,0,0:0:0:0:
259,132,148359,1,0,0:0:0:0:
434,140,148829,1,8,0:0:0:0:
249,149,149143,1,0,0:0:0:0:
225,59,149612,1,0,0:0:0:0:
442,128,150082,1,0,0:0:0:0:
267,164,150396,1,8,0:0:0:0:
91,121,150865,1,0,0:0:0:0:
144,150,151335,1,0,0:0:0:0:
236,110,151649,1,8,0:0:0:0:
174,155,152902,5,0,0:0:0:0:
431,143,153372,1,8,0:0:0:0:
255,68,154155,1,0,0:0:0:0:
263,102,154625,1,8,0:0:0:0:
436,139,155408,1,0,0:0:0:0:
478,149,155878,1,8,0:0:0:0:
436,129,156661,1,0,0:0:0:0:
374,133,157131,1,8,0:0:0:0:
116,31,157914,1,0,0:0:0:0:
457,148,158384,1,0,0:0:0:0:
313,105,159167,1,0,0:0:0:0:
343,106,159637,1,0,0:0:0:0:
436,139,160420,1,0,0:0:0:0:
256,192,161047,12,0,161907,0:0:0:0:
