osu file format v14

[General]
AudioFilename: audio.mp3
AudioLeadIn: 0
PreviewTime: 197758
Countdown: 0
SampleSet: Soft
StackLeniency: 0.4
Mode: 0
LetterboxInBreaks: 0
WidescreenStoryboard: 0

[Editor]
Bookmarks: 208558,239758
DistanceSpacing: 1.8
BeatDivisor: 8
GridSize: 16
TimelineZoom: 3.599998

[Metadata]
Title:Vanity Clock
TitleUnicode:Vanity Clock
Artist:love solfege
ArtistUnicode:love solfege
Creator:Chizu-Kun
Version:Vieni!
Source:
Tags:neoclassical experimental japanese pop jpop j-pop reception for witnesses leomineXD featured artist fa 鮎 Ayu 紺野比奈子 Hinako Konno オーギュスト棒 Auguste Stick solfège
BeatmapID:3053742
BeatmapSetID:1486643

[Difficulty]
HPDrainRate:6
CircleSize:4.5
OverallDifficulty:9
ApproachRate:9
SliderMultiplier:1.9
SliderTickRate:1

[Events]
//Background and Video events
0,0,"clockbg.jpg",0,0
//Break Periods
//Storyboard Layer 0 (Background)
//Storyboard Layer 1 (Fail)
//Storyboard Layer 2 (Pass)
//Storyboard Layer 3 (Foreground)
//Storyboard Layer 4 (Overlay)
//Storyboard Sound Samples

[TimingPoints]
561,500,4,2,1,50,1,0
4561,-100,4,2,1,45,0,0
11561,-200,4,2,1,45,0,0
30561,-200,4,2,1,48,0,0
46533,600,4,2,1,48,1,0
46533,-100,4,2,1,30,0,0
48633,-100,4,2,1,5,0,0
48820,600.000000000001,4,2,1,15,1,0
51220,-100,4,2,1,5,0,0
51358,600,4,2,1,70,1,0
53758,-100,4,2,1,55,0,0
56158,-100,4,2,1,70,0,0
58558,-100,4,2,1,55,0,0
62458,-100,4,2,1,63,0,0
64558,-100,4,2,1,70,0,0
80158,-100,4,2,1,65,0,0
82558,-100,4,2,1,68,0,0
87358,-100,4,2,1,70,0,1
88558,-100,4,2,1,75,0,1
89758,-100,4,2,1,77,0,1
90958,-100,4,2,1,80,0,1
91258,-76.9230769230769,4,2,1,80,0,1
92158,-76.9230769230769,4,2,1,70,0,0
92458,-76.9230769230769,4,2,1,70,0,0
92683,-76.9230769230769,4,2,1,5,0,0
92758,-76.9230769230769,4,2,1,70,0,0
93058,-76.9230769230769,4,2,1,70,0,0
93283,-76.9230769230769,4,2,1,5,0,0
93358,-76.9230769230769,4,2,1,70,0,0
93658,-76.9230769230769,4,2,1,70,0,0
93883,-76.9230769230769,4,2,1,5,0,0
93958,-76.9230769230769,4,2,1,70,0,0
94258,-76.9230769230769,4,2,1,70,0,0
94408,-76.9230769230769,4,2,1,5,0,0
94558,-76.9230769230769,4,2,1,50,0,0
96958,-76.9230769230769,4,2,1,70,0,0
97258,-76.9230769230769,4,2,1,70,0,0
97483,-76.9230769230769,4,2,1,5,0,0
97558,-76.9230769230769,4,2,1,70,0,0
97858,-76.9230769230769,4,2,1,70,0,0
98083,-76.9230769230769,4,2,1,5,0,0
98158,-76.9230769230769,4,2,1,70,0,0
98458,-76.9230769230769,4,2,1,70,0,0
98683,-76.9230769230769,4,2,1,5,0,0
98758,-76.9230769230769,4,2,1,70,0,0
99358,-76.9230769230769,4,2,1,50,0,0
107758,-50,4,2,1,70,0,0
107983,-50,4,2,1,5,0,0
108058,-50,4,2,1,70,0,0
108358,-50,4,2,1,70,0,0
108583,-50,4,2,1,5,0,0
108658,-50,4,2,1,70,0,0
108958,-50,4,2,1,70,0,0
109183,-50,4,2,1,5,0,0
109258,-50,4,2,1,70,0,0
109558,-50,4,2,1,70,0,0
109783,-50,4,2,1,5,0,0
109858,-50,4,2,1,70,0,0
110158,-50,4,2,1,50,0,0
111358,-76.9230769230769,4,2,1,50,0,0
112558,-50,4,2,1,70,0,0
112783,-50,4,2,1,5,0,0
112858,-40,4,2,1,70,0,0
113158,-50,4,2,1,70,0,0
113383,-50,4,2,1,5,0,0
113458,-50,4,2,1,70,0,0
113758,-50,4,2,1,70,0,0
113983,-50,4,2,1,5,0,0
114058,-50,4,2,1,70,0,0
114358,-50,4,2,1,70,0,0
114583,-50,4,2,1,5,0,0
114658,-50,4,2,1,70,0,0
114958,-100,4,2,1,50,0,0
115558,-76.9230769230769,4,2,1,50,0,0
118858,-76.9230769230769,4,2,1,63,0,0
120958,-76.9230769230769,4,2,1,70,0,0
122158,-66.6666666666667,4,2,1,70,0,0
128458,-52.6315789473684,4,2,1,70,0,0
128533,-52.6315789473684,4,2,1,5,0,0
128608,-52.6315789473684,4,2,1,70,0,0
128683,-52.6315789473684,4,2,1,5,0,0
128758,-52.6315789473684,4,2,1,70,0,0
128833,-52.6315789473684,4,2,1,5,0,0
129058,-52.6315789473684,4,2,1,70,0,0
129133,-52.6315789473684,4,2,1,5,0,0
129208,-52.6315789473684,4,2,1,70,0,0
129283,-52.6315789473684,4,2,1,5,0,0
129358,-52.6315789473684,4,2,1,75,0,0
129433,-52.6315789473684,4,2,1,5,0,0
129658,-52.6315789473684,4,2,1,75,0,0
129733,-52.6315789473684,4,2,1,5,0,0
129808,-52.6315789473684,4,2,1,75,0,0
129883,-52.6315789473684,4,2,1,5,0,0
129958,-52.6315789473684,4,2,1,75,0,0
130033,-52.6315789473684,4,2,1,5,0,0
130258,-52.6315789473684,4,2,1,75,0,0
130558,-52.6315789473684,4,2,1,70,0,0
131758,-76.9230769230769,4,2,1,70,0,0
138058,-52.6315789473684,4,2,1,70,0,0
138133,-52.6315789473684,4,2,1,5,0,0
138208,-52.6315789473684,4,2,1,70,0,0
138283,-52.6315789473684,4,2,1,5,0,0
138358,-52.6315789473684,4,2,1,70,0,0
138433,-52.6315789473684,4,2,1,5,0,0
138658,-52.6315789473684,4,2,1,70,0,0
138733,-52.6315789473684,4,2,1,5,0,0
138808,-52.6315789473684,4,2,1,70,0,0
138883,-52.6315789473684,4,2,1,5,0,0
138958,-52.6315789473684,4,2,1,75,0,0
139033,-52.6315789473684,4,2,1,5,0,0
139258,-52.6315789473684,4,2,1,75,0,0
139333,-52.6315789473684,4,2,1,5,0,0
139408,-52.6315789473684,4,2,1,75,0,0
139483,-52.6315789473684,4,2,1,5,0,0
139558,-52.6315789473684,4,2,1,75,0,0
139633,-52.6315789473684,4,2,1,5,0,0
139858,-52.6315789473684,4,2,1,75,0,0
139933,-52.6315789473684,4,2,1,5,0,0
140008,-52.6315789473684,4,2,1,75,0,0
140083,-52.6315789473684,4,2,1,5,0,0
140158,-52.6315789473684,4,2,1,77,0,0
140233,-52.6315789473684,4,2,1,5,0,0
140458,-52.6315789473684,4,2,1,77,0,0
140533,-52.6315789473684,4,2,1,5,0,0
140608,-52.6315789473684,4,2,1,77,0,0
140683,-52.6315789473684,4,2,1,5,0,0
140758,-52.6315789473684,4,2,1,77,0,0
140833,-52.6315789473684,4,2,1,5,0,0
141058,-52.6315789473684,4,2,1,77,0,0
141133,-52.6315789473684,4,2,1,5,0,0
141208,-52.6315789473684,4,2,1,77,0,0
141283,-52.6315789473684,4,2,1,5,0,0
141358,-52.6315789473684,4,2,1,80,0,0
141433,-52.6315789473684,4,2,1,5,0,0
141658,-52.6315789473684,4,2,1,80,0,0
141733,-52.6315789473684,4,2,1,5,0,0
141808,-52.6315789473684,4,2,1,80,0,0
141883,-52.6315789473684,4,2,1,5,0,0
141958,-52.6315789473684,4,2,1,80,0,0
142033,-52.6315789473684,4,2,1,5,0,0
142258,-52.6315789473684,4,2,1,80,0,0
142558,-52.6315789473684,4,2,1,80,0,0
142708,-52.6315789473684,4,2,1,55,0,0
149158,-125,4,2,1,55,0,0
152158,-125,4,2,1,58,0,0
152458,-100,4,2,1,58,0,0
161758,-33.3333333333333,4,2,1,65,0,0
161983,-33.3333333333333,4,2,1,5,0,0
162058,-100,4,2,1,65,0,0
162283,-100,4,2,1,5,0,0
162358,-28.5714285714286,4,2,1,65,0,0
162583,-28.5714285714286,4,2,1,5,0,0
162658,-100,4,2,1,65,0,0
162883,-100,4,2,1,5,0,0
162958,-40,4,2,1,65,0,0
163183,-40,4,2,1,5,0,0
163258,-100,4,2,1,65,0,0
163483,-100,4,2,1,5,0,0
163558,-33.3333333333333,4,2,1,65,0,0
163783,-33.3333333333333,4,2,1,5,0,0
163858,-100,4,2,1,65,0,0
164083,-100,4,2,1,5,0,0
164158,-100,4,2,1,55,0,0
165358,-76.9230769230769,4,2,1,55,0,0
166558,-25,4,2,1,65,0,0
166783,-25,4,2,1,5,0,0
166858,-100,4,2,1,65,0,0
167083,-100,4,2,1,5,0,0
167158,-33.3333333333333,4,2,1,65,0,0
167383,-33.3333333333333,4,2,1,5,0,0
167458,-100,4,2,1,65,0,0
167683,-100,4,2,1,5,0,0
167758,-28.5714285714286,4,2,1,65,0,0
167983,-28.5714285714286,4,2,1,5,0,0
168058,-100,4,2,1,65,0,0
168283,-100,4,2,1,5,0,0
168358,-40,4,2,1,65,0,0
168583,-40,4,2,1,5,0,0
168658,-100,4,2,1,65,0,0
168883,-100,4,2,1,5,0,0
168958,-76.9230769230769,4,2,1,55,0,0
173758,-76.9230769230769,4,2,1,58,0,0
176158,-76.9230769230769,4,2,1,70,0,0
182158,600,4,2,1,70,1,0
184558,-76.9230769230769,4,2,1,70,0,0
192958,600,4,2,1,70,1,0
195358,-76.9230769230769,4,2,1,70,0,0
197758,-100,4,2,1,68,0,0
202558,-100,4,2,1,70,0,0
203758,-100,4,2,1,72,0,0
204958,-100,4,2,1,76,0,0
206158,-100,4,2,1,80,0,0
207358,-100,4,2,1,75,0,0
207958,-100,4,2,1,70,0,0
208558,600,4,2,1,75,1,1
210958,-66.6666666666667,4,2,1,75,0,1
219358,600,4,2,1,78,1,1
221758,-66.6666666666667,4,2,1,78,0,1
225358,600,4,2,1,78,1,1
227758,-66.6666666666667,4,2,1,78,0,1
230158,-100,4,2,1,70,0,0
234958,-100,4,2,1,72,0,1
236158,-100,4,2,1,76,0,1
237358,-100,4,2,1,80,0,1
238558,-100,4,2,1,82,0,1
238858,-66.6666666666667,4,2,1,82,0,1
239758,-100,4,2,1,70,0,0
244558,-100,4,2,1,60,0,0
247558,-100,4,2,1,70,0,0
249358,-100,4,2,1,75,0,0

[Colours]
Combo1 : 217,217,89
Combo2 : 234,249,51
Combo3 : 136,209,253
Combo4 : 201,118,182
Combo5 : 214,209,209

[HitObjects]
0,384,4561,5,2,0:3:0:0:
0,384,5561,1,2,0:3:0:0:
0,384,6561,1,2,0:3:0:0:
0,384,7561,1,2,0:3:0:0:
0,384,8561,5,2,0:3:0:0:
142,314,9061,1,2,0:0:0:0:
0,384,9561,5,2,0:3:0:0:
142,314,10061,1,2,0:0:0:0:
0,384,10561,5,2,0:3:0:0:
142,314,11061,1,2,0:0:0:0:
0,384,11561,6,0,P|38:378|70:374,1,71.25,2|0,0:3|0:0,0:0:0:0:
142,314,12061,2,0,P|104:308|71:304,1,71.25,2|0,0:0|0:0,0:0:0:0:
8,251,12561,5,2,0:3:0:0:
8,154,12811,1,2,0:0:0:0:
101,124,13061,1,2,0:0:0:0:
158,203,13311,1,2,0:0:0:0:
100,281,13561,5,2,0:3:0:0:
144,351,13811,1,2,0:0:0:0:
230,328,14061,1,2,0:0:0:0:
234,241,14311,1,2,0:0:0:0:
152,210,14561,5,2,0:3:0:0:
155,130,14811,1,2,0:0:0:0:
231,110,15061,1,2,0:0:0:0:
274,177,15311,1,2,0:0:0:0:
226,234,15561,5,2,0:3:0:0:
265,294,15811,1,0,0:0:0:0:
333,276,16061,1,2,0:0:0:0:
336,204,16311,1,2,0:0:0:0:
270,183,16561,6,0,L|266:127,2,47.5,2|2|2,0:3|0:0|0:0,0:0:0:0:
499,61,17561,5,2,0:3:0:0:
427,84,18061,5,2,0:0:0:0:
416,82,18311,5,0,0:0:0:0:
423,159,18436,1,0,0:0:0:0:
430,236,18561,5,2,0:3:0:0:
442,246,18811,1,2,0:0:0:0:
454,256,19061,2,0,L|446:323,1,47.5,2|2,0:0|0:0,0:0:0:0:
371,299,19561,2,0,L|365:346,1,47.5,2|2,0:3|0:0,0:0:0:0:
289,337,20061,2,0,L|283:384,1,47.5,2|2,0:0|0:0,0:0:0:0:
222,292,20561,6,0,P|179:275|144:303,1,95,2|2,0:3|0:0,0:0:0:0:
144,303,21561,1,2,0:3:0:0:
80,260,22061,1,2,0:0:0:0:
16,217,22561,5,2,0:3:0:0:
16,82,22811,1,2,0:0:0:0:
149,83,23061,1,2,0:0:0:0:
149,216,23311,1,2,0:0:0:0:
22,210,23561,5,2,0:3:0:0:
22,88,23811,1,2,0:0:0:0:
142,89,24061,1,2,0:0:0:0:
142,209,24311,1,2,0:0:0:0:
29,203,24561,5,2,0:3:0:0:
29,95,24811,1,0,0:0:0:0:
135,96,25061,1,2,0:0:0:0:
135,202,25311,1,2,0:0:0:0:
34,198,25561,5,2,0:3:0:0:
34,100,25811,1,2,0:0:0:0:
130,101,26061,1,2,0:0:0:0:
130,197,26311,1,2,0:0:0:0:
39,192,26561,6,0,P|17:202|0:218,2,47.5,2|0|2,0:3|0:0|0:0,0:0:0:0:
84,40,27561,5,2,0:3:0:0:
161,59,28061,1,2,0:0:0:0:
172,56,28311,5,0,0:0:0:0:
189,128,28436,1,0,0:0:0:0:
206,200,28561,6,0,B|231:196|240:227|265:246|265:246|247:242|234:253,1,95,2|2,0:3|0:0,0:0:0:0:
335,210,29477,1,0,0:0:0:0:
338,217,29561,2,0,B|358:231|342:260|347:291|347:291|337:275|320:274,1,95,2|2,0:3|0:0,0:0:0:0:
419,322,30561,5,2,0:3:0:0:
419,322,31061,2,0,B|421:230|399:324|407:232,2,95,2|2|2,0:0|0:3|0:0,0:0:0:0:
478,208,32561,6,0,P|451:169|392:165,1,95,2|2,0:3|0:0,0:0:0:0:
406,160,33311,1,2,0:0:0:0:
307,110,33561,2,0,L|302:6,1,95,2|2,0:3|0:0,0:0:0:0:
302,15,34311,1,2,0:0:0:0:
217,66,34561,6,0,P|202:85|201:108,1,47.5,2|0,0:3|0:0,0:0:0:0:
132,142,35061,2,0,P|162:181|218:184,1,95,2|2,0:0|0:3,0:0:0:0:
206,187,35811,1,2,0:0:0:0:
161,262,36061,2,0,L|168:308,1,47.5,2|2,0:0|0:0,0:0:0:0:
260,368,36561,6,0,B|265:341|265:341|252:321,2,47.5,2|2|2,0:3|0:0|0:0,0:0:0:0:
168,308,37311,1,2,0:0:0:0:
254,323,37561,2,0,L|300:312,1,47.5,2|2,0:3|0:0,0:0:0:0:
372,357,38061,2,0,L|385:311,1,47.5,2|2,0:0|0:0,0:0:0:0:
460,271,38561,6,0,B|434:254|434:254|438:189,1,95,2|2,0:3|0:0,0:0:0:0:
338,84,39561,2,0,B|363:100|363:100|359:165,1,95,2|2,0:3|0:0,0:0:0:0:
479,97,40561,6,0,B|473:75|485:49|485:49|459:70|446:72,3,95,2|2|2|2,0:3|0:0|0:3|0:0,0:0:0:0:
328,7,42561,5,2,0:3:0:0:
379,135,43061,1,2,0:0:0:0:
328,7,43561,5,2,0:3:0:0:
379,135,44061,1,2,0:0:0:0:
328,7,44561,5,2,0:3:0:0:
379,135,45061,1,2,0:0:0:0:
328,7,45561,5,0,0:0:0:0:
379,135,46061,1,2,0:0:0:0:
255,193,46533,5,2,0:3:0:0:
256,192,46683,12,0,48633,0:0:0:0:
255,193,48820,5,2,0:3:0:0:
256,192,48970,12,0,51220,0:0:0:0:
121,238,51358,6,0,L|131:332,1,95,4|0,0:0|3:0,0:0:0:0:
210,57,51958,2,0,L|115:67,1,95,4|0,0:0|3:0,0:0:0:0:
391,146,52558,2,0,L|380:51,1,95,4|0,0:0|3:0,0:0:0:0:
302,327,53158,2,0,L|396:316,1,95,4|0,0:0|3:0,0:0:0:0:
172,220,53758,5,8,0:1:0:0:
172,229,53908,1,0,0:0:0:0:
173,239,54058,1,0,0:0:0:0:
175,249,54208,1,0,0:0:0:0:
227,108,54358,5,8,0:1:0:0:
217,108,54508,1,2,0:0:0:0:
207,109,54658,1,2,0:0:0:0:
197,111,54808,1,0,0:0:0:0:
339,163,54958,5,8,0:1:0:0:
338,153,55108,1,2,0:0:0:0:
337,143,55258,1,2,0:0:0:0:
335,133,55408,1,2,0:0:0:0:
284,275,55558,5,8,0:1:0:0:
293,274,55708,1,2,0:0:0:0:
303,273,55858,1,2,0:0:0:0:
313,271,56008,1,0,0:0:0:0:
410,377,56158,6,0,P|430:335|421:289,1,95,4|0,0:0|3:0,0:0:0:0:
71,346,56758,2,0,P|112:366|158:357,1,95,4|0,0:0|3:0,0:0:0:0:
102,7,57358,2,0,P|81:48|90:94,1,95,4|0,0:0|3:0,0:0:0:0:
441,38,57958,2,0,P|399:17|353:26,1,95,4|0,0:0|3:0,0:0:0:0:
331,296,58558,5,8,0:1:0:0:
329,286,58708,1,0,0:0:0:0:
327,276,58858,1,0,0:0:0:0:
326,267,59008,1,0,0:0:0:0:
180,87,59158,5,8,0:1:0:0:
182,97,59308,1,2,0:0:0:0:
184,106,59458,1,2,0:0:0:0:
185,116,59608,1,0,0:0:0:0:
151,267,59758,5,8,0:1:0:0:
161,265,59908,1,2,0:0:0:0:
171,263,60058,1,2,0:0:0:0:
180,262,60208,1,2,0:0:0:0:
360,116,60358,5,8,0:1:0:0:
350,118,60508,1,2,0:0:0:0:
340,120,60658,1,2,0:0:0:0:
331,121,60808,1,0,0:0:0:0:
213,195,60958,6,0,L|165:185,1,47.5,8|0,0:1|0:0,0:0:0:0:
179,114,61258,2,0,L|225:122,1,47.5
282,170,61558,5,8,0:1:0:0:
313,236,61708,1,2,0:0:0:0:
271,296,61858,1,2,0:0:0:0:
198,289,62008,1,0,0:0:0:0:
167,223,62158,5,0,3:0:0:0:
251,2,62458,1,6,0:0:0:0:
477,121,62758,5,0,3:0:0:0:
250,103,63058,1,6,0:0:0:0:
23,85,63358,2,0,B|62:80|86:48|86:48|62:80|50:101|50:101|55:128|47:151,1,190,6|0,0:0|0:0,0:0:0:0:
47,151,64258,1,0,0:0:0:0:
140,384,64558,5,0,1:0:0:0:
213,340,64708,1,2,0:0:0:0:
171,267,64858,1,2,0:0:0:0:
96,309,65008,1,2,1:2:0:0:
0,219,65158,5,8,0:0:0:0:
123,125,65308,1,0,0:0:0:0:
62,72,65458,5,0,0:0:0:0:
47,151,65608,1,0,0:0:0:0:
171,267,65758,5,0,1:0:0:0:
240,212,65908,1,2,0:0:0:0:
327,221,66058,1,2,0:0:0:0:
382,290,66208,1,2,1:2:0:0:
463,132,66358,5,8,0:0:0:0:
327,221,66508,1,2,0:0:0:0:
359,147,66658,5,2,0:0:0:0:
405,213,66808,1,0,0:0:0:0:
301,349,66958,6,0,L|293:302,1,47.5,0|0,1:0|0:0,0:0:0:0:
214,285,67258,2,0,L|221:331,1,47.5,2|2,0:0|0:0,0:0:0:0:
381,371,67558,5,8,0:0:0:0:
381,371,67858,2,0,L|373:324,1,47.5
399,255,68158,1,0,1:0:0:0:
479,324,68308,5,2,0:0:0:0:
512,208,68458,1,2,0:0:0:0:
427,119,68608,1,2,0:0:0:0:
363,178,68758,5,8,0:0:0:0:
399,255,68908,1,0,0:0:0:0:
314,247,69058,5,2,0:0:0:0:
314,247,69208,1,2,0:0:0:0:
209,310,69358,6,0,L|115:298,1,95,0|0,1:0|0:0,0:0:0:0:
114,297,69808,1,0,0:0:0:0:
55,340,69958,2,0,P|44:320|42:294,1,47.5,8|0,0:0|0:0,0:0:0:0:
0,236,70258,2,0,P|11:216|33:202,1,47.5,2|0,0:0|0:0,0:0:0:0:
118,303,70558,5,0,1:0:0:0:
226,210,70708,1,2,0:0:0:0:
92,161,70858,1,2,0:0:0:0:
118,303,71008,1,2,1:2:0:0:
55,340,71158,5,8,0:0:0:0:
170,163,71308,1,0,0:0:0:0:
226,210,71458,5,0,0:0:0:0:
238,138,71608,1,0,0:0:0:0:
337,195,71758,5,0,1:0:0:0:
303,110,71908,1,2,0:0:0:0:
374,59,72058,1,2,0:0:0:0:
446,107,72208,1,2,1:2:0:0:
337,195,72358,5,8,0:0:0:0:
490,234,72508,1,2,0:0:0:0:
454,309,72658,5,2,0:0:0:0:
407,240,72808,1,0,0:0:0:0:
286,265,72958,6,0,L|238:260,1,47.5,0|0,1:0|0:0,0:0:0:0:
187,330,73258,2,0,L|234:334,1,47.5
337,195,73558,5,8,0:0:0:0:
337,195,73858,2,0,L|289:190,1,47.5,2|2,0:0|0:0,0:0:0:0:
239,130,74158,1,0,1:0:0:0:
186,194,74308,5,10,0:0:0:0:
125,105,74458,1,0,1:0:0:0:
186,16,74608,1,0,0:0:0:0:
256,53,74758,5,8,0:0:0:0:
404,36,74908,1,2,0:0:0:0:
471,87,75058,5,2,1:2:0:0:
445,167,75208,1,2,0:0:0:0:
446,174,75283,1,0,0:0:0:0:
447,182,75358,5,4,0:0:0:0:
358,300,75658,2,0,B|347:283|347:283|354:255,1,47.5
491,330,75958,2,0,B|481:353|481:353|395:349,1,95,8|2,0:0|0:0,0:0:0:0:
358,300,76408,1,2,0:0:0:0:
220,374,76558,6,0,P|206:331|161:329,1,95,0|0,1:0|0:0,0:0:0:0:
94,373,77008,1,0,0:0:0:0:
288,344,77158,2,0,P|244:335|220:373,1,95,8|2,0:0|0:0,0:0:0:0:
232,260,77608,1,2,0:0:0:0:
244,147,77758,5,0,1:0:0:0:
368,81,78058,2,0,B|347:70|347:70|324:77,1,47.5
244,147,78358,2,0,P|241:99|235:52,1,95,8|2,0:0|0:0,0:0:0:0:
172,13,78808,1,2,0:0:0:0:
119,113,78958,6,0,P|76:127|74:172,1,95,0|0,1:0|0:0,0:0:0:0:
117,239,79408,1,0,0:0:0:0:
88,45,79558,2,0,P|79:88|117:112,1,95,8|2,0:0|0:0,0:0:0:0:
4,101,80008,1,2,0:0:0:0:
230,123,80158,5,4,3:2:0:0:
289,2,81058,5,0,3:0:0:0:
234,372,81358,1,4,3:2:0:0:
234,372,81958,5,0,0:0:0:0:
273,308,82108,1,0,0:0:0:0:
199,305,82258,5,0,3:0:0:0:
308,373,82408,1,0,0:0:0:0:
416,305,82558,6,0,P|419:281|425:258,3,47.5,4|2|2|2,0:0|0:0|0:0|0:0,0:0:0:0:
367,191,83158,2,0,B|374:179|374:165|374:165|389:161|408:148,1,47.5,8|2,0:0|0:0,0:0:0:0:
499,190,83458,2,0,B|492:178|492:164|492:164|477:160|458:147,1,47.5,0|2,0:0|0:0,0:0:0:0:
434,89,83758,5,0,1:0:0:0:
305,73,83908,1,0,0:0:0:0:
234,18,84058,5,0,0:0:0:0:
213,182,84208,1,0,0:0:0:0:
283,253,84358,5,8,0:0:0:0:
186,278,84508,1,2,0:0:0:0:
139,344,84658,5,2,0:0:0:0:
105,270,84808,1,2,0:0:0:0:
220,352,84958,5,0,1:0:0:0:
219,362,85108,1,0,0:0:0:0:
336,324,85258,5,0,0:0:0:0:
452,296,85408,1,0,0:0:0:0:
504,231,85558,5,8,0:0:0:0:
512,155,85708,1,2,0:0:0:0:
437,145,85858,1,2,0:0:0:0:
428,221,86008,1,2,0:0:0:0:
357,251,86158,5,0,1:0:0:0:
386,88,86308,1,2,0:0:0:0:
309,113,86458,2,0,P|285:118|263:111,1,47.5,0|2,0:0|0:0,0:0:0:0:
254,104,86683,1,0,0:0:0:0:
246,99,86758,2,0,P|223:92|200:96,1,47.5,8|0,0:0|0:0,0:0:0:0:
93,65,87058,2,0,L|97:112,1,47.5
53,179,87358,5,4,3:2:0:0:
156,207,87508,1,2,0:0:0:0:
13,267,87658,1,2,0:0:0:0:
146,303,87808,1,2,0:0:0:0:
279,339,87958,5,8,3:2:0:0:
176,367,88108,1,2,0:0:0:0:
269,243,88258,1,0,0:0:0:0:
152,295,88408,1,2,0:0:0:0:
35,347,88558,5,0,3:0:0:0:
91,252,88708,1,0,0:0:0:0:
35,157,88858,1,0,0:0:0:0:
91,62,89008,1,0,0:0:0:0:
253,59,89158,5,8,3:2:0:0:
310,155,89308,1,2,0:0:0:0:
254,250,89458,1,2,0:0:0:0:
310,345,89608,1,2,0:0:0:0:
473,320,89758,5,0,3:0:0:0:
502,234,89908,1,0,0:0:0:0:
416,205,90058,1,0,0:0:0:0:
386,291,90208,1,0,0:0:0:0:
477,330,90358,5,8,3:2:0:0:
511,228,90508,1,2,0:0:0:0:
410,194,90658,1,2,0:0:0:0:
375,295,90808,1,2,0:0:0:0:
310,345,90958,5,0,3:0:0:0:
171,324,91108,1,2,0:0:0:0:
32,303,91258,2,0,B|62:286|62:286|88:293,1,61.75,0|2,0:0|0:0,0:0:0:0:
107,364,91558,5,8,3:2:0:0:
128,225,91708,1,2,0:0:0:0:
149,86,91858,2,0,B|166:116|166:116|158:142,1,61.75,2|0,0:0|0:0,0:0:0:0:
74,67,92158,5,4,0:0:0:0:
332,29,92458,2,0,L|224:15,1,92.6249957599642,0|0,3:0|0:0,0:0:0:0:
343,25,92758,5,4,0:0:0:0:
381,283,93058,2,0,L|388:182,1,92.6249957599642,0|0,3:0|0:0,0:0:0:0:
385,294,93358,5,4,0:0:0:0:
127,332,93658,2,0,L|228:341,1,92.6249957599642,0|0,3:0|0:0,0:0:0:0:
116,336,93958,5,4,0:0:0:0:
77,78,94258,2,0,L|71:139,1,61.75,0|0,3:0|0:0,0:0:0:0:
126,197,94558,5,8,0:1:0:0:
133,238,94708,1,2,0:0:0:0:
148,236,94858,1,2,0:0:0:0:
141,195,95008,1,2,0:0:0:0:
386,218,95158,5,8,0:1:0:0:
379,177,95308,1,0,0:0:0:0:
364,179,95458,1,0,0:0:0:0:
371,220,95608,1,0,0:0:0:0:
269,84,95758,5,8,0:1:0:0:
228,91,95908,1,2,0:0:0:0:
230,106,96058,1,2,0:0:0:0:
271,99,96208,1,2,0:0:0:0:
248,344,96358,5,8,0:1:0:0:
289,337,96508,1,0,0:0:0:0:
287,322,96658,1,0,0:0:0:0:
246,329,96808,1,0,0:0:0:0:
433,377,96958,5,4,0:0:0:0:
126,316,97258,2,0,L|109:218,1,92.6249957599642,0|0,3:0|0:0,0:0:0:0:
71,369,97558,5,4,0:0:0:0:
132,62,97858,2,0,L|243:48,1,92.6249957599642,0|0,3:0|0:0,0:0:0:0:
79,7,98158,5,4,0:0:0:0:
386,68,98458,2,0,L|403:171,1,92.6249957599642,0|0,3:0|0:0,0:0:0:0:
441,15,98758,5,4,0:0:0:0:
380,322,99058,2,0,L|318:331,1,61.75,0|0,3:0|0:0,0:0:0:0:
252,367,99358,5,8,0:1:0:0:
218,362,99508,1,2,0:0:0:0:
148,322,99658,5,2,0:0:0:0:
114,327,99808,1,2,0:0:0:0:
44,367,99958,6,0,L|33:303,1,61.75,8|0,0:1|0:0,0:0:0:0:
148,322,100258,2,0,L|136:257,1,61.75
251,276,100558,5,8,0:1:0:0:
245,245,100708,1,2,0:0:0:0:
349,200,100858,5,2,0:0:0:0:
354,230,101008,1,2,0:0:0:0:
457,184,101158,6,0,L|445:119,1,61.75,8|0,0:1|0:0,0:0:0:0:
432,47,101458,1,0,0:0:0:0:
354,36,101608,1,0,0:0:0:0:
321,107,101758,6,0,P|291:104|252:105,1,61.75,8|2,0:1|0:0,0:0:0:0:
203,44,102058,2,0,P|190:71|179:109,1,61.75,2|2,0:0|0:0,0:0:0:0:
106,136,102358,2,0,P|128:156|160:178,1,61.75,8|2,0:1|0:0,0:0:0:0:
164,256,102658,1,0,0:0:0:0:
173,247,102808,1,2,0:0:0:0:
296,238,102958,6,0,B|276:216|282:182|282:182|226:223|309:295|294:334|294:334|285:316|267:298,1,247,8|8,0:1|0:1,0:0:0:0:
281,314,103858,1,2,0:0:0:0:
296,238,104008,1,2,0:0:0:0:
311,162,104158,6,0,B|331:184|324:217|324:217|381:177|298:105|312:65|312:65|322:84|340:102,1,247,8|8,0:1|0:1,0:0:0:0:
325,85,105058,1,2,0:0:0:0:
311,162,105208,1,2,0:0:0:0:
297,239,105358,6,0,L|229:235,1,61.75,8|2,0:1|0:0,0:0:0:0:
325,85,105658,2,0,L|386:81,1,61.75,0|2,0:0|0:0,0:0:0:0:
501,263,105958,2,0,L|377:253,1,123.5,8|2,0:1|0:0,0:0:0:0:
377,253,106408,1,2,0:0:0:0:
325,85,106558,6,0,L|201:94,2,123.5,8|0|8,0:1|0:0|0:1,0:0:0:0:
473,77,107458,1,0,0:0:0:0:
476,64,107608,1,0,0:0:0:0:
477,50,107758,6,0,B|501:59|501:59|481:185,1,142.5,4|0,0:0|0:0,0:0:0:0:
425,210,108058,1,0,3:0:0:0:
182,42,108358,6,0,B|190:18|190:18|316:44,1,142.5,4|0,0:0|0:0,0:0:0:0:
348,95,108658,1,0,3:0:0:0:
173,337,108958,6,0,B|149:328|149:328|172:196,1,142.5,4|0,0:0|0:0,0:0:0:0:
234,190,109258,1,0,3:0:0:0:
468,346,109558,6,0,B|459:369|459:369|339:346,1,142.5,4|0,0:0|0:0,0:0:0:0:
308,289,109858,1,0,3:0:0:0:
172,117,110158,5,8,0:1:0:0:
187,102,110308,1,2,0:0:0:0:
220,34,110458,5,2,0:0:0:0:
238,43,110608,1,2,0:0:0:0:
313,54,110758,5,8,0:1:0:0:
310,73,110908,1,0,0:0:0:0:
322,148,111058,5,0,0:0:0:0:
303,151,111208,1,0,0:0:0:0:
235,185,111358,6,0,P|224:156|227:125,1,61.75,8|2,0:1|0:0,0:0:0:0:
390,113,111658,2,0,P|400:141|397:172,1,61.75,2|2,0:0|0:0,0:0:0:0:
353,236,111958,5,8,0:1:0:0:
339,234,112108,1,0,0:0:0:0:
418,284,112258,5,0,0:0:0:0:
432,282,112408,1,0,0:0:0:0:
345,349,112558,6,0,B|304:363|273:320|273:320|265:352|235:366,1,142.5,4|0,0:0|0:0,0:0:0:0:
205,302,112858,1,0,3:0:0:0:
412,99,113158,6,0,B|425:140|382:171|382:171|414:179|428:209,1,142.5,4|0,0:0|0:0,0:0:0:0:
363,239,113458,1,0,3:0:0:0:
163,36,113758,6,0,B|204:22|235:65|235:65|243:33|273:19,1,142.5,4|0,0:0|0:0,0:0:0:0:
300,85,114058,1,0,3:0:0:0:
100,285,114358,6,0,B|86:243|129:212|129:212|97:204|83:174,1,142.5,4|0,0:0|0:0,0:0:0:0:
148,144,114658,1,0,3:0:0:0:
379,364,114958,5,8,0:1:0:0:
360,354,115108,1,2,0:0:0:0:
285,343,115258,5,2,0:0:0:0:
288,324,115408,1,2,0:0:0:0:
280,250,115558,6,0,L|351:246,1,61.75,8|0,0:1|0:0,0:0:0:0:
156,297,115858,2,0,L|217:300,1,61.75
59,293,116158,5,8,0:1:0:0:
54,276,116308,1,2,0:0:0:0:
73,287,116458,1,2,0:0:0:0:
69,273,116608,1,2,0:0:0:0:
33,206,116758,6,0,B|30:182|20:163|20:163|29:173|36:173,1,61.75,8|0,0:1|0:0,0:0:0:0:
123,219,117058,2,0,B|142:204|153:186|153:186|149:199|153:205,1,61.75
219,115,117358,5,8,0:1:0:0:
227,130,117508,1,2,0:0:0:0:
233,109,117658,1,2,0:0:0:0:
240,122,117808,1,2,0:0:0:0:
262,194,117958,6,0,B|276:213|283:233|283:233|282:220|287:215,1,61.75,8|2,0:1|0:0,0:0:0:0:
316,122,118258,2,0,B|340:119|360:124|360:124|348:117|347:110,1,61.75,2|0,0:0|0:0,0:0:0:0:
447,59,118558,5,8,3:1:0:0:
326,309,118858,1,4,0:0:0:0:
359,378,119158,5,0,3:0:0:0:
238,128,119458,1,4,0:0:0:0:
82,358,119758,1,4,0:0:0:0:
82,358,120358,2,0,L|160:348,1,61.75
132,273,120658,2,0,L|70:280,1,61.75
82,358,120958,5,0,1:0:0:0:
208,292,121108,1,2,0:0:0:0:
263,352,121258,5,2,0:0:0:0:
274,163,121408,1,2,1:2:0:0:
344,208,121558,5,8,0:0:0:0:
348,125,121708,1,0,0:0:0:0:
192,180,121858,5,2,0:0:0:0:
218,100,122008,1,2,0:0:0:0:
192,20,122158,6,0,B|102:22|102:22|127:35|138:59,1,142.5,0|2,1:0|0:0,0:0:0:0:
73,86,122608,1,2,1:2:0:0:
64,82,122758,2,0,L|75:152,1,71.25,8|0,0:0|0:0,0:0:0:0:
0,134,123058,2,0,L|11:204,1,71.25
80,238,123358,5,0,1:0:0:0:
189,384,123508,1,2,0:0:0:0:
244,333,123658,5,2,0:0:0:0:
388,315,123808,1,2,1:2:0:0:
456,366,123958,5,8,0:0:0:0:
467,282,124108,1,2,0:0:0:0:
388,315,124258,5,0,0:0:0:0:
336,216,124408,1,2,0:0:0:0:
388,117,124558,6,0,B|469:106|469:106|479:97|479:97|466:122|471:148,1,142.5,0|2,1:0|0:0,0:0:0:0:
328,70,125008,1,2,0:0:0:0:
268,117,125158,2,0,B|187:106|187:106|177:97|177:97|190:122|184:148,1,142.5,12|0,0:0|0:0,0:0:0:0:
115,131,125608,1,0,0:0:0:0:
23,266,125758,6,0,P|15:231|7:196,1,71.25,0|2,1:0|0:0,0:0:0:0:
97,265,126058,2,0,P|89:230|81:195,1,71.25,2|2,0:0|1:2,0:0:0:0:
2,342,126358,2,0,P|61:377|122:346,1,142.5,8|0,0:0|0:0,0:0:0:0:
190,379,126808,1,0,0:0:0:0:
257,345,126958,5,0,1:0:0:0:
265,350,127108,2,0,L|281:208,1,142.5,2|2,0:0|1:2,0:0:0:0:
340,159,127558,1,8,0:0:0:0:
275,112,127708,1,0,0:0:0:0:
285,108,127858,1,0,0:0:0:0:
424,345,128158,5,4,0:0:0:0:
410,336,128458,6,0,P|389:346|369:357,1,45.125,2|0,0:0|0:0,0:0:0:0:
488,201,128608,2,0,P|465:198|443:198,1,45.125,2|0,0:0|0:0,0:0:0:0:
410,65,128758,2,0,P|391:51|372:40,1,45.125,8|0,0:0|0:0,0:0:0:0:
175,201,129058,6,0,P|177:178|177:156,1,45.125,2|0,0:0|0:0,0:0:0:0:
253,336,129208,2,0,P|266:317|277:298,1,45.125,2|0,0:0|0:0,0:0:0:0:
410,336,129358,2,0,P|430:326|450:315,1,45.125,0|0,1:0|0:0,0:0:0:0:
410,65,129658,6,0,P|428:78|447:89,1,45.125
253,65,129808,2,0,P|262:85|273:105,1,45.125,2|0,0:0|0:0,0:0:0:0:
174,201,129958,2,0,P|171:223|171:245,1,45.125,8|0,0:0|0:0,0:0:0:0:
46,8,130258,5,0,1:0:0:0:
95,351,130558,5,4,3:2:0:0:
174,201,130708,1,2,0:0:0:0:
249,233,130858,5,2,0:0:0:0:
158,89,131008,1,2,1:2:0:0:
204,25,131158,5,8,0:0:0:0:
236,96,131308,1,0,0:0:0:0:
79,81,131458,5,2,0:0:0:0:
112,154,131608,1,2,0:0:0:0:
79,226,131758,6,0,P|50:279|75:333,1,123.5,0|2,1:0|0:0,0:0:0:0:
150,355,132208,1,2,1:2:0:0:
159,351,132358,2,0,L|164:289,1,61.75,8|0,0:0|0:0,0:0:0:0:
237,342,132658,2,0,L|242:280,1,61.75
210,211,132958,5,0,1:0:0:0:
335,359,133108,1,2,0:0:0:0:
414,368,133258,5,2,0:0:0:0:
314,249,133408,1,2,1:2:0:0:
352,179,133558,5,8,0:0:0:0:
393,246,133708,1,2,0:0:0:0:
314,249,133858,5,0,0:0:0:0:
431,177,134008,1,2,0:0:0:0:
356,63,134158,6,0,P|298:44|246:74,1,123.5,0|2,1:0|0:0,0:0:0:0:
305,118,134608,1,2,0:0:0:0:
178,76,134758,2,0,P|125:46|68:64,1,123.5,12|2,0:0|0:0,0:0:0:0:
119,119,135208,1,2,0:0:0:0:
184,230,135358,6,0,P|179:260|172:290,1,61.75,0|0,1:0|0:0,0:0:0:0:
257,251,135658,2,0,P|252:281|245:311,1,61.75,2|0,0:0|1:0,0:0:0:0:
189,157,135958,2,0,P|246:142|291:181,1,123.5,8|2,0:0|0:0,0:0:0:0:
357,146,136408,1,2,0:0:0:0:
438,254,136558,6,0,P|445:223|454:194,1,61.75,0|2,1:0|0:0,0:0:0:0:
357,146,136858,2,0,P|386:137|416:130,1,61.75,2|2,0:0|1:2,0:0:0:0:
410,21,137158,2,0,P|432:42|453:65,1,61.75,8|2,0:0|0:0,0:0:0:0:
494,125,137458,1,2,0:0:0:0:
500,135,137608,1,0,0:0:0:0:
438,254,137758,5,4,3:2:0:0:
456,262,138058,6,0,L|446:306,1,45.125,2|0,0:0|0:0,0:0:0:0:
258,225,138208,2,0,L|258:270,1,45.125,2|0,0:0|0:0,0:0:0:0:
60,262,138358,2,0,L|69:306,1,45.125,8|0,3:2|0:0,0:0:0:0:
60,216,138658,6,0,L|69:260,1,45.125,2|0,0:0|0:0,0:0:0:0:
258,179,138808,2,0,L|258:224,1,45.125,2|0,0:0|0:0,0:0:0:0:
456,216,138958,2,0,L|446:260,1,45.125,4|0,3:2|0:0,0:0:0:0:
456,170,139258,6,0,L|446:214,1,45.125
258,133,139408,2,0,L|258:178,1,45.125,2|0,0:0|0:0,0:0:0:0:
60,170,139558,2,0,L|69:214,1,45.125,8|0,3:2|0:0,0:0:0:0:
148,61,139858,6,0,L|110:37,1,45.125,2|0,0:0|0:0,0:0:0:0:
135,185,140008,2,0,L|89:182,1,45.125,2|0,0:0|0:0,0:0:0:0:
121,315,140158,2,0,L|80:335,1,45.125,4|0,3:2|0:0,0:0:0:0:
222,55,140458,6,0,L|184:31,1,45.125,2|0,0:0|0:0,0:0:0:0:
228,190,140608,2,0,L|182:187,1,45.125,2|0,0:0|0:0,0:0:0:0:
234,332,140758,2,0,L|193:352,1,45.125,8|0,3:2|0:0,0:0:0:0:
296,48,141058,6,0,L|258:24,1,45.125,2|0,0:0|0:0,0:0:0:0:
326,192,141208,2,0,L|280:189,1,45.125,2|0,0:0|0:0,0:0:0:0:
356,344,141358,2,0,L|315:364,1,45.125,4|0,3:2|0:0,0:0:0:0:
370,41,141658,6,0,L|332:17,1,45.125,2|0,0:0|0:0,0:0:0:0:
428,190,141808,2,0,L|382:187,1,45.125,2|0,0:0|0:0,0:0:0:0:
486,348,141958,2,0,L|445:368,1,45.125,8|0,3:2|0:0,0:0:0:0:
90,384,142258,5,0,3:0:0:0:
14,24,142558,5,4,3:2:0:0:
17,37,143158,1,2,0:0:0:0:
20,50,143758,1,2,0:0:0:0:
23,63,144358,1,2,0:0:0:0:
103,124,144958,5,2,0:0:0:0:
106,111,145558,1,2,0:0:0:0:
109,98,146158,1,2,0:0:0:0:
112,85,146758,1,2,0:0:0:0:
200,28,147358,5,2,0:0:0:0:
203,41,147958,1,2,0:0:0:0:
206,54,148558,1,2,0:0:0:0:
209,66,149158,2,0,P|200:104|195:141,1,76,2|2,0:0|0:0,0:0:0:0:
196,213,149758,5,2,0:0:0:0:
263,235,150058,1,2,0:0:0:0:
305,178,150358,1,2,0:0:0:0:
264,121,150658,1,2,0:0:0:0:
195,141,150958,6,0,P|119:136|43:135,1,152,2|2,0:0|0:0,0:0:0:0:
29,120,151858,2,0,L|20:94,3,19
43,135,152158,5,8,0:1:0:0:
0,244,152458,2,0,P|0:284|37:269,2,95,2|8|2,0:0|0:1|0:0,0:0:0:0:
104,356,153358,1,8,0:1:0:0:
190,240,153658,1,2,0:0:0:0:
291,353,153958,1,8,0:1:0:0:
433,208,154258,5,2,0:0:0:0:
379,260,154408,1,2,0:0:0:0:
360,187,154558,1,8,0:1:0:0:
354,181,154858,5,2,0:0:0:0:
376,268,155008,1,2,0:0:0:0:
441,205,155158,1,8,0:1:0:0:
346,58,155458,5,2,0:0:0:0:
398,355,155758,1,8,0:1:0:0:
259,335,156058,1,2,0:0:0:0:
120,315,156358,1,8,0:1:0:0:
6,228,156658,2,0,L|-9:197,3,23.75,2|0|0|0,0:0|0:0|0:0|0:0,0:0:0:0:
20,243,156958,5,8,0:1:0:0:
134,109,157258,2,0,P|129:61|124:14,2,95,2|8|2,0:0|0:1|0:0,0:0:0:0:
206,168,158008,1,2,0:0:0:0:
217,174,158158,6,0,P|263:167|311:168,1,95,8|2,0:1|0:0,0:0:0:0:
341,264,158758,2,0,P|387:271|435:270,1,95,8|2,0:1|0:0,0:0:0:0:
496,207,159358,5,8,0:1:0:0:
391,92,159658,5,2,0:0:0:0:
436,38,159808,1,2,0:0:0:0:
456,110,159958,2,0,P|432:110|408:111,1,47.5,8|2,0:1|0:0,0:0:0:0:
358,163,160258,2,0,P|334:163|310:164,1,47.5,2|2,0:0|0:0,0:0:0:0:
218,117,160558,6,0,P|172:112|142:146,1,95,8|2,0:1|0:0,0:0:0:0:
169,347,161158,2,0,P|214:351|244:317,1,95,8|2,0:1|0:0,0:0:0:0:
34,202,161758,6,0,B|16:219|-1:229|-1:229|11:262|10:292|10:292|39:277|71:275|71:275|70:248|83:220,1,213.75,4|0,0:0|0:0,0:0:0:0:
97,169,162058,2,0,P|108:136|141:127,1,71.25,0|0,3:0|0:0,0:0:0:0:
259,174,162358,6,0,B|330:141|386:175|365:183|424:236|493:194,1,249.375,4|0,0:0|0:0,0:0:0:0:
505,129,162658,2,0,P|471:119|443:138,1,71.25,0|0,3:0|0:0,0:0:0:0:
314,235,162958,6,0,B|289:265|274:309|274:309|224:294|180:295,1,178.125,4|0,0:0|0:0,0:0:0:0:
139,356,163258,2,0,P|115:330|107:292,1,71.25,0|0,3:0|0:0,0:0:0:0:
172,199,163558,6,0,B|295:72|116:42|144:151,1,213.75,4|0,0:0|0:0,0:0:0:0:
81,172,163858,2,0,P|45:163|9:174,1,71.25,0|0,3:0|0:0,0:0:0:0:
49,239,164158,5,8,0:1:0:0:
46,253,164308,1,0,0:0:0:0:
0,313,164458,5,2,0:0:0:0:
12,320,164608,1,2,0:0:0:0:
55,382,164758,5,8,0:1:0:0:
65,373,164908,1,2,0:0:0:0:
137,352,165058,5,2,0:0:0:0:
132,339,165208,1,2,0:0:0:0:
177,274,165358,6,0,L|238:268,1,61.75,8|0,0:1|0:0,0:0:0:0:
301,214,165658,2,0,L|362:219,1,61.75,2|0,0:0|0:0,0:0:0:0:
445,266,165958,2,0,P|459:300|441:320,3,61.75,8|0|2|0,0:1|0:0|0:0|0:0,0:0:0:0:
461,181,166558,6,0,B|514:20|514:20|412:74,1,285,4|0,0:0|0:0,0:0:0:0:
393,148,166858,2,0,P|362:130|342:101,1,71.25,0|0,3:0|0:0,0:0:0:0:
230,81,167158,6,0,B|152:82|152:82|114:118|114:118|24:120,1,213.75,4|0,0:0|0:0,0:0:0:0:
0,51,167458,2,0,L|71:50,1,71.25,0|0,3:0|0:0,0:0:0:0:
185,154,167758,6,0,P|178:266|66:259,1,249.375,4|0,0:0|0:0,0:0:0:0:
8,213,168058,2,0,P|36:192|71:188,1,71.25,0|0,3:0|0:0,0:0:0:0:
187,259,168358,6,0,L|364:247,1,178.125,4|0,0:0|0:0,0:0:0:0:
419,295,168658,2,0,P|437:264|435:229,1,71.25,0|0,3:0|0:0,0:0:0:0:
367,113,168958,6,0,B|358:134|358:134|373:174,1,61.75,8|0,0:1|0:0,0:0:0:0:
482,170,169258,2,0,B|491:149|491:149|476:109,1,61.75,2|0,0:0|0:0,0:0:0:0:
417,46,169558,2,0,L|293:41,1,123.5,8|2,0:1|0:0,0:0:0:0:
293,41,170008,1,2,0:0:0:0:
135,101,170158,6,0,P|193:102|216:156,1,123.5,8|2,0:1|0:0,0:0:0:0:
151,197,170608,1,0,0:0:0:0:
135,193,170758,2,0,P|143:222|147:253,1,61.75,8|2,0:1|0:0,0:0:0:0:
70,360,171058,2,0,P|91:337|115:319,1,61.75,2|2,0:0|0:0,0:0:0:0:
242,334,171358,6,0,P|299:354|357:339,1,123.5,8|2,0:1|0:0,0:0:0:0:
452,329,171808,1,2,0:0:0:0:
461,335,171958,2,0,L|471:211,1,123.5,8|2,0:1|0:0,0:0:0:0:
403,57,172558,6,0,L|400:32,2,15.4375,0|0|0,3:0|0:0|0:0,0:0:0:0:
286,221,172858,1,4,0:0:0:0:
113,139,173158,5,0,3:0:0:0:
388,220,173458,1,4,0:0:0:0:
278,377,173758,5,0,3:0:0:0:
223,61,174058,1,4,0:0:0:0:
17,241,174358,5,0,3:0:0:0:
500,164,174658,1,4,0:0:0:0:
295,200,175558,6,0,L|311:123,1,61.75
242,90,175858,2,0,L|229:150,1,61.75
295,200,176158,5,0,1:0:0:0:
488,119,176308,1,2,0:0:0:0:
419,71,176458,5,2,0:0:0:0:
471,274,176608,1,2,1:2:0:0:
412,335,176758,5,8,0:0:0:0:
388,253,176908,1,0,0:0:0:0:
329,315,177058,5,0,0:0:0:0:
295,200,177208,1,0,0:0:0:0:
213,287,177358,5,0,1:0:0:0:
155,225,177508,1,2,0:0:0:0:
70,222,177658,1,2,0:0:0:0:
7,279,177808,1,2,1:2:0:0:
70,336,177958,5,8,0:0:0:0:
115,149,178108,1,2,0:0:0:0:
155,225,178258,5,2,0:0:0:0:
295,200,178408,1,0,0:0:0:0:
435,175,178558,6,0,L|444:114,1,61.75,0|2,1:0|0:0,0:0:0:0:
304,139,178858,2,0,L|294:199,1,61.75,2|0,0:0|0:0,0:0:0:0:
435,175,179158,5,8,0:0:0:0:
155,225,179458,2,0,L|164:164,1,61.75
224,109,179758,1,0,1:0:0:0:
156,57,179908,5,2,0:0:0:0:
239,183,180058,1,2,0:0:0:0:
156,309,180208,1,0,0:0:0:0:
82,267,180358,5,8,0:0:0:0:
262,279,180508,1,0,0:0:0:0:
328,337,180658,5,0,0:0:0:0:
415,245,180808,1,0,0:0:0:0:
493,282,180958,6,0,L|370:268,1,123.5,0|2,1:0|0:0,0:0:0:0:
370,268,181408,1,0,0:0:0:0:
307,183,181558,2,0,P|277:181|247:188,1,61.75,8|0,0:0|0:0,0:0:0:0:
187,126,181858,2,0,P|169:151|160:180,1,61.75,2|0,0:0|0:0,0:0:0:0:
76,201,182158,5,0,1:0:0:0:
198,291,182308,1,2,0:0:0:0:
167,366,182458,5,2,0:0:0:0:
358,288,182608,1,2,1:2:0:0:
444,324,182758,5,8,0:0:0:0:
369,380,182908,1,0,0:0:0:0:
433,232,183058,5,0,0:0:0:0:
283,343,183208,1,0,0:0:0:0:
198,291,183358,5,0,1:0:0:0:
95,338,183508,1,2,0:0:0:0:
48,234,183658,1,2,0:0:0:0:
150,187,183808,1,2,1:2:0:0:
225,216,183958,5,8,0:0:0:0:
265,63,184108,1,2,0:0:0:0:
333,121,184258,5,2,0:0:0:0:
178,101,184408,1,0,0:0:0:0:
23,81,184558,6,0,B|6:95|6:95|19:132,1,61.75,0|2,1:0|0:0,0:0:0:0:
181,152,184858,2,0,B|194:114|194:114|177:100,1,61.75,2|0,0:0|0:0,0:0:0:0:
23,81,185158,5,8,0:0:0:0:
333,121,185458,2,0,B|316:135|316:135|329:172,1,61.75
321,247,185758,5,0,1:0:0:0:
394,206,185908,1,10,0:0:0:0:
477,239,186058,5,0,0:0:0:0:
460,156,186208,1,0,0:0:0:0:
512,87,186358,6,0,L|430:74,1,61.75,8|0,0:0|0:0,0:0:0:0:
333,121,186658,2,0,L|251:108,1,61.75,2|0,0:0|0:0,0:0:0:0:
167,147,186883,1,0,0:0:0:0:
154,155,186958,5,0,1:0:0:0:
181,301,187108,1,2,0:0:0:0:
242,358,187258,5,2,0:0:0:0:
274,182,187408,1,2,1:2:0:0:
333,121,187558,5,8,0:0:0:0:
356,202,187708,1,0,0:0:0:0:
413,72,187858,5,0,0:0:0:0:
452,209,188008,1,0,0:0:0:0:
358,316,188158,5,0,1:0:0:0:
300,254,188308,1,2,0:0:0:0:
215,251,188458,1,2,0:0:0:0:
152,308,188608,1,2,1:2:0:0:
215,365,188758,5,8,0:0:0:0:
134,224,188908,1,2,0:0:0:0:
71,281,189058,5,2,0:0:0:0:
197,167,189208,1,0,0:0:0:0:
71,53,189358,6,0,L|77:114,1,61.75,0|2,1:0|0:0,0:0:0:0:
197,167,189658,2,0,L|190:105,1,61.75,2|0,0:0|0:0,0:0:0:0:
71,53,189958,5,8,0:0:0:0:
71,281,190258,2,0,L|77:342,1,61.75
144,384,190558,1,0,1:0:0:0:
213,341,190708,5,2,0:0:0:0:
380,346,190858,1,2,0:0:0:0:
301,199,191008,1,2,1:2:0:0:
384,250,191158,5,8,0:0:0:0:
422,121,191308,1,0,0:0:0:0:
500,75,191458,5,2,0:0:0:0:
324,97,191608,1,2,0:0:0:0:
389,41,191758,6,0,P|334:13|275:29,1,123.5,0|2,1:0|0:0,0:0:0:0:
276,28,192208,1,0,0:0:0:0:
207,137,192358,6,0,P|176:132|156:110,1,61.75,8|0,0:0|0:0,0:0:0:0:
83,143,192658,2,0,P|71:114|80:85,1,61.75,2|0,0:0|0:0,0:0:0:0:
142,34,192958,5,0,1:0:0:0:
133,198,193108,1,2,0:0:0:0:
206,240,193258,5,2,0:0:0:0:
62,378,193408,1,2,1:2:0:0:
27,300,193558,5,8,0:0:0:0:
112,308,193708,1,0,0:0:0:0:
172,365,193858,5,0,0:0:0:0:
275,279,194008,1,0,0:0:0:0:
389,350,194158,5,0,1:0:0:0:
484,373,194308,1,2,0:0:0:0:
511,277,194458,1,2,0:0:0:0:
414,252,194608,1,2,1:2:0:0:
375,354,194758,5,8,0:0:0:0:
333,224,194908,1,2,0:0:0:0:
275,279,195058,5,2,0:0:0:0:
317,104,195208,1,0,0:0:0:0:
485,160,195358,6,0,P|504:136|504:105,1,61.75,0|2,1:0|0:0,0:0:0:0:
335,49,195658,2,0,P|316:72|316:103,1,61.75,2|0,0:0|0:0,0:0:0:0:
485,160,195958,5,8,0:0:0:0:
275,279,196258,2,0,P|293:255|293:224,1,61.75
300,150,196558,5,0,1:0:0:0:
227,191,196708,1,10,0:0:0:0:
144,158,196858,5,0,0:0:0:0:
161,241,197008,1,0,0:0:0:0:
103,308,197158,5,8,0:0:0:0:
187,318,197308,1,0,0:0:0:0:
234,384,197458,5,0,0:0:0:0:
270,307,197608,1,0,0:0:0:0:
270,307,197683,1,0,0:0:0:0:
270,307,197758,6,0,L|264:254,2,47.5,4|0|0,3:2|0:0|0:0,0:0:0:0:
341,211,198208,1,0,0:0:0:0:
360,201,198358,2,0,P|369:179|369:155,1,47.5,2|0,0:0|0:0,0:0:0:0:
432,122,198658,2,0,P|417:103|396:92,1,47.5
352,32,198958,5,0,3:0:0:0:
243,83,199108,2,0,P|249:130|253:177,1,95,2|2,0:0|0:0,0:0:0:0:
193,232,199558,1,0,0:0:0:0:
123,181,199708,1,2,0:0:0:0:
40,205,199858,1,0,0:0:0:0:
66,122,200008,1,2,0:0:0:0:
16,58,200158,6,0,P|36:45|59:38,1,47.5,0|0,3:0|0:0,0:0:0:0:
122,0,200458,2,0,P|142:10|160:27,1,47.5,2|0,0:0|0:0,0:0:0:0:
224,61,200758,5,0,0:0:0:0:
200,142,200908,1,2,0:0:0:0:
282,168,201058,1,2,0:0:0:0:
306,87,201208,1,2,0:0:0:0:
387,66,201358,5,0,3:0:0:0:
452,120,201508,1,0,0:0:0:0:
465,115,201658,2,0,L|441:216,1,95,2|0,0:0|0:0,0:0:0:0:
408,294,202108,1,0,0:0:0:0:
397,304,202258,2,0,L|387:257,1,47.5,2|0,0:0|0:0,0:0:0:0:
314,211,202558,5,4,3:2:0:0:
268,296,202708,1,0,0:0:0:0:
170,299,202858,1,2,0:0:0:0:
216,213,203008,1,0,0:0:0:0:
272,309,203158,5,8,0:0:0:0:
327,206,203308,1,0,0:0:0:0:
401,234,203458,5,2,0:0:0:0:
360,99,203608,1,0,0:0:0:0:
412,36,203758,5,4,3:2:0:0:
440,112,203908,1,2,0:0:0:0:
327,206,204058,5,2,0:0:0:0:
292,73,204208,1,2,0:0:0:0:
195,170,204358,5,8,3:2:0:0:
42,130,204508,1,0,0:0:0:0:
0,48,204658,5,2,0:0:0:0:
92,52,204808,1,0,0:0:0:0:
42,130,204958,5,4,3:2:0:0:
93,267,205108,1,2,0:0:0:0:
65,341,205258,5,2,0:0:0:0:
266,305,205408,1,2,0:0:0:0:
326,373,205558,5,8,0:0:0:0:
333,240,205708,1,2,0:0:0:0:
200,232,205858,1,0,0:0:0:0:
193,367,206008,1,2,0:0:0:0:
93,338,206158,6,0,P|87:314|82:291,1,47.5,4|2,3:2|0:0,0:0:0:0:
16,209,206458,2,0,P|36:196|56:183,1,47.5,2|0,0:0|0:0,0:0:0:0:
47,112,206683,1,0,0:0:0:0:
114,95,206758,2,0,P|132:110|150:125,1,47.5,8|0,0:0|0:0,0:0:0:0:
252,152,207058,2,0,P|243:173|234:195,1,47.5,2|0,0:0|0:0,0:0:0:0:
240,300,207358,5,0,3:0:0:0:
205,8,207658,1,8,3:2:0:0:
252,152,207958,6,0,L|260:94,1,47.5
350,65,208258,2,0,L|343:112,1,47.5
252,152,208558,5,4,3:2:0:0:
438,195,208708,1,2,0:0:0:0:
512,180,208858,5,2,0:0:0:0:
328,265,209008,1,2,0:0:0:0:
255,244,209158,5,8,3:2:0:0:
309,384,209308,1,0,0:0:0:0:
449,330,209458,1,2,0:0:0:0:
395,190,209608,1,0,0:0:0:0:
328,265,209758,5,0,3:0:0:0:
362,108,209908,1,2,0:0:0:0:
395,190,210058,5,2,0:0:0:0:
320,43,210208,1,2,0:0:0:0:
397,39,210358,5,8,3:2:0:0:
362,108,210508,1,2,0:0:0:0:
308,178,210658,5,2,0:0:0:0:
165,160,210808,1,0,0:0:0:0:
22,142,210958,6,0,B|2:114|2:114|11:78,1,71.25,0|2,3:0|0:0,0:0:0:0:
165,160,211258,1,2,0:0:0:0:
121,228,211408,1,0,0:0:0:0:
165,296,211558,6,0,L|235:288,1,71.25,8|0,3:2|0:0,0:0:0:0:
378,185,211858,2,0,L|307:177,1,71.25
258,114,212158,1,0,3:0:0:0:
325,57,212308,5,2,0:0:0:0:
188,0,212458,1,2,0:0:0:0:
90,109,212608,1,2,0:0:0:0:
10,49,212758,5,8,3:2:0:0:
119,232,212908,1,0,0:0:0:0:
68,323,213058,5,2,0:0:0:0:
252,260,213208,1,2,0:0:0:0:
318,318,213358,6,0,P|337:288|338:253,1,71.25,0|0,3:0|0:0,0:0:0:0:
209,120,213658,2,0,P|224:151|254:169,1,71.25,2|0,0:0|0:0,0:0:0:0:
413,125,213958,5,8,3:2:0:0:
432,34,214108,1,0,0:0:0:0:
341,15,214258,1,2,0:0:0:0:
322,106,214408,1,0,0:0:0:0:
425,122,214558,5,0,3:0:0:0:
365,275,214708,1,2,0:0:0:0:
418,342,214858,5,2,0:0:0:0:
181,328,215008,1,2,0:0:0:0:
114,377,215158,5,8,3:2:0:0:
105,294,215308,1,0,0:0:0:0:
47,227,215458,5,0,0:0:0:0:
128,102,215608,1,0,0:0:0:0:
259,168,215758,5,0,3:0:0:0:
381,190,215908,1,2,0:0:0:0:
404,66,216058,1,2,0:0:0:0:
279,44,216208,1,2,0:0:0:0:
205,108,216358,5,8,3:2:0:0:
283,256,216508,1,2,0:0:0:0:
256,335,216658,5,2,0:0:0:0:
481,305,216808,1,0,0:0:0:0:
374,197,216958,6,0,B|358:181|358:181|369:134,1,71.25,0|2,3:0|0:0,0:0:0:0:
279,44,217258,1,2,0:0:0:0:
205,108,217408,1,0,0:0:0:0:
130,44,217558,2,0,P|95:40|59:42,1,71.25,8|0,3:2|0:0,0:0:0:0:
58,190,217858,2,0,P|93:193|129:191,1,71.25
205,108,218158,5,0,3:0:0:0:
279,266,218308,1,10,0:0:0:0:
323,199,218458,5,0,0:0:0:0:
195,318,218608,1,0,0:0:0:0:
360,371,218758,5,8,3:2:0:0:
279,266,218908,1,0,0:0:0:0:
195,318,219058,5,0,0:0:0:0:
244,194,219208,1,0,0:0:0:0:
369,280,219358,5,0,3:0:0:0:
292,117,219508,1,2,0:0:0:0:
351,70,219658,5,2,0:0:0:0:
279,266,219808,1,2,0:0:0:0:
125,127,219958,5,8,3:2:0:0:
27,101,220108,1,0,0:0:0:0:
0,198,220258,1,0,0:0:0:0:
100,224,220408,1,0,0:0:0:0:
137,296,220558,5,0,3:0:0:0:
244,194,220708,1,2,0:0:0:0:
325,199,220858,5,2,0:0:0:0:
267,79,221008,1,2,0:0:0:0:
318,15,221158,5,8,3:2:0:0:
347,91,221308,1,2,0:0:0:0:
447,133,221458,5,2,0:0:0:0:
403,251,221608,1,0,0:0:0:0:
359,369,221758,6,0,L|287:372,1,71.25,0|2,3:0|0:0,0:0:0:0:
107,308,222058,1,2,0:0:0:0:
168,379,222208,1,0,0:0:0:0:
199,290,222358,2,0,P|203:255|198:220,1,71.25,8|0,3:2|0:0,0:0:0:0:
32,180,222658,2,0,P|60:201|93:214,1,71.25
211,90,222958,1,0,3:0:0:0:
276,195,223108,5,2,0:0:0:0:
246,11,223258,1,2,0:0:0:0:
101,127,223408,1,2,0:0:0:0:
37,82,223558,5,8,3:2:0:0:
114,245,223708,1,0,0:0:0:0:
80,318,223858,5,2,0:0:0:0:
223,299,224008,1,2,0:0:0:0:
366,280,224158,6,0,B|401:260|401:260|408:139,1,142.5,0|2,3:0|0:0,0:0:0:0:
406,157,224608,1,0,0:0:0:0:
295,28,224758,2,0,P|265:47|248:78,1,71.25,8|0,3:2|0:0,0:0:0:0:
163,89,225058,2,0,P|172:122|196:148,1,71.25,2|0,0:0|0:0,0:0:0:0:
180,233,225358,5,0,3:0:0:0:
355,298,225508,1,2,0:0:0:0:
379,377,225658,5,2,0:0:0:0:
406,157,225808,1,2,0:0:0:0:
280,245,225958,5,8,3:2:0:0:
216,149,226108,1,0,0:0:0:0:
102,155,226258,1,0,0:0:0:0:
50,257,226408,1,0,0:0:0:0:
113,353,226558,5,0,3:0:0:0:
280,245,226708,1,2,0:0:0:0:
372,291,226858,5,2,0:0:0:0:
331,137,227008,1,2,0:0:0:0:
388,71,227158,5,8,3:2:0:0:
416,153,227308,1,2,0:0:0:0:
512,226,227458,5,2,0:0:0:0:
359,215,227608,1,0,0:0:0:0:
205,203,227758,6,0,P|199:168|199:133,1,71.25,0|2,3:0|0:0,0:0:0:0:
91,287,228058,2,0,P|90:322|84:357,1,71.25,2|0,0:0|0:0,0:0:0:0:
43,194,228358,5,8,3:2:0:0:
1,79,228508,1,0,0:0:0:0:
115,38,228658,1,0,0:0:0:0:
156,151,228808,1,0,0:0:0:0:
205,203,228958,5,0,3:0:0:0:
215,81,229108,1,10,0:0:0:0:
336,92,229258,1,0,0:0:0:0:
325,211,229408,1,0,0:0:0:0:
347,279,229558,5,8,3:2:0:0:
407,173,229708,1,0,0:0:0:0:
512,234,229858,1,0,0:0:0:0:
452,337,230008,1,0,0:0:0:0:
347,279,230158,6,0,P|300:291|257:310,1,95,4|2,0:0|0:0,0:0:0:0:
103,384,230758,2,0,L|94:337,1,47.5,0|0,3:0|0:0,0:0:0:0:
5,290,231058,2,0,L|32:251,1,47.5,2|0,0:0|0:0,0:0:0:0:
12,147,231358,5,0,3:0:0:0:
2,154,231508,2,0,L|96:142,1,95,2|2,0:0|0:0,0:0:0:0:
199,87,231958,5,0,3:0:0:0:
309,115,232108,1,0,0:0:0:0:
279,224,232258,1,0,0:0:0:0:
171,195,232408,1,0,0:0:0:0:
96,142,232558,5,0,3:0:0:0:
141,259,232708,1,2,0:0:0:0:
116,338,232858,5,2,0:0:0:0:
300,304,233008,1,2,0:0:0:0:
376,361,233158,5,0,3:0:0:0:
446,313,233308,1,2,0:0:0:0:
424,231,233458,1,0,0:0:0:0:
338,225,233608,1,2,0:0:0:0:
300,304,233758,5,0,3:0:0:0:
159,257,233908,1,2,0:0:0:0:
41,352,234058,2,0,P|37:329|31:306,1,47.5,2|0,0:0|0:0,0:0:0:0:
261,183,234358,2,0,P|254:205|251:229,1,47.5,0|0,3:0|0:0,0:0:0:0:
9,169,234658,2,0,P|5:145|0:122,1,47.5,2|0,0:0|0:0,0:0:0:0:
282,24,234958,5,0,3:0:0:0:
261,183,235108,1,2,0:0:0:0:
102,161,235258,1,2,0:0:0:0:
121,2,235408,1,0,0:0:0:0:
176,74,235558,5,8,3:2:0:0:
124,269,235708,1,0,0:0:0:0:
261,183,235858,5,0,0:0:0:0:
213,384,236008,1,0,0:0:0:0:
295,310,236158,5,0,3:0:0:0:
124,269,236308,1,2,0:0:0:0:
32,239,236458,5,2,0:0:0:0:
261,183,236608,1,2,0:0:0:0:
353,151,236758,5,8,3:2:0:0:
101,89,236908,1,0,0:0:0:0:
6,68,237058,5,0,0:0:0:0:
280,0,237208,1,0,0:0:0:0:
413,58,237358,5,0,3:0:0:0:
463,193,237508,1,2,0:0:0:0:
326,245,237658,1,2,0:0:0:0:
274,108,237808,1,2,0:0:0:0:
223,54,237958,5,8,3:2:0:0:
172,199,238108,1,2,0:0:0:0:
25,151,238258,1,2,0:0:0:0:
70,4,238408,1,0,0:0:0:0:
223,54,238558,5,0,3:0:0:0:
172,199,238708,1,2,0:0:0:0:
121,344,238858,2,0,L|51:334,1,71.25,2|0,0:0|0:0,0:0:0:0:
25,151,239158,5,8,3:2:0:0:
250,133,239308,1,0,0:0:0:0:
475,115,239458,2,0,P|467:149|462:185,1,71.25
126,46,239758,6,0,B|172:25|172:25|213:40,1,95,4|0,0:0|3:0,0:0:0:0:
110,321,240358,2,0,B|89:276|89:276|104:234,1,95,4|0,0:0|3:0,0:0:0:0:
385,337,240958,2,0,B|340:359|340:359|298:343,1,95,4|0,0:0|3:0,0:0:0:0:
401,62,241558,2,0,B|423:108|423:108|407:149,1,95,4|0,0:0|3:0,0:0:0:0:
133,141,242158,6,0,L|124:34,1,95,4|0,0:0|3:0,0:0:0:0:
307,69,242758,2,0,L|414:60,1,95,4|0,0:0|3:0,0:0:0:0:
379,242,243358,2,0,L|388:350,1,95,4|0,0:0|3:0,0:0:0:0:
205,315,243958,2,0,L|98:324,1,95,4|0,0:0|3:0,0:0:0:0:
254,193,244558,5,4,0:0:0:0:
256,192,244708,12,2,246958,0:0:0:0:
489,25,247558,5,4,3:2:0:0:
399,374,248158,1,4,3:2:0:0:
25,373,248758,1,4,3:2:0:0:
115,24,249358,1,6,3:2:0:0:
