osu file format v14

[General]
AudioFilename: audio.mp3
AudioLeadIn: 0
PreviewTime: 197758
Countdown: 0
SampleSet: Soft
StackLeniency: 0.3
Mode: 0
LetterboxInBreaks: 0
WidescreenStoryboard: 1

[Editor]
Bookmarks: 208558,239758
DistanceSpacing: 0.6
BeatDivisor: 8
GridSize: 16
TimelineZoom: 3.599998

[Metadata]
Title:Vanity Clock
TitleUnicode:Vanity Clock
Artist:love solfege
ArtistUnicode:love solfege
Creator:Chizu-Kun
Version:Insane
Source:
Tags:neoclassical experimental japanese pop jpop j-pop reception for witnesses leomineXD featured artist fa 鮎 Ayu 紺野比奈子 Hinako Konno オーギュスト棒 Auguste Stick solfège
BeatmapID:3091364
BeatmapSetID:1486643

[Difficulty]
HPDrainRate:4.5
CircleSize:3.5
OverallDifficulty:7.5
ApproachRate:8
SliderMultiplier:1.4
SliderTickRate:1

[Events]
//Background and Video events
0,0,"clockbg.jpg",0,0
//Break Periods
2,142758,151408
//Storyboard Layer 0 (Background)
//Storyboard Layer 1 (Fail)
//Storyboard Layer 2 (Pass)
//Storyboard Layer 3 (Foreground)
//Storyboard Layer 4 (Overlay)
//Storyboard Sound Samples

[TimingPoints]
561,500,4,2,1,50,1,0
4561,-100,4,2,1,45,0,0
11561,-142.857142857143,4,2,1,45,0,0
30561,-142.857142857143,4,2,1,48,0,0
46533,600,4,2,1,48,1,0
46533,-100,4,2,1,15,0,0
48633,-100,4,2,1,5,0,0
48820,600.000000000001,4,2,1,15,1,0
51220,-100,4,2,1,5,0,0
51358,600,4,2,1,70,1,0
51358,-76.9230769230769,4,2,1,70,0,0
53758,-76.9230769230769,4,2,1,55,0,0
56158,-76.9230769230769,4,2,1,70,0,0
58558,-76.9230769230769,4,2,1,55,0,0
62458,-76.9230769230769,4,2,1,63,0,0
64558,-66.6666666666667,4,2,1,70,0,0
80158,-66.6666666666667,4,2,1,65,0,0
82558,-66.6666666666667,4,2,1,68,0,0
87358,-66.6666666666667,4,2,1,70,0,1
88558,-66.6666666666667,4,2,1,75,0,1
88858,-58.8235294117647,4,2,1,75,0,1
89758,-58.8235294117647,4,2,1,77,0,1
90958,-58.8235294117647,4,2,1,80,0,1
92158,-76.9230769230769,4,2,1,70,0,0
94558,-76.9230769230769,4,2,1,50,0,0
96958,-76.9230769230769,4,2,1,70,0,0
99358,-76.9230769230769,4,2,1,50,0,0
107758,-76.9230769230769,4,2,1,70,0,0
110158,-76.9230769230769,4,2,1,50,0,0
112558,-76.9230769230769,4,2,1,70,0,0
114958,-76.9230769230769,4,2,1,50,0,0
118858,-76.9230769230769,4,2,1,63,0,0
120958,-66.6666666666667,4,2,1,70,0,0
128533,-66.6666666666667,4,2,1,70,0,0
128608,-66.6666666666667,4,2,1,70,0,0
128683,-66.6666666666667,4,2,1,70,0,0
128758,-66.6666666666667,4,2,1,70,0,0
128833,-66.6666666666667,4,2,1,70,0,0
129058,-66.6666666666667,4,2,1,70,0,0
129133,-66.6666666666667,4,2,1,70,0,0
129208,-66.6666666666667,4,2,1,70,0,0
129283,-66.6666666666667,4,2,1,70,0,0
129358,-66.6666666666667,4,2,1,75,0,0
129433,-66.6666666666667,4,2,1,75,0,0
129658,-66.6666666666667,4,2,1,75,0,0
129733,-66.6666666666667,4,2,1,75,0,0
129808,-66.6666666666667,4,2,1,75,0,0
129883,-66.6666666666667,4,2,1,75,0,0
129958,-66.6666666666667,4,2,1,75,0,0
130033,-66.6666666666667,4,2,1,75,0,0
130258,-66.6666666666667,4,2,1,75,0,0
130558,-66.6666666666667,4,2,1,70,0,0
138133,-66.6666666666667,4,2,1,70,0,0
138208,-66.6666666666667,4,2,1,70,0,0
138283,-66.6666666666667,4,2,1,70,0,0
138358,-66.6666666666667,4,2,1,70,0,0
138433,-66.6666666666667,4,2,1,70,0,0
138658,-66.6666666666667,4,2,1,70,0,0
138733,-66.6666666666667,4,2,1,70,0,0
138808,-66.6666666666667,4,2,1,70,0,0
138883,-66.6666666666667,4,2,1,70,0,0
138958,-66.6666666666667,4,2,1,75,0,0
139033,-66.6666666666667,4,2,1,75,0,0
139258,-66.6666666666667,4,2,1,75,0,0
139333,-66.6666666666667,4,2,1,75,0,0
139408,-66.6666666666667,4,2,1,75,0,0
139483,-66.6666666666667,4,2,1,75,0,0
139558,-66.6666666666667,4,2,1,75,0,0
139633,-66.6666666666667,4,2,1,75,0,0
139858,-66.6666666666667,4,2,1,75,0,0
139933,-66.6666666666667,4,2,1,75,0,0
140008,-66.6666666666667,4,2,1,75,0,0
140083,-66.6666666666667,4,2,1,75,0,0
140158,-66.6666666666667,4,2,1,77,0,0
140233,-66.6666666666667,4,2,1,77,0,0
140458,-66.6666666666667,4,2,1,77,0,0
140533,-66.6666666666667,4,2,1,77,0,0
140608,-66.6666666666667,4,2,1,77,0,0
140683,-66.6666666666667,4,2,1,77,0,0
140758,-66.6666666666667,4,2,1,77,0,0
140833,-66.6666666666667,4,2,1,77,0,0
141058,-66.6666666666667,4,2,1,77,0,0
141133,-66.6666666666667,4,2,1,77,0,0
141208,-66.6666666666667,4,2,1,77,0,0
141283,-66.6666666666667,4,2,1,77,0,0
141358,-66.6666666666667,4,2,1,80,0,0
141433,-66.6666666666667,4,2,1,80,0,0
141658,-66.6666666666667,4,2,1,80,0,0
141733,-66.6666666666667,4,2,1,80,0,0
141808,-66.6666666666667,4,2,1,80,0,0
141883,-66.6666666666667,4,2,1,80,0,0
141958,-66.6666666666667,4,2,1,80,0,0
142033,-66.6666666666667,4,2,1,80,0,0
142258,-66.6666666666667,4,2,1,80,0,0
142558,-66.6666666666667,4,2,1,80,0,0
142708,-66.6666666666667,4,2,1,55,0,0
152158,-66.6666666666667,4,2,1,58,0,0
152458,-76.9230769230769,4,2,1,58,0,0
161758,-50,4,2,1,65,0,0
161983,-50,4,2,1,5,0,0
162058,-50,4,2,1,65,0,0
162283,-50,4,2,1,65,0,0
162358,-50,4,2,1,65,0,0
162583,-50,4,2,1,5,0,0
162658,-50,4,2,1,65,0,0
162883,-50,4,2,1,65,0,0
162958,-50,4,2,1,65,0,0
163183,-50,4,2,1,5,0,0
163258,-50,4,2,1,65,0,0
163483,-50,4,2,1,65,0,0
163558,-50,4,2,1,65,0,0
163783,-50,4,2,1,5,0,0
163858,-50,4,2,1,65,0,0
164083,-50,4,2,1,65,0,0
164158,-76.9230769230769,4,2,1,55,0,0
166558,-50,4,2,1,65,0,0
166783,-50,4,2,1,5,0,0
166858,-50,4,2,1,65,0,0
167083,-50,4,2,1,65,0,0
167158,-50,4,2,1,65,0,0
167383,-50,4,2,1,5,0,0
167458,-50,4,2,1,65,0,0
167683,-50,4,2,1,65,0,0
167758,-50,4,2,1,65,0,0
167983,-50,4,2,1,5,0,0
168058,-50,4,2,1,65,0,0
168283,-50,4,2,1,65,0,0
168358,-50,4,2,1,65,0,0
168583,-50,4,2,1,5,0,0
168658,-50,4,2,1,65,0,0
168883,-50,4,2,1,65,0,0
168958,-50,4,2,1,55,0,0
169258,-76.9230769230769,4,2,1,55,0,0
173758,-76.9230769230769,4,2,1,58,0,0
176158,-66.6666666666667,4,2,1,70,0,0
182158,600,4,2,1,70,1,0
182158,-66.6666666666667,4,2,1,70,0,0
192958,600,4,2,1,70,1,0
192958,-66.6666666666667,4,2,1,70,0,0
197758,-76.9230769230769,4,2,1,68,0,0
202558,-76.9230769230769,4,2,1,70,0,0
203158,-58.8235294117647,4,2,1,70,0,0
203758,-58.8235294117647,4,2,1,72,0,0
204958,-58.8235294117647,4,2,1,76,0,0
206158,-58.8235294117647,4,2,1,80,0,0
207358,-58.8235294117647,4,2,1,75,0,0
207958,-58.8235294117647,4,2,1,70,0,0
208558,600,4,2,1,75,1,0
208558,-50,4,2,1,75,0,1
219358,600,4,2,1,78,1,1
219358,-50,4,2,1,78,0,1
219958,-50,4,2,1,78,0,1
225358,600,4,2,1,78,1,1
225958,-50,4,2,1,78,0,1
230158,-66.6666666666667,4,2,1,70,0,0
234958,-66.6666666666667,4,2,1,72,0,1
235558,-50,4,2,1,72,0,1
236158,-50,4,2,1,76,0,1
237358,-50,4,2,1,80,0,1
238558,-50,4,2,1,82,0,1
239758,-66.6666666666667,4,2,1,70,0,0
244558,-66.6666666666667,4,2,1,60,0,0
247558,-66.6666666666667,4,2,1,70,0,0
249358,-66.6666666666667,4,2,1,75,0,0

[Colours]
Combo1 : 217,217,89
Combo2 : 234,249,51
Combo3 : 136,209,253
Combo4 : 201,118,182
Combo5 : 214,209,209

[HitObjects]
73,355,4561,5,2,0:3:0:0:
73,355,5561,1,2,0:3:0:0:
73,355,6561,1,2,0:3:0:0:
73,355,7561,1,2,0:3:0:0:
73,355,8561,5,2,0:3:0:0:
151,337,9061,1,2,0:0:0:0:
73,355,9561,5,2,0:3:0:0:
151,337,10061,1,2,0:0:0:0:
73,355,10561,5,2,0:3:0:0:
151,337,11061,1,2,0:0:0:0:
73,355,11561,6,0,P|64:306|50:259,1,97.9999999999999,2|2,0:3|0:0,0:0:0:0:
151,337,12561,6,0,L|199:327,1,49,2|2,0:3|0:0,0:0:0:0:
390,343,13061,2,0,L|341:352,1,49,2|2,0:0|0:0,0:0:0:0:
154,260,13561,6,0,L|202:250,1,49,2|2,0:3|0:0,0:0:0:0:
370,265,14061,2,0,L|321:274,1,49,2|2,0:0|0:0,0:0:0:0:
157,183,14561,6,0,L|205:173,1,49,2|2,0:3|0:0,0:0:0:0:
350,187,15061,2,0,L|301:196,1,49,2|2,0:0|0:0,0:0:0:0:
160,106,15561,6,0,L|208:96,1,49,2|0,0:3|0:0,0:0:0:0:
330,109,16061,2,0,L|281:118,1,49,2|2,0:0|0:0,0:0:0:0:
211,19,16561,6,0,L|163:29,2,49,2|2|2,0:3|0:0|0:0,0:0:0:0:
395,175,17561,6,0,P|429:141|431:94,1,97.9999999999999,2|2,0:3|0:0,0:0:0:0:
354,110,18311,2,0,L|329:108,2,24.5,0|0|2,0:0|0:0|0:3,0:0:0:0:
458,231,18811,5,2,0:0:0:0:
458,231,19061,2,0,L|448:301,1,49,2|2,0:0|0:0,0:0:0:0:
466,363,19561,2,0,L|396:353,1,49,2|2,0:3|0:0,0:0:0:0:
333,371,20061,2,0,L|343:301,1,49,2|2,0:0|0:0,0:0:0:0:
324,237,20561,2,0,P|278:226|238:252,1,97.9999999999999,2|2,0:3|0:0,0:0:0:0:
51,381,21561,5,2,0:3:0:0:
43,349,22061,1,2,0:0:0:0:
38,319,22561,6,0,L|47:367,1,49,2|2,0:3|0:0,0:0:0:0:
62,176,23061,2,0,L|52:127,1,49,2|2,0:0|0:0,0:0:0:0:
116,299,23561,6,0,L|125:347,1,49,2|2,0:3|0:0,0:0:0:0:
139,179,24061,2,0,L|129:130,1,49,2|2,0:0|0:0,0:0:0:0:
194,279,24561,6,0,L|203:327,1,49,2|0,0:3|0:0,0:0:0:0:
216,182,25061,2,0,L|206:133,1,49,2|2,0:0|0:0,0:0:0:0:
272,259,25561,6,0,L|281:307,1,49,2|2,0:3|0:0,0:0:0:0:
293,185,26061,2,0,L|283:136,1,49,2|2,0:0|0:0,0:0:0:0:
353,260,26561,6,0,L|362:308,2,49,2|0|2,0:3|0:0|0:0,0:0:0:0:
512,117,27561,6,0,B|468:95|468:95|427:122,1,97.9999999999999,2|2,0:3|0:0,0:0:0:0:
360,82,28311,2,0,L|355:57,2,24.5,0|0|2,0:0|0:0|0:3,0:0:0:0:
216,166,29061,6,0,L|132:162,1,81.6666641743979,2|0,0:0|0:0,0:0:0:0:
78,219,29561,1,2,0:3:0:0:
0,60,30061,1,2,0:0:0:0:
216,166,30561,5,2,0:3:0:0:
216,166,31061,2,0,P|253:137|261:90,2,97.9999999999999,2|2|2,0:0|0:3|0:0,0:0:0:0:
183,96,32561,2,0,L|70:98,1,97.9999999999999,2|2,0:3|0:0,0:0:0:0:
20,185,33311,1,2,0:0:0:0:
20,185,33561,2,0,L|117:183,1,97.9999999999999,2|2,0:3|0:0,0:0:0:0:
207,235,34311,5,2,0:0:0:0:
207,235,34561,2,0,P|230:277|225:325,2,97.9999999999999,2|2|2,0:3|0:0|0:3,0:0:0:0:
150,292,35811,1,2,0:0:0:0:
150,292,36061,2,0,P|127:287|102:289,1,49,2|2,0:0|0:0,0:0:0:0:
22,332,36561,6,0,L|25:268,1,49,2|2,0:3|0:0,0:0:0:0:
0,208,37061,2,0,L|61:191,1,49,2|2,0:0|0:0,0:0:0:0:
111,148,37561,2,0,L|146:201,1,49,2|2,0:3|0:0,0:0:0:0:
202,235,38061,2,0,L|161:285,1,49,2|2,0:0|0:0,0:0:0:0:
147,348,38561,6,0,B|96:333|96:333|54:366,3,97.9999999999999,2|2|2|2,0:3|0:0|0:3|0:0,0:0:0:0:
300,343,40561,2,0,B|351:358|351:358|393:325,3,97.9999999999999,2|2|2|2,0:3|0:0|0:3|0:0,0:0:0:0:
470,265,42561,5,2,0:3:0:0:
472,251,43061,1,2,0:0:0:0:
376,243,43561,5,2,0:3:0:0:
374,257,44061,1,2,0:0:0:0:
470,265,44561,5,2,0:3:0:0:
472,251,45061,1,2,0:0:0:0:
376,243,45561,5,0,0:0:0:0:
374,257,46061,1,2,0:0:0:0:
256,192,46533,5,2,0:3:0:0:
256,192,46683,12,0,48633,0:0:0:0:
256,192,48820,5,2,0:3:0:0:
256,192,48970,12,0,51220,0:0:0:0:
312,65,51358,6,0,L|402:58,1,91,4|0,0:0|3:0,0:0:0:0:
273,238,51958,2,0,L|267:148,1,91,4|0,0:0|3:0,0:0:0:0:
431,285,52558,2,0,L|340:291,1,91,4|0,0:0|3:0,0:0:0:0:
470,112,53158,2,0,L|476:202,1,91,4|0,0:0|3:0,0:0:0:0:
312,65,53758,6,0,L|402:58,1,91,8|0,0:1|0:0,0:0:0:0:
470,112,54208,1,0,0:0:0:0:
470,112,54358,2,0,L|476:202,1,91,8|2,0:1|0:0,0:0:0:0:
431,285,54808,1,0,0:0:0:0:
431,285,54958,2,0,P|409:281|388:288,1,45.5,8|2,0:1|0:0,0:0:0:0:
340,347,55258,2,0,P|318:353|296:349,1,45.5,2|2,0:0|0:0,0:0:0:0:
236,305,55558,2,0,L|223:214,1,91,8|2,0:1|0:0,0:0:0:0:
121,138,56008,5,0,0:0:0:0:
121,138,56158,2,0,B|94:175|94:175|109:217,1,91,4|0,0:0|3:0,0:0:0:0:
272,108,56758,2,0,B|235:81|235:81|192:96,1,91,4|0,0:0|3:0,0:0:0:0:
302,259,57358,2,0,B|329:222|329:222|313:179,1,91,4|0,0:0|3:0,0:0:0:0:
151,289,57958,2,0,B|188:316|188:316|230:300,1,91,4|0,0:0|3:0,0:0:0:0:
121,138,58558,6,0,B|94:175|94:175|109:217,1,91,8|0,0:1|0:0,0:0:0:0:
151,289,59008,1,0,0:0:0:0:
151,289,59158,2,0,B|188:316|188:316|230:300,1,91,8|2,0:1|0:0,0:0:0:0:
302,259,59608,1,0,0:0:0:0:
302,259,59758,2,0,P|311:238|310:215,1,45.5,8|2,0:1|0:0,0:0:0:0:
261,153,60058,2,0,P|260:130|268:109,1,45.5,2|2,0:0|0:0,0:0:0:0:
342,61,60358,1,8,0:1:0:0:
342,61,60508,2,0,L|402:50,2,45.5,2|2|0,0:0|0:0|0:0,0:0:0:0:
268,109,60958,6,0,L|222:108,1,45.5,8|0,0:1|0:0,0:0:0:0:
158,60,61258,2,0,L|112:60,1,45.5
50,111,61558,1,8,0:1:0:0:
50,111,61708,2,0,P|42:133|41:155,2,45.5,2|2|0,0:0|0:0|0:0,0:0:0:0:
158,60,62158,5,0,3:0:0:0:
62,267,62458,1,6,0:0:0:0:
269,363,62758,1,0,3:0:0:0:
365,156,63058,1,6,0:0:0:0:
207,205,63358,5,6,0:0:0:0:
207,205,64558,6,0,P|197:182|201:156,1,52.5,0|2,1:0|0:0,0:0:0:0:
300,147,64858,2,0,P|310:170|306:196,1,52.5,2|2,0:0|1:2,0:0:0:0:
267,269,65158,5,8,0:0:0:0:
267,269,65308,1,0,0:0:0:0:
334,323,65458,1,0,0:0:0:0:
334,323,65608,1,0,0:0:0:0:
200,323,65758,6,0,L|131:321,2,52.5,0|2|2,1:0|0:0|0:0,0:0:0:0:
267,269,66208,1,2,1:2:0:0:
207,205,66358,2,0,L|196:100,1,105,8|2,0:0|0:0,0:0:0:0:
196,100,66808,1,0,0:0:0:0:
307,53,66958,6,0,L|319:-11,2,52.5,0|0|2,1:0|0:0|0:0,0:0:0:0:
356,119,67408,1,2,0:0:0:0:
492,66,67558,1,8,0:0:0:0:
438,212,67858,6,0,P|428:235|428:261,1,52.5
494,303,68158,2,0,L|389:296,1,105,0|2,1:0|0:0,0:0:0:0:
343,233,68608,1,2,0:0:0:0:
343,233,68758,2,0,L|276:225,1,52.5,8|0,0:0|0:0,0:0:0:0:
285,363,69058,2,0,L|352:355,1,52.5,2|2,0:0|0:0,0:0:0:0:
216,289,69358,6,0,B|179:286|179:286|174:290|174:290|112:288,1,105,0|0,1:0|0:0,0:0:0:0:
112,288,69808,1,0,0:0:0:0:
21,345,69958,2,0,B|-5:298|-5:298|10:249,1,105,8|2,0:0|0:0,0:0:0:0:
172,89,70558,6,0,L|181:27,1,52.5,0|2,1:0|0:0,0:0:0:0:
72,17,70858,2,0,L|64:68,1,52.5,2|2,0:0|1:2,0:0:0:0:
108,147,71158,5,8,0:0:0:0:
108,147,71308,1,0,0:0:0:0:
31,191,71458,5,0,0:0:0:0:
31,191,71608,1,0,0:0:0:0:
175,203,71758,6,0,L|227:206,2,52.5,0|2|2,1:0|0:0|0:0,0:0:0:0:
108,147,72208,1,2,1:2:0:0:
161,80,72358,2,0,P|210:66|258:86,1,105,8|2,0:0|0:0,0:0:0:0:
258,86,72808,1,0,0:0:0:0:
397,149,72958,6,0,L|462:137,2,52.5,0|0|0,1:0|0:0|0:0,0:0:0:0:
350,80,73408,1,0,0:0:0:0:
274,210,73558,1,8,0:0:0:0:
274,210,73858,6,0,L|211:203,1,52.5000020027161,2|2,0:0|0:0,0:0:0:0:
162,265,74158,1,0,1:0:0:0:
239,360,74308,1,10,0:0:0:0:
365,327,74458,2,0,L|430:312,2,52.5000020027161,0|0|8,1:0|0:0|0:0,0:0:0:0:
442,235,74908,1,2,0:0:0:0:
387,174,75058,1,2,1:2:0:0:
365,327,75208,1,2,0:0:0:0:
365,327,75283,1,0,0:0:0:0:
365,327,75358,5,4,0:0:0:0:
189,284,75658,2,0,P|139:286|110:328,2,105,0|8|2,0:0|0:0|0:0,0:0:0:0:
31,384,76558,2,0,L|25:279,1,105,0|0,1:0|0:0,0:0:0:0:
115,223,77008,1,0,0:0:0:0:
115,223,77158,2,0,L|109:328,1,105,8|2,0:0|0:0,0:0:0:0:
0,100,77758,5,0,1:0:0:0:
196,179,78058,2,0,P|217:132|196:86,2,105,0|8|2,0:0|0:0|0:0,0:0:0:0:
108,0,78958,2,0,L|212:6,1,105,0|0,1:0|0:0,0:0:0:0:
301,79,79408,1,0,0:0:0:0:
301,79,79558,2,0,L|196:85,1,105,8|2,0:0|0:0,0:0:0:0:
499,56,80158,5,4,3:2:0:0:
362,321,81058,5,0,3:0:0:0:
512,212,81358,1,4,3:2:0:0:
512,212,81958,6,0,L|447:203,1,52.5
450,174,82258,2,0,L|409:225,1,52.5,0|0,3:0|0:0,0:0:0:0:
386,208,82558,6,0,B|414:259|414:259|377:351,1,157.5,4|2,0:0|0:0,0:0:0:0:
377,351,83158,2,0,L|294:365,1,52.5,8|2,0:0|0:0,0:0:0:0:
259,273,83458,2,0,L|310:264,1,52.5,0|2,0:0|0:0,0:0:0:0:
210,384,83758,5,0,1:0:0:0:
210,384,83908,1,0,0:0:0:0:
126,352,84058,1,0,0:0:0:0:
126,352,84208,1,0,0:0:0:0:
42,320,84358,6,0,L|34:255,1,52.5,8|2,0:0|0:0,0:0:0:0:
203,331,84658,2,0,L|209:383,1,52.5,2|2,0:0|0:0,0:0:0:0:
259,273,84958,5,0,1:0:0:0:
237,196,85108,1,0,0:0:0:0:
159,176,85258,1,0,0:0:0:0:
102,233,85408,1,0,0:0:0:0:
122,310,85558,6,0,P|125:284|129:257,1,52.5,8|2,0:0|0:0,0:0:0:0:
265,220,85858,2,0,P|262:246|259:273,1,52.5,2|2,0:0|0:0,0:0:0:0:
396,236,86158,1,0,1:0:0:0:
396,236,86308,1,2,0:0:0:0:
396,236,86458,2,0,P|399:209|402:183,1,52.5,0|2,0:0|0:0,0:0:0:0:
474,140,86683,1,0,0:0:0:0:
489,132,86758,2,0,P|491:105|494:79,1,52.5,8|0,0:0|0:0,0:0:0:0:
349,62,87058,2,0,P|346:88|344:114,1,52.5
265,220,87358,5,4,3:2:0:0:
200,157,87508,1,2,0:0:0:0:
116,187,87658,1,2,0:0:0:0:
180,249,87808,1,2,0:0:0:0:
265,220,87958,5,8,3:2:0:0:
330,157,88108,1,2,0:0:0:0:
414,187,88258,1,0,0:0:0:0:
350,249,88408,1,2,0:0:0:0:
265,220,88558,5,0,3:0:0:0:
116,187,88708,1,0,0:0:0:0:
180,249,88858,2,0,P|184:278|178:307,1,59.5
100,346,89158,5,8,3:2:0:0:
116,187,89308,1,2,0:0:0:0:
31,220,89458,2,0,L|21:161,1,59.5,2|2,0:0|0:0,0:0:0:0:
85,52,89758,5,0,3:0:0:0:
141,113,89908,1,0,0:0:0:0:
226,116,90058,1,0,0:0:0:0:
288,58,90208,1,0,0:0:0:0:
185,30,90358,6,0,L|184:108,1,59.5,8|2,3:2|0:0,0:0:0:0:
395,99,90658,2,0,L|395:39,1,59.5,2|2,0:0|0:0,0:0:0:0:
467,141,90958,5,0,3:0:0:0:
377,207,91108,1,2,0:0:0:0:
480,252,91258,2,0,B|498:236|490:218|490:218|475:228|455:238,1,59.5,0|2,0:0|0:0,0:0:0:0:
377,207,91558,5,8,3:2:0:0:
287,273,91708,1,2,0:0:0:0:
390,318,91858,2,0,B|408:302|400:284|400:284|385:294|365:304,1,59.5,2|0,0:0|0:0,0:0:0:0:
224,337,92158,6,0,L|116:343,1,91,4|0,0:0|3:0,0:0:0:0:
281,182,92758,2,0,L|286:272,1,91,4|0,0:0|3:0,0:0:0:0:
126,125,93358,2,0,L|216:119,1,91,4|0,0:0|3:0,0:0:0:0:
69,280,93958,2,0,L|63:172,1,91,4|0,0:0|3:0,0:0:0:0:
224,337,94558,6,0,L|116:343,1,91,8|2,0:1|0:0,0:0:0:0:
69,280,95008,1,2,0:0:0:0:
69,280,95158,2,0,L|63:172,1,91,8|0,0:1|0:0,0:0:0:0:
126,125,95608,1,0,0:0:0:0:
126,125,95758,2,0,P|147:118|170:119,1,45.5,8|2,0:1|0:0,0:0:0:0:
238,163,96058,2,0,P|260:163|282:156,1,45.5,2|2,0:0|0:0,0:0:0:0:
351,109,96358,2,0,L|357:18,1,91,8|0,0:1|0:0,0:0:0:0:
458,83,96808,5,0,0:0:0:0:
458,83,96958,2,0,P|471:125|455:166,1,91,4|0,0:0|3:0,0:0:0:0:
267,106,97558,2,0,P|309:92|350:108,1,91,4|0,0:0|3:0,0:0:0:0:
291,296,98158,2,0,P|277:253|293:212,1,91,4|0,0:0|3:0,0:0:0:0:
481,272,98758,2,0,P|438:285|397:269,1,91,4|0,0:0|3:0,0:0:0:0:
457,82,99358,6,0,P|470:124|454:165,1,91,8|2,0:1|0:0,0:0:0:0:
481,272,99808,1,2,0:0:0:0:
481,272,99958,2,0,P|438:285|397:269,1,91,8|0,0:1|0:0,0:0:0:0:
291,296,100408,1,0,0:0:0:0:
291,296,100558,2,0,L|283:249,1,45.5,8|2,0:1|0:0,0:0:0:0:
219,205,100858,2,0,L|227:158,1,45.5,2|2,0:0|0:0,0:0:0:0:
289,101,101158,2,0,L|277:4,1,91,8|0,0:1|0:0,0:0:0:0:
277,10,101608,1,0,0:0:0:0:
190,77,101758,6,0,P|168:72|146:74,1,45.5,8|2,0:1|0:0,0:0:0:0:
76,41,102058,2,0,P|64:60|58:82,1,45.5,2|2,0:0|0:0,0:0:0:0:
5,138,102358,2,0,B|12:160|36:169|36:169|16:190|21:227,1,91,8|0,0:1|0:0,0:0:0:0:
79,267,102808,1,2,0:0:0:0:
79,267,102958,6,0,P|134:320|62:347,1,182,8|8,0:1|0:1,0:0:0:0:
433,267,103858,1,2,0:0:0:0:
433,267,104008,1,2,0:0:0:0:
433,267,104158,2,0,P|377:319|449:346,1,182,8|8,0:1|0:1,0:0:0:0:
253,384,105058,5,2,0:0:0:0:
253,384,105208,1,2,0:0:0:0:
253,384,105358,2,0,L|190:367,1,45.5,8|2,0:1|0:0,0:0:0:0:
255,276,105658,2,0,L|318:259,1,45.5,0|2,0:0|0:0,0:0:0:0:
257,168,105958,2,0,L|257:23,1,136.5,8|2,0:1|0:0,0:0:0:0:
339,56,106558,6,0,B|362:98|362:98|337:147,2,91,8|0|8,0:1|0:0|0:1,0:0:0:0:
169,54,107458,1,0,0:0:0:0:
169,54,107608,1,0,0:0:0:0:
169,54,107758,6,0,B|148:43|129:59|140:69|116:83|87:76,1,91,4|0,0:0|3:0,0:0:0:0:
284,185,108358,2,0,B|295:163|279:144|269:155|255:131|262:102,1,91,4|0,0:0|3:0,0:0:0:0:
153,299,108958,2,0,B|174:310|193:294|182:284|206:270|235:277,1,91,4|0,0:0|3:0,0:0:0:0:
39,169,109558,2,0,B|27:190|43:209|53:198|67:222|60:251,1,91,4|0,0:0|3:0,0:0:0:0:
169,54,110158,6,0,B|148:43|129:59|140:69|116:83|87:76,1,91,8|2,0:1|0:0,0:0:0:0:
39,169,110608,1,2,0:0:0:0:
39,169,110758,2,0,B|27:190|43:209|53:198|67:222|60:251,1,91,8|0,0:1|0:0,0:0:0:0:
153,299,111208,1,0,0:0:0:0:
153,299,111358,2,0,B|174:290|174:290|198:293,1,45.5,8|2,0:1|0:0,0:0:0:0:
255,347,111658,2,0,B|277:349|277:349|298:340,1,45.5,2|2,0:0|0:0,0:0:0:0:
353,283,111958,2,0,L|443:277,1,91,8|0,0:1|0:0,0:0:0:0:
392,195,112408,5,0,0:0:0:0:
392,195,112558,2,0,B|391:181|412:145|412:145|397:139|387:117,1,91,4|0,0:0|3:0,0:0:0:0:
215,235,113158,2,0,B|229:234|265:255|265:255|271:240|292:230,1,91,4|0,0:0|3:0,0:0:0:0:
175,58,113758,2,0,B|176:72|155:108|155:108|170:114|179:135,1,91,4|0,0:0|3:0,0:0:0:0:
352,18,114358,2,0,B|337:19|302:-2|302:-2|296:13|274:22,1,91,4|0,0:0|3:0,0:0:0:0:
392,195,114958,6,0,B|391:181|412:145|412:145|397:139|387:117,1,91,8|2,0:1|0:0,0:0:0:0:
352,18,115408,1,2,0:0:0:0:
352,18,115558,2,0,B|337:19|302:-2|302:-2|296:13|274:22,1,91,8|0,0:1|0:0,0:0:0:0:
175,58,116008,1,0,0:0:0:0:
175,58,116158,2,0,B|177:79|155:105,1,45.5,8|2,0:1|0:0,0:0:0:0:
210,165,116458,2,0,B|208:185|230:211,1,45.5,2|2,0:0|0:0,0:0:0:0:
170,266,116758,2,0,P|128:252|89:273,1,91,8|0,0:1|0:0,0:0:0:0:
89,273,117208,1,0,0:0:0:0:
195,346,117358,6,0,L|238:332,1,45.5,8|2,0:1|0:0,0:0:0:0:
319,359,117658,2,0,L|328:314,1,45.5,2|2,0:0|0:0,0:0:0:0:
392,257,117958,2,0,B|363:233|363:233|369:179,1,91,8|2,0:1|0:0,0:0:0:0:
369,180,118408,1,0,0:0:0:0:
479,121,118558,5,8,3:1:0:0:
248,25,118858,1,4,0:0:0:0:
333,40,119158,5,0,3:0:0:0:
101,135,119458,1,4,0:0:0:0:
300,289,119758,1,4,0:0:0:0:
300,289,120958,6,0,L|289:235,1,52.5,0|2,1:0|0:0,0:0:0:0:
470,196,121258,2,0,L|480:247,1,52.5,2|2,0:0|1:2,0:0:0:0:
419,337,121558,5,8,0:0:0:0:
419,337,121708,1,0,0:0:0:0:
389,251,121858,1,2,0:0:0:0:
389,251,122008,1,2,0:0:0:0:
359,165,122158,6,0,B|385:137|359:89|359:89|336:95,1,105,0|2,1:0|0:0,0:0:0:0:
260,175,122608,1,2,1:2:0:0:
260,175,122758,2,0,L|207:172,1,52.5,8|0,0:0|0:0,0:0:0:0:
258,41,123058,2,0,L|205:43,1,52.5
143,110,123358,5,0,1:0:0:0:
143,110,123508,1,2,0:0:0:0:
57,85,123658,1,2,0:0:0:0:
57,85,123808,1,2,1:2:0:0:
32,171,123958,6,0,L|42:222,1,52.5,8|2,0:0|0:0,0:0:0:0:
1,294,124258,2,0,L|53:299,1,52.5,0|2,0:0|0:0,0:0:0:0:
108,361,124558,2,0,B|121:328|121:328|191:327,1,105,0|2,1:0|0:0,0:0:0:0:
293,287,125008,1,2,0:0:0:0:
293,287,125158,2,0,B|306:319|306:319|376:320,1,105,12|0,0:0|0:0,0:0:0:0:
376,320,125608,1,0,0:0:0:0:
497,236,125758,6,0,B|473:230|455:209|455:209|433:228|392:230,1,105,0|2,1:0|0:0,0:0:0:0:
450,98,126208,1,2,1:2:0:0:
450,98,126358,2,0,P|498:109|512:158,1,105,8|0,0:0|0:0,0:0:0:0:
405,228,126808,1,0,0:0:0:0:
405,228,126958,5,0,1:0:0:0:
330,180,127108,2,0,L|221:174,1,105,2|2,0:0|1:2,0:0:0:0:
339,99,127558,2,0,L|286:96,2,52.5,8|0|0,0:0|0:0|0:0,0:0:0:0:
152,9,128158,5,4,0:0:0:0:
14,119,128458,5,2,0:0:0:0:
1,149,128608,1,2,0:0:0:0:
34,143,128758,1,8,0:0:0:0:
123,314,129058,5,2,0:0:0:0:
96,254,129208,1,2,0:0:0:0:
162,266,129358,1,0,1:0:0:0:
277,147,129658,5,0,0:0:0:0:
244,153,129808,1,2,0:0:0:0:
257,123,129958,1,8,0:0:0:0:
286,304,130258,1,0,1:0:0:0:
453,154,130558,6,0,P|427:146|401:148,1,52.5,4|2,3:2|0:0,0:0:0:0:
390,308,130858,2,0,P|415:315|441:313,1,52.5,2|2,0:0|1:2,0:0:0:0:
507,237,131158,5,8,0:0:0:0:
507,237,131308,1,0,0:0:0:0:
423,236,131458,1,2,0:0:0:0:
423,236,131608,1,2,0:0:0:0:
339,235,131758,6,0,B|291:234|291:234|285:240|285:240|229:239,1,105,0|2,1:0|0:0,0:0:0:0:
123,176,132208,1,2,1:2:0:0:
123,176,132358,2,0,L|192:188,1,52.5,8|0,0:0|0:0,0:0:0:0:
129,309,132658,2,0,L|180:300,1,52.5
236,239,132958,5,0,1:0:0:0:
236,239,133108,1,2,0:0:0:0:
292,173,133258,1,2,0:0:0:0:
292,173,133408,1,2,1:2:0:0:
236,107,133558,6,0,L|176:101,1,52.5,8|2,0:0|0:0,0:0:0:0:
315,24,133858,2,0,L|375:18,1,52.5,0|2,0:0|0:0,0:0:0:0:
465,88,134158,6,0,P|451:138|446:190,1,105,0|2,1:0|0:0,0:0:0:0:
490,286,134608,1,2,0:0:0:0:
490,286,134758,2,0,B|441:308|441:308|382:268,1,105,12|2,0:0|0:0,0:0:0:0:
398,279,135208,1,2,0:0:0:0:
307,336,135358,6,0,P|262:313|211:323,1,105,0|2,1:0|0:0,0:0:0:0:
140,384,135808,1,0,1:0:0:0:
140,384,135958,2,0,L|131:274,1,105,8|2,0:0|0:0,0:0:0:0:
131,279,136408,1,2,0:0:0:0:
40,213,136558,6,0,P|49:188|66:168,1,52.5,0|2,1:0|0:0,0:0:0:0:
41,94,136858,2,0,P|66:89|92:94,1,52.5,2|2,0:0|1:2,0:0:0:0:
144,35,137158,2,0,P|160:55|169:79,1,52.5,8|2,0:0|0:0,0:0:0:0:
246,94,137458,2,0,P|236:118|219:138,1,52.5,2|0,0:0|0:0,0:0:0:0:
245,211,137758,5,4,3:2:0:0:
414,93,138058,5,2,0:0:0:0:
384,80,138208,1,2,0:0:0:0:
390,113,138358,1,8,3:2:0:0:
245,211,138658,5,2,0:0:0:0:
185,184,138808,1,2,0:0:0:0:
197,250,138958,1,4,3:2:0:0:
418,324,139258,5,0,0:0:0:0:
412,291,139408,1,2,0:0:0:0:
442,304,139558,1,8,3:2:0:0:
260,364,139858,5,2,0:0:0:0:
254,348,140008,1,2,0:0:0:0:
248,332,140158,1,4,3:2:0:0:
166,357,140458,5,2,0:0:0:0:
162,331,140608,1,2,0:0:0:0:
160,306,140758,1,8,3:2:0:0:
72,318,141058,5,2,0:0:0:0:
75,280,141208,1,2,0:0:0:0:
81,244,141358,1,4,3:2:0:0:
0,234,141658,5,2,0:0:0:0:
15,187,141808,1,2,0:0:0:0:
35,142,141958,1,8,3:2:0:0:
0,65,142258,5,0,3:0:0:0:
258,0,142558,1,4,3:2:0:0:
438,40,152158,5,8,0:1:0:0:
438,40,152458,2,0,P|458:79|440:119,1,91,2|8,0:0|0:1,0:0:0:0:
314,125,153058,2,0,P|293:85|311:45,1,91,2|8,0:0|0:1,0:0:0:0:
311,45,153658,1,2,0:0:0:0:
440,119,153958,1,8,0:1:0:0:
440,119,154258,6,0,L|431:184,2,45.5,2|2|8,0:0|0:0|0:1,0:0:0:0:
311,45,154858,2,0,L|304:0,2,45.5,2|2|8,0:0|0:0|0:1,0:0:0:0:
208,149,155458,1,2,0:0:0:0:
68,83,155758,2,0,P|36:54|45:11,2,91,8|2|8,0:1|0:0|0:1,0:0:0:0:
217,58,156958,5,8,0:1:0:0:
217,58,157258,2,0,L|207:148,2,91,2|8|2,0:0|0:1|0:0,0:0:0:0:
306,26,158008,1,2,0:0:0:0:
306,26,158158,2,0,P|349:31|367:71,1,91,8|2,0:1|0:0,0:0:0:0:
457,133,158758,2,0,P|444:176|436:221,1,91,8|2,0:1|0:0,0:0:0:0:
272,195,159358,6,0,P|284:151|292:106,1,91,8|2,0:1|0:0,0:0:0:0:
233,60,159808,1,2,0:0:0:0:
233,60,159958,2,0,L|187:54,1,45.5,8|2,0:1|0:0,0:0:0:0:
193,171,160258,2,0,L|147:165,1,45.5,2|2,0:0|0:0,0:0:0:0:
45,63,160558,6,0,B|30:106|30:106|52:145,1,91,8|2,0:1|0:0,0:0:0:0:
200,253,161158,2,0,B|215:210|215:210|192:170,1,91,8|2,0:1|0:0,0:0:0:0:
0,345,161758,6,0,L|104:331,1,105,4|0,0:0|0:0,0:0:0:0:
104,331,162058,1,0,3:0:0:0:
304,266,162358,2,0,L|199:252,1,105,4|0,0:0|0:0,0:0:0:0:
200,252,162658,1,0,3:0:0:0:
0,180,162958,2,0,L|104:166,1,105,4|0,0:0|0:0,0:0:0:0:
104,166,163258,1,0,3:0:0:0:
304,101,163558,2,0,L|199:87,1,105,4|0,0:0|0:0,0:0:0:0:
200,87,163858,1,0,3:0:0:0:
404,166,164158,6,0,P|428:129|423:82,2,91,8|2|8,0:1|0:0|0:1,0:0:0:0:
298,249,165058,1,2,0:0:0:0:
298,249,165208,1,2,0:0:0:0:
298,249,165358,2,0,L|306:339,1,91,8|2,0:1|0:0,0:0:0:0:
134,384,165958,2,0,L|142:293,1,91,8|2,0:1|0:0,0:0:0:0:
87,92,166558,6,0,B|146:62|146:62|175:87,1,105,4|0,0:0|0:0,0:0:0:0:
205,79,166858,1,0,3:0:0:0:
33,267,167158,2,0,B|3:208|3:208|28:178,1,105,4|0,0:0|0:0,0:0:0:0:
20,149,167458,1,0,3:0:0:0:
208,321,167758,2,0,B|149:351|149:351|119:325,1,105,4|0,0:0|0:0,0:0:0:0:
90,334,168058,1,0,3:0:0:0:
262,146,168358,2,0,B|292:205|292:205|266:234,1,105,4|0,0:0|0:0,0:0:0:0:
275,264,168658,1,0,3:0:0:0:
205,79,168958,5,8,0:1:0:0:
205,79,169258,2,0,L|295:65,2,91,2|8|2,0:0|0:1|0:0,0:0:0:0:
122,46,170008,1,2,0:0:0:0:
122,46,170158,2,0,B|90:54|90:54|100:111,1,91,8|2,0:1|0:0,0:0:0:0:
184,238,170758,6,0,B|191:261|191:261|180:286,1,45.5,8|2,0:1|0:0,0:0:0:0:
24,275,171058,2,0,B|17:252|17:252|28:227,1,45.5,2|2,0:0|0:0,0:0:0:0:
106,192,171358,2,0,L|102:308,1,91,8|2,0:1|0:0,0:0:0:0:
102,282,171808,1,2,0:0:0:0:
162,355,171958,2,0,B|206:336|206:336|242:358,1,91,8|2,0:1|0:0,0:0:0:0:
446,317,172558,5,0,3:0:0:0:
487,164,172858,1,4,0:0:0:0:
363,294,173158,5,0,3:0:0:0:
404,141,173458,1,4,0:0:0:0:
321,118,173758,5,0,3:0:0:0:
280,271,174058,1,4,0:0:0:0:
238,95,174358,5,0,3:0:0:0:
197,248,174658,1,4,0:0:0:0:
106,147,176158,6,0,P|110:121|100:97,1,52.5,0|2,1:0|0:0,0:0:0:0:
1,106,176458,2,0,P|-3:131|6:155,1,52.5,2|2,0:0|1:2,0:0:0:0:
67,219,176758,5,8,0:0:0:0:
67,219,176908,1,0,0:0:0:0:
0,273,177058,1,0,0:0:0:0:
0,273,177208,1,0,0:0:0:0:
134,273,177358,6,0,L|186:274,2,52.5,0|2|2,1:0|0:0|0:0,0:0:0:0:
67,219,177808,1,2,1:2:0:0:
106,147,177958,2,0,P|155:141|175:95,1,105,8|2,0:0|0:0,0:0:0:0:
175,95,178408,1,0,0:0:0:0:
77,45,178558,6,0,L|24:38,2,52.5,0|2|2,1:0|0:0|0:0,0:0:0:0:
147,0,179008,1,0,0:0:0:0:
256,89,179158,1,8,0:0:0:0:
466,83,179458,6,0,P|446:106|431:137,1,52.5
380,74,179758,2,0,P|397:123|404:175,1,105,0|2,1:0|0:0,0:0:0:0:
470,282,180208,1,0,0:0:0:0:
470,282,180358,2,0,L|480:230,1,52.5,8|0,0:0|0:0,0:0:0:0:
338,236,180658,2,0,L|348:287,1,52.5
292,363,180958,2,0,B|245:362|245:362|236:355|236:355|189:354,1,105,0|2,1:0|0:0,0:0:0:0:
189,354,181408,1,0,0:0:0:0:
75,321,181558,6,0,P|47:277|63:229,1,105,8|2,0:0|0:0,0:0:0:0:
343,87,182158,6,0,B|350:60|350:60|338:38,1,52.5,0|2,1:0|0:0,0:0:0:0:
229,50,182458,2,0,B|222:77|222:77|233:98,1,52.5,2|2,0:0|1:2,0:0:0:0:
297,159,182758,5,8,0:0:0:0:
297,159,182908,1,0,0:0:0:0:
245,225,183058,1,0,0:0:0:0:
245,225,183208,1,0,0:0:0:0:
372,196,183358,6,0,L|440:182,2,52.5,0|2|2,1:0|0:0|0:0,0:0:0:0:
297,159,183808,1,2,1:2:0:0:
245,225,183958,2,0,P|240:277|240:329,1,105,8|2,0:0|0:0,0:0:0:0:
239,329,184408,1,0,0:0:0:0:
370,297,184558,6,0,P|396:296|419:308,2,52.5,0|2|2,1:0|0:0|0:0,0:0:0:0:
377,375,185008,1,0,0:0:0:0:
242,334,185158,2,0,L|117:352,1,105,8|0,0:0|0:0,0:0:0:0:
30,270,185608,5,0,0:0:0:0:
30,270,185758,2,0,B|79:245|79:245|124:271,1,105,0|0,1:0|0:0,0:0:0:0:
130,133,186208,1,0,0:0:0:0:
130,133,186358,2,0,B|81:158|81:158|36:132,1,105,8|2,0:0|0:0,0:0:0:0:
187,207,186808,5,0,0:0:0:0:
187,207,186883,1,0,0:0:0:0:
187,207,186958,2,0,L|250:209,1,52.5,0|2,1:0|0:0,0:0:0:0:
242,70,187258,2,0,L|189:68,1,52.5,2|2,0:0|1:2,0:0:0:0:
130,133,187558,5,8,0:0:0:0:
130,133,187708,1,0,0:0:0:0:
52,89,187858,1,0,0:0:0:0:
52,89,188008,1,0,0:0:0:0:
0,162,188158,6,0,L|13:224,1,52.5,0|2,1:0|0:0,0:0:0:0:
116,215,188458,2,0,L|105:266,1,52.5,2|2,0:0|1:2,0:0:0:0:
21,325,188758,2,0,P|67:303|116:316,1,105,8|2,0:0|0:0,0:0:0:0:
116,316,189208,1,0,0:0:0:0:
233,384,189358,6,0,L|284:375,2,52.5,0|2|2,1:0|0:0|0:0,0:0:0:0:
204,307,189808,1,0,0:0:0:0:
362,384,189958,1,8,0:0:0:0:
362,384,190258,6,0,P|375:356|381:322,1,52.5
447,370,190558,2,0,P|417:327|397:278,1,105,0|2,1:0|0:0,0:0:0:0:
459,171,191008,1,2,1:2:0:0:
459,171,191158,2,0,P|462:196|456:222,1,52.5,8|0,0:0|0:0,0:0:0:0:
330,219,191458,2,0,P|326:193|332:167,1,52.5,2|2,0:0|0:0,0:0:0:0:
398,101,191758,6,0,B|429:61|429:61|414:8,1,105,0|2,1:0|0:0,0:0:0:0:
314,88,192208,1,0,0:0:0:0:
314,88,192358,2,0,P|261:84|209:84,1,105,8|2,0:0|0:0,0:0:0:0:
88,266,192958,6,0,P|72:245|72:219,1,52.5,0|2,1:0|0:0,0:0:0:0:
168,193,193258,2,0,P|183:213|183:239,1,52.5,2|2,0:0|1:2,0:0:0:0:
159,318,193558,5,8,0:0:0:0:
159,318,193708,1,0,0:0:0:0:
97,381,193858,1,0,0:0:0:0:
97,381,194008,1,0,0:0:0:0:
241,348,194158,6,0,L|313:363,2,52.5,0|2|2,1:0|0:0|0:0,0:0:0:0:
159,318,194608,1,2,1:2:0:0:
77,289,194758,2,0,L|64:222,1,52.5,8|2,0:0|0:0,0:0:0:0:
212,209,195058,2,0,L|222:260,1,52.5,2|0,0:0|0:0,0:0:0:0:
348,295,195358,6,0,P|369:279|394:272,2,52.5,0|2|2,1:0|0:0|0:0,0:0:0:0:
292,358,195808,1,0,0:0:0:0:
317,216,195958,1,8,0:0:0:0:
317,216,196258,6,0,P|305:192|308:164,1,52.5
382,140,196558,2,0,L|277:134,1,105,0|0,1:0|0:0,0:0:0:0:
265,322,197008,1,0,0:0:0:0:
265,322,197158,2,0,L|369:327,1,105,8|0,0:0|0:0,0:0:0:0:
456,240,197608,5,0,0:0:0:0:
456,240,197683,1,0,0:0:0:0:
456,240,197758,2,0,L|253:231,1,182,4|2,3:2|0:0,0:0:0:0:
63,221,198658,1,0,0:0:0:0:
182,99,198958,5,0,3:0:0:0:
182,99,199108,2,0,B|205:135|205:135|181:177,1,91,2|2,0:0|0:0,0:0:0:0:
108,222,199558,2,0,L|45:220,1,45.5,0|2,0:0|0:0,0:0:0:0:
61,68,199858,2,0,L|124:66,1,45.5,0|2,0:0|0:0,0:0:0:0:
182,99,200158,5,0,3:0:0:0:
182,99,200308,1,0,0:0:0:0:
253,57,200458,1,2,0:0:0:0:
253,57,200608,1,0,0:0:0:0:
323,99,200758,6,0,P|345:92|367:87,1,45.5,0|2,0:0|0:0,0:0:0:0:
307,190,201058,2,0,P|323:205|338:222,1,45.5,2|2,0:0|0:0,0:0:0:0:
219,220,201358,2,0,P|214:242|206:263,2,45.5,0|0|2,3:0|0:0|0:0,0:0:0:0:
253,57,201958,1,0,0:0:0:0:
407,166,202258,1,2,0:0:0:0:
219,220,202558,5,4,3:2:0:0:
154,157,202708,1,0,0:0:0:0:
70,187,202858,1,2,0:0:0:0:
134,249,203008,1,0,0:0:0:0:
219,220,203158,6,0,L|277:235,1,59.5,8|0,0:0|0:0,0:0:0:0:
70,187,203458,2,0,L|12:172,1,59.5,2|0,0:0|0:0,0:0:0:0:
154,156,203758,5,4,3:2:0:0:
134,249,203908,1,2,0:0:0:0:
158,146,204058,2,0,P|156:116|153:86,1,59.5,2|2,0:0|0:0,0:0:0:0:
228,19,204358,5,8,3:2:0:0:
312,0,204508,1,0,0:0:0:0:
331,84,204658,1,2,0:0:0:0:
247,103,204808,1,0,0:0:0:0:
228,19,204958,6,0,P|198:15|168:17,1,59.5,4|2,3:2|0:0,0:0:0:0:
158,146,205258,2,0,P|145:118|129:94,1,59.5,2|2,0:0|0:0,0:0:0:0:
13,148,205558,2,0,P|30:123|43:97,1,59.5,8|2,0:0|0:0,0:0:0:0:
228,19,205858,2,0,P|198:15|168:17,1,59.5,0|2,0:0|0:0,0:0:0:0:
158,146,206158,5,4,3:2:0:0:
158,146,206308,1,2,0:0:0:0:
215,210,206458,2,0,P|206:268|200:328,1,119,2|8,0:0|0:0,0:0:0:0:
200,328,207058,1,2,0:0:0:0:
386,363,207358,5,0,3:0:0:0:
391,354,207658,1,8,3:2:0:0:
371,207,208558,6,0,B|409:219|409:219|441:207,1,70,4|2,3:2|0:0,0:0:0:0:
437,70,208858,2,0,B|399:58|399:58|367:70,1,70,2|2,0:0|0:0,0:0:0:0:
304,141,209158,5,8,3:2:0:0:
248,81,209308,1,0,0:0:0:0:
168,98,209458,1,2,0:0:0:0:
144,176,209608,1,0,0:0:0:0:
202,240,209758,6,0,P|190:273|185:308,1,70,0|2,3:0|0:0,0:0:0:0:
344,352,210058,2,0,P|356:319|361:284,1,70,2|2,0:0|0:0,0:0:0:0:
291,226,210358,5,8,3:2:0:0:
291,226,210508,1,2,0:0:0:0:
260,355,210658,1,2,0:0:0:0:
260,355,210808,1,0,0:0:0:0:
182,300,210958,6,0,P|148:300|113:307,2,70,0|2|2,3:0|0:0|0:0,0:0:0:0:
260,355,211408,1,0,0:0:0:0:
291,226,211558,1,8,3:2:0:0:
499,216,211858,6,0,B|510:182|510:182|493:152,1,70
405,136,212158,2,0,L|422:295,1,140,0|2,3:0|0:0,0:0:0:0:
420,276,212608,1,2,0:0:0:0:
328,363,212758,2,0,P|294:352|259:354,1,70,8|0,3:2|0:0,0:0:0:0:
222,217,213058,2,0,P|255:227|290:225,1,70,2|2,0:0|0:0,0:0:0:0:
425,280,213358,6,0,L|511:269,2,70,0|0|2,3:0|0:0|0:0,0:0:0:0:
363,182,213808,1,0,0:0:0:0:
363,182,213958,2,0,B|398:165|417:133|417:133|447:162|483:169,1,140,8|2,3:2|0:0,0:0:0:0:
473,166,214408,1,0,0:0:0:0:
343,99,214558,6,0,P|312:83|278:87,1,70,0|2,3:0|0:0,0:0:0:0:
203,149,214858,2,0,P|168:152|138:137,1,70,2|2,0:0|0:0,0:0:0:0:
100,58,215158,5,8,3:2:0:0:
154,0,215308,1,0,0:0:0:0:
231,17,215458,1,0,0:0:0:0:
255,92,215608,1,0,0:0:0:0:
203,149,215758,6,0,P|215:182|220:217,1,70,0|2,3:0|0:0,0:0:0:0:
42,291,216058,2,0,P|30:258|25:223,1,70,2|2,0:0|0:0,0:0:0:0:
102,150,216358,5,8,3:2:0:0:
102,150,216508,1,2,0:0:0:0:
152,303,216658,1,2,0:0:0:0:
152,303,216808,1,0,0:0:0:0:
219,216,216958,6,0,P|253:208|287:215,2,70,0|2|2,3:0|0:0|0:0,0:0:0:0:
152,303,217408,1,0,0:0:0:0:
102,150,217558,2,0,B|84:123|84:123|94:86,1,70,8|0,3:2|0:0,0:0:0:0:
282,61,217858,2,0,B|300:88|300:88|289:124,1,70
219,216,218158,5,0,3:0:0:0:
165,287,218308,1,10,0:0:0:0:
253,301,218458,1,0,0:0:0:0:
306,229,218608,1,0,0:0:0:0:
219,216,218758,6,0,P|204:184|205:149,1,70,8|0,3:2|0:0,0:0:0:0:
342,316,219058,2,0,P|376:319|405:337,1,70
306,229,219358,5,0,3:0:0:0:
385,186,219508,1,2,0:0:0:0:
368,97,219658,1,2,0:0:0:0:
278,85,219808,1,2,0:0:0:0:
237,165,219958,6,0,P|203:159|168:161,1,70,8|0,3:2|0:0,0:0:0:0:
161,344,220258,2,0,P|195:342|230:348,1,70
305,257,220558,5,0,3:0:0:0:
379,307,220708,1,2,0:0:0:0:
458,265,220858,1,2,0:0:0:0:
384,216,221008,1,2,0:0:0:0:
305,257,221158,6,0,B|272:244|272:244|237:246,1,70,8|2,3:2|0:0,0:0:0:0:
260,67,221458,2,0,B|294:64|294:64|327:77,1,70,2|0,0:0|0:0,0:0:0:0:
465,162,221758,6,0,L|474:92,2,70,0|2|2,3:0|0:0|0:0,0:0:0:0:
384,216,222208,1,0,0:0:0:0:
327,77,222358,1,8,3:2:0:0:
147,141,222658,6,0,B|114:121|114:121|84:131,1,70
0,200,222958,2,0,L|140:219,1,140,0|2,3:0|0:0,0:0:0:0:
138,218,223408,1,2,0:0:0:0:
212,301,223558,2,0,P|245:314|281:310,1,70,8|0,3:2|0:0,0:0:0:0:
298,173,223858,2,0,P|265:160|228:163,1,70,2|2,0:0|0:0,0:0:0:0:
366,247,224158,6,0,L|435:251,2,70,0|0|2,3:0|0:0|0:0,0:0:0:0:
298,173,224608,1,0,0:0:0:0:
433,140,224758,2,0,B|466:120|466:120|474:4,1,140,8|2,3:2|0:0,0:0:0:0:
472,18,225208,1,0,0:0:0:0:
364,76,225358,5,0,3:0:0:0:
285,119,225508,1,2,0:0:0:0:
302,208,225658,1,2,0:0:0:0:
392,220,225808,1,2,0:0:0:0:
433,140,225958,6,0,P|467:146|502:144,1,70,8|0,3:2|0:0,0:0:0:0:
485,320,226258,2,0,P|450:322|415:316,1,70
339,286,226558,5,0,3:0:0:0:
265,336,226708,1,2,0:0:0:0:
186,294,226858,1,2,0:0:0:0:
112,344,227008,1,2,0:0:0:0:
32,301,227158,2,0,P|20:269|19:234,1,70,8|2,3:2|0:0,0:0:0:0:
248,181,227458,2,0,P|260:213|261:248,1,70,2|0,0:0|0:0,0:0:0:0:
124,161,227758,6,0,L|110:92,2,70,0|2|2,3:0|0:0|0:0,0:0:0:0:
103,253,228208,1,0,0:0:0:0:
248,181,228358,6,0,L|317:182,1,70,8|0,3:2|0:0,0:0:0:0:
512,239,228658,2,0,L|442:237,1,70
246,261,228958,2,0,L|315:262,1,70,0|10,3:0|0:0,0:0:0:0:
512,158,229258,2,0,L|442:156,1,70
244,341,229558,2,0,L|313:342,1,70,8|0,3:2|0:0,0:0:0:0:
512,77,229858,2,0,L|442:75,1,70
298,0,230158,6,0,P|227:53|306:92,1,210,4|0,0:0|3:0,0:0:0:0:
306,92,231058,1,2,0:0:0:0:
146,51,231358,5,0,3:0:0:0:
146,51,231508,2,0,P|152:103|184:144,1,105,2|2,0:0|0:0,0:0:0:0:
153,224,231958,2,0,P|179:228|205:227,1,52.5,0|0,3:0|0:0,0:0:0:0:
255,293,232258,2,0,P|271:272|283:249,1,52.5
365,239,232558,5,0,3:0:0:0:
365,239,232708,1,2,0:0:0:0:
390,159,232858,1,2,0:0:0:0:
390,159,233008,1,2,0:0:0:0:
415,79,233158,2,0,L|408:26,1,52.5,0|2,3:0|0:0,0:0:0:0:
254,11,233458,2,0,L|260:63,1,52.5,0|2,0:0|0:0,0:0:0:0:
194,132,233758,6,0,P|167:132|139:121,2,52.5,0|2|2,3:0|0:0|0:0,0:0:0:0:
254,11,234358,1,0,3:0:0:0:
230,229,234658,1,2,0:0:0:0:
77,221,234958,5,0,3:0:0:0:
151,271,235108,1,2,0:0:0:0:
230,229,235258,1,2,0:0:0:0:
156,180,235408,1,0,0:0:0:0:
77,221,235558,6,0,P|48:202|38:169,1,70,8|0,3:2|0:0,0:0:0:0:
230,229,235858,2,0,P|258:210|268:177,1,70
161,89,236158,5,0,3:0:0:0:
191,12,236308,1,2,0:0:0:0:
271,21,236458,1,2,0:0:0:0:
290,101,236608,1,2,0:0:0:0:
219,143,236758,5,8,3:2:0:0:
169,217,236908,1,0,0:0:0:0:
211,296,237058,1,0,0:0:0:0:
260,222,237208,1,0,0:0:0:0:
219,143,237358,6,0,P|188:126|154:126,1,70,0|2,3:0|0:0,0:0:0:0:
298,304,237658,2,0,P|298:338|316:368,1,70,2|2,0:0|0:0,0:0:0:0:
211,296,237958,5,8,3:2:0:0:
211,296,238108,1,2,0:0:0:0:
260,222,238258,1,2,0:0:0:0:
260,222,238408,1,0,0:0:0:0:
219,143,238558,5,0,3:0:0:0:
314,130,238708,1,2,0:0:0:0:
410,117,238858,2,0,B|427:100|427:100|419:43,1,70,2|0,0:0|0:0,0:0:0:0:
219,143,239158,5,8,3:2:0:0:
124,130,239308,1,0,0:0:0:0:
28,117,239458,2,0,B|10:100|10:100|18:43,1,70
219,38,239758,6,0,L|219:143,1,105,4|0,0:0|3:0,0:0:0:0:
466,104,240358,2,0,L|361:104,1,105,4|0,0:0|3:0,0:0:0:0:
400,351,240958,2,0,L|400:246,1,105,4|0,0:0|3:0,0:0:0:0:
153,285,241558,2,0,L|258:285,1,105,4|0,0:0|3:0,0:0:0:0:
50,354,242158,6,0,P|25:308|33:255,1,105,4|0,0:0|3:0,0:0:0:0:
59,184,242758,2,0,P|85:139|136:119,1,105,4|0,0:0|3:0,0:0:0:0:
210,106,243358,2,0,P|261:107|304:140,1,105,4|0,0:0|3:0,0:0:0:0:
353,197,243958,2,0,P|377:242|370:296,1,105,4|0,0:0|3:0,0:0:0:0:
325,362,244558,5,4,0:0:0:0:
256,192,244708,12,2,246958,0:0:0:0:
109,0,247558,5,4,3:2:0:0:
349,109,248158,1,4,3:2:0:0:
109,218,248758,1,4,3:2:0:0:
349,327,249358,1,6,3:2:0:0:
