osu file format v14

[General]
AudioFilename: audio.mp3
AudioLeadIn: 0
PreviewTime: 197758
Countdown: 0
SampleSet: Soft
StackLeniency: 0.3
Mode: 0
LetterboxInBreaks: 0
WidescreenStoryboard: 1

[Editor]
Bookmarks: 208558,239758
DistanceSpacing: 1.8
BeatDivisor: 4
GridSize: 16
TimelineZoom: 3.599998

[Metadata]
Title:Vanity Clock
TitleUnicode:Vanity Clock
Artist:love solfege
ArtistUnicode:love solfege
Creator:Chizu-Kun
Version:Hidden Another
Source:
Tags:neoclassical experimental japanese pop jpop j-pop reception for witnesses leomineXD featured artist fa 鮎 Ayu 紺野比奈子 Hinako Konno オーギュスト棒 Auguste Stick solfège
BeatmapID:3049438
BeatmapSetID:1486643

[Difficulty]
HPDrainRate:5
CircleSize:4
OverallDifficulty:7
ApproachRate:7
SliderMultiplier:1.6
SliderTickRate:1

[Events]
//Background and Video events
0,0,"clockbg.jpg",0,0
//Break Periods
2,142758,150883
//Storyboard Layer 0 (Background)
//Storyboard Layer 1 (Fail)
//Storyboard Layer 2 (Pass)
//Storyboard Layer 3 (Foreground)
//Storyboard Layer 4 (Overlay)
//Storyboard Sound Samples

[TimingPoints]
561,500,4,2,1,50,1,0
4561,-100,4,2,1,45,0,0
11561,-200,4,2,1,45,0,0
30561,-200,4,2,1,48,0,0
46533,600,4,2,1,48,1,0
46533,-100,4,2,1,30,0,0
48633,-100,4,2,1,5,0,0
48820,600.000000000001,4,2,1,15,1,0
51220,-100,4,2,1,5,0,0
51358,600,4,2,1,70,1,0
51358,-83.3333333333333,4,2,1,70,0,0
53758,-83.3333333333333,4,2,1,55,0,0
56158,-83.3333333333333,4,2,1,70,0,0
58558,-83.3333333333333,4,2,1,55,0,0
62458,-83.3333333333333,4,2,1,63,0,0
64558,-83.3333333333333,4,2,1,70,0,0
65758,-66.6666666666667,4,2,1,70,0,0
69358,-133.333333333333,4,2,1,70,0,0
69958,-66.6666666666667,4,2,1,70,0,0
80158,-66.6666666666667,4,2,1,65,0,0
82558,-66.6666666666667,4,2,1,68,0,0
87358,-66.6666666666667,4,2,1,70,0,1
88558,-66.6666666666667,4,2,1,75,0,1
89758,-66.6666666666667,4,2,1,77,0,1
90958,-66.6666666666667,4,2,1,80,0,1
92158,-66.6666666666667,4,2,1,70,0,0
94558,-66.6666666666667,4,2,1,50,0,0
96958,-66.6666666666667,4,2,1,70,0,0
99358,-66.6666666666667,4,2,1,50,0,0
107758,-66.6666666666667,4,2,1,70,0,0
110158,-66.6666666666667,4,2,1,50,0,0
112558,-66.6666666666667,4,2,1,70,0,0
114958,-66.6666666666667,4,2,1,50,0,0
118858,-66.6666666666667,4,2,1,63,0,0
120958,-58.8235294117647,4,2,1,70,0,0
128458,-58.8235294117647,4,2,1,70,0,0
128533,-58.8235294117647,4,2,1,5,0,0
128608,-58.8235294117647,4,2,1,70,0,0
128683,-58.8235294117647,4,2,1,5,0,0
128758,-58.8235294117647,4,2,1,70,0,0
128833,-58.8235294117647,4,2,1,5,0,0
129058,-58.8235294117647,4,2,1,70,0,0
129133,-58.8235294117647,4,2,1,5,0,0
129208,-58.8235294117647,4,2,1,70,0,0
129283,-58.8235294117647,4,2,1,5,0,0
129358,-58.8235294117647,4,2,1,75,0,0
129433,-58.8235294117647,4,2,1,5,0,0
129658,-58.8235294117647,4,2,1,75,0,0
129733,-58.8235294117647,4,2,1,5,0,0
129808,-58.8235294117647,4,2,1,75,0,0
129883,-58.8235294117647,4,2,1,5,0,0
129958,-58.8235294117647,4,2,1,75,0,0
130033,-58.8235294117647,4,2,1,5,0,0
130258,-58.8235294117647,4,2,1,75,0,0
130558,-58.8235294117647,4,2,1,70,0,0
138058,-58.8235294117647,4,2,1,70,0,0
138133,-58.8235294117647,4,2,1,5,0,0
138208,-58.8235294117647,4,2,1,70,0,0
138283,-58.8235294117647,4,2,1,5,0,0
138358,-58.8235294117647,4,2,1,70,0,0
138433,-58.8235294117647,4,2,1,5,0,0
138658,-58.8235294117647,4,2,1,70,0,0
138733,-58.8235294117647,4,2,1,5,0,0
138808,-58.8235294117647,4,2,1,70,0,0
138883,-58.8235294117647,4,2,1,5,0,0
138958,-58.8235294117647,4,2,1,75,0,0
139033,-58.8235294117647,4,2,1,5,0,0
139258,-58.8235294117647,4,2,1,75,0,0
139333,-58.8235294117647,4,2,1,5,0,0
139408,-58.8235294117647,4,2,1,75,0,0
139483,-58.8235294117647,4,2,1,5,0,0
139558,-58.8235294117647,4,2,1,75,0,0
139633,-58.8235294117647,4,2,1,5,0,0
139858,-58.8235294117647,4,2,1,75,0,0
139933,-58.8235294117647,4,2,1,5,0,0
140008,-58.8235294117647,4,2,1,75,0,0
140083,-58.8235294117647,4,2,1,5,0,0
140158,-58.8235294117647,4,2,1,77,0,0
140233,-58.8235294117647,4,2,1,5,0,0
140458,-52.6315789473684,4,2,1,77,0,0
140533,-52.6315789473684,4,2,1,5,0,0
140608,-52.6315789473684,4,2,1,77,0,0
140683,-52.6315789473684,4,2,1,5,0,0
140758,-52.6315789473684,4,2,1,77,0,0
140833,-52.6315789473684,4,2,1,5,0,0
141058,-47.6190476190476,4,2,1,77,0,0
141133,-47.6190476190476,4,2,1,5,0,0
141208,-47.6190476190476,4,2,1,77,0,0
141283,-47.6190476190476,4,2,1,5,0,0
141358,-47.6190476190476,4,2,1,80,0,0
141433,-47.6190476190476,4,2,1,5,0,0
141658,-43.4782608695652,4,2,1,80,0,0
141733,-43.4782608695652,4,2,1,5,0,0
141808,-43.4782608695652,4,2,1,80,0,0
141883,-43.4782608695652,4,2,1,5,0,0
141958,-43.4782608695652,4,2,1,80,0,0
142033,-43.4782608695652,4,2,1,5,0,0
142258,-43.4782608695652,4,2,1,80,0,0
142558,-43.4782608695652,4,2,1,80,0,0
142708,-43.4782608695652,4,2,1,55,0,0
151858,-66.6666666666667,4,2,1,55,0,0
152158,-43.4782608695652,4,2,1,58,0,0
152458,-66.6666666666667,4,2,1,58,0,0
161758,-58.8235294117647,4,2,1,65,0,0
161983,-58.8235294117647,4,2,1,65,0,0
162058,-58.8235294117647,4,2,1,65,0,0
162283,-58.8235294117647,4,2,1,65,0,0
162358,-58.8235294117647,4,2,1,65,0,0
162583,-58.8235294117647,4,2,1,65,0,0
162658,-58.8235294117647,4,2,1,65,0,0
162883,-58.8235294117647,4,2,1,65,0,0
162958,-58.8235294117647,4,2,1,65,0,0
163183,-58.8235294117647,4,2,1,65,0,0
163258,-58.8235294117647,4,2,1,65,0,0
163483,-58.8235294117647,4,2,1,65,0,0
163558,-58.8235294117647,4,2,1,65,0,0
163783,-58.8235294117647,4,2,1,65,0,0
163858,-58.8235294117647,4,2,1,65,0,0
164083,-58.8235294117647,4,2,1,65,0,0
164158,-66.6666666666667,4,2,1,55,0,0
166558,-58.8235294117647,4,2,1,65,0,0
166783,-58.8235294117647,4,2,1,65,0,0
166858,-58.8235294117647,4,2,1,65,0,0
167083,-58.8235294117647,4,2,1,65,0,0
167158,-58.8235294117647,4,2,1,65,0,0
167383,-58.8235294117647,4,2,1,65,0,0
167458,-58.8235294117647,4,2,1,65,0,0
167683,-58.8235294117647,4,2,1,65,0,0
167758,-58.8235294117647,4,2,1,65,0,0
167983,-58.8235294117647,4,2,1,65,0,0
168058,-58.8235294117647,4,2,1,65,0,0
168283,-58.8235294117647,4,2,1,65,0,0
168358,-58.8235294117647,4,2,1,65,0,0
168583,-58.8235294117647,4,2,1,65,0,0
168658,-58.8235294117647,4,2,1,65,0,0
168883,-58.8235294117647,4,2,1,65,0,0
168958,-58.8235294117647,4,2,1,55,0,0
169258,-66.6666666666667,4,2,1,55,0,0
173758,-66.6666666666667,4,2,1,58,0,0
176158,-66.6666666666667,4,2,1,70,0,0
180958,-133.333333333333,4,2,1,70,0,0
181558,-66.6666666666667,4,2,1,70,0,0
182158,600,4,2,1,70,1,0
183358,-66.6666666666667,4,2,1,70,0,0
191758,-133.333333333333,4,2,1,70,0,0
192358,-66.6666666666667,4,2,1,70,0,0
192958,600,4,2,1,70,1,0
194158,-66.6666666666667,4,2,1,70,0,0
197758,-100,4,2,1,68,0,0
202558,-100,4,2,1,70,0,0
203758,-66.6666666666667,4,2,1,72,0,0
204958,-66.6666666666667,4,2,1,76,0,0
206158,-66.6666666666667,4,2,1,80,0,0
207358,-66.6666666666667,4,2,1,75,0,0
207958,-66.6666666666667,4,2,1,70,0,0
208558,600,4,2,1,75,1,1
210358,-58.8235294117647,4,2,1,75,0,1
219358,600,4,2,1,78,1,1
221158,-58.8235294117647,4,2,1,78,0,1
225358,600,4,2,1,78,1,1
227158,-58.8235294117647,4,2,1,78,0,1
230158,-66.6666666666667,4,2,1,70,0,0
234958,-66.6666666666667,4,2,1,72,0,1
236158,-66.6666666666667,4,2,1,76,0,1
237358,-66.6666666666667,4,2,1,80,0,1
238558,-66.6666666666667,4,2,1,82,0,1
239758,-100,4,2,1,70,0,0
244558,-100,4,2,1,60,0,0
246958,-100,4,2,1,60,0,0
247558,-100,4,2,1,70,0,0
249358,-100,4,2,1,75,0,0

[Colours]
Combo1 : 217,217,89
Combo2 : 234,249,51
Combo3 : 136,209,253
Combo4 : 201,118,182
Combo5 : 214,209,209

[HitObjects]
512,0,4561,5,2,0:3:0:0:
512,0,5561,1,2,0:3:0:0:
512,0,6561,1,2,0:3:0:0:
512,0,7561,1,2,0:3:0:0:
512,0,8561,5,2,0:3:0:0:
398,63,9061,1,2,0:0:0:0:
512,0,9561,5,2,0:3:0:0:
398,63,10061,1,2,0:0:0:0:
512,0,10561,5,2,0:3:0:0:
398,63,11061,1,2,0:0:0:0:
511,0,11561,6,0,P|500:38|493:77,1,80,2|2,0:3|0:0,0:0:0:0:
512,362,12561,6,0,L|473:360,1,40,2|2,0:3|0:0,0:0:0:0:
390,297,13061,1,2,0:0:0:0:
390,297,13311,1,2,0:0:0:0:
390,297,13561,6,0,L|351:299,1,40,2|2,0:3|0:0,0:0:0:0:
280,355,14061,1,2,0:0:0:0:
280,355,14311,1,2,0:0:0:0:
280,355,14561,6,0,L|241:353,1,40,2|2,0:3|0:0,0:0:0:0:
182,303,15061,1,2,0:0:0:0:
182,303,15311,1,2,0:0:0:0:
182,303,15561,6,0,L|143:305,1,40,2|0,0:3|0:0,0:0:0:0:
91,356,16061,1,2,0:0:0:0:
91,356,16311,1,2,0:0:0:0:
91,356,16561,6,0,L|52:354,2,40,2|2|2,0:3|0:0|0:0,0:0:0:0:
511,361,17561,6,0,P|487:333|505:300,1,80,2|2,0:3|0:0,0:0:0:0:
434,250,18311,2,0,L|423:218,2,20,0|0|2,0:0|0:0|0:3,0:0:0:0:
387,310,18811,5,2,0:0:0:0:
387,310,19061,2,0,L|331:303,1,40,2|2,0:0|0:0,0:0:0:0:
276,360,19561,2,0,L|254:308,1,40,2|2,0:3|0:0,0:0:0:0:
177,288,20061,2,0,L|211:243,1,40,2|2,0:0|0:0,0:0:0:0:
189,166,20561,2,0,L|278:181,1,80,2|2,0:3|0:0,0:0:0:0:
512,48,21561,5,2,0:3:0:0:
512,48,22061,1,2,0:0:0:0:
512,48,22561,6,0,L|503:99,1,40,2|2,0:3|0:0,0:0:0:0:
420,0,23061,1,2,0:0:0:0:
420,0,23311,1,2,0:0:0:0:
400,88,23561,6,0,L|391:133,1,40,2|2,0:3|0:0,0:0:0:0:
317,44,24061,1,2,0:0:0:0:
317,44,24311,1,2,0:0:0:0:
299,124,24561,6,0,L|291:165,1,40,2|0,0:3|0:0,0:0:0:0:
224,84,25061,1,2,0:0:0:0:
224,84,25311,1,2,0:0:0:0:
208,156,25561,6,0,L|200:197,1,40,2|2,0:3|0:0,0:0:0:0:
140,119,26061,1,2,0:0:0:0:
140,119,26311,1,2,0:0:0:0:
75,74,26561,6,0,L|68:34,2,40,2|0|2,0:3|0:0|0:0,0:0:0:0:
0,194,27561,2,0,P|9:232|17:272,1,80,2|2,0:3|0:0,0:0:0:0:
76,318,28311,2,0,L|66:349,2,20,0|0|2,0:0|0:0|0:3,0:0:0:0:
143,276,29061,1,2,0:0:0:0:
231,361,29477,1,0,0:0:0:0:
247,368,29561,2,0,P|253:329|262:290,1,80,2|2,0:3|0:0,0:0:0:0:
433,356,30561,5,2,0:3:0:0:
433,356,31061,2,0,L|449:277,2,80,2|2|2,0:0|0:3|0:0,0:0:0:0:
379,238,32561,6,0,P|401:205|438:193,1,80,2|2,0:3|0:0,0:0:0:0:
503,131,33311,1,2,0:0:0:0:
503,131,33561,2,0,P|509:91|512:51,1,80,2|2,0:3|0:0,0:0:0:0:
448,0,34311,1,2,0:0:0:0:
378,93,34561,6,0,P|359:96|339:95,1,40,2|0,0:3|0:0,0:0:0:0:
284,155,35061,2,0,P|262:121|262:82,1,80,2|2,0:0|0:3,0:0:0:0:
316,21,35811,1,2,0:0:0:0:
378,93,36061,2,0,P|377:119|370:147,1,40,2|2,0:0|0:0,0:0:0:0:
284,155,36561,2,0,P|285:181|292:209,1,40,2|2,0:3|0:0,0:0:0:0:
385,210,37061,2,0,P|384:236|377:264,1,40,2|2,0:0|0:0,0:0:0:0:
291,272,37561,2,0,P|292:298|299:326,1,40,2|2,0:3|0:0,0:0:0:0:
368,359,38061,5,2,0:0:0:0:
368,359,38311,1,2,0:0:0:0:
233,352,38561,2,0,P|193:357|156:371,3,80,2|2|2|2,0:3|0:0|0:3|0:0,0:0:0:0:
436,299,40561,2,0,P|475:293|512:279,3,80,2|2|2|2,0:3|0:0|0:3|0:0,0:0:0:0:
284,204,42561,5,2,0:3:0:0:
224,305,43061,1,2,0:0:0:0:
284,204,43561,1,2,0:3:0:0:
224,305,44061,1,2,0:0:0:0:
284,204,44561,5,2,0:3:0:0:
224,305,45061,1,2,0:0:0:0:
284,204,45561,1,0,0:0:0:0:
224,305,46061,1,2,0:0:0:0:
256,192,46533,5,2,0:3:0:0:
256,192,46683,12,0,48633,0:0:0:0:
256,192,48820,5,2,0:3:0:0:
256,192,48970,12,0,51220,0:0:0:0:
228,89,51358,6,0,P|186:112|162:153,1,96,4|0,0:0|3:0,0:0:0:0:
363,209,51958,2,0,P|363:161|340:119,1,96,4|0,0:0|3:0,0:0:0:0:
280,288,52558,2,0,P|232:288|191:265,1,96,4|0,0:0|3:0,0:0:0:0:
162,153,53158,2,0,P|186:112|228:89,1,96,4|0,0:0|3:0,0:0:0:0:
363,209,53758,6,0,L|440:212,1,48,8|0,0:1|0:0,0:0:0:0:
363,209,54058,1,0,0:0:0:0:
363,209,54208,1,0,0:0:0:0:
238,263,54358,2,0,L|161:266,1,48,8|2,0:1|0:0,0:0:0:0:
238,263,54658,1,2,0:0:0:0:
238,263,54808,1,0,0:0:0:0:
330,295,54958,6,0,L|327:372,1,48,8|2,0:1|0:0,0:0:0:0:
330,295,55258,1,2,0:0:0:0:
330,295,55408,1,2,0:0:0:0:
276,170,55558,2,0,L|273:93,1,48,8|2,0:1|0:0,0:0:0:0:
276,170,55858,1,2,0:0:0:0:
276,170,56008,1,0,0:0:0:0:
214,44,56158,6,0,B|182:50|182:50|183:113,1,96,4|0,0:0|3:0,0:0:0:0:
108,234,56758,2,0,B|114:266|114:266|177:264,1,96,4|0,0:0|3:0,0:0:0:0:
298,340,57358,2,0,B|330:334|330:334|328:270,1,96,4|0,0:0|3:0,0:0:0:0:
404,150,57958,2,0,B|398:118|398:118|334:119,1,96,4|0,0:0|3:0,0:0:0:0:
214,44,58558,6,0,L|216:104,1,48,8|0,0:1|0:0,0:0:0:0:
214,44,58858,1,0,0:0:0:0:
214,44,59008,1,0,0:0:0:0:
214,44,59158,5,8,0:1:0:0:
164,108,59308,1,2,0:0:0:0:
83,117,59458,1,2,0:0:0:0:
19,66,59608,1,0,0:0:0:0:
19,66,59758,6,0,L|16:18,1,48,8|2,0:1|0:0,0:0:0:0:
51,152,60058,2,0,L|82:116,1,48,2|2,0:0|0:0,0:0:0:0:
12,235,60358,2,0,L|59:232,1,48,8|2,0:1|0:0,0:0:0:0:
12,235,60658,1,2,0:0:0:0:
12,235,60808,1,0,0:0:0:0:
12,235,60958,5,8,0:1:0:0:
52,306,61108,1,0,0:0:0:0:
130,327,61258,1,0,0:0:0:0:
200,286,61408,1,0,0:0:0:0:
200,286,61558,6,0,L|206:238,1,48,8|2,0:1|0:0,0:0:0:0:
319,326,61858,2,0,L|286:290,1,48,2|0,0:0|0:0,0:0:0:0:
426,259,62158,5,0,3:0:0:0:
319,326,62458,1,6,0:0:0:0:
200,286,62758,5,0,3:0:0:0:
319,326,63058,1,6,0:0:0:0:
287,105,63358,5,6,0:0:0:0:
287,105,63958,6,0,P|279:70|306:94,1,96
286,104,64558,5,0,1:0:0:0:
215,158,64708,1,2,0:0:0:0:
126,145,64858,1,2,0:0:0:0:
72,72,65008,1,2,1:2:0:0:
215,158,65158,5,8,0:0:0:0:
215,158,65308,1,0,0:0:0:0:
286,104,65458,5,0,0:0:0:0:
286,104,65608,1,0,0:0:0:0:
374,116,65758,6,0,L|380:175,1,60,0|2,1:0|0:0,0:0:0:0:
491,241,66058,2,0,L|484:181,1,60,2|2,0:0|1:2,0:0:0:0:
374,116,66358,5,8,0:0:0:0:
374,116,66508,1,2,0:0:0:0:
374,116,66658,5,2,0:0:0:0:
358,192,66808,1,0,0:0:0:0:
342,268,66958,2,0,L|358:332,2,60,0|0|2,1:0|0:0|0:0,0:0:0:0:
358,192,67408,1,2,0:0:0:0:
358,192,67558,1,8,0:0:0:0:
358,192,67858,5,0,0:0:0:0:
342,268,68008,1,0,0:0:0:0:
374,116,68158,2,0,B|387:44|387:44|343:27,1,120,0|2,1:0|0:0,0:0:0:0:
272,83,68608,1,2,0:0:0:0:
272,83,68758,2,0,L|192:76,1,60,8|0,0:0|0:0,0:0:0:0:
136,132,69058,2,0,L|56:125,1,60,2|2,0:0|0:0,0:0:0:0:
258,210,69358,2,0,L|178:203,1,60.0000000000002,0|0,1:0|0:0,0:0:0:0:
198,204,69808,1,0,0:0:0:0:
122,259,69958,2,0,B|45:252|45:252|59:306,1,120,8|2,0:0|0:0,0:0:0:0:
205,383,70558,5,0,1:0:0:0:
252,317,70708,1,2,0:0:0:0:
333,302,70858,1,2,0:0:0:0:
399,349,71008,1,2,1:2:0:0:
252,317,71158,5,8,0:0:0:0:
252,317,71308,1,0,0:0:0:0:
205,383,71458,5,0,0:0:0:0:
205,383,71608,1,0,0:0:0:0:
125,368,71758,6,0,L|115:308,1,60,0|2,1:0|0:0,0:0:0:0:
0,232,72058,2,0,L|9:291,1,60,2|2,0:0|1:2,0:0:0:0:
125,368,72358,5,8,0:0:0:0:
125,368,72508,1,2,0:0:0:0:
125,368,72658,5,2,0:0:0:0:
139,291,72808,1,0,0:0:0:0:
153,214,72958,2,0,L|139:145,2,60,0|0|0,1:0|0:0|0:0,0:0:0:0:
139,291,73408,1,0,0:0:0:0:
139,291,73558,1,8,0:0:0:0:
139,291,73858,5,2,0:0:0:0:
125,368,74008,1,2,0:0:0:0:
153,214,74158,1,0,1:0:0:0:
242,248,74308,6,0,L|300:236,2,60,10|0|0,0:0|1:0|0:0,0:0:0:0:
242,248,74758,1,8,0:0:0:0:
153,214,74908,1,2,0:0:0:0:
66,182,75058,1,2,1:2:0:0:
137,122,75208,1,2,0:0:0:0:
136,112,75283,1,0,0:0:0:0:
135,102,75358,5,4,0:0:0:0:
134,102,75658,2,0,P|79:78|22:61,2,120,0|8|2,0:0|0:0|0:0,0:0:0:0:
195,2,76558,2,0,B|153:30|153:30|180:156,1,180,0|0,1:0|0:0,0:0:0:0:
180,156,77158,2,0,P|179:216|167:275,1,120,8|2,0:0|0:0,0:0:0:0:
124,343,77608,1,2,0:0:0:0:
124,343,77758,5,0,1:0:0:0:
124,343,78058,2,0,P|70:328|70:272,2,120,0|8|2,0:0|0:0|0:0,0:0:0:0:
0,235,78958,2,0,L|179:232,1,180,0|0,1:0|0:0,0:0:0:0:
261,227,79558,2,0,B|300:183|300:183|284:123,1,120,8|2,0:0|0:0,0:0:0:0:
0,235,80158,5,4,3:2:0:0:
0,235,81058,5,0,3:0:0:0:
84,77,81358,1,4,3:2:0:0:
84,77,81958,6,0,L|152:98,1,60
206,42,82258,6,0,L|233:107,1,60,0|0,3:0|0:0,0:0:0:0:
311,112,82558,6,0,B|285:155|285:155|328:247|328:247|297:300|297:300|299:260,1,240,4|8,0:0|0:0,0:0:0:0:
298,272,83458,1,0,0:0:0:0:
298,272,83758,5,0,1:0:0:0:
222,299,83908,1,0,0:0:0:0:
146,326,84058,1,0,0:0:0:0:
70,353,84208,1,0,0:0:0:0:
222,299,84358,5,8,0:0:0:0:
298,272,84508,1,2,0:0:0:0:
146,326,84658,5,2,0:0:0:0:
70,353,84808,1,2,0:0:0:0:
29,283,84958,6,0,L|15:218,1,60,0|0,1:0|0:0,0:0:0:0:
192,160,85258,2,0,L|204:218,1,60
292,185,85558,6,0,L|280:127,1,60,8|2,0:0|0:0,0:0:0:0:
104,191,85858,2,0,L|117:250,1,60,2|2,0:0|0:0,0:0:0:0:
222,299,86158,5,0,1:0:0:0:
227,310,86308,1,2,0:0:0:0:
232,321,86458,2,0,L|351:312,1,120,0|8,0:0|0:0,0:0:0:0:
471,384,87058,1,0,0:0:0:0:
351,312,87358,5,4,3:2:0:0:
351,312,87508,1,2,0:0:0:0:
351,312,87658,1,2,0:0:0:0:
424,266,87808,1,2,0:0:0:0:
285,257,87958,5,8,3:2:0:0:
285,257,88108,1,2,0:0:0:0:
285,257,88258,1,0,0:0:0:0:
351,312,88408,1,2,0:0:0:0:
317,178,88558,6,0,L|239:164,1,60,0|0,3:0|0:0,0:0:0:0:
402,182,88858,2,0,L|391:103,1,60
285,257,89158,2,0,L|247:326,1,60,8|2,3:2|0:0,0:0:0:0:
424,264,89458,2,0,L|495:229,1,60,2|2,0:0|0:0,0:0:0:0:
351,312,89758,5,0,3:0:0:0:
285,257,89908,1,0,0:0:0:0:
317,178,90058,1,0,0:0:0:0:
402,182,90208,1,0,0:0:0:0:
424,264,90358,5,8,3:2:0:0:
436,268,90508,1,2,0:0:0:0:
447,274,90658,1,2,0:0:0:0:
459,278,90808,1,2,0:0:0:0:
424,264,90958,6,0,L|495:229,1,60,0|2,3:0|0:0,0:0:0:0:
317,178,91258,2,0,L|238:164,1,60,0|2,0:0|0:0,0:0:0:0:
402,182,91558,6,0,L|390:103,1,60,8|2,3:2|0:0,0:0:0:0:
287,257,91858,2,0,L|250:327,1,60,2|0,0:0|0:0,0:0:0:0:
145,364,92158,6,0,P|92:341|70:287,1,120,4|0,0:0|3:0,0:0:0:0:
207,161,92758,2,0,P|213:219|177:264,1,120,4|0,0:0|3:0,0:0:0:0:
0,210,93358,2,0,P|46:175|104:183,1,120,4|0,0:0|3:0,0:0:0:0:
145,364,93958,2,0,P|92:341|70:287,1,120,4|0,0:0|3:0,0:0:0:0:
207,161,94558,6,0,L|212:78,1,60,8|2,0:1|0:0,0:0:0:0:
207,161,94858,1,2,0:0:0:0:
207,161,95008,1,2,0:0:0:0:
303,45,95158,2,0,L|308:128,1,60,8|0,0:1|0:0,0:0:0:0:
303,45,95458,1,0,0:0:0:0:
303,45,95608,1,0,0:0:0:0:
354,179,95758,6,0,L|271:184,1,60,8|2,0:1|0:0,0:0:0:0:
354,179,96058,1,2,0:0:0:0:
354,179,96208,1,2,0:0:0:0:
150,97,96358,2,0,L|233:102,1,60,8|0,0:1|0:0,0:0:0:0:
150,97,96658,1,0,0:0:0:0:
150,97,96808,1,0,0:0:0:0:
224,247,96958,6,0,B|167:267|167:267|115:236,1,120,4|0,0:0|3:0,0:0:0:0:
354,179,97558,2,0,B|399:218|399:218|398:277,1,120,4|0,0:0|3:0,0:0:0:0:
231,101,98158,2,0,B|242:41|242:41|294:12,1,120,4|0,0:0|3:0,0:0:0:0:
224,247,98758,2,0,B|167:267|167:267|115:236,1,120,4|0,0:0|3:0,0:0:0:0:
354,179,99358,6,0,L|361:119,1,60,8|2,0:1|0:0,0:0:0:0:
354,179,99658,1,2,0:0:0:0:
354,179,99808,1,2,0:0:0:0:
354,179,99958,5,8,0:1:0:0:
402,245,100108,1,0,0:0:0:0:
389,325,100258,1,0,0:0:0:0:
323,372,100408,1,0,0:0:0:0:
323,372,100558,6,0,L|257:363,1,60,8|2,0:1|0:0,0:0:0:0:
225,256,100858,2,0,L|184:308,1,60,2|2,0:0|0:0,0:0:0:0:
75,282,101158,2,0,L|100:343,1,60,8|0,0:1|0:0,0:0:0:0:
75,282,101458,1,0,0:0:0:0:
75,282,101608,1,0,0:0:0:0:
75,282,101758,5,8,0:1:0:0:
16,224,101908,1,2,0:0:0:0:
15,142,102058,1,2,0:0:0:0:
73,83,102208,1,2,0:0:0:0:
73,83,102358,6,0,L|132:79,1,60,8|2,0:1|0:0,0:0:0:0:
192,2,102658,2,0,L|225:51,1,60,0|2,0:0|0:0,0:0:0:0:
321,64,102958,2,0,B|298:115|298:115|318:225|318:225|289:291,1,240,8|8,0:1|0:1,0:0:0:0:
289,291,103858,1,2,0:0:0:0:
285,306,104008,1,2,0:0:0:0:
280,321,104158,6,0,B|221:313|170:307|170:307|156:290|156:290|109:283|49:281,1,240,8|8,0:1|0:1,0:0:0:0:
49,281,105058,1,2,0:0:0:0:
45,266,105208,1,2,0:0:0:0:
41,251,105358,6,0,L|46:189,1,60,8|2,0:1|0:0,0:0:0:0:
130,325,105658,2,0,L|125:384,1,60,0|2,0:0|0:0,0:0:0:0:
231,272,105958,2,0,B|251:244|251:244|396:242,1,180,8|2,0:1|0:0,0:0:0:0:
464,293,106558,6,0,P|481:235|453:180,2,120,8|0|8,0:1|0:0|0:1,0:0:0:0:
457,184,107458,1,0,0:0:0:0:
459,174,107608,1,0,0:0:0:0:
462,166,107758,6,0,B|440:136|440:136|335:142,1,120,4|0,0:0|3:0,0:0:0:0:
229,0,108358,2,0,B|199:22|199:22|205:127,1,120,4|0,0:0|3:0,0:0:0:0:
50,218,108958,2,0,B|72:248|72:248|177:242,1,120,4|0,0:0|3:0,0:0:0:0:
283,384,109558,2,0,B|313:362|313:362|307:257,1,120,4|0,0:0|3:0,0:0:0:0:
462,166,110158,6,0,L|402:171,1,60,8|2,0:1|0:0,0:0:0:0:
462,166,110458,1,2,0:0:0:0:
462,166,110608,1,2,0:0:0:0:
343,105,110758,2,0,L|283:99,1,60,8|0,0:1|0:0,0:0:0:0:
343,105,111058,1,0,0:0:0:0:
343,105,111208,1,0,0:0:0:0:
221,158,111358,6,0,L|161:163,1,60,8|2,0:1|0:0,0:0:0:0:
221,158,111658,1,2,0:0:0:0:
221,158,111808,1,2,0:0:0:0:
102,97,111958,2,0,L|42:91,1,60,8|0,0:1|0:0,0:0:0:0:
102,97,112258,1,0,0:0:0:0:
102,97,112408,1,0,0:0:0:0:
0,189,112558,6,0,B|27:214|27:214|16:296,1,120,4|0,0:0|3:0,0:0:0:0:
158,384,113158,2,0,B|131:359|131:359|141:276,1,120,4|0,0:0|3:0,0:0:0:0:
286,189,113758,2,0,B|313:214|313:214|302:296,1,120,4|0,0:0|3:0,0:0:0:0:
444,384,114358,2,0,B|417:359|417:359|427:276,1,120,4|0,0:0|3:0,0:0:0:0:
286,189,114958,6,0,L|226:184,1,60,8|2,0:1|0:0,0:0:0:0:
286,189,115258,1,2,0:0:0:0:
286,189,115408,1,2,0:0:0:0:
286,189,115558,5,8,0:1:0:0:
296,103,115708,1,0,0:0:0:0:
382,113,115858,1,0,0:0:0:0:
371,199,116008,1,0,0:0:0:0:
286,189,116158,6,0,P|265:211|252:238,1,60,8|2,0:1|0:0,0:0:0:0:
131,195,116458,2,0,P|139:223|156:248,1,60,2|2,0:0|0:0,0:0:0:0:
58,332,116758,2,0,P|87:338|116:336,1,60,8|0,0:1|0:0,0:0:0:0:
58,332,117058,1,0,0:0:0:0:
58,332,117208,1,0,0:0:0:0:
58,332,117358,5,8,0:1:0:0:
142,336,117508,1,2,0:0:0:0:
226,340,117658,1,2,0:0:0:0:
310,344,117808,1,2,0:0:0:0:
310,344,117958,6,0,B|341:370|341:370|361:293,1,120,8|2,0:1|0:0,0:0:0:0:
438,262,118408,1,0,0:0:0:0:
438,262,118558,5,8,3:1:0:0:
337,112,118858,1,4,0:0:0:0:
160,147,119158,5,0,3:0:0:0:
337,112,119458,1,4,0:0:0:0:
258,333,119758,5,4,0:0:0:0:
258,333,120958,6,0,P|291:338|314:363,2,68,0|2|2,1:0|0:0|0:0,0:0:0:0:
175,367,121408,1,2,1:2:0:0:
257,333,121558,2,0,L|275:267,1,68,8|0,0:0|0:0,0:0:0:0:
402,384,121858,2,0,L|420:318,1,68,2|2,0:0|0:0,0:0:0:0:
257,333,122158,6,0,L|99:345,1,136,0|2,1:0|0:0,0:0:0:0:
175,367,122608,1,2,1:2:0:0:
47,379,122758,2,0,P|37:346|44:313,1,68,8|0,0:0|0:0,0:0:0:0:
254,267,123058,2,0,P|263:299|256:332,1,68
175,367,123358,5,0,1:0:0:0:
175,367,123508,1,2,0:0:0:0:
175,367,123658,2,0,L|179:299,1,68,2|2,0:0|1:2,0:0:0:0:
254,267,123958,5,8,0:0:0:0:
324,218,124108,1,2,0:0:0:0:
394,169,124258,5,0,0:0:0:0:
324,218,124408,1,2,0:0:0:0:
254,169,124558,6,0,L|118:158,1,136,0|2,1:0|0:0,0:0:0:0:
306,43,125008,1,2,0:0:0:0:
306,43,125158,2,0,L|253:168,1,136,12|0,0:0|0:0,0:0:0:0:
118,158,125608,1,0,0:0:0:0:
170,32,125758,6,0,L|117:157,2,136,0|2|8,1:0|0:0|0:0,0:0:0:0:
170,32,126658,1,0,0:0:0:0:
174,46,126808,1,0,0:0:0:0:
178,60,126958,5,0,1:0:0:0:
118,158,127108,1,2,0:0:0:0:
118,158,127408,1,2,1:2:0:0:
183,218,127558,5,8,0:0:0:0:
179,230,127708,1,0,0:0:0:0:
175,242,127858,1,0,0:0:0:0:
178,60,128158,5,4,0:0:0:0:
344,130,128458,6,0,L|377:125,1,34,2|0,0:0|0:0,0:0:0:0:
344,130,128608,2,0,L|331:161,1,34,2|0,0:0|0:0,0:0:0:0:
344,130,128758,2,0,L|323:103,1,34,8|0,0:0|0:0,0:0:0:0:
467,307,129058,6,0,L|440:287,1,34,2|0,0:0|0:0,0:0:0:0:
409,300,129208,2,0,L|439:286,1,34,2|0,0:0|0:0,0:0:0:0:
443,254,129358,2,0,L|439:287,1,34,0|0,1:0|0:0,0:0:0:0:
247,355,129658,6,0,L|280:358,1,34
247,355,129808,2,0,L|227:381,1,34,2|0,0:0|0:0,0:0:0:0:
247,355,129958,2,0,L|233:324,1,34,8|0,0:0|0:0,0:0:0:0:
33,307,130258,1,0,1:0:0:0:
33,307,130558,6,0,P|23:274|2:247,2,68,4|2|2,3:2|0:0|0:0,0:0:0:0:
107,371,131008,1,2,1:2:0:0:
33,307,131158,2,0,L|99:294,1,68,8|0,0:0|0:0,0:0:0:0:
113,162,131458,2,0,L|179:149,1,68,2|2,0:0|0:0,0:0:0:0:
33,307,131758,2,0,L|20:172,1,136,0|2,1:0|0:0,0:0:0:0:
52,218,132208,1,2,1:2:0:0:
1,83,132358,2,0,P|34:82|65:95,1,68,8|0,0:0|0:0,0:0:0:0:
96,313,132658,2,0,P|62:313|31:300,1,68
52,218,132958,5,0,1:0:0:0:
52,218,133108,1,2,0:0:0:0:
52,218,133258,2,0,L|119:208,1,68,2|2,0:0|1:2,0:0:0:0:
196,250,133558,5,8,0:0:0:0:
235,169,133708,1,2,0:0:0:0:
274,88,133858,5,0,0:0:0:0:
235,169,134008,1,2,0:0:0:0:
293,237,134158,6,0,L|428:226,1,136,0|2,1:0|0:0,0:0:0:0:
234,359,134608,1,2,0:0:0:0:
234,359,134758,2,0,L|292:236,1,136,12|2,0:0|0:0,0:0:0:0:
428,225,135208,1,2,0:0:0:0:
370,348,135358,6,0,L|428:225,2,136,0|2|8,1:0|0:0|0:0,0:0:0:0:
370,348,136258,5,2,0:0:0:0:
364,333,136408,1,2,0:0:0:0:
428,225,136558,6,0,B|439:257|439:257|422:286,1,68,0|2,1:0|0:0,0:0:0:0:
364,333,136858,1,2,0:0:0:0:
370,348,137008,1,2,1:2:0:0:
376,363,137158,5,8,0:0:0:0:
235,352,137308,1,2,0:0:0:0:
290,273,137458,2,0,P|299:240|289:208,1,68,2|0,0:0|0:0,0:0:0:0:
235,352,137758,5,4,3:2:0:0:
69,305,138058,6,0,L|81:336,1,34,2|0,0:0|0:0,0:0:0:0:
81,273,138208,2,0,L|68:304,1,34,2|0,0:0|0:0,0:0:0:0:
68,241,138358,2,0,L|80:272,1,34,8|0,3:2|0:0,0:0:0:0:
151,90,138658,6,0,L|163:58,1,34,2|0,0:0|0:0,0:0:0:0:
163,122,138808,2,0,L|150:90,1,34,2|0,0:0|0:0,0:0:0:0:
150,154,138958,2,0,L|162:122,1,34,4|0,3:2|0:0,0:0:0:0:
222,320,139258,6,0,L|234:351,1,34
234,288,139408,2,0,L|221:319,1,34,2|0,0:0|0:0,0:0:0:0:
221,256,139558,2,0,L|233:287,1,34,8|0,3:2|0:0,0:0:0:0:
319,50,139858,6,0,L|377:50,1,34,2|0,0:0|0:0,0:0:0:0:
332,100,140008,2,0,L|365:65,1,34.0000006484985,2|0,0:0|0:0,0:0:0:0:
361,130,140158,2,0,L|370:90,1,34.0000006484985,4|0,3:2|0:0,0:0:0:0:
454,227,140458,6,0,L|480:253,1,38,2|0,0:0|0:0,0:0:0:0:
423,283,140608,2,0,L|474:295,1,37.9999989852906,2|0,0:0|0:0,0:0:0:0:
435,345,140758,2,0,L|484:328,1,37.9999989852906,8|0,3:2|0:0,0:0:0:0:
318,258,141058,6,0,L|320:299,1,42,2|0,0:0|0:0,0:0:0:0:
254,271,141208,2,0,L|279:307,1,41.9999987182618,2|0,0:0|0:0,0:0:0:0:
222,334,141358,2,0,L|275:336,1,41.9999987182618,4|0,3:2|0:0,0:0:0:0:
121,250,141658,6,0,L|73:266,1,46.0000008773804,2|0,0:0|0:0,0:0:0:0:
76,189,141808,2,0,L|51:231,1,46.0000008773804,2|0,0:0|0:0,0:0:0:0:
0,182,141958,2,0,L|17:229,1,46.0000008773804,8|0,3:2|0:0,0:0:0:0:
124,69,142258,5,0,3:0:0:0:
225,234,142558,1,4,3:2:0:0:
259,195,151858,6,0,L|267:166,3,30.0000011444092
318,252,152158,5,8,0:1:0:0:
318,252,152458,2,0,P|330:307|285:341,1,120,2|8,0:0|0:1,0:0:0:0:
285,341,153058,1,2,0:0:0:0:
285,341,153358,2,0,L|150:327,1,120,8|2,0:1|0:0,0:0:0:0:
165,328,153958,2,0,B|126:306|126:306|121:230,1,120,8|2,0:1|0:0,0:0:0:0:
121,230,154408,1,2,0:0:0:0:
210,194,154558,2,0,B|249:172|249:172|253:96,1,120,8|2,0:1|0:0,0:0:0:0:
253,96,155008,1,2,0:0:0:0:
178,46,155158,6,0,L|40:32,2,120,8|2|8,0:1|0:0|0:1,0:0:0:0:
178,46,156058,1,2,0:0:0:0:
258,101,156358,2,0,B|313:78|360:81|360:81|335:132|328:167|328:167|347:177|354:216,1,240,8|8,0:1|0:1,0:0:0:0:
505,272,157258,5,2,0:0:0:0:
505,272,157558,2,0,P|447:281|420:332,1,120,8|2,0:1|0:0,0:0:0:0:
420,331,158008,1,2,0:0:0:0:
337,384,158158,2,0,B|307:374|307:374|299:285,1,120,8|2,0:1|0:0,0:0:0:0:
299,285,158758,2,0,L|179:290,1,120,8|2,0:1|0:0,0:0:0:0:
179,290,159358,2,0,B|147:246|147:246|168:184,1,120,8|2,0:1|0:0,0:0:0:0:
168,184,159808,1,2,0:0:0:0:
246,126,159958,6,0,L|298:155,1,60,8|2,0:1|0:0,0:0:0:0:
366,111,160258,2,0,L|381:168,1,60,2|2,0:0|0:0,0:0:0:0:
461,185,160558,2,0,L|406:291,1,120,8|2,0:1|0:0,0:0:0:0:
218,376,161158,2,0,L|272:269,1,120,8|2,0:1|0:0,0:0:0:0:
366,111,161758,6,0,P|350:159|389:126,1,136,4|0,0:0|3:0,0:0:0:0:
195,40,162358,2,0,P|229:77|220:27,1,136,4|0,0:0|3:0,0:0:0:0:
48,152,162958,2,0,P|97:140|49:123,1,136,4|0,0:0|3:0,0:0:0:0:
71,335,163558,2,0,P|86:286|47:319,1,136,4|0,0:0|3:0,0:0:0:0:
253,378,164158,6,0,B|272:311|272:311|247:266,2,120,8|2|8,0:1|0:0|0:1,0:0:0:0:
253,378,165058,1,2,0:0:0:0:
248,362,165208,1,2,0:0:0:0:
243,346,165358,2,0,P|244:286|250:226,1,120,8|2,0:1|0:0,0:0:0:0:
48,194,165958,2,0,P|41:253|40:313,1,120,8|2,0:1|0:0,0:0:0:0:
94,34,166558,6,0,B|73:61|73:61|93:90|99:120|99:120|104:83,1,136,4|0,0:0|3:0,0:0:0:0:
333,71,167158,2,0,B|306:50|306:50|277:70|247:76|247:76|283:81,1,136,4|0,0:0|3:0,0:0:0:0:
296,310,167758,2,0,B|317:283|317:283|297:254|291:224|291:224|285:260,1,136,4|0,0:0|3:0,0:0:0:0:
57,273,168358,2,0,B|84:294|84:294|112:274|143:268|143:268|106:262,1,136,4|0,0:0|3:0,0:0:0:0:
57,273,168958,5,8,0:1:0:0:
57,273,169258,2,0,P|44:214|34:155,2,120,2|8|2,0:0|0:1|0:0,0:0:0:0:
57,273,170008,1,2,0:0:0:0:
140,350,170158,2,0,P|191:328|187:272,1,120,8|2,0:1|0:0,0:0:0:0:
302,347,170758,2,0,P|331:343|361:344,1,60,8|2,0:1|0:0,0:0:0:0:
441,269,171058,2,0,P|411:270|381:265,1,60,2|2,0:0|0:0,0:0:0:0:
315,207,171358,6,0,L|298:69,1,120,8|2,0:1|0:0,0:0:0:0:
300,87,171808,1,2,0:0:0:0:
203,37,171958,2,0,P|148:50|148:106,1,120,8|2,0:1|0:0,0:0:0:0:
0,182,172558,5,0,3:0:0:0:
110,317,172858,1,4,0:0:0:0:
0,182,173158,5,0,3:0:0:0:
144,306,173458,1,4,0:0:0:0:
0,182,173758,5,0,3:0:0:0:
179,288,174058,1,4,0:0:0:0:
0,182,174358,5,0,3:0:0:0:
214,262,174658,1,4,0:0:0:0:
445,68,175558,6,0,P|417:107|464:100,1,120
445,68,176158,5,0,1:0:0:0:
381,125,176308,1,2,0:0:0:0:
295,120,176458,1,2,0:0:0:0:
237,55,176608,1,2,1:2:0:0:
381,125,176758,5,8,0:0:0:0:
381,125,176908,1,0,0:0:0:0:
445,68,177058,5,0,0:0:0:0:
445,68,177208,1,0,0:0:0:0:
512,123,177358,6,0,L|504:182,1,60,0|2,1:0|0:0,0:0:0:0:
392,221,177658,2,0,L|399:161,1,60,2|2,0:0|1:2,0:0:0:0:
512,123,177958,5,8,0:0:0:0:
512,123,178108,1,2,0:0:0:0:
512,123,178258,5,2,0:0:0:0:
445,68,178408,1,0,0:0:0:0:
378,13,178558,2,0,L|307:33,2,60,0|2|2,1:0|0:0|0:0,0:0:0:0:
445,68,179008,1,0,0:0:0:0:
445,68,179158,1,8,0:0:0:0:
445,68,179458,5,0,0:0:0:0:
512,123,179608,1,0,0:0:0:0:
378,13,179758,2,0,B|302:43|302:43|297:81,1,120,0|2,1:0|0:0,0:0:0:0:
227,138,180208,1,0,0:0:0:0:
227,138,180358,2,0,L|167:131,1,60,8|0,0:0|0:0,0:0:0:0:
316,232,180658,2,0,L|256:225,1,60
195,301,180958,2,0,L|135:294,1,60.0000000000002,0|2,1:0|0:0,0:0:0:0:
135,294,181408,1,0,0:0:0:0:
55,383,181558,2,0,L|34:264,1,120,8|2,0:0|0:0,0:0:0:0:
205,99,182158,5,0,1:0:0:0:
148,161,182308,1,2,0:0:0:0:
64,165,182458,1,2,0:0:0:0:
1,108,182608,1,2,1:2:0:0:
148,161,182758,5,8,0:0:0:0:
148,161,182908,1,0,0:0:0:0:
205,99,183058,5,0,0:0:0:0:
205,99,183208,1,0,0:0:0:0:
277,145,183358,6,0,L|336:135,1,60,0|2,1:0|0:0,0:0:0:0:
399,23,183658,2,0,L|339:32,1,60,2|2,0:0|1:2,0:0:0:0:
277,145,183958,5,8,0:0:0:0:
277,145,184108,1,2,0:0:0:0:
277,145,184258,5,2,0:0:0:0:
259,223,184408,1,0,0:0:0:0:
242,301,184558,2,0,P|250:329|252:359,2,60,0|2|2,1:0|0:0|0:0,0:0:0:0:
259,223,185008,1,0,0:0:0:0:
259,223,185158,1,8,0:0:0:0:
259,223,185458,5,0,0:0:0:0:
242,301,185608,1,0,0:0:0:0:
277,145,185758,2,0,L|268:85,1,60,0|10,1:0|0:0,0:0:0:0:
85,56,186058,2,0,L|93:115,1,60
0,250,186358,2,0,B|57:222|57:222|105:251,1,120,8|2,0:0|0:0,0:0:0:0:
60,319,186808,5,0,0:0:0:0:
60,319,186883,1,0,0:0:0:0:
60,319,186958,1,0,1:0:0:0:
105,251,187108,1,2,0:0:0:0:
185,235,187258,1,2,0:0:0:0:
252,279,187408,1,2,1:2:0:0:
105,251,187558,5,8,0:0:0:0:
105,251,187708,1,0,0:0:0:0:
60,319,187858,5,0,0:0:0:0:
60,319,188008,1,0,0:0:0:0:
121,373,188158,6,0,L|180:364,1,60,0|2,1:0|0:0,0:0:0:0:
244,226,188458,2,0,L|184:234,1,60,2|2,0:0|1:2,0:0:0:0:
121,373,188758,5,8,0:0:0:0:
121,373,188908,1,2,0:0:0:0:
121,373,189058,5,2,0:0:0:0:
198,346,189208,1,0,0:0:0:0:
275,319,189358,2,0,P|301:333|317:357,2,60,0|2|2,1:0|0:0|0:0,0:0:0:0:
198,346,189808,1,0,0:0:0:0:
198,346,189958,1,8,0:0:0:0:
198,346,190258,5,0,0:0:0:0:
275,319,190408,1,0,0:0:0:0:
121,373,190558,2,0,B|84:306|84:306|101:266,1,120,0|2,1:0|0:0,0:0:0:0:
194,253,191008,1,2,1:2:0:0:
194,253,191158,2,0,P|207:226|207:197,1,60,8|0,0:0|0:0,0:0:0:0:
60,226,191458,2,0,P|75:251|101:265,1,60,2|2,0:0|0:0,0:0:0:0:
149,122,191758,2,0,P|119:123|93:138,1,60.0000000000002,0|2,1:0|0:0,0:0:0:0:
93,138,192208,1,0,0:0:0:0:
215,60,192358,2,0,L|334:52,1,120,8|2,0:0|0:0,0:0:0:0:
334,52,192958,5,0,1:0:0:0:
392,112,193108,1,2,0:0:0:0:
390,195,193258,1,2,0:0:0:0:
329,252,193408,1,2,1:2:0:0:
392,112,193558,5,8,0:0:0:0:
392,112,193708,1,0,0:0:0:0:
334,52,193858,5,0,0:0:0:0:
334,52,194008,1,0,0:0:0:0:
266,102,194158,6,0,L|206:98,1,60,0|2,1:0|0:0,0:0:0:0:
125,212,194458,2,0,L|184:215,1,60,2|2,0:0|1:2,0:0:0:0:
266,102,194758,5,8,0:0:0:0:
266,102,194908,1,2,0:0:0:0:
266,102,195058,5,2,0:0:0:0:
258,185,195208,1,0,0:0:0:0:
250,269,195358,2,0,L|277:322,2,60,0|2|2,1:0|0:0|0:0,0:0:0:0:
258,185,195808,1,0,0:0:0:0:
258,185,195958,1,8,0:0:0:0:
258,185,196258,5,0,0:0:0:0:
266,102,196408,1,0,0:0:0:0:
250,269,196558,2,0,B|199:324|199:324|161:299,1,120,0|0,1:0|0:0,0:0:0:0:
0,272,197008,1,0,0:0:0:0:
0,272,197158,2,0,B|51:217|51:217|88:241,1,120,8|0,0:0|0:0,0:0:0:0:
161,299,197608,1,0,0:0:0:0:
161,299,197683,1,0,0:0:0:0:
161,299,197758,6,0,L|175:139,1,160,4|2,3:2|0:0,0:0:0:0:
175,139,198658,1,0,0:0:0:0:
313,100,198958,1,0,3:0:0:0:
313,100,199108,2,0,P|279:80|241:92,1,80,2|2,0:0|0:0,0:0:0:0:
175,139,199558,2,0,L|135:136,1,40,0|2,0:0|0:0,0:0:0:0:
126,59,199858,2,0,L|165:61,1,40,0|2,0:0|0:0,0:0:0:0:
241,92,200158,5,0,3:0:0:0:
313,100,200308,1,0,0:0:0:0:
385,108,200458,5,2,0:0:0:0:
313,100,200608,1,0,0:0:0:0:
241,92,200758,6,0,P|229:77|227:58,1,40,0|2,0:0|0:0,0:0:0:0:
400,73,201058,2,0,P|398:92|385:107,1,40,2|2,0:0|0:0,0:0:0:0:
304,181,201358,5,0,3:0:0:0:
267,249,201508,1,0,0:0:0:0:
306,315,201658,2,0,P|345:307|385:306,1,80,2|0,0:0|0:0,0:0:0:0:
385,306,202258,1,2,0:0:0:0:
147,213,202558,5,4,3:2:0:0:
147,213,202708,1,0,0:0:0:0:
147,213,202858,1,2,0:0:0:0:
60,222,203008,1,0,0:0:0:0:
182,290,203158,5,8,0:0:0:0:
182,290,203308,1,0,0:0:0:0:
182,290,203458,1,2,0:0:0:0:
147,213,203608,1,0,0:0:0:0:
120,348,203758,6,0,L|184:393,1,60,4|2,3:2|0:0,0:0:0:0:
45,308,204058,2,0,L|21:384,1,60,2|2,0:0|0:0,0:0:0:0:
182,290,204358,2,0,L|245:243,1,60,8|0,3:2|0:0,0:0:0:0:
59,224,204658,2,0,L|-20:225,1,60,2|0,0:0|0:0,0:0:0:0:
147,213,204958,5,4,3:2:0:0:
182,290,205108,1,2,0:0:0:0:
120,348,205258,1,2,0:0:0:0:
45,308,205408,1,2,0:0:0:0:
59,224,205558,5,8,0:0:0:0:
50,215,205708,1,2,0:0:0:0:
43,204,205858,1,0,0:0:0:0:
33,197,206008,1,2,0:0:0:0:
59,224,206158,6,0,L|-20:225,1,60,4|2,3:2|0:0,0:0:0:0:
120,348,206458,2,0,L|185:394,1,60,2|0,0:0|0:0,0:0:0:0:
45,308,206758,6,0,L|22:384,1,60,8|0,0:0|0:0,0:0:0:0:
180,288,207058,2,0,L|243:240,1,60,2|0,0:0|0:0,0:0:0:0:
120,348,207358,5,0,3:0:0:0:
33,197,207658,1,8,3:2:0:0:
200,97,208558,5,4,3:2:0:0:
192,90,208708,1,2,0:0:0:0:
184,83,208858,1,2,0:0:0:0:
100,113,209008,1,2,0:0:0:0:
0,129,209158,5,8,3:2:0:0:
8,136,209308,1,0,0:0:0:0:
16,143,209458,1,2,0:0:0:0:
100,113,209608,1,0,0:0:0:0:
184,83,209758,5,0,3:0:0:0:
100,113,209908,1,2,0:0:0:0:
16,143,210058,5,2,0:0:0:0:
100,113,210208,1,2,0:0:0:0:
100,113,210358,6,0,L|123:182,1,68,8|2,3:2|0:0,0:0:0:0:
213,179,210658,2,0,L|236:248,1,68,2|0,0:0|0:0,0:0:0:0:
326,245,210958,6,0,L|349:314,2,68,0|2|2,3:0|0:0|0:0,0:0:0:0:
326,245,211408,1,0,0:0:0:0:
213,179,211558,1,8,3:2:0:0:
213,179,211858,5,0,0:0:0:0:
213,179,212008,1,0,0:0:0:0:
213,179,212158,1,0,3:0:0:0:
286,133,212308,5,2,0:0:0:0:
210,93,212458,1,2,0:0:0:0:
213,179,212608,1,2,0:0:0:0:
216,265,212758,6,0,P|216:298|217:332,1,68,8|0,3:2|0:0,0:0:0:0:
60,378,213058,2,0,P|59:344|58:310,1,68,2|2,0:0|0:0,0:0:0:0:
216,265,213358,5,0,3:0:0:0:
216,265,213508,1,0,0:0:0:0:
140,321,213658,1,2,0:0:0:0:
140,321,213958,6,0,P|139:287|138:253,1,68,8|0,3:2|0:0,0:0:0:0:
359,242,214258,2,0,P|359:275|360:309,1,68,2|0,0:0|0:0,0:0:0:0:
244,200,214558,5,0,3:0:0:0:
243,185,214708,1,2,0:0:0:0:
243,170,214858,1,2,0:0:0:0:
243,277,215008,1,2,0:0:0:0:
242,354,215158,5,8,3:2:0:0:
243,369,215308,1,0,0:0:0:0:
243,384,215458,1,0,0:0:0:0:
243,277,215608,1,0,0:0:0:0:
244,200,215758,5,0,3:0:0:0:
243,277,215908,1,2,0:0:0:0:
242,354,216058,5,2,0:0:0:0:
243,277,216208,1,2,0:0:0:0:
242,277,216358,6,0,P|209:278|175:275,1,68,8|2,3:2|0:0,0:0:0:0:
149,184,216658,2,0,P|115:185|81:182,1,68,2|0,0:0|0:0,0:0:0:0:
67,91,216958,2,0,P|33:92|0:89,2,68,0|2|2,3:0|0:0|0:0,0:0:0:0:
67,91,217408,1,0,0:0:0:0:
149,184,217558,1,8,3:2:0:0:
149,184,217858,5,0,0:0:0:0:
149,184,218008,1,0,0:0:0:0:
149,184,218158,5,0,3:0:0:0:
226,128,218308,1,10,0:0:0:0:
320,142,218458,1,0,0:0:0:0:
388,207,218608,1,0,0:0:0:0:
226,128,218758,6,0,P|214:97|209:63,1,68,8|0,3:2|0:0,0:0:0:0:
388,207,219058,2,0,P|413:184|443:168,1,68
275,304,219358,5,0,3:0:0:0:
276,273,219508,1,2,0:0:0:0:
301,289,219658,1,2,0:0:0:0:
186,288,219808,1,2,0:0:0:0:
96,273,219958,5,8,3:2:0:0:
71,289,220108,1,0,0:0:0:0:
97,304,220258,1,0,0:0:0:0:
186,288,220408,1,0,0:0:0:0:
276,273,220558,5,0,3:0:0:0:
186,288,220708,1,2,0:0:0:0:
97,304,220858,5,2,0:0:0:0:
186,288,221008,1,2,0:0:0:0:
186,288,221158,6,0,P|181:254|192:222,1,68,8|2,3:2|0:0,0:0:0:0:
173,140,221458,2,0,P|199:119|232:112,1,68,2|0,0:0|0:0,0:0:0:0:
294,54,221758,2,0,P|325:67|347:92,2,68,0|2|2,3:0|0:0|0:0,0:0:0:0:
294,54,222208,1,0,0:0:0:0:
173,140,222358,1,8,3:2:0:0:
173,140,222658,5,0,0:0:0:0:
173,140,222808,1,0,0:0:0:0:
173,140,222958,1,0,3:0:0:0:
85,164,223108,5,2,0:0:0:0:
109,76,223258,1,2,0:0:0:0:
173,140,223408,1,2,0:0:0:0:
237,203,223558,2,0,P|270:199|304:199,1,68,8|0,3:2|0:0,0:0:0:0:
288,20,223858,2,0,P|254:19|220:24,1,68,2|2,0:0|0:0,0:0:0:0:
237,203,224158,5,0,3:0:0:0:
237,203,224308,1,0,0:0:0:0:
265,110,224458,1,2,0:0:0:0:
265,110,224758,6,0,P|298:105|332:105,1,68,8|0,3:2|0:0,0:0:0:0:
349,284,225058,2,0,P|315:283|281:288,1,68,2|0,0:0|0:0,0:0:0:0:
138,358,225358,5,0,3:0:0:0:
169,359,225508,1,2,0:0:0:0:
153,384,225658,1,2,0:0:0:0:
154,269,225808,1,2,0:0:0:0:
169,179,225958,5,8,3:2:0:0:
153,154,226108,1,0,0:0:0:0:
138,180,226258,1,0,0:0:0:0:
154,269,226408,1,0,0:0:0:0:
169,359,226558,5,0,3:0:0:0:
154,269,226708,1,2,0:0:0:0:
138,180,226858,5,2,0:0:0:0:
154,269,227008,1,2,0:0:0:0:
154,269,227158,6,0,L|228:257,1,68,8|2,3:2|0:0,0:0:0:0:
276,175,227458,2,0,L|350:163,1,68,2|0,0:0|0:0,0:0:0:0:
398,81,227758,6,0,L|472:69,2,68,0|2|2,3:0|0:0|0:0,0:0:0:0:
398,81,228208,1,0,0:0:0:0:
276,175,228358,5,8,3:2:0:0:
353,204,228508,1,0,0:0:0:0:
387,279,228658,1,0,0:0:0:0:
372,359,228808,1,0,0:0:0:0:
387,279,228958,5,0,3:0:0:0:
353,204,229108,1,10,0:0:0:0:
276,175,229258,1,0,0:0:0:0:
196,195,229408,1,0,0:0:0:0:
158,269,229558,5,8,3:2:0:0:
196,195,229708,1,0,0:0:0:0:
276,175,229858,1,0,0:0:0:0:
353,204,230008,1,0,0:0:0:0:
372,359,230158,6,0,L|132:354,1,240,4|0,0:0|3:0,0:0:0:0:
132,354,231058,1,2,0:0:0:0:
372,359,231358,5,0,3:0:0:0:
372,359,231508,2,0,B|397:305|397:305|379:247,1,120,2|2,0:0|0:0,0:0:0:0:
302,214,231958,2,0,L|242:215,1,60,0|0,3:0|0:0,0:0:0:0:
166,226,232258,2,0,L|106:227,1,60
41,159,232558,5,0,3:0:0:0:
33,231,232708,1,2,0:0:0:0:
25,303,232858,5,2,0:0:0:0:
33,231,233008,1,2,0:0:0:0:
41,159,233158,6,0,B|60:134|60:134|87:127,1,60,0|2,3:0|0:0,0:0:0:0:
71,334,233458,2,0,B|43:327|43:327|24:302,1,60,0|2,0:0|0:0,0:0:0:0:
166,225,233758,5,0,3:0:0:0:
233,173,233908,1,2,0:0:0:0:
300,225,234058,2,0,P|359:217|419:214,1,120,2|0,0:0|3:0,0:0:0:0:
419,214,234658,1,2,0:0:0:0:
512,85,234958,5,0,3:0:0:0:
497,87,235108,1,2,0:0:0:0:
482,90,235258,1,2,0:0:0:0:
408,58,235408,1,0,0:0:0:0:
328,86,235558,6,0,P|323:58|315:17,1,60,8|0,3:2|0:0,0:0:0:0:
157,55,235858,2,0,P|162:84|167:113,1,60
63,196,236158,5,0,3:0:0:0:
63,196,236308,1,2,0:0:0:0:
63,196,236458,1,2,0:0:0:0:
145,237,236608,1,2,0:0:0:0:
222,187,236758,5,8,3:2:0:0:
222,187,236908,1,0,0:0:0:0:
222,187,237058,1,0,0:0:0:0:
145,237,237208,1,0,0:0:0:0:
121,317,237358,5,0,3:0:0:0:
203,298,237508,1,2,0:0:0:0:
145,237,237658,1,2,0:0:0:0:
121,317,237808,1,2,0:0:0:0:
203,298,237958,5,8,3:2:0:0:
121,317,238108,1,2,0:0:0:0:
285,279,238258,5,2,0:0:0:0:
367,260,238408,1,0,0:0:0:0:
423,324,238558,6,0,P|407:349|398:378,2,60,0|2|2,3:0|0:0|0:0,0:0:0:0:
367,260,239008,1,0,0:0:0:0:
422,190,239158,2,0,P|438:215|447:244,2,60,8|0|0,3:2|0:0|0:0,0:0:0:0:
478,126,239608,1,0,0:0:0:0:
411,62,239758,6,0,L|331:57,1,80,4|0,0:0|3:0,0:0:0:0:
60,126,240358,2,0,L|139:130,1,80,4|0,0:0|3:0,0:0:0:0:
405,249,240958,2,0,L|325:244,1,80,4|0,0:0|3:0,0:0:0:0:
54,313,241558,2,0,L|133:317,1,80,4|0,0:0|3:0,0:0:0:0:
411,328,242158,6,0,P|409:288|404:248,1,80,4|0,0:0|3:0,0:0:0:0:
288,92,242758,2,0,P|282:131|281:171,1,80,4|0,0:0|3:0,0:0:0:0:
192,338,243358,2,0,P|190:298|185:258,1,80,4|0,0:0|3:0,0:0:0:0:
69,102,243958,2,0,P|63:141|62:181,1,80,4|0,0:0|3:0,0:0:0:0:
256,192,244558,12,2,246958,0:0:0:0:
254,8,247558,5,4,3:2:0:0:
155,197,248158,1,4,3:2:0:0:
255,384,248758,1,4,3:2:0:0:
354,195,249358,1,6,3:2:0:0:
