osu file format v14

[General]
AudioFilename: audio.mp3
AudioLeadIn: 0
PreviewTime: 98645
Countdown: 0
SampleSet: Soft
StackLeniency: 0.7
Mode: 0
LetterboxInBreaks: 0
WidescreenStoryboard: 0

[Editor]
DistanceSpacing: 0.6
BeatDivisor: 4
GridSize: 4
TimelineZoom: 1

[Metadata]
Title:Sanzen to Kagayaku Kanashiki Ashita to...
TitleUnicode:燦然と輝く悲しき明日と…
Artist:love solfege
ArtistUnicode:love solfege
Creator:Andrea
Version:Bittersweet
Source:
Tags:osuplayer111 Leomine LeomineXD Japanese English Pop JPop J-Pop Mappers' Guild MG MPG FA Featured Artist Luxury Classical Best 観月あんみ Mizuki Anmi フタリノワタシ 燦々
BeatmapID:4474193
BeatmapSetID:2128184

[Difficulty]
HPDrainRate:6
CircleSize:4.5
OverallDifficulty:8
ApproachRate:8
SliderMultiplier:2
SliderTickRate:1

[Events]
//Background and Video events
0,0,"BG.jpg",0,0
//Break Periods
//Storyboard Layer 0 (Background)
//Storyboard Layer 1 (Fail)
//Storyboard Layer 2 (Pass)
//Storyboard Layer 3 (Foreground)
//Storyboard Layer 4 (Overlay)
//Storyboard Sound Samples

[TimingPoints]
23645,517.241379310345,4,2,1,70,1,0
28170,-100,4,2,1,5,0,0
28300,-100,4,2,1,70,0,0
33860,-100,4,2,1,5,0,0
33989,-100,4,2,1,70,0,0
37869,-125,4,2,1,70,0,0
38645,-125,4,2,1,50,0,0
41231,-125,4,2,2,40,0,0
48343,-125,4,2,2,5,0,0
48472,-125,4,2,2,40,0,0
59851,517.241379310345,4,2,1,70,1,0
59851,-100,4,2,1,70,0,0
61790,-100,4,2,1,5,0,0
61919,-100,4,2,1,70,0,0
76403,-111.111111111111,4,2,1,60,0,0
78083,-111.111111111111,4,2,1,70,0,0
78342,-111.111111111111,4,2,1,5,0,0
78471,-111.111111111111,4,2,1,70,0,0
78730,-111.111111111111,4,2,1,60,0,0
80152,-111.111111111111,4,2,1,70,0,0
80411,-111.111111111111,4,2,1,5,0,0
80540,-111.111111111111,4,2,1,70,0,0
80799,-111.111111111111,4,2,1,60,0,0
82221,-111.111111111111,4,2,1,70,0,0
82480,-111.111111111111,4,2,1,5,0,0
82610,-100,4,2,1,70,0,0
84679,-111.111111111111,4,2,1,60,0,0
86359,-111.111111111111,4,2,1,70,0,0
86618,-111.111111111111,4,2,1,5,0,0
86747,-111.111111111111,4,2,1,70,0,0
87006,-111.111111111111,4,2,1,60,0,0
88428,-111.111111111111,4,2,1,70,0,0
88687,-111.111111111111,4,2,1,5,0,0
88816,-100,4,2,1,70,0,0
90497,-100,4,2,1,5,0,0
90626,-100,4,2,1,70,0,0
97092,-125,4,2,2,50,0,0
99161,-90.9090909090909,4,2,1,80,0,1
115713,-111.111111111111,4,2,1,60,0,0
116876,-111.111111111111,4,2,1,5,0,0
117006,-71.4285714285714,4,2,1,60,0,0
117782,-111.111111111111,4,2,1,60,0,0
118945,-111.111111111111,4,2,1,5,0,0
119075,-71.4285714285714,4,2,1,60,0,0
119851,-100,4,2,1,60,0,0
122695,-125,4,2,1,50,0,0
125023,517.241379310345,4,2,1,70,1,0
125024,-100,4,2,1,70,0,0
129548,-100,4,2,1,5,0,0
129678,-100,4,2,1,70,0,0
135238,-100,4,2,1,5,0,0
135367,-100,4,2,1,70,0,0
139248,-125,4,2,1,70,0,0
140023,-125,4,2,1,60,0,0
141574,-100,4,2,1,60,0,0
152566,-100,4,2,1,5,0,0
152695,-100,4,2,1,60,0,0
156058,-111.111111111111,4,2,1,60,0,0
158126,-100,4,2,1,70,0,0
160066,-100,4,2,1,5,0,0
160195,-100,4,2,1,70,0,0
174678,-100,4,2,1,60,0,0
180885,-100,4,2,1,70,0,0
207782,-125,4,2,1,50,0,0
209462,-125,4,2,1,60,0,0
209721,-125,4,2,1,5,0,0
209850,-125,4,2,1,60,0,0
210109,-125,4,2,1,50,0,0
211531,-125,4,2,1,60,0,0
211790,-125,4,2,1,5,0,0
211919,-125,4,2,1,60,0,0
212178,-125,4,2,1,50,0,0
213600,-125,4,2,1,60,0,0
213859,-125,4,2,1,5,0,0
213989,-111.111111111111,4,2,1,60,0,0
216058,-125,4,2,1,50,0,0
217738,-125,4,2,1,60,0,0
217997,-125,4,2,1,5,0,0
218126,-125,4,2,1,60,0,0
218385,-125,4,2,1,50,0,0
219807,-125,4,2,1,60,0,0
220066,-125,4,2,1,5,0,0
220195,-100,4,2,1,70,0,0
221876,-100,4,2,1,5,0,0
222005,-100,4,2,1,70,0,0
228471,-125,4,2,1,50,0,0
230540,-90.9090909090909,4,2,1,80,0,1
247091,-111.111111111111,4,2,1,60,0,0
248255,-111.111111111111,4,2,1,5,0,0
248385,-71.4285714285714,4,2,1,60,0,0
249160,-111.111111111111,4,2,1,60,0,0
250324,-111.111111111111,4,2,1,5,0,0
250454,-71.4285714285714,4,2,1,60,0,0
251231,-100,4,2,1,60,0,0
254074,-125,4,2,1,50,0,0
257436,-100,4,2,1,70,0,0
261962,-100,4,2,1,5,0,0
262091,-100,4,2,1,70,0,0
281229,-100,4,2,1,50,0,0
282264,-100,4,2,1,70,0,0
282781,-125,4,2,1,70,0,0
283169,-125,4,2,1,5,0,0
283298,-125,4,2,1,50,0,0
286403,-100,4,2,1,70,0,0
288343,-125,4,2,1,70,0,0
288471,-125,4,2,1,50,0,0
289505,-125,4,2,1,40,0,0
290540,-125,4,2,1,30,0,0
291574,-125,4,2,1,20,0,0
292609,-125,4,2,1,10,0,0
294678,-125,4,2,1,5,0,0

[Colours]
Combo1 : 128,191,255
Combo2 : 255,128,255
SliderTrackOverride : 0,0,0
SliderBorder : 128,191,255

[HitObjects]
444,56,23257,5,2,2:2:0:0:
444,56,23386,2,0,L|432:108,1,50,2|2,2:2|2:2,0:0:0:0:
364,148,23645,2,0,P|308:136|252:156,1,100,4|0,1:2|0:0,0:0:0:0:
155,332,24162,2,0,L|131:220,1,100,10|2,2:2|0:0,0:0:0:0:
56,204,24550,1,2,0:0:0:0:
56,204,24679,2,0,P|36:160|48:108,1,100,2|2,1:2|0:0,0:0:0:0:
80,40,25067,1,2,0:0:0:0:
80,40,25196,1,10,2:2:0:0:
172,140,25455,1,2,0:0:0:0:
320,36,25713,6,0,B|376:32|376:32|404:44|404:44|472:36,1,150,2|2,1:2|2:2,0:0:0:0:
512,100,26231,1,8,2:2:0:0:
376,152,26489,1,2,2:2:0:0:
492,248,26748,2,0,L|456:352,1,100,2|2,1:2|0:0,0:0:0:0:
380,368,27136,1,2,2:2:0:0:
380,368,27265,1,8,2:2:0:0:
256,284,27524,1,2,2:2:0:0:
376,152,27782,6,0,P|324:116|236:132,1,150,2|0,1:2|0:0,0:0:0:0:
184,200,28300,2,0,L|148:96,1,100,10|0,2:2|0:0,0:0:0:0:
56,256,28817,2,0,L|20:360,1,100,2|2,1:2|0:0,0:0:0:0:
116,328,29205,1,2,0:0:0:0:
116,328,29334,1,10,2:2:0:0:
20,184,29593,1,2,0:0:0:0:
160,24,29851,6,0,P|212:24|248:52,1,100,2|2,1:2|0:0,0:0:0:0:
296,120,30239,1,2,2:2:0:0:
296,120,30369,1,8,2:2:0:0:
244,272,30627,1,2,2:2:0:0:
400,312,30886,1,2,1:2:0:0:
408,284,31015,1,0,1:0:0:0:
416,256,31145,1,0,1:0:0:0:
424,228,31274,1,0,1:0:0:0:
432,200,31403,1,8,2:2:0:0:
256,32,31662,5,0,1:0:0:0:
256,32,31791,1,0,1:0:0:0:
256,32,31920,2,0,P|184:40|104:132,1,200,4|8,1:2|2:2,0:0:0:0:
28,300,32696,1,2,2:2:0:0:
28,300,32826,1,2,2:2:0:0:
28,300,32955,1,2,1:2:0:0:
0,168,33213,1,0,0:0:0:0:
160,260,33472,2,0,B|232:244|232:288|308:284,1,150,10|0,2:2|0:0,0:0:0:0:
352,344,33989,6,0,P|400:324|432:280,1,100,2|0,1:2|0:0,0:0:0:0:
512,168,34507,1,8,2:2:0:0:
360,116,34765,1,2,2:2:0:0:
360,116,34895,1,2,2:2:0:0:
360,116,35024,2,0,L|388:12,1,100,2|0,1:2|0:0,0:0:0:0:
152,116,35541,2,0,L|124:12,1,100,10|0,2:2|0:0,0:0:0:0:
256,296,36058,6,0,B|180:284|180:284|136:304|136:304|60:288,1,200,2|8,1:2|2:2,0:0:0:0:
30,147,36834,2,0,L|83:119,1,50,2|2,0:0|0:0,0:0:0:0:
188,60,37093,1,2,1:2:0:0:
188,60,37222,1,0,1:0:0:0:
188,60,37351,1,0,1:0:0:0:
36,12,37610,1,8,2:2:0:0:
168,204,37869,1,4,1:2:0:0:
168,204,38645,6,0,L|212:212,1,40,2|2,2:2|2:2,0:0:0:0:
268,268,38903,2,0,L|312:260,1,40,2|2,2:2|2:2,0:0:0:0:
388,260,39162,1,2,2:2:0:0:
388,260,41231,6,0,P|428:216|424:116,1,160,2|2,2:2|2:2,0:0:0:0:
336,60,42007,1,2,2:2:0:0:
336,60,42136,1,2,2:2:0:0:
336,60,42265,1,2,2:2:0:0:
256,284,42782,1,8,0:0:0:0:
124,260,43041,5,2,2:2:0:0:
124,260,43170,1,2,2:2:0:0:
124,260,43300,2,0,P|84:216|88:116,1,160,2|8,2:2|2:2,0:0:0:0:
256,36,44334,2,0,B|320:16|348:56|424:28,2,160,2|8|2,2:2|2:2|2:2,0:0:0:0:
256,348,45886,1,8,0:0:0:0:
332,208,46145,5,8,2:2:0:0:
332,208,46274,1,2,2:2:0:0:
332,208,46403,2,0,P|404:208|468:276,1,160,2|8,2:2|0:0,0:0:0:0:
368,304,47179,1,2,2:2:0:0:
256,164,47438,2,0,L|236:256,1,80,2|2,2:2|2:2,0:0:0:0:
216,324,47826,1,2,2:2:0:0:
96,248,48084,2,0,P|52:236|20:200,1,80,2|0,2:2|0:0,0:0:0:0:
4,140,48472,6,0,L|16:56,1,80,2|2,2:2|2:2,0:0:0:0:
124,16,48989,1,8,2:2:0:0:
180,120,49248,1,2,2:2:0:0:
180,120,50024,1,8,2:2:0:0:
256,260,50282,5,8,2:2:0:0:
256,260,50412,1,2,2:2:0:0:
256,260,50541,2,0,B|304:232|336:248|336:248|360:288|420:272,1,160,2|8,2:2|2:2,0:0:0:0:
476,188,51317,1,2,2:2:0:0:
476,188,51446,1,2,0:0:0:0:
476,188,51576,2,0,P|496:132|496:24,1,160,2|8,2:2|2:2,0:0:0:0:
308,100,52610,6,0,P|256:88|184:96,1,120,2|2,2:2|2:2,0:0:0:0:
108,108,53127,1,8,0:0:0:0:
172,196,53386,1,2,2:2:0:0:
48,48,53645,2,0,P|28:88|32:128,1,80,2|2,2:2|2:2,0:0:0:0:
72,252,54162,1,8,2:2:0:0:
192,96,54420,5,8,2:2:0:0:
192,96,54550,1,2,2:2:0:0:
192,96,54679,2,0,P|252:132|276:220,1,160,2|8,2:2|0:0,0:0:0:0:
220,336,55455,2,0,L|392:304,1,160,2|2,2:2|2:2,0:0:0:0:
444,188,56231,1,8,2:2:0:0:
377,306,56489,1,2,2:2:0:0:
416,88,56748,6,0,P|372:116|340:220,1,160,2|8,2:2|0:0,0:0:0:0:
96,87,57782,2,0,P|156:137|172:214,1,160,2|8,2:2|0:0,0:0:0:0:
68,188,58558,1,8,0:0:0:0:
256,24,59334,1,2,2:2:0:0:
256,192,59593,5,2,2:2:0:0:
256,192,59722,1,2,2:2:0:0:
256,192,59851,2,0,P|224:240|224:288,1,100,4|0,1:2|0:0,0:0:0:0:
328,368,60368,1,8,2:2:0:0:
400,228,60626,1,2,2:2:0:0:
400,228,60756,1,2,0:0:0:0:
400,228,60885,2,0,L|368:128,1,100,2|0,1:2|0:0,0:0:0:0:
280,8,61402,6,0,P|212:32|168:96,1,150,10|0,2:2|0:0,0:0:0:0:
204,176,61919,2,0,L|96:160,1,100,2|2,1:2|0:0,0:0:0:0:
28,152,62307,1,2,2:2:0:0:
28,152,62437,1,8,2:2:0:0:
80,280,62695,1,2,2:2:0:0:
204,176,62954,2,0,P|272:184|344:292,1,200,2|8,1:2|2:2,0:0:0:0:
156,332,63730,5,2,2:2:0:0:
156,332,63859,1,2,2:2:0:0:
156,332,63988,2,0,P|208:312|232:276,1,100,2|0,1:2|0:0,0:0:0:0:
344,180,64506,1,8,2:2:0:0:
448,276,64764,1,2,2:2:0:0:
400,108,65023,2,0,P|356:92|296:100,1,100,2|2,1:2|0:0,0:0:0:0:
228,112,65411,1,2,2:2:0:0:
228,112,65540,1,8,2:2:0:0:
208,280,65799,1,2,2:2:0:0:
24,208,66057,6,0,B|96:196|96:196|136:208|136:208|232:192,1,200,2|8,1:2|2:2,0:0:0:0:
400,156,66833,1,2,2:2:0:0:
400,156,66963,1,2,2:2:0:0:
400,156,67092,2,0,P|420:204|412:256,1,100,2|0,1:2|0:0,0:0:0:0:
316,352,67609,1,8,2:2:0:0:
484,304,67868,5,2,1:2:0:0:
484,304,67997,1,2,2:2:0:0:
484,304,68126,2,0,P|508:248|480:112,1,200,2|8,1:2|2:2,0:0:0:0:
372,12,68902,1,2,2:2:0:0:
360,192,69161,2,0,L|400:88,1,100,2|0,1:2|0:0,0:0:0:0:
260,256,69678,2,0,L|220:152,1,100,10|0,2:2|0:0,0:0:0:0:
112,24,70195,5,2,1:2:0:0:
84,180,70454,1,2,0:0:0:0:
84,180,70583,1,2,2:2:0:0:
84,180,70713,1,8,2:2:0:0:
16,80,70971,1,2,2:2:0:0:
192,144,71230,2,0,B|268:100|300:164|396:136,1,200,2|8,1:2|2:2,0:0:0:0:
220,308,72006,5,2,2:2:0:0:
220,308,72135,1,2,2:2:0:0:
220,308,72264,2,0,P|248:264|248:208,1,100,2|0,1:2|0:0,0:0:0:0:
140,80,72782,1,8,2:2:0:0:
108,216,73040,1,2,2:2:0:0:
264,124,73299,2,0,L|368:152,1,100,2|0,1:2|0:0,0:0:0:0:
504,188,73816,1,10,2:2:0:0:
396,268,74075,1,0,0:0:0:0:
440,116,74333,6,0,P|472:80|480:28,1,100,2|0,1:2|0:0,0:0:0:0:
316,48,74851,1,0,1:1:0:0:
284,56,74980,1,0,3:3:0:0:
252,64,75109,1,0,3:3:0:0:
220,72,75238,1,0,3:0:0:0:
188,80,75368,1,0,1:1:0:0:
156,88,75497,2,0,L|92:108,1,50,0|0,3:3|3:3,0:0:0:0:
60,264,75885,1,0,1:1:0:0:
60,264,76014,1,0,1:0:0:0:
60,264,76144,2,0,L|80:316,1,50,0|0,3:3|1:0,0:0:0:0:
240,352,76402,5,4,1:2:0:0:
224,244,76661,1,2,2:2:0:0:
152,328,76919,1,2,1:2:0:0:
304,292,77178,1,2,2:2:0:0:
336,296,77307,1,2,2:2:0:0:
368,300,77437,1,2,1:2:0:0:
400,304,77566,1,2,2:2:0:0:
512,228,77825,1,2,2:2:0:0:
440,64,78083,6,0,P|388:60|332:84,1,89.9999972534181,4|0,1:2|0:0,0:0:0:0:
284,108,78471,1,4,1:2:0:0:
244,248,78730,5,2,2:2:0:0:
224,219,78859,1,2,2:2:0:0:
112,200,79118,1,2,2:2:0:0:
92,172,79247,1,2,2:2:0:0:
72,144,79376,1,2,2:2:0:0:
52,116,79506,1,2,1:2:0:0:
32,88,79635,1,2,2:2:0:0:
92,0,79894,1,2,2:2:0:0:
192,148,80152,6,0,P|244:148|280:168,1,89.9999972534181,4|0,1:2|0:0,0:0:0:0:
312,236,80540,1,4,1:2:0:0:
384,84,80799,5,2,2:2:0:0:
418,94,80928,1,2,2:2:0:0:
447,115,81057,1,2,1:2:0:0:
468,144,81187,1,2,2:2:0:0:
479,178,81316,1,2,0:0:0:0:
478,214,81445,1,2,2:2:0:0:
467,248,81575,1,2,1:2:0:0:
445,276,81704,1,2,2:2:0:0:
328,368,81963,1,2,2:2:0:0:
256,204,82221,6,0,L|280:112,1,89.9999972534181,4|0,1:2|0:0,0:0:0:0:
300,36,82609,1,4,1:2:0:0:
164,124,82868,1,2,0:0:0:0:
164,124,82997,1,2,2:2:0:0:
164,124,83126,1,8,2:2:0:0:
372,176,83385,5,2,2:2:0:0:
380,209,83514,1,0,3:3:0:0:
377,244,83644,1,2,1:2:0:0:
365,277,83773,1,8,2:2:0:0:
344,304,83902,1,2,3:2:0:0:
204,360,84161,1,10,2:2:0:0:
60,212,84419,5,0,3:3:0:0:
60,212,84549,1,0,3:3:0:0:
60,212,84678,1,4,1:2:0:0:
120,84,84937,5,2,2:2:0:0:
148,61,85066,1,2,2:2:0:0:
181,48,85195,1,2,1:2:0:0:
217,44,85325,1,2,2:2:0:0:
252,51,85454,1,2,2:2:0:0:
284,68,85583,1,2,0:0:0:0:
310,92,85713,1,2,1:2:0:0:
328,123,85842,1,2,2:2:0:0:
212,208,86101,1,2,2:2:0:0:
360,332,86359,6,0,L|452:284,1,89.9999972534181,4|0,1:2|0:0,0:0:0:0:
512,252,86747,1,4,1:2:0:0:
464,112,87006,5,2,2:2:0:0:
428,116,87135,1,2,2:2:0:0:
394,127,87264,1,2,1:2:0:0:
363,146,87394,1,2,0:0:0:0:
337,170,87523,1,2,2:2:0:0:
316,200,87652,1,0,0:0:0:0:
302,233,87782,1,2,1:2:0:0:
295,268,87911,1,2,2:2:0:0:
432,232,88169,1,2,2:2:0:0:
324,64,88428,2,0,P|284:88|256:128,1,89.9999972534181,4|0,1:2|0:0,0:0:0:0:
196,180,88816,6,0,P|100:220|36:160,1,200,4|8,1:2|2:2,0:0:0:0:
148,36,89592,1,2,2:2:0:0:
148,36,89721,1,2,0:0:0:0:
148,36,89851,2,0,P|128:88|124:144,1,100,2|2,1:2|0:0,0:0:0:0:
212,108,90238,2,0,P|264:128|320:132,1,100,2|0,2:2|0:0,0:0:0:0:
380,92,90626,1,2,2:2:0:0:
428,272,90885,6,0,B|440:200|440:200|468:176|468:176|480:80,1,200,2|8,1:2|2:2,0:0:0:0:
512,252,91661,1,2,0:0:0:0:
352,340,91919,1,2,1:2:0:0:
317,333,92049,1,0,3:3:0:0:
283,327,92178,1,0,3:3:0:0:
248,320,92307,1,2,3:2:0:0:
214,314,92437,1,8,2:2:0:0:
88,224,92695,5,2,3:2:0:0:
88,224,92825,1,0,3:3:0:0:
88,224,92954,2,0,P|64:164|92:84,1,150,2|2,1:2|2:2,0:0:0:0:
144,156,93471,1,8,2:2:0:0:
32,32,93730,1,2,2:2:0:0:
188,16,93988,2,0,L|292:36,1,100,2|2,1:2|0:0,0:0:0:0:
364,48,94376,1,2,2:2:0:0:
364,48,94506,1,8,2:2:0:0:
500,72,94764,1,2,2:2:0:0:
404,212,95023,6,0,P|324:200|228:276,1,200,2|8,1:2|2:2,0:0:0:0:
360,336,95799,1,2,0:0:0:0:
360,336,95928,1,2,0:0:0:0:
360,336,96057,1,0,1:1:0:0:
404,212,96316,1,0,1:1:0:0:
476,328,96575,1,8,2:2:0:0:
320,248,96833,1,0,1:1:0:0:
492,216,97092,6,0,P|483:170|458:143,1,80,0|2,1:1|0:0,0:0:0:0:
373,141,97480,1,2,0:0:0:0:
373,141,97609,2,0,P|382:187|407:214,1,80,8|0,0:0|0:0,0:0:0:0:
432,60,98126,1,2,0:0:0:0:
200,44,98644,5,2,2:2:0:0:
76,20,98902,1,2,2:2:0:0:
36,216,99161,6,0,P|20:268|32:328,1,110.000003356934,4|2,1:2|0:0,0:0:0:0:
100,360,99549,1,2,0:0:0:0:
100,360,99678,1,8,2:2:0:0:
244,256,99937,1,2,2:2:0:0:
128,152,100195,1,2,1:2:0:0:
160,136,100325,1,2,0:0:0:0:
192,120,100454,1,2,0:0:0:0:
224,104,100583,1,2,2:2:0:0:
256,88,100713,2,0,P|308:72|364:92,1,110.000003356934,8|0,2:2|0:0,0:0:0:0:
432,296,101230,6,0,L|464:184,1,110.000003356934,2|2,1:2|0:0,0:0:0:0:
484,112,101618,1,2,2:2:0:0:
484,112,101747,1,8,2:2:0:0:
352,216,102006,1,2,2:2:0:0:
512,324,102264,1,2,1:2:0:0:
512,324,102394,1,0,1:0:0:0:
512,324,102523,1,2,0:0:0:0:
462,190,102782,1,8,2:2:0:0:
340,340,103040,5,2,2:2:0:0:
340,340,103169,1,2,2:2:0:0:
340,340,103299,2,0,P|280:352|232:328,1,110.000003356934,2|2,1:2|0:0,0:0:0:0:
164,292,103687,1,2,0:0:0:0:
164,292,103816,1,8,2:2:0:0:
296,168,104075,1,2,2:2:0:0:
160,48,104333,5,2,1:2:0:0:
132,72,104463,1,2,0:0:0:0:
104,96,104592,1,2,0:0:0:0:
76,120,104721,1,2,2:2:0:0:
48,144,104851,1,8,2:2:0:0:
164,292,105109,5,2,2:2:0:0:
164,292,105238,1,2,0:0:0:0:
164,292,105368,2,0,P|192:244|192:188,1,110.000003356934,2|2,1:2|0:0,0:0:0:0:
203,101,105756,2,0,P|256:88|308:104,1,110.000003356934,2|2,2:2|2:2,0:0:0:0:
319,190,106144,2,0,P|320:245|348:292,1,110.000003356934,2|2,2:2|1:2,0:0:0:0:
416,344,106532,1,8,2:2:0:0:
416,344,106661,1,0,3:3:0:0:
512,224,106919,1,8,2:2:0:0:
396,76,107178,5,2,2:2:0:0:
396,76,107307,1,2,2:2:0:0:
396,76,107437,2,0,L|284:60,1,110.000003356934,0|2,1:1|0:0,0:0:0:0:
200,52,107825,1,2,0:0:0:0:
200,52,107954,1,8,2:2:0:0:
268,208,108213,1,2,2:2:0:0:
124,112,108471,5,2,1:2:0:0:
98,140,108601,1,2,0:0:0:0:
82,175,108730,1,2,0:0:0:0:
78,213,108859,1,2,2:2:0:0:
86,251,108988,2,0,L|196:228,1,110.000003356934,8|2,0:0|0:0,0:0:0:0:
268,208,109376,1,2,0:0:0:0:
268,208,109506,6,0,P|292:156|280:104,1,110.000003356934,2|2,1:2|0:0,0:0:0:0:
204,148,109894,1,2,0:0:0:0:
204,148,110023,1,8,2:2:0:0:
296,12,110282,1,2,2:2:0:0:
416,168,110540,1,2,1:2:0:0:
434,201,110669,1,2,0:0:0:0:
440,239,110799,1,2,0:0:0:0:
433,277,110928,1,2,2:2:0:0:
415,311,111057,2,0,P|364:280|312:288,1,110.000003356934,8|0,2:2|0:0,0:0:0:0:
226,40,111575,6,0,L|202:156,1,110.000003356934,2|0,1:2|0:0,0:0:0:0:
164,304,112092,1,8,2:2:0:0:
40,156,112351,1,2,2:2:0:0:
40,156,112480,1,2,0:0:0:0:
40,156,112609,2,0,P|24:212|32:264,1,110.000003356934,2|2,1:2|0:0,0:0:0:0:
112,220,112997,2,0,P|128:164|120:112,1,110.000003356934,2|2,2:2|0:0,0:0:0:0:
48,64,113385,1,2,2:2:0:0:
240,184,113644,6,0,L|352:164,1,110.000003356934,2|2,1:2|0:0,0:0:0:0:
432,148,114032,1,2,2:2:0:0:
432,148,114161,1,8,2:2:0:0:
332,304,114419,1,2,2:2:0:0:
272,56,114678,5,2,1:2:0:0:
239,35,114807,1,8,2:2:0:0:
202,25,114937,1,0,3:3:0:0:
163,25,115066,1,0,3:0:0:0:
127,36,115195,1,8,2:2:0:0:
94,57,115325,1,0,1:0:0:0:
69,85,115454,1,0,1:0:0:0:
52,120,115583,1,0,1:0:0:0:
45,157,115713,5,4,1:2:0:0:
72,264,115971,1,2,2:2:0:0:
177,239,116230,1,2,2:2:0:0:
150,132,116488,1,2,2:2:0:0:
150,132,116618,2,0,P|192:112|244:108,1,89.9999972534181,2|0,2:2|0:0,0:0:0:0:
296,4,117006,2,0,P|328:96|300:212,1,209.999993591309,4|4,1:2|1:2,0:0:0:0:
304,203,117782,5,4,1:2:0:0:
408,228,118040,1,2,2:2:0:0:
382,335,118299,1,2,2:2:0:0:
277,310,118557,1,2,2:2:0:0:
277,310,118687,2,0,P|230:308|182:288,1,89.9999972534181,2|0,2:2|0:0,0:0:0:0:
88,356,119075,2,0,P|101:259|178:168,1,209.999993591309,4|4,1:2|1:2,0:0:0:0:
169,173,119851,1,4,1:2:0:0:
400,64,120368,5,2,1:2:0:0:
300,148,120626,1,0,0:0:0:0:
468,8,120885,2,0,P|488:60|476:100,1,100,2|2,1:2|0:0,0:0:0:0:
436,180,121273,1,2,2:2:0:0:
436,180,121402,1,0,1:1:0:0:
320,64,121661,1,2,2:2:0:0:
256,264,121919,2,0,B|184:252|184:252|140:264|140:264|56:248,1,200,4|0,1:2|0:0,0:0:0:0:
24,64,122695,5,2,2:2:0:0:
24,64,122825,1,2,0:0:0:0:
24,64,122954,2,0,L|76:72,1,40,2|2,2:2|2:2,0:0:0:0:
132,136,123213,1,2,2:2:0:0:
132,136,123342,2,0,L|184:128,1,40,2|2,2:2|0:0,0:0:0:0:
248,68,123601,1,2,2:2:0:0:
248,68,123730,2,0,L|300:76,1,40,2|2,2:2|0:0,0:0:0:0:
384,92,123988,1,2,2:2:0:0:
156,352,124635,5,2,2:2:0:0:
156,352,124764,2,0,L|144:292,1,40,2|2,2:2|2:2,0:0:0:0:
112,240,125023,2,0,P|63:250|15:238,1,100,4|0,1:2|0:0,0:0:0:0:
164,48,125540,2,0,L|188:160,1,100,10|2,2:2|0:0,0:0:0:0:
248,200,125928,1,2,0:0:0:0:
248,200,126057,2,0,P|292:180|344:192,1,100,2|2,1:2|0:0,0:0:0:0:
416,224,126445,1,2,0:0:0:0:
416,224,126574,1,10,2:2:0:0:
308,304,126833,1,2,0:0:0:0:
504,216,127091,6,0,B|500:160|500:160|512:132|512:132|504:69,1,150,2|2,1:2|2:2,0:0:0:0:
448,8,127609,1,8,2:2:0:0:
356,128,127867,1,2,2:2:0:0:
208,32,128126,2,0,L|175:126,1,100,2|2,1:2|0:0,0:0:0:0:
140,200,128514,1,2,2:2:0:0:
140,200,128643,1,8,2:2:0:0:
68,56,128902,1,2,2:2:0:0:
60,252,129160,6,0,P|112:288|200:272,1,150,2|0,1:2|0:0,0:0:0:0:
256,200,129678,2,0,L|292:304,1,100,10|0,2:2|0:0,0:0:0:0:
432,372,130195,2,0,L|468:268,1,100,2|2,1:2|0:0,0:0:0:0:
492,200,130583,1,2,0:0:0:0:
492,200,130712,1,10,2:2:0:0:
416,64,130971,1,2,0:0:0:0:
320,224,131229,6,0,P|268:224|232:196,1,100,2|2,1:2|0:0,0:0:0:0:
176,136,131617,1,2,2:2:0:0:
176,136,131747,1,8,2:2:0:0:
284,40,132005,1,2,2:2:0:0:
100,8,132264,1,2,1:2:0:0:
92,36,132393,1,0,1:0:0:0:
84,64,132523,1,0,1:0:0:0:
76,92,132652,1,0,1:0:0:0:
68,120,132781,1,8,2:2:0:0:
212,264,133040,5,0,1:0:0:0:
212,264,133169,1,0,1:0:0:0:
212,264,133298,2,0,P|284:272|364:364,1,200,4|8,1:2|2:2,0:0:0:0:
248,372,134074,1,2,2:2:0:0:
248,372,134204,1,2,2:2:0:0:
248,372,134333,1,2,1:2:0:0:
120,300,134591,1,0,0:0:0:0:
240,176,134850,2,0,P|280:132|288:36,1,150,10|0,2:2|0:0,0:0:0:0:
216,12,135367,6,0,P|168:32|136:76,1,100,2|0,1:2|0:0,0:0:0:0:
28,188,135885,1,8,2:2:0:0:
176,276,136143,1,2,2:2:0:0:
176,276,136273,1,2,2:2:0:0:
176,276,136402,2,0,L|148:380,1,100,2|0,1:2|0:0,0:0:0:0:
336,276,136919,2,0,L|364:380,1,100,10|0,2:2|0:0,0:0:0:0:
272,116,137436,6,0,B|348:104|348:104|392:124|392:124|468:108,1,200,2|8,1:2|2:2,0:0:0:0:
312,228,138212,2,0,L|336:180,1,50,2|2,0:0|0:0,0:0:0:0:
396,40,138471,1,2,1:2:0:0:
396,40,138600,1,0,1:0:0:0:
396,40,138729,1,0,1:0:0:0:
488,232,138988,1,8,2:2:0:0:
272,116,139247,1,4,1:2:0:0:
272,116,140023,6,0,L|228:108,1,40,2|2,2:2|2:2,0:0:0:0:
168,56,140281,2,0,L|124:64,1,40,2|2,2:2|2:2,0:0:0:0:
40,80,140540,1,0,1:1:0:0:
144,204,140798,1,0,1:1:0:0:
256,24,141057,1,0,1:1:0:0:
256,24,141186,1,0,1:0:0:0:
256,24,141316,2,0,L|308:32,1,40,2|2,2:2|2:2,0:0:0:0:
436,40,141574,6,0,P|488:52|516:92,1,100,4|0,1:2|0:0,0:0:0:0:
452,220,142091,1,0,1:2:0:0:
312,124,142350,1,2,2:2:0:0:
312,124,142479,1,2,2:2:0:0:
312,124,142609,2,0,L|292:224,1,100,2|0,1:2|0:0,0:0:0:0:
120,144,143126,2,0,P|176:140|216:160,1,100,2|0,1:2|0:0,0:0:0:0:
32,180,143643,6,0,P|28:124|48:84,1,100,2|2,1:2|0:0,0:0:0:0:
104,24,144031,1,2,0:0:0:0:
104,24,144160,1,2,1:2:0:0:
120,144,144419,1,0,0:0:0:0:
268,48,144678,2,0,P|372:24|444:84,1,200,2|0,1:2|1:2,0:0:0:0:
280,196,145454,5,2,2:2:0:0:
280,196,145583,1,2,0:0:0:0:
280,196,145712,2,0,P|320:160|344:112,1,100,2|0,1:2|0:0,0:0:0:0:
352,284,146229,1,0,1:2:0:0:
184,200,146488,1,2,2:2:0:0:
184,200,146617,1,2,0:0:0:0:
184,200,146747,2,0,L|208:304,1,100,2|2,1:2|2:2,0:0:0:0:
156,356,147135,2,0,L|58:378,1,100,2|2,2:2|2:2,0:0:0:0:
0,328,147523,1,2,0:0:0:0:
60,196,147781,6,0,L|84:92,1,100,2|2,1:2|2:2,0:0:0:0:
96,20,148169,1,2,0:0:0:0:
152,148,148428,1,2,0:0:0:0:
152,148,148557,1,2,0:0:0:0:
0,120,148816,1,0,1:1:0:0:
0,120,148945,1,0,1:2:0:0:
0,120,149074,1,0,3:3:0:0:
176,32,149333,1,0,1:2:0:0:
176,32,149462,1,0,3:3:0:0:
176,32,149591,2,0,L|232:36,1,50,2|2,3:2|3:2,0:0:0:0:
288,92,149850,6,0,P|300:140|280:188,1,100,2|0,1:2|0:0,0:0:0:0:
188,280,150367,1,0,1:2:0:0:
348,340,150626,1,2,2:2:0:0:
348,340,150755,1,2,2:2:0:0:
348,340,150885,2,0,L|276:268,1,100,2|0,1:2|0:0,0:0:0:0:
396,152,151402,2,0,L|468:224,1,100,2|0,1:2|0:0,0:0:0:0:
364,60,151919,6,0,P|312:96|296:128,1,100,2|2,1:2|0:0,0:0:0:0:
215,127,152307,2,0,P|190:85|148:60,1,100,2|0,2:2|0:0,0:0:0:0:
80,16,152695,1,2,2:2:0:0:
60,216,152954,2,0,P|102:190|127:148,1,100,2|0,1:2|0:0,0:0:0:0:
28,120,153471,1,0,1:2:0:0:
96,328,153729,5,2,2:2:0:0:
96,328,153859,1,2,2:2:0:0:
96,328,153988,2,0,L|196:348,1,100,2|0,1:2|0:0,0:0:0:0:
256,204,154505,1,0,1:2:0:0:
416,328,154764,2,0,L|316:348,1,100,2|0,2:2|1:1,0:0:0:0:
164,236,155281,1,0,0:0:0:0:
348,236,155540,6,0,P|368:188|356:136,1,100,2|2,1:2|0:0,0:0:0:0:
308,76,155928,1,2,0:0:0:0:
308,76,156057,1,2,1:2:0:0:
256,152,156316,1,0,3:3:0:0:
204,76,156574,1,0,1:0:0:0:
256,0,156833,1,0,1:1:0:0:
160,180,157091,6,0,L|108:168,1,44.999998626709,2|0,3:2|3:3,0:0:0:0:
64,92,157350,1,0,1:1:0:0:
40,113,157479,1,0,1:0:0:0:
26,140,157609,1,0,1:1:0:0:
21,171,157738,1,0,3:3:0:0:
27,202,157867,2,0,L|40:252,1,44.999998626709,2|2,1:2|2:2,0:0:0:0:
152,312,158126,6,0,P|201:316|240:345,1,100,4|0,1:2|0:0,0:0:0:0:
64,340,158643,1,8,2:2:0:0:
152,124,158902,1,2,2:2:0:0:
152,124,159031,1,2,0:0:0:0:
152,124,159160,2,0,L|184:224,1,100,2|0,1:2|0:0,0:0:0:0:
360,288,159678,6,0,P|428:264|472:200,1,150,10|0,2:2|2:2,0:0:0:0:
484,116,160195,2,0,L|385:101,1,100,2|2,1:2|0:0,0:0:0:0:
304,88,160583,1,2,2:2:0:0:
304,88,160712,1,8,2:2:0:0:
380,196,160971,1,2,2:2:0:0:
256,332,161229,2,0,P|188:324|116:216,1,200,2|8,1:2|2:2,0:0:0:0:
296,124,162005,5,2,3:2:0:0:
296,124,162135,1,2,3:2:0:0:
296,124,162264,2,0,P|276:72|240:48,1,100,2|2,1:2|0:0,0:0:0:0:
116,16,162781,1,8,2:2:0:0:
200,144,163040,1,2,2:2:0:0:
16,88,163298,5,2,1:2:0:0:
80,256,163557,1,2,0:0:0:0:
101,283,163686,1,2,2:2:0:0:
129,303,163816,1,8,2:2:0:0:
162,316,163945,1,0,3:3:0:0:
197,319,164074,1,2,3:2:0:0:
231,313,164204,1,8,2:2:0:0:
265,306,164333,6,0,B|349:291|349:291|389:303|389:303|461:291,1,200,2|8,1:2|2:2,0:0:0:0:
452,104,165109,1,2,2:2:0:0:
452,104,165238,1,10,2:2:0:0:
452,104,165367,2,0,L|432:156,1,50,2|0,1:2|3:3,0:0:0:0:
320,216,165626,2,0,L|340:164,1,50,0|0,3:3|3:0,0:0:0:0:
276,60,165885,1,8,2:2:0:0:
248,38,166014,1,8,2:2:0:0:
216,25,166143,1,10,2:2:0:0:
181,21,166273,1,10,2:2:0:0:
147,28,166402,6,0,P|63:71|35:171,1,200,2|8,1:2|2:2,0:0:0:0:
64,336,167178,1,2,2:2:0:0:
216,200,167436,2,0,L|120:236,1,100,2|0,1:2|0:0,0:0:0:0:
296,120,167954,2,0,L|332:216,1,100,10|0,2:2|3:3,0:0:0:0:
408,372,168471,5,2,1:2:0:0:
448,192,168729,1,2,0:0:0:0:
448,192,168859,1,2,2:2:0:0:
448,192,168988,1,8,2:2:0:0:
512,316,169247,1,2,2:2:0:0:
352,232,169505,2,0,P|348:148|448:100,1,200,2|8,1:2|2:2,0:0:0:0:
280,76,170281,5,2,3:2:0:0:
280,76,170410,1,10,2:2:0:0:
280,76,170540,2,0,P|252:120|244:172,1,100,2|0,1:2|0:0,0:0:0:0:
200,324,171057,1,8,2:2:0:0:
136,168,171316,1,2,2:2:0:0:
12,312,171574,2,0,L|108:286,1,100,2|0,1:2|0:0,0:0:0:0:
260,244,172091,1,10,2:2:0:0:
136,168,172350,1,0,3:3:0:0:
280,52,172609,6,0,P|248:88|240:140,1,100,2|0,1:2|0:0,0:0:0:0:
164,268,173126,1,8,2:2:0:0:
196,260,173255,1,0,1:0:0:0:
228,252,173385,1,0,1:0:0:0:
260,244,173514,1,8,2:2:0:0:
292,236,173643,1,0,1:1:0:0:
324,228,173773,2,0,L|388:208,1,50,0|0,3:3|1:1,0:0:0:0:
512,92,174160,1,8,2:2:0:0:
512,92,174290,1,0,3:3:0:0:
512,92,174419,2,0,L|492:40,1,50,8|8,2:2|2:2,0:0:0:0:
332,4,174678,5,4,1:2:0:0:
276,152,174936,1,2,2:2:0:0:
104,64,175195,2,0,P|164:40|204:48,1,100,10|2,2:2|2:2,0:0:0:0:
276,64,175583,1,2,2:2:0:0:
132,204,175841,1,2,2:2:0:0:
132,204,175971,2,0,L|156:312,1,100,2|8,1:2|2:2,0:0:0:0:
36,280,176488,1,0,1:1:0:0:
256,232,176747,5,2,1:2:0:0:
132,204,177005,1,2,2:2:0:0:
272,336,177264,2,0,P|332:336|372:312,1,100,10|2,2:2|2:2,0:0:0:0:
444,272,177652,1,2,2:2:0:0:
372,72,177910,1,2,2:2:0:0:
372,72,178040,2,0,L|352:180,1,100,2|8,1:2|2:2,0:0:0:0:
480,132,178557,1,0,1:1:0:0:
256,92,178816,5,2,1:2:0:0:
353,170,179074,1,2,2:2:0:0:
184,24,179333,2,0,P|160:68|160:116,1,100,10|2,2:2|2:2,0:0:0:0:
216,192,179721,1,2,2:2:0:0:
32,136,179979,1,2,2:2:0:0:
32,136,180109,2,0,L|44:236,1,100,2|8,1:2|2:2,0:0:0:0:
172,336,180626,1,0,1:1:0:0:
172,128,180885,5,0,1:1:0:0:
216,192,181014,1,0,1:1:0:0:
340,128,181273,5,0,1:1:0:0:
296,192,181402,1,0,1:1:0:0:
172,336,181660,5,0,1:1:0:0:
216,272,181789,1,0,1:1:0:0:
340,336,182048,5,0,1:1:0:0:
296,272,182177,1,0,1:1:0:0:
200,68,182436,5,0,1:1:0:0:
256,12,182566,1,0,1:1:0:0:
312,68,182695,1,0,1:1:0:0:
76,144,182954,6,0,P|48:196|44:236,1,100,4|2,1:2|2:2,0:0:0:0:
64,40,183471,2,0,L|164:68,1,100,10|2,2:2|2:2,0:0:0:0:
248,84,183859,1,2,2:2:0:0:
408,216,184117,1,2,2:2:0:0:
408,216,184247,2,0,L|308:244,1,100,2|8,2:2|2:2,0:0:0:0:
384,348,184764,1,0,0:0:0:0:
472,148,185023,6,0,P|496:196|492:252,1,100,2|2,1:2|2:2,0:0:0:0:
384,348,185540,1,10,2:2:0:0:
332,148,185798,1,2,2:2:0:0:
332,148,185928,2,0,L|232:176,1,100,2|2,2:2|2:2,0:0:0:0:
156,196,186316,1,2,2:2:0:0:
172,364,186574,2,0,P|208:324|216:272,1,100,8|0,2:2|0:0,0:0:0:0:
44,212,187091,5,2,1:2:0:0:
216,279,187350,1,2,2:2:0:0:
196,109,187609,2,0,P|164:149|156:205,1,100,10|2,2:2|2:2,0:0:0:0:
212,260,187997,2,0,L|316:248,1,100,2|2,2:2|2:2,0:0:0:0:
400,236,188385,1,2,2:2:0:0:
244,176,188643,1,8,2:2:0:0:
284,356,188902,1,0,1:0:0:0:
468,276,189160,5,0,1:1:0:0:
400,236,189290,1,0,1:1:0:0:
468,108,189548,5,0,1:1:0:0:
400,148,189678,1,0,1:1:0:0:
248,276,189936,5,0,1:1:0:0:
316,236,190066,1,0,1:1:0:0:
248,108,190324,5,0,1:1:0:0:
316,148,190454,1,0,1:1:0:0:
316,148,190583,1,0,1:0:0:0:
316,148,190712,6,0,L|333:93,1,50,2|2,1:2|1:2,0:0:0:0:
248,108,190971,2,0,L|231:53,1,50,10|2,2:2|2:2,0:0:0:0:
70,108,191229,6,0,P|54:164|66:204,1,100,4|2,1:2|2:2,0:0:0:0:
126,264,191617,1,2,2:2:0:0:
126,264,191747,2,0,L|226:256,1,100,8|0,2:2|0:0,0:0:0:0:
360,336,192264,1,0,1:1:0:0:
328,128,192523,1,2,2:2:0:0:
328,128,192652,1,2,2:2:0:0:
328,128,192781,2,0,P|312:180|324:232,1,100,10|0,2:2|0:0,0:0:0:0:
480,172,193298,1,2,1:2:0:0:
356,40,193557,5,2,0:0:0:0:
356,40,193686,2,0,L|252:20,1,100,2|2,0:0|0:0,0:0:0:0:
202,79,194074,2,0,P|188:132|152:164,1,100,2|0,2:2|1:1,0:0:0:0:
4,244,194591,1,2,2:2:0:0:
32,56,194850,2,0,L|64:156,1,100,8|2,2:2|0:0,0:0:0:0:
96,228,195238,1,2,0:0:0:0:
96,228,195367,1,2,1:2:0:0:
160,352,195626,1,0,0:0:0:0:
316,176,195885,6,0,P|280:220|240:236,1,100,10|2,2:2|0:0,0:0:0:0:
172,268,196273,1,2,0:0:0:0:
172,268,196402,1,2,1:2:0:0:
192,120,196660,1,0,0:0:0:0:
348,96,196919,6,0,P|392:132|408:172,1,100,10|2,2:2|0:0,0:0:0:0:
432,248,197307,1,2,0:0:0:0:
432,248,197436,1,2,1:2:0:0:
336,356,197695,1,2,0:0:0:0:
336,356,197824,1,2,0:0:0:0:
336,356,197954,1,8,2:2:0:0:
260,232,198212,1,2,0:0:0:0:
444,216,198471,5,2,1:2:0:0:
461,185,198600,1,0,3:3:0:0:
468,151,198729,1,8,2:2:0:0:
466,116,198859,1,0,1:0:0:0:
454,83,198988,1,2,1:2:0:0:
434,55,199117,1,8,2:2:0:0:
406,34,199247,1,8,2:2:0:0:
373,22,199376,1,8,2:2:0:0:
339,19,199505,2,0,L|320:120,1,100,4|0,1:2|0:0,0:0:0:0:
276,328,200023,5,10,2:2:0:0:
276,328,200152,1,2,2:2:0:0:
276,328,200281,2,0,L|228:356,1,50,2|2,2:2|0:0,0:0:0:0:
148,276,200540,1,2,1:2:0:0:
148,276,200669,1,2,2:2:0:0:
148,276,200798,2,0,L|100:248,1,50,2|2,2:2|0:0,0:0:0:0:
16,184,201057,1,10,2:2:0:0:
16,184,201186,1,0,1:0:0:0:
16,184,201316,1,2,2:2:0:0:
128,20,201574,5,2,1:2:0:0:
128,20,201704,1,2,2:2:0:0:
128,20,201833,2,0,L|171:45,1,50,2|2,2:2|0:0,0:0:0:0:
280,92,202091,1,10,2:2:0:0:
280,92,202221,2,0,L|254:135,1,50,2|2,2:2|2:2,0:0:0:0:
272,252,202479,1,2,2:2:0:0:
272,252,202609,5,2,1:2:0:0:
289,282,202738,1,2,2:2:0:0:
317,303,202867,1,2,2:2:0:0:
350,312,202997,1,2,2:2:0:0:
385,308,203126,1,10,2:2:0:0:
402,277,203255,1,2,0:0:0:0:
430,256,203385,1,2,2:2:0:0:
463,247,203514,1,2,2:2:0:0:
498,251,203643,6,0,B|516:192|516:192|460:64,1,200,2|8,1:2|2:2,0:0:0:0:
272,12,204419,1,2,2:2:0:0:
108,144,204678,5,2,1:2:0:0:
193,270,204936,1,2,0:0:0:0:
193,270,205066,1,2,0:0:0:0:
193,270,205195,2,0,L|143:254,1,50,10|2,0:0|0:0,0:0:0:0:
64,230,205454,1,2,0:0:0:0:
204,364,205712,6,0,P|276:308|264:208,1,200,2|8,1:2|2:2,0:0:0:0:
124,88,206488,1,2,2:2:0:0:
308,96,206747,1,2,1:2:0:0:
308,96,206876,2,0,P|356:72|400:76,1,100,0|0,1:1|1:1,0:0:0:0:
452,256,207393,1,0,1:1:0:0:
452,256,207523,1,0,1:1:0:0:
508,36,207781,5,4,1:2:0:0:
396,176,208040,1,2,0:0:0:0:
368,191,208169,1,2,0:0:0:0:
337,201,208298,1,2,0:0:0:0:
305,204,208428,1,2,0:0:0:0:
274,200,208557,1,2,0:0:0:0:
243,190,208686,1,2,0:0:0:0:
216,174,208816,1,2,0:0:0:0:
192,153,208945,1,2,0:0:0:0:
104,72,209204,1,2,0:0:0:0:
36,216,209462,6,0,P|24:259|32:300,1,80,4|0,1:2|0:0,0:0:0:0:
88,356,209850,1,4,1:2:0:0:
224,260,210109,5,2,0:0:0:0:
253,240,210238,1,2,0:0:0:0:
281,220,210367,1,2,0:0:0:0:
309,200,210497,1,2,0:0:0:0:
337,180,210626,1,2,0:0:0:0:
365,160,210755,1,2,0:0:0:0:
393,140,210885,1,2,0:0:0:0:
421,120,211014,1,2,0:0:0:0:
508,40,211273,1,2,0:0:0:0:
504,228,211531,6,0,P|452:228|420:208,1,80,4|0,1:2|0:0,0:0:0:0:
365,160,211919,1,4,1:2:0:0:
292,32,212178,5,2,0:0:0:0:
258,42,212307,1,2,0:0:0:0:
229,63,212436,1,2,0:0:0:0:
208,92,212566,1,2,0:0:0:0:
197,126,212695,1,2,0:0:0:0:
198,162,212824,1,2,0:0:0:0:
209,196,212954,1,2,0:0:0:0:
231,224,213083,1,2,0:0:0:0:
312,312,213341,1,2,0:0:0:0:
152,380,213600,6,0,L|68:356,1,80,4|0,1:2|0:0,0:0:0:0:
0,332,213988,1,4,1:2:0:0:
120,256,214247,1,2,0:0:0:0:
120,256,214376,1,2,2:2:0:0:
120,256,214505,1,2,0:0:0:0:
8,184,214764,5,2,1:2:0:0:
0,151,214893,1,0,3:3:0:0:
3,116,215023,1,2,2:2:0:0:
15,83,215152,1,0,3:3:0:0:
36,56,215281,1,2,1:2:0:0:
184,24,215540,1,2,1:2:0:0:
184,24,215669,2,0,L|196:72,1,44.999998626709,2|0,1:2|3:3,0:0:0:0:
236,208,215928,1,0,3:3:0:0:
236,208,216057,1,4,1:2:0:0:
136,296,216316,5,2,0:0:0:0:
154,327,216445,1,2,0:0:0:0:
180,351,216574,1,2,0:0:0:0:
212,368,216704,1,2,0:0:0:0:
247,375,216833,1,2,0:0:0:0:
283,371,216962,1,2,0:0:0:0:
316,358,217091,1,2,0:0:0:0:
344,335,217221,1,2,0:0:0:0:
448,272,217479,1,2,0:0:0:0:
448,88,217738,6,0,L|360:132,1,80,4|0,1:2|0:0,0:0:0:0:
304,160,218126,1,4,1:2:0:0:
236,328,218385,5,2,0:0:0:0:
227,292,218514,1,2,0:0:0:0:
212,260,218643,1,2,0:0:0:0:
189,231,218773,1,2,0:0:0:0:
162,209,218902,1,2,0:0:0:0:
130,191,219031,1,2,0:0:0:0:
96,181,219160,1,2,0:0:0:0:
60,179,219290,1,2,0:0:0:0:
88,296,219548,1,2,0:0:0:0:
200,136,219807,2,0,P|240:112|268:76,1,80,4|0,1:2|0:0,0:0:0:0:
188,44,220195,6,0,P|284:4|348:64,1,200,4|8,1:2|2:2,0:0:0:0:
464,256,220971,1,2,2:2:0:0:
464,256,221100,1,2,0:0:0:0:
464,256,221229,2,0,P|484:204|488:148,1,100,2|2,1:2|0:0,0:0:0:0:
400,188,221617,2,0,P|348:168|292:164,1,100,2|0,2:2|0:0,0:0:0:0:
240,220,222005,1,2,2:2:0:0:
80,68,222264,6,0,B|97:138|97:138|80:171|80:171|107:265,1,200,2|8,1:2|2:2,0:0:0:0:
164,380,223040,1,2,0:0:0:0:
240,220,223298,1,2,1:2:0:0:
275,227,223428,1,0,3:0:0:0:
309,233,223557,1,0,3:0:0:0:
344,240,223686,1,2,3:2:0:0:
378,246,223816,1,8,2:2:0:0:
452,56,224074,5,2,2:2:0:0:
452,56,224204,1,2,0:0:0:0:
452,56,224333,2,0,P|476:116|436:188,1,150,2|2,1:2|2:2,0:0:0:0:
378,246,224850,1,8,2:2:0:0:
320,88,225109,1,2,2:2:0:0:
120,200,225367,2,0,L|218:218,1,100,2|2,1:2|0:0,0:0:0:0:
296,232,225755,1,2,2:2:0:0:
296,232,225885,1,8,2:2:0:0:
148,332,226143,1,2,2:2:0:0:
68,100,226402,6,0,P|24:168|36:288,1,200,2|8,1:2|2:2,0:0:0:0:
172,196,227178,1,0,3:3:0:0:
172,196,227307,1,0,3:3:0:0:
172,196,227436,2,0,L|200:208,2,25,0|0|0,1:1|3:3|3:3,0:0:0:0:
152,104,227695,1,0,3:3:0:0:
191,104,227824,1,0,3:3:0:0:
229,116,227954,1,8,2:2:0:0:
262,138,228083,1,0,3:3:0:0:
287,169,228212,1,0,3:3:0:0:
302,206,228341,1,0,3:3:0:0:
316,244,228471,6,0,P|325:290|350:317,1,80,0|2,1:1|0:0,0:0:0:0:
400,248,228859,1,2,0:0:0:0:
400,248,228988,1,2,0:0:0:0:
496,344,229247,1,2,0:0:0:0:
496,344,229376,1,2,0:0:0:0:
496,344,229505,1,2,0:0:0:0:
368,32,230023,5,2,2:2:0:0:
228,24,230281,1,2,2:2:0:0:
288,248,230540,6,0,P|304:196|292:136,1,110.000003356934,4|2,1:2|0:0,0:0:0:0:
220,192,230928,1,2,0:0:0:0:
220,192,231057,1,8,2:2:0:0:
140,32,231316,1,2,2:2:0:0:
8,156,231574,1,2,1:2:0:0:
16,190,231704,1,2,0:0:0:0:
25,225,231833,1,2,0:0:0:0:
34,259,231962,1,2,2:2:0:0:
43,294,232091,2,0,P|60:340|116:372,1,110.000003356934,8|0,2:2|0:0,0:0:0:0:
220,192,232609,6,0,L|240:304,1,110.000003356934,2|2,1:2|0:0,0:0:0:0:
300,360,232997,1,2,2:2:0:0:
300,360,233126,1,8,2:2:0:0:
380,208,233385,1,2,2:2:0:0:
488,344,233643,1,2,1:2:0:0:
488,344,233773,1,0,1:0:0:0:
488,344,233902,1,2,0:0:0:0:
336,284,234160,1,8,2:2:0:0:
472,112,234419,5,2,2:2:0:0:
472,112,234548,1,2,2:2:0:0:
472,112,234678,2,0,P|421:91|369:104,1,110.000003356934,2|2,1:2|0:0,0:0:0:0:
312,164,235066,1,2,0:0:0:0:
312,164,235195,1,8,2:2:0:0:
204,44,235454,1,2,2:2:0:0:
16,120,235712,5,2,1:2:0:0:
44,144,235841,1,2,0:0:0:0:
72,168,235971,1,2,0:0:0:0:
100,192,236100,1,2,2:2:0:0:
128,216,236229,1,8,2:2:0:0:
312,164,236488,5,2,2:2:0:0:
312,164,236617,1,2,0:0:0:0:
312,164,236747,2,0,P|284:212|284:268,1,110.000003356934,2|2,1:2|0:0,0:0:0:0:
336,328,237135,2,0,P|388:344|444:328,1,110.000003356934,2|2,2:2|2:2,0:0:0:0:
492,265,237523,2,0,P|491:210|464:164,1,110.000003356934,2|2,2:2|1:2,0:0:0:0:
388,116,237910,1,8,0:0:0:0:
388,116,238040,1,2,0:0:0:0:
283,265,238298,1,8,2:2:0:0:
216,68,238557,5,2,2:2:0:0:
216,68,238686,1,2,2:2:0:0:
216,68,238816,2,0,L|107:83,1,110.000003356934,0|2,1:1|0:0,0:0:0:0:
24,96,239204,1,2,0:0:0:0:
24,96,239333,1,8,2:2:0:0:
156,224,239591,1,2,2:2:0:0:
348,172,239850,5,2,1:2:0:0:
322,144,239979,1,2,0:0:0:0:
306,109,240109,1,2,0:0:0:0:
302,71,240238,1,2,2:2:0:0:
310,33,240367,2,0,L|424:72,1,110.000003356934,8|2,0:0|0:0,0:0:0:0:
484,104,240755,1,2,0:0:0:0:
484,104,240885,6,0,P|460:156|472:208,1,110.000003356934,2|2,1:2|0:0,0:0:0:0:
504,284,241273,1,2,0:0:0:0:
504,284,241402,1,8,2:2:0:0:
356,360,241660,1,2,2:2:0:0:
320,184,241919,1,2,1:2:0:0:
338,151,242048,1,2,0:0:0:0:
344,113,242178,1,2,0:0:0:0:
337,75,242307,1,2,2:2:0:0:
319,41,242436,2,0,P|268:72|216:64,1,110.000003356934,8|0,2:2|0:0,0:0:0:0:
60,252,242954,6,0,L|84:136,1,110.000003356934,2|0,1:2|0:0,0:0:0:0:
220,65,243471,1,8,2:2:0:0:
276,288,243729,1,2,2:2:0:0:
276,288,243859,1,2,0:0:0:0:
276,288,243988,2,0,P|292:232|284:180,1,110.000003356934,2|2,1:2|0:0,0:0:0:0:
204,224,244376,2,0,P|188:280|196:332,1,110.000003356934,2|2,2:2|0:0,0:0:0:0:
268,380,244764,1,2,2:2:0:0:
368,160,245023,6,0,L|476:140,1,110.000003356934,2|2,1:2|0:0,0:0:0:0:
496,64,245410,1,2,2:2:0:0:
496,64,245540,1,8,2:2:0:0:
436,232,245798,1,2,2:2:0:0:
316,40,246057,1,2,1:2:0:0:
264,196,246316,1,2,0:0:0:0:
264,196,246445,1,2,0:0:0:0:
264,196,246574,1,8,2:2:0:0:
96,24,246833,5,2,0:0:0:0:
96,24,246962,1,2,0:0:0:0:
96,24,247091,2,0,P|72:64|72:112,1,89.9999972534181,4|2,1:2|2:2,0:0:0:0:
155,178,247609,1,2,2:2:0:0:
310,250,247867,1,2,2:2:0:0:
310,250,247997,2,0,P|268:270|216:274,1,89.9999972534181,2|0,2:2|0:0,0:0:0:0:
164,378,248385,2,0,P|132:286|160:170,1,209.999993591309,4|4,1:2|1:2,0:0:0:0:
155,178,249160,5,4,1:2:0:0:
51,153,249419,1,2,2:2:0:0:
77,46,249678,1,2,2:2:0:0:
182,71,249936,1,2,2:2:0:0:
182,71,250066,2,0,P|228:72|276:92,1,89.9999972534181,2|0,2:2|0:0,0:0:0:0:
371,25,250454,2,0,P|357:121|280:212,1,209.999993591309,4|4,1:2|1:2,0:0:0:0:
287,206,251229,1,4,1:2:0:0:
76,348,251747,5,2,1:2:0:0:
172,228,252005,1,0,1:1:0:0:
0,280,252264,1,2,2:2:0:0:
156,328,252523,1,0,1:1:0:0:
156,328,252652,2,0,L|208:340,1,50,2|0,2:2|1:0,0:0:0:0:
312,352,252910,1,0,1:1:0:0:
312,352,253040,1,2,2:2:0:0:
440,208,253298,2,0,B|452:136|452:136|440:92|440:92|456:8,1,200,4|0,1:2|0:0,0:0:0:0:
292,100,254074,5,2,2:2:0:0:
292,100,254204,1,2,0:0:0:0:
292,100,254333,2,0,L|240:92,1,40,2|2,2:2|2:2,0:0:0:0:
156,108,254591,1,2,2:2:0:0:
156,108,254721,2,0,L|148:160,1,40,2|2,2:2|0:0,0:0:0:0:
236,192,254979,1,2,2:2:0:0:
236,192,255109,2,0,L|288:200,1,40,2|2,2:2|0:0,0:0:0:0:
372,212,255367,1,2,2:2:0:0:
372,212,257048,5,2,2:2:0:0:
372,212,257178,2,0,L|384:272,1,40,2|2,2:2|2:2,0:0:0:0:
444,316,257436,2,0,P|400:336|340:328,1,100,4|0,1:2|0:0,0:0:0:0:
256,192,257954,2,0,L|280:80,1,100,10|2,2:2|0:0,0:0:0:0:
288,16,258341,1,2,0:0:0:0:
288,16,258471,2,0,P|236:8|180:24,1,100,2|2,1:2|0:0,0:0:0:0:
116,44,258859,1,2,0:0:0:0:
116,44,258988,1,10,2:2:0:0:
276,94,259247,1,2,0:0:0:0:
96,200,259505,6,0,B|92:256|92:256|104:284|104:284|96:352,1,150,2|2,1:2|2:2,0:0:0:0:
16,308,260023,1,8,2:2:0:0:
176,232,260281,1,2,2:2:0:0:
32,128,260540,2,0,L|64:33,1,100,2|2,1:2|0:0,0:0:0:0:
144,16,260928,1,2,2:2:0:0:
144,16,261057,1,8,2:2:0:0:
232,156,261316,1,2,2:2:0:0:
376,48,261574,6,0,P|428:12|516:28,1,150,2|0,1:2|0:0,0:0:0:0:
456,92,262091,2,0,L|476:192,1,100,10|0,2:2|0:0,0:0:0:0:
308,332,262609,2,0,L|327:233,1,100,2|2,1:2|0:0,0:0:0:0:
340,152,262997,1,2,0:0:0:0:
340,152,263126,1,10,2:2:0:0:
432,300,263385,1,2,0:0:0:0:
216,356,263643,6,0,P|164:356|128:328,1,100,2|2,1:2|0:0,0:0:0:0:
60,276,264031,1,2,2:2:0:0:
60,276,264160,1,8,2:2:0:0:
28,128,264419,1,2,2:2:0:0:
188,212,264678,1,2,1:2:0:0:
216,204,264807,1,0,1:0:0:0:
244,196,264936,1,0,1:0:0:0:
272,188,265066,1,0,1:0:0:0:
300,180,265195,1,8,2:2:0:0:
496,120,265454,5,0,1:0:0:0:
496,120,265583,1,0,1:0:0:0:
496,120,265712,1,4,1:2:0:0:
396,328,265971,1,2,2:2:0:0:
300,180,266229,5,8,2:2:0:0:
289,141,266359,1,2,2:2:0:0:
268,107,266488,1,2,0:0:0:0:
238,80,266617,1,2,2:2:0:0:
202,63,266747,1,2,1:2:0:0:
163,56,266876,1,2,2:2:0:0:
124,60,267005,1,2,2:2:0:0:
87,74,267135,1,2,0:0:0:0:
55,99,267264,1,10,2:2:0:0:
31,131,267393,1,2,0:0:0:0:
17,168,267523,1,2,0:0:0:0:
14,208,267652,1,2,0:0:0:0:
22,247,267781,5,2,1:2:0:0:
228,352,268040,1,2,2:2:0:0:
136,216,268298,5,8,2:2:0:0:
152,179,268428,1,2,2:2:0:0:
183,155,268557,1,2,0:0:0:0:
222,147,268686,1,2,2:2:0:0:
260,159,268816,1,2,1:2:0:0:
288,186,268945,1,2,2:2:0:0:
301,224,269074,1,2,2:2:0:0:
315,261,269204,1,2,0:0:0:0:
345,286,269333,1,10,2:2:0:0:
384,294,269462,1,2,0:0:0:0:
421,281,269591,1,2,0:0:0:0:
448,251,269721,1,2,0:0:0:0:
456,213,269850,5,2,1:2:0:0:
368,0,270109,1,2,2:2:0:0:
264,128,270367,5,8,2:2:0:0:
238,97,270497,1,2,2:2:0:0:
203,77,270626,1,2,0:0:0:0:
164,70,270755,1,2,2:2:0:0:
125,77,270885,1,2,1:2:0:0:
90,96,271014,1,2,2:2:0:0:
63,125,271143,1,2,2:2:0:0:
56,164,271273,1,2,0:0:0:0:
70,201,271402,1,10,2:2:0:0:
101,226,271531,1,2,0:0:0:0:
140,232,271660,1,2,0:0:0:0:
177,218,271790,1,2,0:0:0:0:
201,187,271919,5,2,1:2:0:0:
36,24,272178,1,2,2:2:0:0:
203,77,272436,5,8,2:2:0:0:
232,50,272566,1,2,2:2:0:0:
270,37,272695,1,2,0:0:0:0:
309,38,272824,1,2,2:2:0:0:
346,54,272954,1,2,1:2:0:0:
374,82,273083,1,2,2:2:0:0:
389,119,273212,1,2,2:2:0:0:
359,145,273341,1,2,0:0:0:0:
341,181,273471,1,8,2:2:0:0:
338,220,273600,1,2,0:0:0:0:
349,258,273729,1,2,0:0:0:0:
374,289,273859,1,2,0:0:0:0:
409,309,273988,5,4,1:2:0:0:
496,96,274247,1,2,2:2:0:0:
312,180,274505,5,8,2:2:0:0:
278,201,274635,1,2,2:2:0:0:
239,210,274764,1,2,0:0:0:0:
200,203,274893,1,2,2:2:0:0:
166,183,275023,5,2,1:2:0:0:
24,0,275281,1,2,2:2:0:0:
124,72,275540,5,8,2:2:0:0:
91,94,275669,1,2,2:2:0:0:
66,126,275798,1,2,0:0:0:0:
54,163,275928,1,2,2:2:0:0:
54,203,276057,5,2,1:2:0:0:
228,352,276316,1,2,2:2:0:0:
116,312,276574,5,8,2:2:0:0:
132,275,276704,1,2,2:2:0:0:
160,247,276833,1,2,0:0:0:0:
197,232,276962,1,2,2:2:0:0:
236,230,277091,5,2,1:2:0:0:
448,324,277350,1,2,2:2:0:0:
320,360,277609,5,8,2:2:0:0:
320,320,277738,1,2,2:2:0:0:
330,281,277867,1,2,0:0:0:0:
348,246,277997,1,2,0:0:0:0:
374,215,278126,5,4,1:2:0:0:
204,20,278385,1,2,1:2:0:0:
176,280,278643,1,10,2:2:0:0:
356,96,278902,1,2,1:2:0:0:
96,48,279160,5,2,1:2:0:0:
63,70,279290,1,0,1:2:0:0:
37,101,279419,1,2,1:2:0:0:
20,137,279548,1,0,1:2:0:0:
13,176,279678,1,10,1:2:0:0:
16,216,279807,1,0,1:2:0:0:
30,254,279936,1,2,1:2:0:0:
52,287,280066,1,0,1:2:0:0:
84,312,280195,5,4,1:2:0:0:
108,274,280324,1,0,1:2:0:0:
142,245,280454,1,2,1:2:0:0:
182,225,280583,1,0,1:2:0:0:
226,216,280712,1,10,1:2:0:0:
271,219,280841,1,0,1:2:0:0:
314,233,280971,1,2,1:2:0:0:
351,258,281100,1,0,1:2:0:0:
384,288,281229,6,0,L|416:281,16,25,2|0|2|0|2|0|2|0|10|0|2|0|2|0|2|0|4,1:2|1:2|1:2|1:2|1:2|1:2|1:2|1:2|1:2|1:2|1:2|1:2|1:2|1:2|1:2|1:2|1:2,0:0:0:0:
464,60,282781,6,0,P|408:32|336:52,1,120,4|0,1:2|0:0,0:0:0:0:
276,88,283298,1,2,0:0:0:0:
276,88,283428,1,2,0:0:0:0:
276,88,283557,2,0,L|296:132,1,40,2|2,0:0|0:0,0:0:0:0:
200,24,283816,1,2,0:0:0:0:
200,24,283945,1,2,0:0:0:0:
200,24,284074,2,0,L|180:68,1,40,2|2,0:0|0:0,0:0:0:0:
128,140,284333,5,2,2:2:0:0:
52,64,284591,1,2,2:2:0:0:
20,164,284850,1,2,2:2:0:0:
20,164,284979,1,2,2:2:0:0:
20,164,285109,1,2,2:2:0:0:
128,140,285367,2,0,P|148:176|148:216,1,80,2|2,2:2|2:2,0:0:0:0:
132,320,285885,1,2,2:2:0:0:
36,272,286143,1,2,2:2:0:0:
216,260,286402,5,2,1:2:0:0:
241,283,286531,1,2,0:0:0:0:
274,295,286660,1,2,2:2:0:0:
308,292,286790,1,2,0:0:0:0:
339,276,286919,5,10,2:2:0:0:
315,245,287048,1,2,2:2:0:0:
303,206,287178,1,2,2:2:0:0:
306,167,287307,1,2,0:0:0:0:
323,131,287436,5,2,1:2:0:0:
361,155,287566,1,0,3:3:0:0:
405,160,287695,1,2,3:2:0:0:
447,145,287824,1,10,2:2:0:0:
478,112,287954,5,10,2:2:0:0:
466,65,288083,1,10,2:2:0:0:
430,31,288212,1,10,2:2:0:0:
381,20,288341,1,12,1:2:0:0:
256,192,288471,12,0,294678,0:0:0:0:
