osu file format v14

[General]
AudioFilename: tytsgB.mp3
AudioLeadIn: 0
PreviewTime: -1
Countdown: 0
SampleSet: Soft
StackLeniency: 0.7
Mode: 3
LetterboxInBreaks: 0
SpecialStyle: 0
WidescreenStoryboard: 0

[Editor]
DistanceSpacing: 0.9
BeatDivisor: 4
GridSize: 4
TimelineZoom: 1

[Metadata]
Title:tianyitoushige
TitleUnicode:天依投食歌
Artist:loutianyi
ArtistUnicode:洛天依
Creator:zzc542049
Version:Normal Jepanese
Source:
Tags:
BeatmapID:1012302
BeatmapSetID:473822

[Difficulty]
HPDrainRate:5
CircleSize:4
OverallDifficulty:5
ApproachRate:5
SliderMultiplier:1.4
SliderTickRate:1

[Events]
//Background and Video events
Video,0,"tytsgA.mp4"
0,0,"2233.png",0,0
//Break Periods
//Storyboard Layer 0 (Background)
//Storyboard Layer 1 (Fail)
//Storyboard Layer 2 (Pass)
//Storyboard Layer 3 (Foreground)
//Storyboard Sound Samples

[TimingPoints]
8333.951330772,379.746835443038,4,2,0,100,1,0
11255,379.746835443038,4,2,0,100,1,0
14292,-100,4,2,0,100,0,0
179151,-66.6666666666667,4,2,0,100,0,0

[HitObjects]
64,192,7954,5,0,0:0:0:0:
320,192,7954,1,0,0:0:0:0:
448,192,8144,1,0,0:0:0:0:
192,192,8144,1,0,0:0:0:0:
448,192,8428,1,0,0:0:0:0:
320,192,8618,1,0,0:0:0:0:
64,192,8808,1,0,0:0:0:0:
192,192,8808,1,0,0:0:0:0:
192,192,8998,1,0,0:0:0:0:
320,192,9188,1,0,0:0:0:0:
448,192,9378,128,0,9758:0:0:0:0:
320,192,9378,1,0,0:0:0:0:
320,192,9473,1,0,0:0:0:0:
320,192,9568,1,0,0:0:0:0:
320,192,9758,1,0,0:0:0:0:
192,192,9947,1,0,0:0:0:0:
320,192,10137,1,0,0:0:0:0:
192,192,10327,1,0,0:0:0:0:
64,192,10327,1,0,0:0:0:0:
448,192,10422,1,0,0:0:0:0:
64,192,10517,1,0,0:0:0:0:
320,192,10517,1,0,0:0:0:0:
448,192,10612,128,0,10802:0:0:0:0:
192,192,10707,128,0,11087:0:0:0:0:
448,192,10897,1,0,0:0:0:0:
64,192,11087,1,0,0:0:0:0:
448,192,11349,1,0,0:0:0:0:
320,192,11539,1,0,0:0:0:0:
64,192,11729,1,0,0:0:0:0:
192,192,11729,1,0,0:0:0:0:
192,192,11919,1,0,0:0:0:0:
320,192,11919,1,0,0:0:0:0:
320,192,12109,1,0,0:0:0:0:
448,192,12299,128,0,12679:0:0:0:0:
320,192,12299,1,0,0:0:0:0:
320,192,12394,1,0,0:0:0:0:
320,192,12489,1,0,0:0:0:0:
320,192,12679,1,0,0:0:0:0:
192,192,12868,1,0,0:0:0:0:
320,192,13058,1,0,0:0:0:0:
192,192,13248,1,0,0:0:0:0:
320,192,13248,1,0,0:0:0:0:
64,192,13438,1,0,0:0:0:0:
192,192,13628,128,0,14008:0:0:0:0:
320,192,13628,1,0,0:0:0:0:
320,192,13818,1,0,0:0:0:0:
320,192,14008,1,0,0:0:0:0:
448,192,14387,1,0,0:0:0:0:
320,192,14577,1,0,0:0:0:0:
64,192,14767,1,0,0:0:0:0:
192,192,14767,1,0,0:0:0:0:
192,192,14957,1,0,0:0:0:0:
320,192,14957,1,0,0:0:0:0:
320,192,15147,1,0,0:0:0:0:
448,192,15337,128,0,15717:0:0:0:0:
320,192,15337,1,0,0:0:0:0:
320,192,15432,1,0,0:0:0:0:
320,192,15527,1,0,0:0:0:0:
320,192,15717,1,0,0:0:0:0:
192,192,15906,1,0,0:0:0:0:
320,192,16096,1,0,0:0:0:0:
192,192,16286,1,0,0:0:0:0:
320,192,16286,1,0,0:0:0:0:
64,192,16476,1,0,0:0:0:0:
192,192,16666,128,0,17046:0:0:0:0:
320,192,16666,1,0,0:0:0:0:
320,192,16856,1,0,0:0:0:0:
320,192,17046,1,0,0:0:0:0:
448,192,17425,1,0,0:0:0:0:
320,192,17615,1,0,0:0:0:0:
64,192,17805,1,0,0:0:0:0:
192,192,17995,1,0,0:0:0:0:
320,192,18185,1,0,0:0:0:0:
448,192,18375,128,0,18755:0:0:0:0:
320,192,18375,1,0,0:0:0:0:
320,192,18470,1,0,0:0:0:0:
320,192,18565,1,0,0:0:0:0:
320,192,18755,1,0,0:0:0:0:
192,192,18944,1,0,0:0:0:0:
320,192,19134,1,0,0:0:0:0:
192,192,19324,1,0,0:0:0:0:
320,192,19324,1,0,0:0:0:0:
64,192,19514,1,0,0:0:0:0:
192,192,19704,128,0,20084:0:0:0:0:
320,192,19704,1,0,0:0:0:0:
320,192,19894,1,0,0:0:0:0:
320,192,20084,1,0,0:0:0:0:
448,192,20463,1,0,0:0:0:0:
320,192,20653,1,0,0:0:0:0:
64,192,20843,1,0,0:0:0:0:
192,192,20843,1,0,0:0:0:0:
192,192,21033,1,0,0:0:0:0:
320,192,21223,1,0,0:0:0:0:
448,192,21413,128,0,21792:0:0:0:0:
320,192,21413,1,0,0:0:0:0:
320,192,21508,1,0,0:0:0:0:
320,192,21603,1,0,0:0:0:0:
320,192,21792,1,0,0:0:0:0:
192,192,21982,1,0,0:0:0:0:
448,192,21982,128,0,22362:0:0:0:0:
320,192,22172,1,0,0:0:0:0:
192,192,22362,1,0,0:0:0:0:
320,192,22362,128,0,22742:0:0:0:0:
64,192,22552,1,0,0:0:0:0:
192,192,22742,128,0,23122:0:0:0:0:
448,192,22742,128,0,23122:0:0:0:0:
320,192,22932,1,0,0:0:0:0:
320,192,23122,128,0,23501:0:0:0:0:
448,192,23311,1,0,0:0:0:0:
448,192,23501,1,0,0:0:0:0:
320,192,23691,1,0,0:0:0:0:
64,192,23881,1,0,0:0:0:0:
192,192,23881,1,0,0:0:0:0:
192,192,24071,1,0,0:0:0:0:
320,192,24261,1,0,0:0:0:0:
448,192,24451,128,0,24830:0:0:0:0:
320,192,24451,1,0,0:0:0:0:
320,192,24641,1,0,0:0:0:0:
320,192,24830,1,0,0:0:0:0:
192,192,25020,1,0,0:0:0:0:
320,192,25210,1,0,0:0:0:0:
192,192,25400,1,0,0:0:0:0:
320,192,25400,1,0,0:0:0:0:
64,192,25590,1,0,0:0:0:0:
192,192,25780,128,0,26160:0:0:0:0:
64,192,25780,1,0,0:0:0:0:
64,192,25970,1,0,0:0:0:0:
64,192,26160,1,0,0:0:0:0:
448,192,26539,1,0,0:0:0:0:
320,192,26729,1,0,0:0:0:0:
64,192,26919,1,0,0:0:0:0:
192,192,26919,1,0,0:0:0:0:
192,192,27109,1,0,0:0:0:0:
320,192,27109,1,0,0:0:0:0:
320,192,27299,1,0,0:0:0:0:
448,192,27489,128,0,27868:0:0:0:0:
320,192,27489,1,0,0:0:0:0:
320,192,27679,1,0,0:0:0:0:
320,192,27868,1,0,0:0:0:0:
192,192,28058,1,0,0:0:0:0:
320,192,28248,1,0,0:0:0:0:
192,192,28438,1,0,0:0:0:0:
320,192,28438,1,0,0:0:0:0:
64,192,28628,1,0,0:0:0:0:
192,192,28818,128,0,29198:0:0:0:0:
320,192,28818,1,0,0:0:0:0:
320,192,29008,1,0,0:0:0:0:
320,192,29198,1,0,0:0:0:0:
320,192,29387,1,0,0:0:0:0:
448,192,29577,1,0,0:0:0:0:
320,192,29767,1,0,0:0:0:0:
64,192,29957,1,0,0:0:0:0:
192,192,29957,1,0,0:0:0:0:
192,192,30147,1,0,0:0:0:0:
320,192,30147,1,0,0:0:0:0:
320,192,30337,1,0,0:0:0:0:
448,192,30527,128,0,30906:0:0:0:0:
320,192,30527,1,0,0:0:0:0:
320,192,30717,1,0,0:0:0:0:
320,192,30906,1,0,0:0:0:0:
192,192,31096,1,0,0:0:0:0:
320,192,31286,1,0,0:0:0:0:
192,192,31476,1,0,0:0:0:0:
320,192,31476,1,0,0:0:0:0:
64,192,31666,1,0,0:0:0:0:
192,192,31856,128,0,32236:0:0:0:0:
64,192,31856,1,0,0:0:0:0:
64,192,32046,1,0,0:0:0:0:
64,192,32236,1,0,0:0:0:0:
448,192,32615,1,0,0:0:0:0:
320,192,32805,1,0,0:0:0:0:
64,192,32995,1,0,0:0:0:0:
192,192,32995,1,0,0:0:0:0:
192,192,33185,1,0,0:0:0:0:
320,192,33375,1,0,0:0:0:0:
448,192,33565,128,0,33944:0:0:0:0:
320,192,33565,1,0,0:0:0:0:
320,192,33755,1,0,0:0:0:0:
320,192,33944,1,0,0:0:0:0:
192,192,34134,1,0,0:0:0:0:
320,192,34324,1,0,0:0:0:0:
192,192,34514,1,0,0:0:0:0:
320,192,34514,1,0,0:0:0:0:
64,192,34704,1,0,0:0:0:0:
192,192,34894,128,0,35273:0:0:0:0:
64,192,34894,1,0,0:0:0:0:
64,192,35084,1,0,0:0:0:0:
64,192,35273,1,0,0:0:0:0:
448,192,35653,1,0,0:0:0:0:
320,192,35843,1,0,0:0:0:0:
64,192,36033,1,0,0:0:0:0:
192,192,36033,1,0,0:0:0:0:
192,192,36223,1,0,0:0:0:0:
320,192,36223,1,0,0:0:0:0:
320,192,36413,1,0,0:0:0:0:
448,192,36603,128,0,36982:0:0:0:0:
320,192,36603,1,0,0:0:0:0:
320,192,36792,1,0,0:0:0:0:
320,192,36982,1,0,0:0:0:0:
192,192,37172,1,0,0:0:0:0:
320,192,37362,1,0,0:0:0:0:
192,192,37552,1,0,0:0:0:0:
320,192,37552,1,0,0:0:0:0:
64,192,37742,1,0,0:0:0:0:
192,192,37932,128,0,38311:0:0:0:0:
64,192,37932,1,0,0:0:0:0:
64,192,38122,1,0,0:0:0:0:
64,192,38311,1,0,0:0:0:0:
448,192,38691,1,0,0:0:0:0:
320,192,38881,1,0,0:0:0:0:
64,192,39071,1,0,0:0:0:0:
192,192,39071,1,0,0:0:0:0:
192,192,39261,1,0,0:0:0:0:
320,192,39451,1,0,0:0:0:0:
448,192,39641,128,0,40020:0:0:0:0:
320,192,39641,1,0,0:0:0:0:
320,192,39830,1,0,0:0:0:0:
320,192,40020,1,0,0:0:0:0:
192,192,40210,1,0,0:0:0:0:
320,192,40400,1,0,0:0:0:0:
192,192,40590,1,0,0:0:0:0:
320,192,40590,1,0,0:0:0:0:
64,192,40780,1,0,0:0:0:0:
192,192,40970,128,0,41349:0:0:0:0:
64,192,40970,1,0,0:0:0:0:
64,192,41160,1,0,0:0:0:0:
64,192,41349,1,0,0:0:0:0:
448,192,41729,1,0,0:0:0:0:
320,192,41919,1,0,0:0:0:0:
64,192,42109,1,0,0:0:0:0:
192,192,42109,1,0,0:0:0:0:
192,192,42299,1,0,0:0:0:0:
320,192,42489,1,0,0:0:0:0:
448,192,42679,128,0,43058:0:0:0:0:
320,192,42679,1,0,0:0:0:0:
320,192,42868,1,0,0:0:0:0:
320,192,43058,1,0,0:0:0:0:
192,192,43248,1,0,0:0:0:0:
320,192,43438,1,0,0:0:0:0:
192,192,43628,1,0,0:0:0:0:
320,192,43628,1,0,0:0:0:0:
64,192,43818,1,0,0:0:0:0:
192,192,44008,128,0,44387:0:0:0:0:
64,192,44008,1,0,0:0:0:0:
64,192,44198,1,0,0:0:0:0:
64,192,44387,1,0,0:0:0:0:
448,192,44767,1,0,0:0:0:0:
320,192,44957,1,0,0:0:0:0:
64,192,45147,1,0,0:0:0:0:
192,192,45147,1,0,0:0:0:0:
192,192,45337,1,0,0:0:0:0:
320,192,45527,1,0,0:0:0:0:
448,192,45717,128,0,46096:0:0:0:0:
320,192,45717,1,0,0:0:0:0:
320,192,45906,1,0,0:0:0:0:
320,192,46096,1,0,0:0:0:0:
192,192,46286,1,0,0:0:0:0:
320,192,46476,1,0,0:0:0:0:
192,192,46666,1,0,0:0:0:0:
320,192,46666,1,0,0:0:0:0:
64,192,46856,1,0,0:0:0:0:
192,192,47046,128,0,47425:0:0:0:0:
64,192,47046,1,0,0:0:0:0:
64,192,47236,1,0,0:0:0:0:
64,192,47425,1,0,0:0:0:0:
448,192,47805,1,0,0:0:0:0:
320,192,47995,1,0,0:0:0:0:
64,192,48185,1,0,0:0:0:0:
192,192,48185,1,0,0:0:0:0:
192,192,48375,1,0,0:0:0:0:
320,192,48565,1,0,0:0:0:0:
448,192,48755,128,0,49134:0:0:0:0:
320,192,48755,1,0,0:0:0:0:
320,192,48849,1,0,0:0:0:0:
320,192,48944,1,0,0:0:0:0:
320,192,49134,1,0,0:0:0:0:
192,192,49324,1,0,0:0:0:0:
320,192,49514,1,0,0:0:0:0:
192,192,49704,1,0,0:0:0:0:
64,192,49894,1,0,0:0:0:0:
192,192,50084,128,0,50463:0:0:0:0:
64,192,50084,1,0,0:0:0:0:
64,192,50273,1,0,0:0:0:0:
64,192,50463,1,0,0:0:0:0:
448,192,50843,1,0,0:0:0:0:
320,192,51033,1,0,0:0:0:0:
64,192,51223,1,0,0:0:0:0:
192,192,51223,1,0,0:0:0:0:
192,192,51413,1,0,0:0:0:0:
320,192,51603,1,0,0:0:0:0:
448,192,51792,128,0,52172:0:0:0:0:
320,192,51792,1,0,0:0:0:0:
320,192,51887,1,0,0:0:0:0:
320,192,51982,1,0,0:0:0:0:
320,192,52172,1,0,0:0:0:0:
448,192,52362,1,0,0:0:0:0:
320,192,52552,1,0,0:0:0:0:
192,192,52742,1,0,0:0:0:0:
320,192,52932,1,0,0:0:0:0:
192,192,53122,128,0,53501:0:0:0:0:
320,192,53122,1,0,0:0:0:0:
320,192,53311,1,0,0:0:0:0:
320,192,53501,1,0,0:0:0:0:
448,192,53881,1,0,0:0:0:0:
320,192,54071,1,0,0:0:0:0:
64,192,54261,1,0,0:0:0:0:
192,192,54261,1,0,0:0:0:0:
192,192,54451,1,0,0:0:0:0:
320,192,54641,1,0,0:0:0:0:
448,192,54830,128,0,55210:0:0:0:0:
320,192,54830,1,0,0:0:0:0:
320,192,54925,1,0,0:0:0:0:
320,192,55020,1,0,0:0:0:0:
320,192,55210,1,0,0:0:0:0:
192,192,55400,1,0,0:0:0:0:
320,192,55590,1,0,0:0:0:0:
192,192,55780,1,0,0:0:0:0:
320,192,55780,1,0,0:0:0:0:
64,192,55970,1,0,0:0:0:0:
192,192,56160,128,0,56539:0:0:0:0:
64,192,56160,1,0,0:0:0:0:
64,192,56349,1,0,0:0:0:0:
64,192,56539,1,0,0:0:0:0:
448,192,56919,1,0,0:0:0:0:
320,192,57109,1,0,0:0:0:0:
64,192,57299,1,0,0:0:0:0:
192,192,57299,1,0,0:0:0:0:
192,192,57489,1,0,0:0:0:0:
320,192,57679,1,0,0:0:0:0:
448,192,57868,128,0,58248:0:0:0:0:
320,192,57868,1,0,0:0:0:0:
320,192,57963,1,0,0:0:0:0:
320,192,58058,1,0,0:0:0:0:
320,192,58248,1,0,0:0:0:0:
448,192,58438,1,0,0:0:0:0:
320,192,58628,1,0,0:0:0:0:
192,192,58818,1,0,0:0:0:0:
64,192,59008,1,0,0:0:0:0:
64,192,59198,128,0,59577:0:0:0:0:
192,192,59198,1,0,0:0:0:0:
192,192,59387,1,0,0:0:0:0:
192,192,59577,1,0,0:0:0:0:
192,192,59862,1,0,0:0:0:0:
448,192,59957,1,0,0:0:0:0:
320,192,60147,1,0,0:0:0:0:
64,192,60337,1,0,0:0:0:0:
192,192,60337,1,0,0:0:0:0:
192,192,60527,1,0,0:0:0:0:
320,192,60717,1,0,0:0:0:0:
448,192,60906,128,0,61286:0:0:0:0:
320,192,60906,1,0,0:0:0:0:
320,192,61001,1,0,0:0:0:0:
320,192,61096,1,0,0:0:0:0:
320,192,61286,1,0,0:0:0:0:
192,192,61476,1,0,0:0:0:0:
320,192,61666,1,0,0:0:0:0:
192,192,61856,1,0,0:0:0:0:
320,192,61856,1,0,0:0:0:0:
64,192,62046,1,0,0:0:0:0:
192,192,62236,128,0,62615:0:0:0:0:
64,192,62236,1,0,0:0:0:0:
64,192,62425,1,0,0:0:0:0:
64,192,62615,1,0,0:0:0:0:
448,192,62995,1,0,0:0:0:0:
320,192,63185,1,0,0:0:0:0:
64,192,63375,1,0,0:0:0:0:
192,192,63375,1,0,0:0:0:0:
192,192,63565,1,0,0:0:0:0:
320,192,63755,1,0,0:0:0:0:
448,192,63944,128,0,64324:0:0:0:0:
320,192,63944,1,0,0:0:0:0:
320,192,64039,1,0,0:0:0:0:
320,192,64134,1,0,0:0:0:0:
320,192,64324,1,0,0:0:0:0:
448,192,64514,1,0,0:0:0:0:
320,192,64704,1,0,0:0:0:0:
192,192,64894,1,0,0:0:0:0:
320,192,64894,1,0,0:0:0:0:
320,192,65084,1,0,0:0:0:0:
192,192,65273,128,0,65653:0:0:0:0:
320,192,65273,1,0,0:0:0:0:
320,192,65463,1,0,0:0:0:0:
320,192,65653,1,0,0:0:0:0:
448,192,66033,1,0,0:0:0:0:
320,192,66223,1,0,0:0:0:0:
64,192,66413,1,0,0:0:0:0:
192,192,66413,1,0,0:0:0:0:
192,192,66603,1,0,0:0:0:0:
320,192,66792,1,0,0:0:0:0:
448,192,66982,128,0,67362:0:0:0:0:
320,192,66982,1,0,0:0:0:0:
320,192,67077,1,0,0:0:0:0:
320,192,67172,1,0,0:0:0:0:
320,192,67362,1,0,0:0:0:0:
192,192,67552,1,0,0:0:0:0:
320,192,67742,1,0,0:0:0:0:
192,192,67932,1,0,0:0:0:0:
320,192,67932,1,0,0:0:0:0:
64,192,68122,1,0,0:0:0:0:
192,192,68311,128,0,68691:0:0:0:0:
64,192,68311,1,0,0:0:0:0:
64,192,68501,1,0,0:0:0:0:
64,192,68691,1,0,0:0:0:0:
320,192,69071,1,0,0:0:0:0:
320,192,69261,1,0,0:0:0:0:
64,192,69451,1,0,0:0:0:0:
64,192,69641,1,0,0:0:0:0:
320,192,69830,128,0,70210:0:0:0:0:
448,192,69830,1,0,0:0:0:0:
448,192,70020,1,0,0:0:0:0:
448,192,70115,1,0,0:0:0:0:
64,192,70210,128,0,70590:0:0:0:0:
448,192,70210,1,0,0:0:0:0:
192,192,70400,1,0,0:0:0:0:
192,192,70590,128,0,70970:0:0:0:0:
64,192,70780,1,0,0:0:0:0:
320,192,70970,128,0,71349:0:0:0:0:
64,192,70970,1,0,0:0:0:0:
192,192,71160,1,0,0:0:0:0:
448,192,71349,128,0,71729:0:0:0:0:
192,192,71349,1,0,0:0:0:0:
320,192,71539,1,0,0:0:0:0:
320,192,71729,128,0,72109:0:0:0:0:
448,192,72109,128,0,72489:0:0:0:0:
320,192,72489,128,0,72868:0:0:0:0:
192,192,72868,128,0,73248:0:0:0:0:
64,192,73248,128,0,73628:0:0:0:0:
448,192,73628,1,0,0:0:0:0:
320,192,73628,1,0,0:0:0:0:
320,192,73818,1,0,0:0:0:0:
64,192,74008,1,0,0:0:0:0:
192,192,74008,1,0,0:0:0:0:
192,192,74198,1,0,0:0:0:0:
320,192,74387,1,0,0:0:0:0:
448,192,74577,128,0,74957:0:0:0:0:
320,192,74577,1,0,0:0:0:0:
320,192,74767,1,0,0:0:0:0:
320,192,74957,1,0,0:0:0:0:
192,192,75147,1,0,0:0:0:0:
320,192,75337,1,0,0:0:0:0:
192,192,75527,1,0,0:0:0:0:
320,192,75527,1,0,0:0:0:0:
64,192,75717,1,0,0:0:0:0:
192,192,75906,128,0,76286:0:0:0:0:
64,192,75906,1,0,0:0:0:0:
64,192,76096,1,0,0:0:0:0:
64,192,76286,1,0,0:0:0:0:
448,192,76666,1,0,0:0:0:0:
320,192,76856,1,0,0:0:0:0:
64,192,77046,1,0,0:0:0:0:
192,192,77046,1,0,0:0:0:0:
192,192,77236,1,0,0:0:0:0:
320,192,77425,1,0,0:0:0:0:
448,192,77615,128,0,77995:0:0:0:0:
320,192,77615,1,0,0:0:0:0:
320,192,77805,1,0,0:0:0:0:
320,192,77995,1,0,0:0:0:0:
192,192,78185,1,0,0:0:0:0:
320,192,78375,1,0,0:0:0:0:
192,192,78565,1,0,0:0:0:0:
320,192,78565,1,0,0:0:0:0:
64,192,78755,1,0,0:0:0:0:
192,192,78944,128,0,79324:0:0:0:0:
64,192,78944,1,0,0:0:0:0:
64,192,79134,1,0,0:0:0:0:
64,192,79324,1,0,0:0:0:0:
448,192,79704,1,0,0:0:0:0:
320,192,79894,1,0,0:0:0:0:
64,192,80084,1,0,0:0:0:0:
192,192,80084,1,0,0:0:0:0:
192,192,80273,1,0,0:0:0:0:
320,192,80463,1,0,0:0:0:0:
448,192,80653,128,0,81033:0:0:0:0:
320,192,80653,1,0,0:0:0:0:
320,192,80843,1,0,0:0:0:0:
320,192,81033,1,0,0:0:0:0:
192,192,81223,1,0,0:0:0:0:
320,192,81413,1,0,0:0:0:0:
192,192,81603,1,0,0:0:0:0:
320,192,81603,1,0,0:0:0:0:
64,192,81792,1,0,0:0:0:0:
192,192,81982,128,0,82362:0:0:0:0:
64,192,81982,1,0,0:0:0:0:
64,192,82172,1,0,0:0:0:0:
64,192,82362,1,0,0:0:0:0:
448,192,82742,1,0,0:0:0:0:
320,192,82932,1,0,0:0:0:0:
64,192,83122,1,0,0:0:0:0:
192,192,83122,1,0,0:0:0:0:
192,192,83311,1,0,0:0:0:0:
320,192,83501,1,0,0:0:0:0:
448,192,83691,128,0,84071:0:0:0:0:
320,192,83691,1,0,0:0:0:0:
320,192,83881,1,0,0:0:0:0:
320,192,84071,1,0,0:0:0:0:
192,192,84261,1,0,0:0:0:0:
320,192,84451,1,0,0:0:0:0:
192,192,84641,1,0,0:0:0:0:
320,192,84641,1,0,0:0:0:0:
64,192,84830,1,0,0:0:0:0:
192,192,85020,128,0,85400:0:0:0:0:
64,192,85020,1,0,0:0:0:0:
64,192,85210,1,0,0:0:0:0:
64,192,85400,1,0,0:0:0:0:
448,192,85780,1,0,0:0:0:0:
320,192,85970,1,0,0:0:0:0:
64,192,86160,1,0,0:0:0:0:
192,192,86160,1,0,0:0:0:0:
192,192,86349,1,0,0:0:0:0:
320,192,86539,1,0,0:0:0:0:
448,192,86729,128,0,87109:0:0:0:0:
320,192,86729,1,0,0:0:0:0:
320,192,86919,1,0,0:0:0:0:
320,192,87109,1,0,0:0:0:0:
192,192,87299,1,0,0:0:0:0:
320,192,87489,1,0,0:0:0:0:
192,192,87679,1,0,0:0:0:0:
320,192,87679,1,0,0:0:0:0:
64,192,87868,1,0,0:0:0:0:
192,192,88058,128,0,88438:0:0:0:0:
64,192,88058,1,0,0:0:0:0:
64,192,88248,1,0,0:0:0:0:
64,192,88438,1,0,0:0:0:0:
448,192,88818,1,0,0:0:0:0:
320,192,89008,1,0,0:0:0:0:
64,192,89198,1,0,0:0:0:0:
192,192,89198,1,0,0:0:0:0:
192,192,89387,1,0,0:0:0:0:
320,192,89577,1,0,0:0:0:0:
448,192,89767,128,0,90147:0:0:0:0:
320,192,89767,1,0,0:0:0:0:
320,192,89957,1,0,0:0:0:0:
320,192,90147,1,0,0:0:0:0:
192,192,90337,1,0,0:0:0:0:
320,192,90527,1,0,0:0:0:0:
192,192,90717,1,0,0:0:0:0:
320,192,90717,1,0,0:0:0:0:
64,192,90906,1,0,0:0:0:0:
192,192,91096,128,0,91476:0:0:0:0:
64,192,91096,1,0,0:0:0:0:
64,192,91286,1,0,0:0:0:0:
64,192,91476,1,0,0:0:0:0:
448,192,91856,1,0,0:0:0:0:
320,192,92046,1,0,0:0:0:0:
64,192,92236,1,0,0:0:0:0:
192,192,92236,1,0,0:0:0:0:
192,192,92425,1,0,0:0:0:0:
320,192,92615,1,0,0:0:0:0:
448,192,92805,128,0,93185:0:0:0:0:
320,192,92805,1,0,0:0:0:0:
320,192,92995,1,0,0:0:0:0:
320,192,93185,1,0,0:0:0:0:
192,192,93375,1,0,0:0:0:0:
320,192,93565,1,0,0:0:0:0:
192,192,93755,1,0,0:0:0:0:
320,192,93755,1,0,0:0:0:0:
64,192,93944,1,0,0:0:0:0:
192,192,94134,128,0,94514:0:0:0:0:
64,192,94134,1,0,0:0:0:0:
64,192,94324,1,0,0:0:0:0:
64,192,94514,1,0,0:0:0:0:
448,192,94894,1,0,0:0:0:0:
320,192,95084,1,0,0:0:0:0:
64,192,95273,1,0,0:0:0:0:
192,192,95273,1,0,0:0:0:0:
192,192,95463,1,0,0:0:0:0:
320,192,95653,1,0,0:0:0:0:
448,192,95843,128,0,96223:0:0:0:0:
320,192,95843,1,0,0:0:0:0:
320,192,96033,1,0,0:0:0:0:
320,192,96223,1,0,0:0:0:0:
192,192,96413,1,0,0:0:0:0:
320,192,96603,1,0,0:0:0:0:
192,192,96792,1,0,0:0:0:0:
320,192,96792,1,0,0:0:0:0:
64,192,96982,1,0,0:0:0:0:
192,192,97172,128,0,97552:0:0:0:0:
64,192,97172,1,0,0:0:0:0:
64,192,97362,1,0,0:0:0:0:
64,192,97552,1,0,0:0:0:0:
448,192,97932,1,0,0:0:0:0:
320,192,98122,1,0,0:0:0:0:
64,192,98311,1,0,0:0:0:0:
192,192,98311,1,0,0:0:0:0:
192,192,98501,1,0,0:0:0:0:
320,192,98691,1,0,0:0:0:0:
448,192,98881,128,0,99261:0:0:0:0:
320,192,98881,1,0,0:0:0:0:
320,192,98976,1,0,0:0:0:0:
320,192,99071,1,0,0:0:0:0:
320,192,99261,1,0,0:0:0:0:
192,192,99451,1,0,0:0:0:0:
320,192,99641,1,0,0:0:0:0:
192,192,99830,1,0,0:0:0:0:
320,192,99830,1,0,0:0:0:0:
64,192,100020,1,0,0:0:0:0:
192,192,100210,128,0,100590:0:0:0:0:
64,192,100210,1,0,0:0:0:0:
64,192,100400,1,0,0:0:0:0:
64,192,100590,1,0,0:0:0:0:
448,192,100970,1,0,0:0:0:0:
320,192,101160,1,0,0:0:0:0:
64,192,101349,1,0,0:0:0:0:
192,192,101349,1,0,0:0:0:0:
192,192,101539,1,0,0:0:0:0:
320,192,101729,1,0,0:0:0:0:
448,192,101919,128,0,102299:0:0:0:0:
320,192,101919,1,0,0:0:0:0:
320,192,102014,1,0,0:0:0:0:
320,192,102109,1,0,0:0:0:0:
320,192,102299,1,0,0:0:0:0:
448,192,102489,1,0,0:0:0:0:
320,192,102679,1,0,0:0:0:0:
192,192,102868,1,0,0:0:0:0:
320,192,103058,1,0,0:0:0:0:
192,192,103248,128,0,103628:0:0:0:0:
320,192,103248,1,0,0:0:0:0:
320,192,103438,1,0,0:0:0:0:
320,192,103628,1,0,0:0:0:0:
448,192,104008,1,0,0:0:0:0:
320,192,104198,1,0,0:0:0:0:
64,192,104387,1,0,0:0:0:0:
192,192,104387,1,0,0:0:0:0:
192,192,104577,1,0,0:0:0:0:
320,192,104767,1,0,0:0:0:0:
448,192,104957,128,0,105337:0:0:0:0:
320,192,104957,1,0,0:0:0:0:
320,192,105052,1,0,0:0:0:0:
320,192,105147,1,0,0:0:0:0:
320,192,105337,1,0,0:0:0:0:
192,192,105527,1,0,0:0:0:0:
320,192,105717,1,0,0:0:0:0:
192,192,105906,1,0,0:0:0:0:
64,192,106096,1,0,0:0:0:0:
192,192,106286,128,0,106666:0:0:0:0:
64,192,106286,1,0,0:0:0:0:
64,192,106476,1,0,0:0:0:0:
64,192,106666,1,0,0:0:0:0:
448,192,107046,1,0,0:0:0:0:
320,192,107236,1,0,0:0:0:0:
64,192,107425,1,0,0:0:0:0:
192,192,107425,1,0,0:0:0:0:
192,192,107615,1,0,0:0:0:0:
320,192,107805,1,0,0:0:0:0:
448,192,107995,128,0,108375:0:0:0:0:
320,192,107995,1,0,0:0:0:0:
320,192,108375,1,0,0:0:0:0:
448,192,108565,1,0,0:0:0:0:
320,192,108755,1,0,0:0:0:0:
192,192,108944,1,0,0:0:0:0:
64,192,109134,1,0,0:0:0:0:
192,192,109134,1,0,0:0:0:0:
64,192,109324,128,0,109704:0:0:0:0:
192,192,109324,1,0,0:0:0:0:
192,192,109514,1,0,0:0:0:0:
192,192,109704,1,0,0:0:0:0:
448,192,110084,1,0,0:0:0:0:
320,192,110273,1,0,0:0:0:0:
64,192,110463,1,0,0:0:0:0:
192,192,110463,1,0,0:0:0:0:
192,192,110653,1,0,0:0:0:0:
320,192,110843,1,0,0:0:0:0:
448,192,111033,128,0,111413:0:0:0:0:
320,192,111033,1,0,0:0:0:0:
320,192,111128,1,0,0:0:0:0:
320,192,111223,1,0,0:0:0:0:
320,192,111413,1,0,0:0:0:0:
192,192,111603,1,0,0:0:0:0:
320,192,111792,1,0,0:0:0:0:
192,192,111982,1,0,0:0:0:0:
320,192,111982,1,0,0:0:0:0:
64,192,112172,1,0,0:0:0:0:
192,192,112362,128,0,112742:0:0:0:0:
64,192,112362,1,0,0:0:0:0:
64,192,112552,1,0,0:0:0:0:
64,192,112742,1,0,0:0:0:0:
448,192,113122,1,0,0:0:0:0:
320,192,113311,1,0,0:0:0:0:
64,192,113501,1,0,0:0:0:0:
192,192,113501,1,0,0:0:0:0:
192,192,113691,1,0,0:0:0:0:
320,192,113881,1,0,0:0:0:0:
448,192,114071,128,0,114451:0:0:0:0:
320,192,114071,1,0,0:0:0:0:
320,192,114166,1,0,0:0:0:0:
320,192,114261,1,0,0:0:0:0:
320,192,114451,1,0,0:0:0:0:
448,192,114641,1,0,0:0:0:0:
320,192,114830,1,0,0:0:0:0:
192,192,115020,1,0,0:0:0:0:
320,192,115210,1,0,0:0:0:0:
192,192,115400,128,0,115780:0:0:0:0:
320,192,115400,1,0,0:0:0:0:
320,192,115590,1,0,0:0:0:0:
320,192,115780,1,0,0:0:0:0:
448,192,116160,1,0,0:0:0:0:
320,192,116349,1,0,0:0:0:0:
64,192,116539,1,0,0:0:0:0:
192,192,116539,1,0,0:0:0:0:
192,192,116729,1,0,0:0:0:0:
320,192,116919,1,0,0:0:0:0:
448,192,117109,128,0,117489:0:0:0:0:
320,192,117109,1,0,0:0:0:0:
320,192,117204,1,0,0:0:0:0:
320,192,117299,1,0,0:0:0:0:
320,192,117489,1,0,0:0:0:0:
192,192,117679,1,0,0:0:0:0:
320,192,117868,1,0,0:0:0:0:
192,192,118058,1,0,0:0:0:0:
320,192,118058,1,0,0:0:0:0:
64,192,118248,1,0,0:0:0:0:
192,192,118438,128,0,118818:0:0:0:0:
64,192,118438,1,0,0:0:0:0:
64,192,118628,1,0,0:0:0:0:
64,192,118818,1,0,0:0:0:0:
448,192,119198,1,0,0:0:0:0:
448,192,119387,1,0,0:0:0:0:
192,192,119577,1,0,0:0:0:0:
192,192,119767,1,0,0:0:0:0:
320,192,119957,128,0,120337:0:0:0:0:
192,192,119957,1,0,0:0:0:0:
192,192,120147,1,0,0:0:0:0:
192,192,120242,1,0,0:0:0:0:
64,192,120337,128,0,120717:0:0:0:0:
192,192,120337,1,0,0:0:0:0:
192,192,120527,1,0,0:0:0:0:
192,192,120717,128,0,121096:0:0:0:0:
320,192,120906,1,0,0:0:0:0:
320,192,121096,128,0,121476:0:0:0:0:
192,192,121286,1,0,0:0:0:0:
448,192,121476,128,0,121856:0:0:0:0:
192,192,121666,1,0,0:0:0:0:
320,192,121856,128,0,122236:0:0:0:0:
448,192,122236,128,0,122615:0:0:0:0:
320,192,122615,128,0,122995:0:0:0:0:
192,192,122995,128,0,123375:0:0:0:0:
64,192,123375,128,0,123755:0:0:0:0:
448,192,123755,1,0,0:0:0:0:
320,192,123944,1,0,0:0:0:0:
64,192,124134,1,0,0:0:0:0:
192,192,124134,1,0,0:0:0:0:
192,192,124324,1,0,0:0:0:0:
320,192,124514,1,0,0:0:0:0:
448,192,124704,128,0,125084:0:0:0:0:
320,192,124704,1,0,0:0:0:0:
320,192,124894,1,0,0:0:0:0:
320,192,125084,1,0,0:0:0:0:
192,192,125273,1,0,0:0:0:0:
320,192,125463,1,0,0:0:0:0:
192,192,125653,1,0,0:0:0:0:
320,192,125653,1,0,0:0:0:0:
64,192,125843,1,0,0:0:0:0:
192,192,126033,128,0,126413:0:0:0:0:
64,192,126033,1,0,0:0:0:0:
64,192,126223,1,0,0:0:0:0:
64,192,126413,1,0,0:0:0:0:
448,192,126792,1,0,0:0:0:0:
320,192,126982,1,0,0:0:0:0:
64,192,127172,1,0,0:0:0:0:
192,192,127172,1,0,0:0:0:0:
192,192,127362,1,0,0:0:0:0:
320,192,127552,1,0,0:0:0:0:
448,192,127742,128,0,128122:0:0:0:0:
320,192,127742,1,0,0:0:0:0:
320,192,127932,1,0,0:0:0:0:
320,192,128122,1,0,0:0:0:0:
192,192,128311,1,0,0:0:0:0:
320,192,128501,1,0,0:0:0:0:
192,192,128691,1,0,0:0:0:0:
320,192,128691,1,0,0:0:0:0:
64,192,128881,1,0,0:0:0:0:
192,192,129071,128,0,129451:0:0:0:0:
64,192,129071,1,0,0:0:0:0:
64,192,129261,1,0,0:0:0:0:
64,192,129451,1,0,0:0:0:0:
448,192,129830,1,0,0:0:0:0:
320,192,130020,1,0,0:0:0:0:
64,192,130210,1,0,0:0:0:0:
192,192,130210,1,0,0:0:0:0:
192,192,130400,1,0,0:0:0:0:
320,192,130590,1,0,0:0:0:0:
448,192,130780,128,0,131160:0:0:0:0:
320,192,130780,1,0,0:0:0:0:
320,192,130970,1,0,0:0:0:0:
320,192,131160,1,0,0:0:0:0:
192,192,131349,1,0,0:0:0:0:
320,192,131539,1,0,0:0:0:0:
192,192,131729,1,0,0:0:0:0:
64,192,131919,1,0,0:0:0:0:
192,192,132109,128,0,132489:0:0:0:0:
64,192,132109,1,0,0:0:0:0:
64,192,132299,1,0,0:0:0:0:
64,192,132489,1,0,0:0:0:0:
448,192,132868,1,0,0:0:0:0:
320,192,133058,1,0,0:0:0:0:
64,192,133248,1,0,0:0:0:0:
192,192,133248,1,0,0:0:0:0:
192,192,133438,1,0,0:0:0:0:
320,192,133628,1,0,0:0:0:0:
448,192,133818,128,0,134198:0:0:0:0:
320,192,133818,1,0,0:0:0:0:
320,192,134008,1,0,0:0:0:0:
320,192,134198,1,0,0:0:0:0:
192,192,134387,1,0,0:0:0:0:
320,192,134577,1,0,0:0:0:0:
192,192,134767,1,0,0:0:0:0:
320,192,134767,1,0,0:0:0:0:
64,192,134957,1,0,0:0:0:0:
192,192,135147,128,0,135527:0:0:0:0:
64,192,135147,1,0,0:0:0:0:
64,192,135337,1,0,0:0:0:0:
64,192,135527,1,0,0:0:0:0:
448,192,135906,1,0,0:0:0:0:
320,192,136096,1,0,0:0:0:0:
64,192,136286,1,0,0:0:0:0:
192,192,136286,1,0,0:0:0:0:
192,192,136476,1,0,0:0:0:0:
320,192,136666,1,0,0:0:0:0:
448,192,136856,128,0,137236:0:0:0:0:
320,192,136856,1,0,0:0:0:0:
320,192,137046,1,0,0:0:0:0:
320,192,137236,1,0,0:0:0:0:
192,192,137425,1,0,0:0:0:0:
320,192,137615,1,0,0:0:0:0:
192,192,137805,1,0,0:0:0:0:
320,192,137805,1,0,0:0:0:0:
64,192,137995,1,0,0:0:0:0:
192,192,138185,128,0,138565:0:0:0:0:
64,192,138185,1,0,0:0:0:0:
64,192,138375,1,0,0:0:0:0:
64,192,138565,1,0,0:0:0:0:
448,192,138944,1,0,0:0:0:0:
320,192,139134,1,0,0:0:0:0:
64,192,139324,1,0,0:0:0:0:
192,192,139324,1,0,0:0:0:0:
192,192,139514,1,0,0:0:0:0:
320,192,139704,1,0,0:0:0:0:
448,192,139894,128,0,140273:0:0:0:0:
320,192,139894,1,0,0:0:0:0:
320,192,140084,1,0,0:0:0:0:
320,192,140273,1,0,0:0:0:0:
192,192,140463,1,0,0:0:0:0:
320,192,140653,1,0,0:0:0:0:
192,192,140843,1,0,0:0:0:0:
320,192,140843,1,0,0:0:0:0:
64,192,141033,1,0,0:0:0:0:
192,192,141223,128,0,141603:0:0:0:0:
64,192,141223,1,0,0:0:0:0:
64,192,141413,1,0,0:0:0:0:
64,192,141603,1,0,0:0:0:0:
448,192,141982,1,0,0:0:0:0:
320,192,142172,1,0,0:0:0:0:
64,192,142362,1,0,0:0:0:0:
192,192,142362,1,0,0:0:0:0:
192,192,142552,1,0,0:0:0:0:
320,192,142742,1,0,0:0:0:0:
448,192,142932,128,0,143311:0:0:0:0:
320,192,142932,1,0,0:0:0:0:
320,192,143122,1,0,0:0:0:0:
320,192,143311,1,0,0:0:0:0:
192,192,143501,1,0,0:0:0:0:
320,192,143691,1,0,0:0:0:0:
192,192,143881,1,0,0:0:0:0:
320,192,143881,1,0,0:0:0:0:
64,192,144071,1,0,0:0:0:0:
192,192,144261,128,0,144641:0:0:0:0:
64,192,144261,1,0,0:0:0:0:
64,192,144451,1,0,0:0:0:0:
64,192,144641,1,0,0:0:0:0:
448,192,145020,1,0,0:0:0:0:
320,192,145210,1,0,0:0:0:0:
64,192,145400,1,0,0:0:0:0:
192,192,145400,1,0,0:0:0:0:
192,192,145590,1,0,0:0:0:0:
320,192,145780,1,0,0:0:0:0:
448,192,145970,128,0,146349:0:0:0:0:
320,192,145970,1,0,0:0:0:0:
320,192,146160,1,0,0:0:0:0:
320,192,146349,1,0,0:0:0:0:
192,192,146539,1,0,0:0:0:0:
448,192,146539,128,0,146919:0:0:0:0:
320,192,146729,1,0,0:0:0:0:
192,192,146919,1,0,0:0:0:0:
320,192,146919,128,0,147299:0:0:0:0:
64,192,147109,1,0,0:0:0:0:
192,192,147299,128,0,147679:0:0:0:0:
448,192,147299,128,0,147679:0:0:0:0:
320,192,147679,128,0,148058:0:0:0:0:
448,192,148058,1,0,0:0:0:0:
320,192,148248,1,0,0:0:0:0:
64,192,148438,1,0,0:0:0:0:
192,192,148438,1,0,0:0:0:0:
192,192,148628,1,0,0:0:0:0:
320,192,148818,1,0,0:0:0:0:
448,192,149008,128,0,149387:0:0:0:0:
320,192,149008,1,0,0:0:0:0:
320,192,149198,1,0,0:0:0:0:
320,192,149387,1,0,0:0:0:0:
192,192,149577,1,0,0:0:0:0:
320,192,149767,1,0,0:0:0:0:
192,192,149957,1,0,0:0:0:0:
320,192,149957,1,0,0:0:0:0:
64,192,150147,1,0,0:0:0:0:
192,192,150337,128,0,150717:0:0:0:0:
64,192,150337,1,0,0:0:0:0:
64,192,150527,1,0,0:0:0:0:
64,192,150717,1,0,0:0:0:0:
448,192,151096,1,0,0:0:0:0:
320,192,151286,1,0,0:0:0:0:
64,192,151476,1,0,0:0:0:0:
192,192,151476,1,0,0:0:0:0:
192,192,151666,1,0,0:0:0:0:
320,192,151856,1,0,0:0:0:0:
448,192,152046,128,0,152425:0:0:0:0:
320,192,152046,1,0,0:0:0:0:
320,192,152236,1,0,0:0:0:0:
320,192,152425,1,0,0:0:0:0:
192,192,152615,1,0,0:0:0:0:
320,192,152805,1,0,0:0:0:0:
192,192,152995,1,0,0:0:0:0:
320,192,152995,1,0,0:0:0:0:
64,192,153185,1,0,0:0:0:0:
192,192,153375,128,0,153755:0:0:0:0:
64,192,153375,1,0,0:0:0:0:
64,192,153565,1,0,0:0:0:0:
64,192,153755,1,0,0:0:0:0:
448,192,154134,1,0,0:0:0:0:
320,192,154324,1,0,0:0:0:0:
64,192,154514,1,0,0:0:0:0:
192,192,154514,1,0,0:0:0:0:
192,192,154704,1,0,0:0:0:0:
320,192,154894,1,0,0:0:0:0:
448,192,155084,128,0,155463:0:0:0:0:
320,192,155084,1,0,0:0:0:0:
320,192,155273,1,0,0:0:0:0:
320,192,155463,1,0,0:0:0:0:
192,192,155653,1,0,0:0:0:0:
320,192,155843,1,0,0:0:0:0:
192,192,156033,1,0,0:0:0:0:
320,192,156033,1,0,0:0:0:0:
64,192,156223,1,0,0:0:0:0:
192,192,156413,128,0,156792:0:0:0:0:
64,192,156413,1,0,0:0:0:0:
64,192,156603,1,0,0:0:0:0:
64,192,156792,1,0,0:0:0:0:
448,192,157172,1,0,0:0:0:0:
320,192,157362,1,0,0:0:0:0:
64,192,157552,1,0,0:0:0:0:
192,192,157552,1,0,0:0:0:0:
192,192,157742,1,0,0:0:0:0:
320,192,157932,1,0,0:0:0:0:
448,192,158122,128,0,158501:0:0:0:0:
320,192,158122,1,0,0:0:0:0:
320,192,158311,1,0,0:0:0:0:
320,192,158501,1,0,0:0:0:0:
192,192,158691,1,0,0:0:0:0:
320,192,158881,1,0,0:0:0:0:
192,192,159071,1,0,0:0:0:0:
64,192,159261,1,0,0:0:0:0:
192,192,159451,128,0,159830:0:0:0:0:
64,192,159451,1,0,0:0:0:0:
64,192,159641,1,0,0:0:0:0:
64,192,159830,1,0,0:0:0:0:
448,192,160210,1,0,0:0:0:0:
320,192,160400,1,0,0:0:0:0:
64,192,160590,1,0,0:0:0:0:
192,192,160590,1,0,0:0:0:0:
192,192,160780,1,0,0:0:0:0:
320,192,160970,1,0,0:0:0:0:
448,192,161160,128,0,161539:0:0:0:0:
320,192,161160,1,0,0:0:0:0:
320,192,161349,1,0,0:0:0:0:
320,192,161539,1,0,0:0:0:0:
192,192,161729,1,0,0:0:0:0:
320,192,161919,1,0,0:0:0:0:
192,192,162109,1,0,0:0:0:0:
320,192,162109,1,0,0:0:0:0:
64,192,162299,1,0,0:0:0:0:
192,192,162489,128,0,162868:0:0:0:0:
64,192,162489,1,0,0:0:0:0:
64,192,162679,1,0,0:0:0:0:
64,192,162868,1,0,0:0:0:0:
448,192,163248,1,0,0:0:0:0:
320,192,163438,1,0,0:0:0:0:
64,192,163628,1,0,0:0:0:0:
192,192,163628,1,0,0:0:0:0:
192,192,163818,1,0,0:0:0:0:
320,192,164008,1,0,0:0:0:0:
448,192,164198,128,0,164577:0:0:0:0:
320,192,164198,1,0,0:0:0:0:
320,192,164387,1,0,0:0:0:0:
320,192,164577,1,0,0:0:0:0:
192,192,164767,1,0,0:0:0:0:
320,192,164957,1,0,0:0:0:0:
192,192,165147,1,0,0:0:0:0:
320,192,165147,1,0,0:0:0:0:
64,192,165337,1,0,0:0:0:0:
192,192,165527,128,0,165906:0:0:0:0:
64,192,165527,1,0,0:0:0:0:
64,192,165717,1,0,0:0:0:0:
64,192,165906,1,0,0:0:0:0:
448,192,166286,1,0,0:0:0:0:
320,192,166476,1,0,0:0:0:0:
64,192,166666,1,0,0:0:0:0:
192,192,166666,1,0,0:0:0:0:
192,192,166856,1,0,0:0:0:0:
320,192,167046,1,0,0:0:0:0:
448,192,167236,128,0,167615:0:0:0:0:
320,192,167236,1,0,0:0:0:0:
320,192,167425,1,0,0:0:0:0:
320,192,167615,1,0,0:0:0:0:
192,192,167805,1,0,0:0:0:0:
320,192,167995,1,0,0:0:0:0:
192,192,168185,1,0,0:0:0:0:
320,192,168185,1,0,0:0:0:0:
64,192,168375,1,0,0:0:0:0:
192,192,168565,128,0,168944:0:0:0:0:
64,192,168565,1,0,0:0:0:0:
64,192,168755,1,0,0:0:0:0:
64,192,168944,1,0,0:0:0:0:
448,192,169324,1,0,0:0:0:0:
320,192,169514,1,0,0:0:0:0:
64,192,169704,1,0,0:0:0:0:
192,192,169704,1,0,0:0:0:0:
192,192,169894,1,0,0:0:0:0:
320,192,170084,1,0,0:0:0:0:
448,192,170273,128,0,170653:0:0:0:0:
320,192,170273,1,0,0:0:0:0:
320,192,170463,1,0,0:0:0:0:
320,192,170653,1,0,0:0:0:0:
192,192,170843,128,0,171603:0:0:0:0:
320,192,171033,1,0,0:0:0:0:
320,192,171223,1,0,0:0:0:0:
320,192,171413,1,0,0:0:0:0:
320,192,171603,128,0,172362:0:0:0:0:
192,192,171792,1,0,0:0:0:0:
192,192,171982,1,0,0:0:0:0:
192,192,172172,1,0,0:0:0:0:
192,192,172362,128,0,173122:0:0:0:0:
320,192,172552,1,0,0:0:0:0:
320,192,172742,1,0,0:0:0:0:
320,192,172932,1,0,0:0:0:0:
64,192,173122,128,0,173881:0:0:0:0:
320,192,173122,1,0,0:0:0:0:
448,192,173311,1,0,0:0:0:0:
448,192,173501,1,0,0:0:0:0:
448,192,173691,1,0,0:0:0:0:
192,192,173881,128,0,177489:0:0:0:0:
448,192,173881,1,0,0:0:0:0:
320,192,176634,128,0,177489:0:0:0:0:
64,192,177489,1,0,0:0:0:0:
448,192,177489,1,0,0:0:0:0:
448,192,177868,128,0,178438:0:0:0:0:
64,192,177868,128,0,178438:0:0:0:0:
320,192,178628,128,0,179103:0:0:0:0:
192,192,178628,128,0,179103:0:0:0:0:
