osu file format v14

[General]
AudioFilename: koi yomi zakura.mp3
AudioLeadIn: 0
PreviewTime: 204284
Countdown: 1
SampleSet: None
StackLeniency: 0.4
Mode: 0
LetterboxInBreaks: 1
WidescreenStoryboard: 1

[Editor]
DistanceSpacing: 2
BeatDivisor: 4
GridSize: 4
TimelineZoom: 2.1

[Metadata]
Title:koi yomi zakura
TitleUnicode:恋詠桜
Artist:loos
ArtistUnicode:柊莉杏
Creator:muto
Version:Extra
Source:
Tags:
BeatmapID:1427772
BeatmapSetID:674844

[Difficulty]
HPDrainRate:6
CircleSize:4
OverallDifficulty:8
ApproachRate:9
SliderMultiplier:1.8
SliderTickRate:2

[Events]
//Background and Video events
0,0,"48542248_p0.jpg",0,0
//Break Periods
//Storyboard Layer 0 (Background)
//Storyboard Layer 1 (Fail)
//Storyboard Layer 2 (Pass)
//Storyboard Layer 3 (Foreground)
//Storyboard Sound Samples

[TimingPoints]
1517,357.142857142857,4,3,10,40,1,0
5802,-200,4,3,10,40,0,0
6427,-100,4,3,10,40,0,0
10802,-58.8235294117647,4,3,10,40,0,0
11070,-100,4,3,10,40,0,0
11338,-66.6666666666667,4,3,10,40,0,0
11427,-100,4,3,10,40,0,0
11874,-50,4,3,10,40,0,0
12141,-100,4,3,10,40,0,0
12231,-66.6666666666667,4,3,10,40,0,0
12499,-100,4,3,10,40,0,0
14016,-50,4,3,10,40,0,0
14195,-100,4,3,10,40,0,0
15445,-66.6666666666667,4,3,10,40,0,0
15981,-100,4,3,10,40,0,0
16516,-35,4,3,10,40,0,0
16695,-100,4,3,10,40,0,0
16874,-66.6666666666667,4,3,10,40,0,0
17231,-100,4,3,10,40,0,0
18659,-133.333333333333,4,3,10,40,0,0
19106,-100,4,3,10,40,0,0
19195,-80,4,3,10,40,0,0
19463,-100,4,3,10,40,0,0
20624,-66.6666666666667,4,3,10,40,0,0
20891,-100,4,3,10,40,0,0
21695,-200,4,3,10,40,0,0
21874,-100,4,3,10,40,0,0
23838,-76.9230769230769,4,3,10,40,0,0
24195,-100,4,3,10,40,0,0
32945,-66.6666666666667,4,3,10,40,0,0
34374,-80,4,3,10,40,0,0
34909,-100,4,3,10,40,0,0
45445,-80,4,3,10,40,0,0
45802,-100,4,3,10,40,0,0
46159,-66.6666666666667,4,3,10,40,0,0
46338,-100,4,3,10,40,0,0
46695,-57.1428571428571,4,3,10,40,0,0
46874,-50,4,3,10,40,0,0
47141,-100,4,3,10,40,0,0
48481,-50,4,3,10,40,0,0
49016,-100,4,3,10,40,0,0
49731,-66.6666666666667,4,3,10,40,0,0
50088,-100,4,3,10,40,0,0
50445,-66.6666666666667,4,3,10,40,0,0
50624,-100,4,3,10,40,0,0
51338,-50,4,3,10,40,0,0
51606,-100,4,3,10,40,0,0
52945,-66.6666666666667,4,3,10,40,0,0
53481,-100,4,3,10,40,0,0
57231,-50,4,3,10,40,0,0
58659,-66.6666666666667,4,3,10,70,0,1
59731,-100,4,3,10,70,0,1
59909,-66.6666666666667,4,3,10,70,0,1
61516,-80,4,3,10,70,0,1
61784,-66.6666666666667,4,3,10,70,0,1
63659,-50,4,3,10,70,0,1
64195,-66.6666666666667,4,3,10,70,0,1
65445,-100,4,3,10,70,0,1
65624,-66.6666666666667,4,3,10,70,0,1
67231,-80,4,3,10,70,0,1
67499,-66.6666666666667,4,3,10,70,0,1
69374,-50,4,3,10,70,0,1
69909,-66.6666666666667,4,3,10,70,0,1
81516,-100,4,3,10,70,0,0
204374,-100,4,3,10,70,0,1
227231,-100,4,3,10,70,0,0

[Colours]
Combo1 : 233,50,82
Combo2 : 238,87,174
Combo3 : 236,223,66
Combo4 : 33,156,222

[HitObjects]
368,112,1517,5,0,0:0:0:0:
360,200,1695,1,0,0:0:0:0:
240,136,1874,5,0,0:0:0:0:
232,48,2052,1,0,0:0:0:0:
164,184,2231,5,0,0:0:0:0:
156,272,2409,1,0,0:0:0:0:
284,248,2588,5,0,0:0:0:0:
292,336,2766,1,0,0:0:0:0:
68,368,2945,5,0,0:0:0:0:
68,368,3124,1,0,0:0:0:0:
40,284,3302,1,0,0:0:0:0:
76,200,3481,1,0,0:0:0:0:
12,32,3659,5,0,0:0:0:0:
12,32,3838,1,0,0:0:0:0:
52,112,4016,1,0,0:0:0:0:
164,184,4195,1,0,0:0:0:0:
348,164,4374,5,0,0:0:0:0:
348,164,4731,1,0,0:0:0:0:
164,184,5088,1,0,0:0:0:0:
164,184,5445,1,0,0:0:0:0:
240,136,5802,2,0,B|284:164|284:164|328:104|380:116,1,157.5
392,28,6516,6,0,P|463:127|364:204,1,270
232,244,7231,6,0,P|192:216|136:220,1,90
288,184,7499,1,0,0:0:0:0:
288,184,7588,1,0,0:0:0:0:
316,272,7766,1,0,0:0:0:0:
404,296,7945,6,0,P|452:284|496:252,1,90
367,204,8213,1,0,0:0:0:0:
367,204,8302,1,0,0:0:0:0:
232,244,8481,1,0,0:0:0:0:
228,320,8659,6,0,P|187:338|142:344,1,90
100,328,8927,1,0,0:0:0:0:
60,308,9016,2,0,P|70:260|46:208,1,90
28,188,9284,1,0,0:0:0:0:
28,144,9374,6,0,P|48:96|84:76,1,90
120,60,9641,1,0,0:0:0:0:
160,76,9731,2,0,P|204:104|248:96,1,90
300,224,10088,5,0,0:0:0:0:
320,96,10266,1,0,0:0:0:0:
320,96,10356,1,0,0:0:0:0:
320,96,10445,2,0,P|360:64|412:60,1,90
480,56,10713,1,0,0:0:0:0:
480,56,10802,6,0,P|444:92|440:132,1,76.5000014591217
496,244,10981,2,0,P|464:212|412:192,1,76.5000014591217
372,156,11159,5,0,0:0:0:0:
372,156,11338,2,0,P|368:200|344:228,1,67.5000025749208
300,280,11516,2,0,L|255:280,1,45
380,296,11695,2,0,L|432:336,1,45
264,372,11874,6,0,B|220:352|168:360,1,90
8,320,12052,2,0,B|56:308|94:332,1,90
148,220,12231,6,0,B|100:152|136:88|136:88|172:112|148:152,1,202.500007724762
300,280,12945,5,0,0:0:0:0:
300,280,13124,2,0,L|260:240,1,45
340,288,13302,5,0,0:0:0:0:
340,288,13481,2,0,L|300:248,1,45
380,296,13659,5,0,0:0:0:0:
380,296,13838,2,0,L|340:256,1,45
388,176,14016,2,0,P|448:108|436:12,1,180
264,116,14374,5,0,0:0:0:0:
264,116,14553,2,0,L|304:155,1,45
224,108,14731,5,0,0:0:0:0:
224,108,14910,2,0,L|263:148,1,45
184,100,15088,5,0,0:0:0:0:
184,100,15267,2,0,L|224:140,1,45
168,216,15445,2,0,P|168:289|120:341,1,135.000005149842
84,256,15802,6,0,P|160:264|208:316,1,135.000005149842
184,344,16070,1,0,0:0:0:0:
184,344,16159,2,0,P|204:304|248:276,1,90
252,176,16427,1,0,0:0:0:0:
252,176,16516,2,0,B|340:178|368:334|276:368,1,257.142857142857
204,260,16874,2,0,B|260:268|304:296|304:296|368:300|400:264|400:264|440:256|468:276,1,270.000010299683
428,184,17409,5,0,0:0:0:0:
428,274,17588,2,0,L|428:182,1,90
344,156,17945,5,0,0:0:0:0:
344,246,18124,2,0,L|344:154,1,90
256,216,18481,5,0,0:0:0:0:
256,216,18659,2,0,L|256:40,1,168.750006437302
168,128,19195,2,0,B|272:72|232:172|340:108,1,168.75
412,96,19552,6,0,L|452:56,1,45
428,184,19731,2,0,L|476:192,1,45
344,246,19909,1,0,0:0:0:0:
344,246,19999,1,0,0:0:0:0:
344,246,20088,6,0,L|308:284,1,45
168,128,20266,2,0,L|213:128,1,45
344,156,20445,2,0,L|288:168,1,45
39,227,20624,6,0,B|76:216|104:252|104:252|152:228|152:228|188:252|222:232,1,202.500007724762
201,340,20981,2,0,L|156:340,1,45
64,120,21159,2,0,L|80:56,1,45
104,44,21338,1,0,0:0:0:0:
104,44,21427,1,0,0:0:0:0:
104,44,21516,5,0,0:0:0:0:
168,128,21695,2,0,L|196:176,1,45
372,144,22052,6,0,L|472:112,1,90
428,184,22409,1,0,0:0:0:0:
360,76,22588,6,0,L|296:160,1,90
260,224,22945,1,0,0:0:0:0:
348,228,23124,1,0,0:0:0:0:
416,256,23302,1,0,0:0:0:0:
432,308,23481,1,0,0:0:0:0:
420,340,23659,1,0,0:0:0:0:
284,356,23838,6,0,L|230:333,1,58.4999973220826
145,291,24016,2,0,P|196:316|208:372,1,116.999994644165
458,263,24374,5,0,0:0:0:0:
402,196,24552,1,0,0:0:0:0:
370,280,24731,1,0,0:0:0:0:
313,210,24909,1,0,0:0:0:0:
346,126,25088,5,0,0:0:0:0:
434,112,25266,1,0,0:0:0:0:
491,181,25445,1,0,0:0:0:0:
358,204,25624,2,0,L|422:193,2,45
224,224,25981,1,0,3:0:0:0:
202,137,26159,2,0,P|159:116|137:74,1,90,0|0,3:0|3:0,3:0:0:0:
202,137,26695,2,0,P|159:162|136:218,1,90,0|0,3:0|3:0,3:0:0:0:
224,224,27052,1,0,3:0:0:0:
267,75,27231,5,0,3:0:0:0:
289,162,27409,1,0,3:0:0:0:
202,137,27588,1,0,3:0:0:0:
224,224,27766,1,0,3:0:0:0:
314,249,27945,5,0,3:0:0:0:
377,185,28124,1,0,3:0:0:0:
354,98,28302,1,0,3:0:0:0:
314,249,28481,1,0,3:0:0:0:
325,205,28570,1,0,3:0:0:0:
283,220,28659,5,0,3:0:0:0:
427,168,28838,1,0,0:0:0:0:
437,258,29016,2,0,P|477:277|506:310,1,90,0|0,3:0|3:0,3:0:0:0:
437,257,29552,2,0,P|478:243|513:189,1,90,0|0,3:0|3:0,3:0:0:0:
427,168,29909,1,0,0:0:0:0:
283,220,30088,5,0,0:0:0:0:
220,284,30266,1,0,0:0:0:0:
195,197,30445,1,0,0:0:0:0:
133,262,30624,1,0,0:0:0:0:
161,347,30802,5,0,0:0:0:0:
248,370,30981,1,0,0:0:0:0:
310,305,31159,1,0,0:0:0:0:
161,347,31338,1,0,0:0:0:0:
204,335,31427,1,0,0:0:0:0:
168,308,31516,5,0,0:0:0:0:
207,159,31695,2,0,P|239:124|232:74,1,90
314,129,32052,1,0,0:0:0:0:
314,84,32141,1,0,0:0:0:0:
273,105,32231,2,0,L|381:132,1,90
314,176,32499,1,0,0:0:0:0:
398,207,32588,1,0,0:0:0:0:
222,242,32766,1,0,0:0:0:0:
38,48,32945,6,0,B|326:48,1,270.000010299683
120,192,33481,1,0,0:0:0:0:
471,336,33659,6,0,B|186:336,1,270.000010299683
391,191,34195,1,0,0:0:0:0:
120,192,34374,6,0,P|152:256|144:304,1,112.5
391,191,34731,2,0,P|359:127|367:79,1,112.5
260,356,35266,5,0,0:0:0:0:
38,48,35445,1,0,0:0:0:0:
260,356,35624,1,0,0:0:0:0:
260,256,35802,6,0,P|196:248|156:256,1,90
144,216,36070,1,0,0:0:0:0:
128,256,36159,1,0,0:0:0:0:
172,336,36338,1,0,0:0:0:0:
260,356,36516,2,0,P|312:360|344:336,1,90
388,340,36784,1,0,0:0:0:0:
368,300,36874,1,0,0:0:0:0:
408,212,37052,1,0,0:0:0:0:
360,128,37231,6,0,P|388:76|436:72,1,90
414,68,37499,1,0,0:0:0:0:
414,68,37588,2,0,P|456:104|456:148,1,90
408,212,37945,2,0,P|328:220|276:176,1,135
285,190,38302,2,0,P|292:241|268:277,1,90
142,258,38659,6,0,P|117:294|121:338,1,90
121,338,38927,1,0,0:0:0:0:
121,338,39016,2,0,P|163:350|203:331,1,90
192,180,39374,5,0,0:0:0:0:
368,160,39552,1,0,0:0:0:0:
408,180,39641,1,0,0:0:0:0:
368,204,39731,1,0,0:0:0:0:
194,96,39909,5,0,0:0:0:0:
194,96,39999,1,0,0:0:0:0:
194,96,40088,2,0,P|245:87|285:47,1,90
299,31,40356,1,0,0:0:0:0:
299,31,40445,2,0,P|329:64|373:72,1,90
452,28,40802,5,0,0:0:0:0:
364,132,40981,1,0,0:0:0:0:
364,132,41070,1,0,0:0:0:0:
364,132,41159,2,0,P|408:144|436:176,1,90
188,308,41516,5,0,0:0:0:0:
44,80,41695,1,0,0:0:0:0:
120,340,41874,5,0,0:0:0:0:
88,72,42052,1,0,0:0:0:0:
44,340,42231,5,0,0:0:0:0:
132,84,42410,1,0,0:0:0:0:
352,228,42588,5,0,0:0:0:0:
88,208,42766,1,0,0:0:0:0:
296,52,42945,6,0,B|248:56|248:56|204:32,1,90
132,84,43302,1,0,0:0:0:0:
172,168,43481,2,0,B|209:149|209:149|264:152,1,90
344,180,43838,1,0,0:0:0:0:
344,180,43927,1,0,0:0:0:0:
344,180,44016,2,0,P|396:192|448:180,1,90
396,84,44374,5,0,0:0:0:0:
212,340,44552,1,0,0:0:0:0:
152,284,44731,2,0,P|216:260|288:304,1,135
273,285,45088,5,0,0:0:0:0:
212,340,45266,1,0,0:0:0:0:
108,240,45445,2,0,P|208:196|320:244,1,225
212,340,45981,5,0,0:0:0:0:
148,212,46159,2,0,P|216:196|296:224,1,135.000005149842
212,340,46516,5,0,0:0:0:0:
128,176,46695,2,0,P|100:144|56:128,1,78.7500007510185
24,116,46874,2,0,B|72:144|120:112|120:112|168:124|168:124|216:152|288:120,1,270
324,108,47231,5,0,0:0:0:0:
332,196,47409,2,0,L|306:232,1,45
153,267,47588,2,0,B|199:292|213:339|213:339|223:296|220:256,1,180
308,276,48124,5,0,0:0:0:0:
348,300,48213,1,0,0:0:0:0:
308,324,48302,1,0,0:0:0:0:
308,324,48481,6,0,B|396:272|360:112|268:48|268:48|260:116|184:176|136:136|64:128,1,540
268,200,49195,1,0,0:0:0:0:
336,200,49284,1,0,0:0:0:0:
304,140,49374,1,0,0:0:0:0:
160,36,49552,1,0,0:0:0:0:
131,303,49731,2,0,B|227:279|267:199|267:199|279:247|235:303,1,270.000010299683
247,287,50266,5,0,0:0:0:0:
54,104,50445,2,0,B|134:104|160:35,1,135.000005149842
247,287,50802,2,0,L|378:319,1,135
364,228,51159,1,0,0:0:0:0:
144,156,51338,6,0,B|224:136|224:136|272:164|272:164|356:136|356:136|320:110,1,270
252,52,51695,1,0,0:0:0:0:
167,244,51874,2,0,P|123:245|84:224,1,90
8,60,52231,2,0,L|88:8,1,90
8,172,52588,1,0,0:0:0:0:
188,116,52766,1,0,0:0:0:0:
228,140,52856,1,0,0:0:0:0:
188,164,52945,6,0,B|224:177|260:129|260:129|385:145,1,202.500007724762
289,209,53302,2,0,P|268:145|287:81,1,135.000005149842
375,143,53659,1,0,0:0:0:0:
216,236,53838,2,0,L|196:280,2,45
136,224,54195,6,0,L|46:224,1,90
289,209,54552,5,0,0:0:0:0:
332,196,54641,1,0,0:0:0:0:
332,92,54731,1,0,0:0:0:0:
289,209,54909,1,0,0:0:0:0:
288,76,55088,5,0,0:0:0:0:
332,144,55445,1,0,0:0:0:0:
289,209,55802,1,0,0:0:0:0:
289,209,55981,5,0,0:0:0:0:
289,165,56070,1,0,0:0:0:0:
289,121,56159,1,0,0:0:0:0:
188,96,56338,5,0,0:0:0:0:
188,168,56427,1,0,0:0:0:0:
188,240,56516,1,0,0:0:0:0:
84,240,56695,5,0,0:0:0:0:
84,152,56784,1,0,0:0:0:0:
84,60,56874,1,0,0:0:0:0:
84,328,57052,1,0,0:0:0:0:
84,328,57231,6,0,B|168:292|256:344|256:344|496:312|136:80|288:16|496:16|584:216|348:248,1,810
176,232,58124,5,0,0:0:0:0:
252,256,58213,1,0,0:0:0:0:
236,180,58302,6,0,B|220:108|264:52|264:52|212:68,1,180
388,160,58659,5,0,0:0:0:0:
160,16,58838,1,0,0:0:0:0:
160,116,58927,1,0,0:0:0:0:
260,116,59016,2,0,P|228:184|176:212,1,135.000005149842
124,87,59374,2,0,L|177:212,1,135.000005149842
160,216,59731,6,0,P|116:232|72:220,1,90
221,65,60088,1,0,0:0:0:0:
40,348,60266,1,0,0:0:0:0:
120,288,60356,1,0,0:0:0:0:
296,242,60445,2,0,P|233:254|216:316,1,135.000005149842
75,221,60802,6,0,P|130:138|232:96,1,202.500007724762
300,88,61159,1,0,0:0:0:0:
216,316,61338,1,0,0:0:0:0:
296,242,61516,6,0,B|408:231|408:231|456:192,1,168.75
484,272,61874,1,0,0:0:0:0:
372,56,62052,1,0,0:0:0:0:
36,108,62231,6,0,B|8:88|40:72|40:72|132:88,1,135.000005149842
300,88,62588,2,0,B|289:175|289:175|261:191|244:177,1,135.000005149842
112,232,62945,6,0,B|136:288|136:288|124:308|124:308|144:360,1,135.000005149842
204,316,63213,1,0,0:0:0:0:
56,284,63302,1,0,0:0:0:0:
160,164,63481,1,0,0:0:0:0:
300,88,63659,2,0,B|296:160|344:204|432:196|468:136|464:68|404:36|404:36|360:76|304:96|240:84|204:32,1,540
124,160,64374,5,0,0:0:0:0:
352,16,64553,1,0,0:0:0:0:
352,116,64642,1,0,0:0:0:0:
252,116,64731,2,0,P|284:184|336:212,1,135.000005149842
388,87,65089,2,0,L|335:212,1,135.000005149842
352,216,65446,6,0,P|396:232|440:220,1,90
291,65,65803,1,0,0:0:0:0:
472,348,65981,1,0,0:0:0:0:
392,288,66071,1,0,0:0:0:0:
215,242,66160,2,0,P|278:254|296:316,1,135.000005149842
437,221,66517,6,0,P|382:138|280:96,1,202.500007724762
212,88,66874,1,0,0:0:0:0:
296,316,67053,1,0,0:0:0:0:
216,242,67231,6,0,B|104:231|104:231|56:192,1,168.75
28,272,67589,1,0,0:0:0:0:
140,56,67767,1,0,0:0:0:0:
476,108,67946,6,0,B|504:88|472:72|472:72|380:88,1,135.000005149842
212,88,68303,2,0,B|223:175|223:175|251:191|268:177,1,135.000005149842
400,232,68660,6,0,B|376:288|376:288|388:308|388:308|368:360,1,135.000005149842
308,316,68928,5,0,0:0:0:0:
456,284,69017,1,0,0:0:0:0:
352,164,69196,1,0,0:0:0:0:
352,164,69374,2,0,B|308:108|302:40|302:40|300:125|251:151|251:151|207:122|109:155|119:285|248:317|297:248|270:177|227:201,1,540
400,232,70088,5,0,0:0:0:0:
160,368,70267,1,0,0:0:0:0:
160,268,70356,1,0,0:0:0:0:
260,268,70445,2,0,P|234:206|177:172,1,135.000005149842
124,297,70803,2,0,L|177:172,1,135.000005149842
