osu file format v14

[General]
AudioFilename: audio.mp3
AudioLeadIn: 0
PreviewTime: -1
Countdown: 0
SampleSet: None
StackLeniency: 0.2
Mode: 0
LetterboxInBreaks: 0
WidescreenStoryboard: 0

[Editor]
DistanceSpacing: 0.5
BeatDivisor: 4
GridSize: 4
TimelineZoom: 2

[Metadata]
Title:harumachi rover
TitleUnicode:harumachi rover
Artist:lol too lazy to search up
ArtistUnicode:lol too lazy to search up
Creator:san undertal
Version:ultimate pp
Source:
Tags:
BeatmapID:1795417
BeatmapSetID:859200

[Difficulty]
HPDrainRate:4
CircleSize:4.2
OverallDifficulty:8.5
ApproachRate:9.8
SliderMultiplier:1.4
SliderTickRate:1

[Events]
//Background and Video events
0,0,"sansshruganimepfp.png",0,0
//Break Periods
//Storyboard Layer 0 (Background)
//Storyboard Layer 1 (Fail)
//Storyboard Layer 2 (Pass)
//Storyboard Layer 3 (Foreground)
//Storyboard Sound Samples

[TimingPoints]
1351,422.535211267606,4,1,0,100,1,0
1351,-66.6666666666667,4,1,0,100,0,0
14782,292.682926829268,4,1,0,100,1,0

[HitObjects]
279,265,295,5,0,0:0:0:0:
192,145,506,1,0,0:0:0:0:
332,191,717,1,0,0:0:0:0:
192,236,928,1,0,0:0:0:0:
279,117,1140,1,0,0:0:0:0:
407,302,1351,6,0,L|418:187,1,105
430,64,1773,1,0,0:0:0:0:
332,191,1984,1,0,0:0:0:0:
228,46,2196,2,0,P|174:31|118:42,1,105.000004005432
165,155,2618,1,0,0:0:0:0:
354,13,2829,1,0,0:0:0:0:
354,13,2935,1,0,0:0:0:0:
354,13,3041,2,0,L|360:128,1,105.000004005432
294,345,3463,5,0,0:0:0:0:
257,188,3674,1,0,0:0:0:0:
180,352,3886,1,0,0:0:0:0:
393,306,4097,1,0,0:0:0:0:
133,183,4308,1,0,0:0:0:0:
298,375,4520,1,0,0:0:0:0:
359,117,4731,6,0,L|370:2,1,105
141,12,5153,2,0,L|151:117,1,105
451,235,5576,2,0,P|388:217|338:233,1,105.000004005432
394,358,5998,1,0,0:0:0:0:
400,142,6210,1,0,0:0:0:0:
267,356,6421,5,0,0:0:0:0:
499,288,6632,1,0,0:0:0:0:
201,199,6843,1,0,0:0:0:0:
394,358,7055,1,0,0:0:0:0:
434,65,7266,2,0,P|367:67|329:96,1,105.000004005432
511,214,7689,1,0,0:0:0:0:
255,306,7900,5,0,0:0:0:0:
255,306,8005,1,0,0:0:0:0:
255,306,8111,2,0,L|140:296,1,105
21,212,8534,2,0,L|137:222,1,105
284,104,8956,1,0,0:0:0:0:
89,34,9167,1,0,0:0:0:0:
125,221,9379,1,0,0:0:0:0:
220,7,9590,1,0,0:0:0:0:
220,7,9696,1,0,0:0:0:0:
220,7,9801,6,0,L|342:14,1,105.000004005432
460,163,10224,1,0,0:0:0:0:
259,121,10435,1,0,0:0:0:0:
385,66,10646,1,0,0:0:0:0:
349,263,10858,1,0,0:0:0:0:
196,18,11069,1,0,0:0:0:0:
125,325,11280,1,0,0:0:0:0:
125,325,11386,1,0,0:0:0:0:
125,325,11491,6,0,L|239:331,1,105.000004005432
460,163,11914,2,0,L|346:157,1,105.000004005432
104,147,12336,1,0,0:0:0:0:
230,259,12548,1,0,0:0:0:0:
241,31,12759,1,0,0:0:0:0:
42,199,12970,1,0,0:0:0:0:
304,301,13181,5,0,0:0:0:0:
241,31,13393,1,0,0:0:0:0:
111,320,13604,5,0,0:0:0:0:
277,98,13816,1,0,0:0:0:0:
38,184,14027,5,0,0:0:0:0:
314,168,14239,1,0,0:0:0:0:
151,44,14449,5,0,0:0:0:0:
151,44,14782,5,0,0:0:0:0:
111,320,14928,1,0,0:0:0:0:
226,33,15074,5,0,0:0:0:0:
276,278,15220,1,0,0:0:0:0:
292,0,15367,5,0,0:0:0:0:
409,190,15513,1,0,0:0:0:0:
414,7,15660,5,0,0:0:0:0:
355,256,15806,1,0,0:0:0:0:
260,102,15952,5,0,0:0:0:0:
509,161,16098,1,0,0:0:0:0:
160,131,16245,5,0,0:0:0:0:
409,190,16391,1,0,0:0:0:0:
60,160,16538,5,0,0:0:0:0:
309,219,16684,1,0,0:0:0:0:
111,320,16830,5,0,0:0:0:0:
59,30,16977,1,0,0:0:0:0:
26,311,17123,5,0,0:0:0:0:
309,338,17269,1,0,0:0:0:0:
8,151,17416,5,0,0:0:0:0:
239,315,17562,1,0,0:0:0:0:
121,0,17708,5,0,0:0:0:0:
239,243,17854,1,0,0:0:0:0:
474,0,18001,5,0,0:0:0:0:
309,221,18147,1,0,0:0:0:0:
66,49,18294,5,0,0:0:0:0:
397,31,18440,1,0,0:0:0:0:
248,327,18586,5,0,0:0:0:0:
66,49,18732,1,0,0:0:0:0:
248,327,18879,5,0,0:0:0:0:
397,31,19025,1,0,0:0:0:0:
54,15,19172,5,0,0:0:0:0:
402,6,19318,1,0,0:0:0:0:
154,317,19464,5,0,0:0:0:0:
231,23,19611,1,0,0:0:0:0:
348,307,19757,5,0,0:0:0:0:
231,23,19904,1,0,0:0:0:0:
74,263,20050,5,0,0:0:0:0:
415,158,20196,1,0,0:0:0:0:
64,171,20342,5,0,0:0:0:0:
414,238,20488,1,0,0:0:0:0:
231,23,20635,5,0,0:0:0:0:
154,317,20781,1,0,0:0:0:0:
231,23,20928,5,0,0:0:0:0:
348,307,21074,1,0,0:0:0:0:
134,28,21221,5,0,0:0:0:0:
488,121,21367,1,0,0:0:0:0:
248,327,21513,5,0,0:0:0:0:
348,7,21660,1,0,0:0:0:0:
4,226,21806,5,0,0:0:0:0:
501,314,21952,1,0,0:0:0:0:
280,0,22099,5,0,0:0:0:0:
255,384,22245,1,0,0:0:0:0:
97,15,22391,5,0,0:0:0:0:
280,254,22538,1,0,0:0:0:0:
16,112,22684,5,0,0:0:0:0:
309,177,22831,1,0,0:0:0:0:
107,350,22977,5,0,0:0:0:0:
186,10,23123,1,0,0:0:0:0:
280,254,23269,5,0,0:0:0:0:
10,199,23416,1,0,0:0:0:0:
334,95,23562,5,0,0:0:0:0:
330,346,23708,1,0,0:0:0:0:
175,135,23855,1,0,0:0:0:0:
411,153,24001,1,0,0:0:0:0:
112,214,24147,6,0,B|57:231|19:174|48:89|154:115|177:188|177:188|197:251|290:279|349:207|299:117|232:159,1,490
189,300,25318,6,0,B|316:346|429:268|423:104|294:14|189:110,1,490
150,157,26489,1,0,0:0:0:0:
