osu file format v14

[General]
AudioFilename: audio.mp3
AudioLeadIn: 0
PreviewTime: 59301
Countdown: 0
SampleSet: Soft
StackLeniency: 0.7
Mode: 3
LetterboxInBreaks: 0
SpecialStyle: 0
WidescreenStoryboard: 0

[Editor]
DistanceSpacing: 1.2
BeatDivisor: 4
GridSize: 8
TimelineZoom: 1.5

[Metadata]
Title:sync
TitleUnicode:sync
Artist:lol
ArtistUnicode:lol
Creator:tuandi
Version:MX
Source:双星の陰陽師
Tags:english, japanese, instrumental Diva Days Flamingrok Rivals_7 Dreambunny gaston_2199 Chalwa Sousei No Onmyouji TwinStar Exorcist Op3 bye jpop hibiki komiyama naoto sato yusuke moca honoka
BeatmapID:1185665
BeatmapSetID:560696

[Difficulty]
HPDrainRate:9
CircleSize:4
OverallDifficulty:9
ApproachRate:5
SliderMultiplier:1.3
SliderTickRate:3

[Events]
//Background and Video events
0,0,"BG.jpg",0,0
//Break Periods
//Storyboard Layer 0 (Background)
//Storyboard Layer 1 (Fail)
//Storyboard Layer 2 (Pass)
//Storyboard Layer 3 (Foreground)
//Storyboard Layer 4 (Overlay)
//Storyboard Sound Samples

[TimingPoints]
697,465.116279069767,4,2,0,50,1,0
697,-66.6666666666667,4,2,0,50,0,0
813,-1000,4,2,0,50,0,0
929,-100,4,2,0,50,0,0
1045,-66.6666666666667,4,2,0,50,0,0
1162,-1000,4,2,0,50,0,0
1278,-100,4,2,0,50,0,0
1394,-66.6666666666667,4,2,0,50,0,0
1510,-1000,4,2,0,50,0,0
1627,-100,4,2,0,50,0,0
1743,-66.6666666666667,4,2,0,50,0,0
1859,-1000,4,2,0,50,0,0
1976,-100,4,2,0,50,0,0
4417,-66.6666666666667,4,2,0,50,0,0
4534,-1000,4,2,0,50,0,0
4650,-100,4,2,0,50,0,0
4766,-66.6666666666667,4,2,0,50,0,0
4883,-1000,4,2,0,50,0,0
4999,-100,4,2,0,50,0,0
5115,-66.6666666666667,4,2,0,50,0,0
5231,-1000,4,2,0,50,0,0
5348,-1000,4,2,0,50,0,0
5464,-66.6666666666667,4,2,0,50,0,0
5580,-1000,4,2,0,50,0,0
5696,-100,4,2,0,50,0,0
7208,-50,4,2,0,50,0,0
7441,-1000,4,2,0,50,0,0
7557,-100,4,2,0,50,0,0
36976,-50,4,2,0,50,0,0
37092,-1000,4,2,0,50,0,0
37208,-100,4,2,0,50,0,0
37324,-50,4,2,0,50,0,0
37363,-1000,4,2,0,50,0,0
37402,-100,4,2,0,50,0,0
37441,-100,4,2,0,50,0,0
37673,-50,4,2,0,50,0,0
37751,-1000,4,2,0,50,0,0
37828,-100,4,2,0,50,0,0
44883,-20,4,2,0,50,0,0
44999,-1000,4,2,0,50,0,0
45115,-100,4,2,0,50,0,0
59766,-50,4,2,0,50,0,0
59999,-1000,4,2,0,50,0,0
60115,-100,4,2,0,50,0,0
60231,-100,4,2,0,50,0,1
67208,-50,4,2,0,50,0,1
67324,-1000,4,2,0,50,0,1
67441,-100,4,2,0,50,0,1
74650,-50,4,2,0,50,0,1
74766,-1000,4,2,0,50,0,1
74883,-100,4,2,0,50,0,1
96859,-50,4,2,0,50,0,0
96976,-1000,4,2,0,50,0,0
97092,-100,4,2,0,50,0,0
97208,-1000,4,2,0,50,0,0
97324,-100,4,2,0,50,0,0

[HitObjects]
448,192,697,5,0,0:0:0:0:
192,192,697,1,0,0:0:0:0:
448,192,1045,1,0,0:0:0:0:
192,192,1045,1,0,0:0:0:0:
320,192,1394,1,0,0:0:0:0:
64,192,1394,1,0,0:0:0:0:
320,192,1743,1,0,0:0:0:0:
64,192,1743,1,0,0:0:0:0:
64,192,2092,1,0,0:0:0:0:
448,192,2092,1,0,0:0:0:0:
64,192,2557,1,0,0:0:0:0:
192,192,2673,1,0,0:0:0:0:
448,192,2790,1,0,0:0:0:0:
320,192,2906,1,0,0:0:0:0:
192,192,3022,1,0,0:0:0:0:
64,192,3138,1,0,0:0:0:0:
320,192,3255,1,0,0:0:0:0:
448,192,3371,1,0,0:0:0:0:
192,192,3487,1,0,0:0:0:0:
64,192,3603,1,0,0:0:0:0:
320,192,3720,1,0,0:0:0:0:
192,192,3836,1,0,0:0:0:0:
320,192,3952,1,0,0:0:0:0:
448,192,3952,1,0,0:0:0:0:
192,192,4185,1,0,0:0:0:0:
320,192,4185,1,0,0:0:0:0:
448,192,4417,1,0,0:0:0:0:
64,192,4417,1,0,0:0:0:0:
320,192,4766,1,0,0:0:0:0:
192,192,4766,1,0,0:0:0:0:
192,192,5115,1,0,0:0:0:0:
448,192,5115,1,0,0:0:0:0:
64,192,5464,1,0,0:0:0:0:
320,192,5464,1,0,0:0:0:0:
64,192,5813,1,0,0:0:0:0:
448,192,5813,1,0,0:0:0:0:
64,192,6162,128,0,6278:0:0:0:0:
320,192,6510,128,0,6627:0:0:0:0:
320,192,6859,128,0,6976:0:0:0:0:
192,192,7208,128,0,7673:0:0:0:0:
448,192,7673,1,0,0:0:0:0:
64,192,7673,1,0,0:0:0:0:
192,192,8138,128,0,8371:0:0:0:0:
320,192,8138,1,0,0:0:0:0:
320,192,8836,128,0,9069:0:0:0:0:
192,192,8836,1,0,0:0:0:0:
448,192,9069,1,0,0:0:0:0:
64,192,9069,1,0,0:0:0:0:
64,192,9534,128,0,9766:0:0:0:0:
192,192,9534,1,0,0:0:0:0:
64,192,9999,128,0,10115:0:0:0:0:
448,192,9999,1,0,0:0:0:0:
192,192,10231,1,0,0:0:0:0:
64,192,10464,128,0,10580:0:0:0:0:
320,192,10464,1,0,0:0:0:0:
192,192,10696,1,0,0:0:0:0:
64,192,10929,1,0,0:0:0:0:
448,192,10929,1,0,0:0:0:0:
192,192,11627,1,0,0:0:0:0:
448,192,11859,128,0,12092:0:0:0:0:
192,192,12324,1,0,0:0:0:0:
320,192,12557,128,0,12790:0:0:0:0:
448,192,12557,1,0,0:0:0:0:
64,192,12790,1,0,0:0:0:0:
192,192,12790,1,0,0:0:0:0:
448,192,13255,128,0,13487:0:0:0:0:
192,192,13255,1,0,0:0:0:0:
320,192,13487,1,0,0:0:0:0:
448,192,13720,128,0,13836:0:0:0:0:
448,192,14185,128,0,14301:0:0:0:0:
64,192,14650,1,0,0:0:0:0:
448,192,14650,1,0,0:0:0:0:
192,192,14883,1,0,0:0:0:0:
320,192,15115,1,0,0:0:0:0:
448,192,15348,1,0,0:0:0:0:
64,192,15580,128,0,15813:0:0:0:0:
192,192,15580,1,0,0:0:0:0:
192,192,16278,128,0,16510:0:0:0:0:
320,192,16278,1,0,0:0:0:0:
448,192,16510,1,0,0:0:0:0:
64,192,16510,1,0,0:0:0:0:
320,192,16976,128,0,17208:0:0:0:0:
448,192,16976,1,0,0:0:0:0:
64,192,17324,1,0,0:0:0:0:
320,192,17441,128,0,17557:0:0:0:0:
192,192,17441,1,0,0:0:0:0:
448,192,17673,1,0,0:0:0:0:
320,192,17906,128,0,18022:0:0:0:0:
64,192,17906,1,0,0:0:0:0:
192,192,18138,1,0,0:0:0:0:
64,192,18371,1,0,0:0:0:0:
448,192,18371,1,0,0:0:0:0:
320,192,19069,1,0,0:0:0:0:
448,192,19301,128,0,19534:0:0:0:0:
192,192,19301,1,0,0:0:0:0:
64,192,19534,1,0,0:0:0:0:
320,192,19999,128,0,20231:0:0:0:0:
64,192,19999,1,0,0:0:0:0:
192,192,20231,1,0,0:0:0:0:
448,192,20231,1,0,0:0:0:0:
64,192,20464,1,0,0:0:0:0:
192,192,20696,128,0,20929:0:0:0:0:
320,192,20696,1,0,0:0:0:0:
192,192,21162,128,0,21278:0:0:0:0:
192,192,21627,128,0,21743:0:0:0:0:
448,192,22092,1,0,0:0:0:0:
64,192,22092,1,0,0:0:0:0:
320,192,22324,1,0,0:0:0:0:
192,192,22557,1,0,0:0:0:0:
192,192,22790,1,0,0:0:0:0:
448,192,23022,1,0,0:0:0:0:
320,192,23022,1,0,0:0:0:0:
64,192,23022,1,0,0:0:0:0:
192,192,23255,1,0,0:0:0:0:
320,192,23487,1,0,0:0:0:0:
64,192,23487,128,0,23952:0:0:0:0:
192,192,23720,1,0,0:0:0:0:
320,192,23952,1,0,0:0:0:0:
448,192,23952,1,0,0:0:0:0:
64,192,24417,1,0,0:0:0:0:
448,192,24417,1,0,0:0:0:0:
192,192,24417,1,0,0:0:0:0:
320,192,24650,1,0,0:0:0:0:
448,192,24883,1,0,0:0:0:0:
64,192,25115,1,0,0:0:0:0:
448,192,25348,1,0,0:0:0:0:
320,192,25348,1,0,0:0:0:0:
192,192,25348,128,0,25813:0:0:0:0:
64,192,25580,1,0,0:0:0:0:
320,192,25813,1,0,0:0:0:0:
448,192,25813,1,0,0:0:0:0:
192,192,26510,1,0,0:0:0:0:
320,192,26510,1,0,0:0:0:0:
64,192,26743,1,0,0:0:0:0:
448,192,26743,1,0,0:0:0:0:
192,192,26743,1,0,0:0:0:0:
320,192,26976,1,0,0:0:0:0:
192,192,27208,1,0,0:0:0:0:
448,192,27208,128,0,27673:0:0:0:0:
320,192,27441,1,0,0:0:0:0:
64,192,27673,1,0,0:0:0:0:
192,192,27673,1,0,0:0:0:0:
64,192,28138,1,0,0:0:0:0:
192,192,28138,1,0,0:0:0:0:
320,192,28138,1,0,0:0:0:0:
448,192,28371,1,0,0:0:0:0:
64,192,28603,1,0,0:0:0:0:
320,192,28836,1,0,0:0:0:0:
448,192,29069,1,0,0:0:0:0:
64,192,29069,1,0,0:0:0:0:
192,192,29069,128,0,29534:0:0:0:0:
320,192,29301,1,0,0:0:0:0:
64,192,29534,1,0,0:0:0:0:
448,192,29534,1,0,0:0:0:0:
320,192,29766,1,0,0:0:0:0:
192,192,29999,1,0,0:0:0:0:
64,192,29999,128,0,30464:0:0:0:0:
448,192,30231,1,0,0:0:0:0:
448,192,30348,1,0,0:0:0:0:
192,192,30464,1,0,0:0:0:0:
320,192,30464,1,0,0:0:0:0:
448,192,30696,1,0,0:0:0:0:
192,192,30929,1,0,0:0:0:0:
320,192,30929,128,0,31394:0:0:0:0:
64,192,31162,1,0,0:0:0:0:
192,192,31394,1,0,0:0:0:0:
448,192,31394,1,0,0:0:0:0:
64,192,31859,1,0,0:0:0:0:
320,192,31859,1,0,0:0:0:0:
192,192,31859,1,0,0:0:0:0:
448,192,32092,1,0,0:0:0:0:
320,192,32324,1,0,0:0:0:0:
192,192,32557,1,0,0:0:0:0:
64,192,32557,1,0,0:0:0:0:
192,192,32790,1,0,0:0:0:0:
320,192,32790,1,0,0:0:0:0:
448,192,32790,128,0,33255:0:0:0:0:
64,192,33022,1,0,0:0:0:0:
191,192,33255,1,0,0:0:0:0:
320,192,33255,1,0,0:0:0:0:
448,192,33487,1,0,0:0:0:0:
320,192,33720,1,0,0:0:0:0:
192,192,33952,1,0,0:0:0:0:
64,192,33952,1,0,0:0:0:0:
64,192,34185,1,0,0:0:0:0:
448,192,34185,1,0,0:0:0:0:
320,192,34185,1,0,0:0:0:0:
320,192,34417,1,0,0:0:0:0:
192,192,34650,1,0,0:0:0:0:
448,192,34650,128,0,35115:0:0:0:0:
64,192,34883,1,0,0:0:0:0:
320,192,35115,1,0,0:0:0:0:
192,192,35115,1,0,0:0:0:0:
448,192,35580,1,0,0:0:0:0:
320,192,35580,128,0,36510:0:0:0:0:
192,192,35580,128,0,36976:0:0:0:0:
64,192,35580,1,0,0:0:0:0:
448,192,36627,1,0,0:0:0:0:
64,192,36743,1,0,0:0:0:0:
320,192,36859,1,0,0:0:0:0:
448,192,36976,1,0,0:0:0:0:
64,192,37324,1,0,0:0:0:0:
448,192,37324,1,0,0:0:0:0:
192,192,37441,1,0,0:0:0:0:
320,192,37441,1,0,0:0:0:0:
448,192,37673,1,0,0:0:0:0:
192,192,37906,1,0,0:0:0:0:
448,192,37906,1,0,0:0:0:0:
64,192,37906,1,0,0:0:0:0:
192,192,38138,1,0,0:0:0:0:
320,192,38255,1,0,0:0:0:0:
192,192,38371,1,0,0:0:0:0:
64,192,38371,1,0,0:0:0:0:
448,192,38371,1,0,0:0:0:0:
64,192,38603,1,0,0:0:0:0:
192,192,38720,1,0,0:0:0:0:
320,192,38836,1,0,0:0:0:0:
448,192,38836,1,0,0:0:0:0:
64,192,38836,1,0,0:0:0:0:
448,192,39069,1,0,0:0:0:0:
320,192,39185,1,0,0:0:0:0:
192,192,39301,1,0,0:0:0:0:
64,192,39301,1,0,0:0:0:0:
448,192,39301,1,0,0:0:0:0:
64,192,39534,1,0,0:0:0:0:
320,192,39650,1,0,0:0:0:0:
64,192,39766,1,0,0:0:0:0:
448,192,39766,1,0,0:0:0:0:
192,192,39766,1,0,0:0:0:0:
64,192,39999,1,0,0:0:0:0:
192,192,40115,1,0,0:0:0:0:
64,192,40231,1,0,0:0:0:0:
448,192,40231,1,0,0:0:0:0:
320,192,40231,1,0,0:0:0:0:
448,192,40464,1,0,0:0:0:0:
320,192,40580,1,0,0:0:0:0:
192,192,40696,1,0,0:0:0:0:
64,192,40696,1,0,0:0:0:0:
448,192,40696,1,0,0:0:0:0:
448,192,40929,1,0,0:0:0:0:
192,192,41045,1,0,0:0:0:0:
64,192,41162,1,0,0:0:0:0:
448,192,41162,1,0,0:0:0:0:
320,192,41162,1,0,0:0:0:0:
64,192,41394,1,0,0:0:0:0:
448,192,41510,1,0,0:0:0:0:
64,192,41627,1,0,0:0:0:0:
320,192,41627,1,0,0:0:0:0:
192,192,41627,1,0,0:0:0:0:
64,192,41859,1,0,0:0:0:0:
320,192,41976,1,0,0:0:0:0:
64,192,42092,1,0,0:0:0:0:
192,192,42092,1,0,0:0:0:0:
448,192,42092,1,0,0:0:0:0:
64,192,42324,1,0,0:0:0:0:
192,192,42441,1,0,0:0:0:0:
448,192,42557,1,0,0:0:0:0:
320,192,42557,1,0,0:0:0:0:
64,192,42557,1,0,0:0:0:0:
448,192,42790,1,0,0:0:0:0:
320,192,42906,1,0,0:0:0:0:
192,192,43022,1,0,0:0:0:0:
448,192,43022,1,0,0:0:0:0:
64,192,43022,1,0,0:0:0:0:
448,192,43255,1,0,0:0:0:0:
192,192,43371,1,0,0:0:0:0:
448,192,43487,1,0,0:0:0:0:
64,192,43487,1,0,0:0:0:0:
320,192,43487,1,0,0:0:0:0:
448,192,43720,1,0,0:0:0:0:
320,192,43836,1,0,0:0:0:0:
448,192,43952,1,0,0:0:0:0:
192,192,43952,1,0,0:0:0:0:
64,192,43952,1,0,0:0:0:0:
192,192,44185,1,0,0:0:0:0:
64,192,44417,1,0,0:0:0:0:
448,192,44417,128,0,44883:0:0:0:0:
320,192,44417,1,0,0:0:0:0:
192,192,44650,1,0,0:0:0:0:
64,192,44883,1,0,0:0:0:0:
320,192,44883,1,0,0:0:0:0:
192,192,44883,128,0,45348:0:0:0:0:
448,192,45348,1,0,0:0:0:0:
64,192,45348,1,0,0:0:0:0:
320,192,45348,1,0,0:0:0:0:
64,192,45696,1,0,0:0:0:0:
192,192,45696,1,0,0:0:0:0:
320,192,45813,1,0,0:0:0:0:
448,192,45813,1,0,0:0:0:0:
192,192,46045,1,0,0:0:0:0:
448,192,46045,1,0,0:0:0:0:
320,192,46162,1,0,0:0:0:0:
64,192,46278,1,0,0:0:0:0:
192,192,46278,1,0,0:0:0:0:
448,192,46627,1,0,0:0:0:0:
192,192,46627,1,0,0:0:0:0:
64,192,46743,1,0,0:0:0:0:
320,192,46743,1,0,0:0:0:0:
448,192,46976,1,0,0:0:0:0:
192,192,46976,1,0,0:0:0:0:
320,192,47092,1,0,0:0:0:0:
192,192,47208,1,0,0:0:0:0:
448,192,47208,1,0,0:0:0:0:
448,192,47557,1,0,0:0:0:0:
64,192,47557,1,0,0:0:0:0:
192,192,47673,1,0,0:0:0:0:
320,192,47673,1,0,0:0:0:0:
320,192,47906,1,0,0:0:0:0:
64,192,47906,1,0,0:0:0:0:
448,192,48022,1,0,0:0:0:0:
192,192,48138,1,0,0:0:0:0:
320,192,48138,1,0,0:0:0:0:
192,192,48487,1,0,0:0:0:0:
320,192,48487,1,0,0:0:0:0:
64,192,48603,1,0,0:0:0:0:
448,192,48603,1,0,0:0:0:0:
448,192,48836,1,0,0:0:0:0:
320,192,48836,1,0,0:0:0:0:
320,192,48952,1,0,0:0:0:0:
448,192,48952,1,0,0:0:0:0:
64,192,49069,1,0,0:0:0:0:
448,192,49069,1,0,0:0:0:0:
192,192,49069,1,0,0:0:0:0:
320,192,49417,1,0,0:0:0:0:
448,192,49417,1,0,0:0:0:0:
64,192,49534,1,0,0:0:0:0:
192,192,49534,1,0,0:0:0:0:
448,192,49766,1,0,0:0:0:0:
64,192,49766,1,0,0:0:0:0:
192,192,49883,1,0,0:0:0:0:
320,192,49999,1,0,0:0:0:0:
64,192,49999,1,0,0:0:0:0:
64,192,50348,1,0,0:0:0:0:
320,192,50348,1,0,0:0:0:0:
192,192,50464,1,0,0:0:0:0:
448,192,50464,1,0,0:0:0:0:
64,192,50696,1,0,0:0:0:0:
448,192,50696,1,0,0:0:0:0:
320,192,50813,1,0,0:0:0:0:
448,192,50929,1,0,0:0:0:0:
192,192,50929,1,0,0:0:0:0:
192,192,51278,1,0,0:0:0:0:
448,192,51278,1,0,0:0:0:0:
64,192,51394,1,0,0:0:0:0:
320,192,51394,1,0,0:0:0:0:
192,192,51627,1,0,0:0:0:0:
64,192,51627,1,0,0:0:0:0:
320,192,51743,1,0,0:0:0:0:
448,192,51859,1,0,0:0:0:0:
192,192,51859,1,0,0:0:0:0:
64,192,52208,1,0,0:0:0:0:
192,192,52208,1,0,0:0:0:0:
448,192,52324,1,0,0:0:0:0:
320,192,52324,1,0,0:0:0:0:
64,192,52557,1,0,0:0:0:0:
192,192,52557,1,0,0:0:0:0:
64,192,52673,1,0,0:0:0:0:
192,192,52673,1,0,0:0:0:0:
64,192,52790,1,0,0:0:0:0:
448,192,52790,1,0,0:0:0:0:
320,192,52790,1,0,0:0:0:0:
448,192,53022,1,0,0:0:0:0:
320,192,53138,1,0,0:0:0:0:
64,192,53138,1,0,0:0:0:0:
192,192,53255,1,0,0:0:0:0:
448,192,53255,1,0,0:0:0:0:
64,192,53487,1,0,0:0:0:0:
448,192,53487,1,0,0:0:0:0:
192,192,53603,1,0,0:0:0:0:
448,192,53720,1,0,0:0:0:0:
64,192,53720,1,0,0:0:0:0:
320,192,53836,1,0,0:0:0:0:
64,192,53952,1,0,0:0:0:0:
192,192,54069,1,0,0:0:0:0:
448,192,54069,1,0,0:0:0:0:
64,192,54185,1,0,0:0:0:0:
320,192,54185,1,0,0:0:0:0:
64,192,54417,1,0,0:0:0:0:
320,192,54417,1,0,0:0:0:0:
192,192,54534,1,0,0:0:0:0:
64,192,54650,1,0,0:0:0:0:
448,192,54650,1,0,0:0:0:0:
64,192,54883,1,0,0:0:0:0:
192,192,54999,1,0,0:0:0:0:
320,192,54999,1,0,0:0:0:0:
64,192,55115,1,0,0:0:0:0:
448,192,55115,1,0,0:0:0:0:
64,192,55348,1,0,0:0:0:0:
448,192,55348,1,0,0:0:0:0:
320,192,55464,1,0,0:0:0:0:
64,192,55580,1,0,0:0:0:0:
448,192,55580,1,0,0:0:0:0:
192,192,55696,1,0,0:0:0:0:
448,192,55813,1,0,0:0:0:0:
192,192,55929,1,0,0:0:0:0:
320,192,55929,1,0,0:0:0:0:
64,192,56045,1,0,0:0:0:0:
448,192,56045,1,0,0:0:0:0:
192,192,56278,1,0,0:0:0:0:
64,192,56394,1,0,0:0:0:0:
448,192,56510,128,0,56976:0:0:0:0:
320,192,56510,1,0,0:0:0:0:
192,192,56627,1,0,0:0:0:0:
320,192,56743,1,0,0:0:0:0:
192,192,56859,1,0,0:0:0:0:
64,192,56976,128,0,57441:0:0:0:0:
320,192,56976,1,0,0:0:0:0:
448,192,57092,1,0,0:0:0:0:
320,192,57208,1,0,0:0:0:0:
448,192,57324,1,0,0:0:0:0:
320,192,57441,128,0,57906:0:0:0:0:
192,192,57441,1,0,0:0:0:0:
64,192,57557,1,0,0:0:0:0:
192,192,57673,1,0,0:0:0:0:
64,192,57790,1,0,0:0:0:0:
192,192,57906,128,0,58371:0:0:0:0:
448,192,57906,1,0,0:0:0:0:
320,192,58022,1,0,0:0:0:0:
448,192,58138,1,0,0:0:0:0:
320,192,58255,1,0,0:0:0:0:
64,192,58371,1,0,0:0:0:0:
448,192,58371,128,0,59301:0:0:0:0:
192,192,59301,1,0,0:0:0:0:
64,192,59301,128,0,59766:0:0:0:0:
320,192,59766,1,0,0:0:0:0:
448,192,59766,128,0,60231:0:0:0:0:
64,192,60231,1,0,0:0:0:0:
320,192,60231,1,0,0:0:0:0:
448,192,60464,1,0,0:0:0:0:
320,192,60580,1,0,0:0:0:0:
192,192,60696,1,0,0:0:0:0:
448,192,60696,1,0,0:0:0:0:
64,192,60696,1,0,0:0:0:0:
320,192,60813,1,0,0:0:0:0:
192,192,60929,1,0,0:0:0:0:
320,192,61045,1,0,0:0:0:0:
192,192,61162,1,0,0:0:0:0:
448,192,61162,1,0,0:0:0:0:
64,192,61162,1,0,0:0:0:0:
320,192,61278,1,0,0:0:0:0:
64,192,61394,1,0,0:0:0:0:
192,192,61510,1,0,0:0:0:0:
448,192,61627,1,0,0:0:0:0:
64,192,61627,1,0,0:0:0:0:
320,192,61627,1,0,0:0:0:0:
192,192,61743,1,0,0:0:0:0:
320,192,61859,1,0,0:0:0:0:
192,192,61976,1,0,0:0:0:0:
64,192,62092,1,0,0:0:0:0:
448,192,62092,1,0,0:0:0:0:
320,192,62092,1,0,0:0:0:0:
192,192,62208,1,0,0:0:0:0:
320,192,62324,1,0,0:0:0:0:
448,192,62441,1,0,0:0:0:0:
64,192,62557,1,0,0:0:0:0:
320,192,62557,1,0,0:0:0:0:
192,192,62557,1,0,0:0:0:0:
448,192,62673,1,0,0:0:0:0:
192,192,62790,1,0,0:0:0:0:
320,192,62906,1,0,0:0:0:0:
192,192,63022,1,0,0:0:0:0:
64,192,63022,1,0,0:0:0:0:
448,192,63022,1,0,0:0:0:0:
320,192,63138,1,0,0:0:0:0:
192,192,63255,1,0,0:0:0:0:
64,192,63371,1,0,0:0:0:0:
192,192,63487,1,0,0:0:0:0:
448,192,63487,1,0,0:0:0:0:
320,192,63487,1,0,0:0:0:0:
64,192,63720,1,0,0:0:0:0:
448,192,63836,1,0,0:0:0:0:
192,192,63952,1,0,0:0:0:0:
320,192,63952,1,0,0:0:0:0:
64,192,63952,1,0,0:0:0:0:
448,192,64069,1,0,0:0:0:0:
192,192,64185,1,0,0:0:0:0:
448,192,64301,1,0,0:0:0:0:
64,192,64417,1,0,0:0:0:0:
320,192,64417,1,0,0:0:0:0:
192,192,64417,1,0,0:0:0:0:
448,192,64534,1,0,0:0:0:0:
192,192,64650,1,0,0:0:0:0:
64,192,64766,1,0,0:0:0:0:
192,192,64883,1,0,0:0:0:0:
320,192,64883,1,0,0:0:0:0:
448,192,64883,1,0,0:0:0:0:
64,192,64999,1,0,0:0:0:0:
320,192,65115,1,0,0:0:0:0:
64,192,65231,1,0,0:0:0:0:
448,192,65348,1,0,0:0:0:0:
320,192,65348,1,0,0:0:0:0:
192,192,65348,1,0,0:0:0:0:
64,192,65464,1,0,0:0:0:0:
192,192,65580,1,0,0:0:0:0:
448,192,65696,1,0,0:0:0:0:
192,192,65813,1,0,0:0:0:0:
320,192,65813,1,0,0:0:0:0:
64,192,65813,1,0,0:0:0:0:
448,192,65929,1,0,0:0:0:0:
320,192,66045,1,0,0:0:0:0:
192,192,66162,1,0,0:0:0:0:
448,192,66278,1,0,0:0:0:0:
64,192,66278,1,0,0:0:0:0:
320,192,66278,1,0,0:0:0:0:
192,192,66394,1,0,0:0:0:0:
320,192,66510,1,0,0:0:0:0:
192,192,66743,1,0,0:0:0:0:
64,192,66743,128,0,67208:0:0:0:0:
320,192,66859,1,0,0:0:0:0:
448,192,66976,1,0,0:0:0:0:
320,192,67092,1,0,0:0:0:0:
192,192,67208,1,0,0:0:0:0:
448,192,67208,128,0,67673:0:0:0:0:
64,192,67673,1,0,0:0:0:0:
192,192,67673,1,0,0:0:0:0:
320,192,67673,1,0,0:0:0:0:
320,192,67906,1,0,0:0:0:0:
64,192,68022,1,0,0:0:0:0:
448,192,68138,1,0,0:0:0:0:
192,192,68138,1,0,0:0:0:0:
64,192,68255,1,0,0:0:0:0:
448,192,68371,1,0,0:0:0:0:
192,192,68371,1,0,0:0:0:0:
320,192,68487,1,0,0:0:0:0:
448,192,68603,1,0,0:0:0:0:
64,192,68603,1,0,0:0:0:0:
192,192,68603,1,0,0:0:0:0:
320,192,68720,1,0,0:0:0:0:
192,192,68836,1,0,0:0:0:0:
448,192,68952,1,0,0:0:0:0:
320,192,69069,1,0,0:0:0:0:
64,192,69069,1,0,0:0:0:0:
448,192,69185,1,0,0:0:0:0:
320,192,69301,1,0,0:0:0:0:
192,192,69417,1,0,0:0:0:0:
448,192,69534,1,0,0:0:0:0:
64,192,69534,1,0,0:0:0:0:
320,192,69534,1,0,0:0:0:0:
192,192,69650,1,0,0:0:0:0:
448,192,69766,1,0,0:0:0:0:
64,192,69883,1,0,0:0:0:0:
192,192,69999,1,0,0:0:0:0:
320,192,69999,1,0,0:0:0:0:
64,192,70115,1,0,0:0:0:0:
320,192,70231,1,0,0:0:0:0:
64,192,70348,1,0,0:0:0:0:
192,192,70464,1,0,0:0:0:0:
320,192,70464,1,0,0:0:0:0:
448,192,70464,1,0,0:0:0:0:
64,192,70580,1,0,0:0:0:0:
320,192,70696,1,0,0:0:0:0:
448,192,70813,1,0,0:0:0:0:
320,192,70929,1,0,0:0:0:0:
64,192,70929,1,0,0:0:0:0:
448,192,71045,1,0,0:0:0:0:
192,192,71162,1,0,0:0:0:0:
448,192,71278,1,0,0:0:0:0:
320,192,71394,1,0,0:0:0:0:
64,192,71394,1,0,0:0:0:0:
192,192,71394,1,0,0:0:0:0:
448,192,71510,1,0,0:0:0:0:
192,192,71627,1,0,0:0:0:0:
64,192,71743,1,0,0:0:0:0:
320,192,71859,1,0,0:0:0:0:
192,192,71859,1,0,0:0:0:0:
64,192,71976,1,0,0:0:0:0:
192,192,72092,1,0,0:0:0:0:
320,192,72208,1,0,0:0:0:0:
64,192,72324,1,0,0:0:0:0:
192,192,72324,1,0,0:0:0:0:
448,192,72324,1,0,0:0:0:0:
320,192,72441,1,0,0:0:0:0:
64,192,72557,1,0,0:0:0:0:
192,192,72673,1,0,0:0:0:0:
448,192,72790,1,0,0:0:0:0:
320,192,72790,1,0,0:0:0:0:
64,192,73138,1,0,0:0:0:0:
448,192,73138,128,0,73487:0:0:0:0:
320,192,73138,1,0,0:0:0:0:
320,192,73487,1,0,0:0:0:0:
192,192,73487,128,0,73836:0:0:0:0:
64,192,73836,1,0,0:0:0:0:
320,192,73836,128,0,74185:0:0:0:0:
64,192,74185,1,0,0:0:0:0:
448,192,74185,128,0,74650:0:0:0:0:
192,192,74301,1,0,0:0:0:0:
320,192,74417,1,0,0:0:0:0:
192,192,74534,1,0,0:0:0:0:
320,192,74650,128,0,75115:0:0:0:0:
64,192,74650,1,0,0:0:0:0:
64,192,75115,1,0,0:0:0:0:
448,192,75115,1,0,0:0:0:0:
192,192,75231,1,0,0:0:0:0:
320,192,75348,1,0,0:0:0:0:
192,192,75464,1,0,0:0:0:0:
320,192,75580,1,0,0:0:0:0:
192,192,75696,1,0,0:0:0:0:
64,192,75813,1,0,0:0:0:0:
448,192,75929,1,0,0:0:0:0:
192,192,76045,1,0,0:0:0:0:
320,192,76045,1,0,0:0:0:0:
448,192,76162,1,0,0:0:0:0:
320,192,76278,1,0,0:0:0:0:
64,192,76394,1,0,0:0:0:0:
448,192,76510,1,0,0:0:0:0:
192,192,76510,1,0,0:0:0:0:
320,192,76510,1,0,0:0:0:0:
64,192,76627,1,0,0:0:0:0:
192,192,76743,1,0,0:0:0:0:
320,192,76859,1,0,0:0:0:0:
448,192,76976,1,0,0:0:0:0:
64,192,77092,1,0,0:0:0:0:
448,192,77208,1,0,0:0:0:0:
320,192,77208,1,0,0:0:0:0:
192,192,77324,1,0,0:0:0:0:
64,192,77441,1,0,0:0:0:0:
448,192,77441,1,0,0:0:0:0:
320,192,77441,1,0,0:0:0:0:
192,192,77499,1,0,0:0:0:0:
320,192,77557,1,0,0:0:0:0:
64,192,77615,1,0,0:0:0:0:
192,192,77673,1,0,0:0:0:0:
320,192,77731,1,0,0:0:0:0:
448,192,77790,1,0,0:0:0:0:
192,192,77848,1,0,0:0:0:0:
64,192,77906,1,0,0:0:0:0:
448,192,77906,1,0,0:0:0:0:
320,192,78022,1,0,0:0:0:0:
448,192,78138,1,0,0:0:0:0:
320,192,78255,1,0,0:0:0:0:
192,192,78371,1,0,0:0:0:0:
64,192,78487,1,0,0:0:0:0:
320,192,78603,1,0,0:0:0:0:
448,192,78720,1,0,0:0:0:0:
192,192,78836,1,0,0:0:0:0:
320,192,78836,1,0,0:0:0:0:
64,192,78836,1,0,0:0:0:0:
448,192,78952,1,0,0:0:0:0:
320,192,79069,1,0,0:0:0:0:
192,192,79185,1,0,0:0:0:0:
320,192,79301,1,0,0:0:0:0:
448,192,79417,1,0,0:0:0:0:
320,192,79534,1,0,0:0:0:0:
64,192,79534,1,0,0:0:0:0:
192,192,79650,1,0,0:0:0:0:
64,192,79766,1,0,0:0:0:0:
448,192,79766,1,0,0:0:0:0:
192,192,79883,1,0,0:0:0:0:
320,192,79999,1,0,0:0:0:0:
192,192,80115,1,0,0:0:0:0:
320,192,80231,1,0,0:0:0:0:
448,192,80231,1,0,0:0:0:0:
64,192,80231,1,0,0:0:0:0:
192,192,80348,1,0,0:0:0:0:
320,192,80464,1,0,0:0:0:0:
192,192,80580,1,0,0:0:0:0:
448,192,80696,1,0,0:0:0:0:
64,192,80813,1,0,0:0:0:0:
448,192,80929,1,0,0:0:0:0:
192,192,80929,1,0,0:0:0:0:
320,192,81045,1,0,0:0:0:0:
64,192,81162,1,0,0:0:0:0:
192,192,81162,1,0,0:0:0:0:
448,192,81162,1,0,0:0:0:0:
320,192,81220,1,0,0:0:0:0:
192,192,81278,1,0,0:0:0:0:
320,192,81336,1,0,0:0:0:0:
192,192,81394,1,0,0:0:0:0:
64,192,81452,1,0,0:0:0:0:
320,192,81510,1,0,0:0:0:0:
192,192,81569,1,0,0:0:0:0:
448,192,81627,1,0,0:0:0:0:
64,192,81627,1,0,0:0:0:0:
64,192,81976,1,0,0:0:0:0:
192,192,81976,1,0,0:0:0:0:
192,192,82324,1,0,0:0:0:0:
320,192,82324,1,0,0:0:0:0:
320,192,82557,1,0,0:0:0:0:
448,192,82557,1,0,0:0:0:0:
64,192,82557,1,0,0:0:0:0:
192,192,82673,1,0,0:0:0:0:
64,192,82790,1,0,0:0:0:0:
448,192,82906,1,0,0:0:0:0:
192,192,83022,1,0,0:0:0:0:
320,192,83022,1,0,0:0:0:0:
64,192,83022,1,0,0:0:0:0:
448,192,83138,1,0,0:0:0:0:
64,192,83255,1,0,0:0:0:0:
192,192,83371,1,0,0:0:0:0:
64,192,83487,1,0,0:0:0:0:
448,192,83487,1,0,0:0:0:0:
320,192,83603,1,0,0:0:0:0:
64,192,83720,1,0,0:0:0:0:
192,192,83836,1,0,0:0:0:0:
448,192,83952,1,0,0:0:0:0:
320,192,83952,1,0,0:0:0:0:
64,192,83952,1,0,0:0:0:0:
192,192,84069,1,0,0:0:0:0:
64,192,84185,1,0,0:0:0:0:
320,192,84301,1,0,0:0:0:0:
448,192,84417,1,0,0:0:0:0:
192,192,84534,1,0,0:0:0:0:
320,192,84650,1,0,0:0:0:0:
64,192,84650,1,0,0:0:0:0:
448,192,84766,1,0,0:0:0:0:
192,192,84883,1,0,0:0:0:0:
64,192,84883,1,0,0:0:0:0:
448,192,84883,1,0,0:0:0:0:
320,192,84941,1,0,0:0:0:0:
64,192,84999,1,0,0:0:0:0:
192,192,85057,1,0,0:0:0:0:
320,192,85115,1,0,0:0:0:0:
448,192,85173,1,0,0:0:0:0:
320,192,85231,1,0,0:0:0:0:
192,192,85290,1,0,0:0:0:0:
448,192,85348,1,0,0:0:0:0:
64,192,85348,1,0,0:0:0:0:
320,192,85348,128,0,85813:0:0:0:0:
64,192,85580,1,0,0:0:0:0:
448,192,85813,128,0,86045:0:0:0:0:
192,192,85813,1,0,0:0:0:0:
320,192,86045,1,0,0:0:0:0:
64,192,86045,1,0,0:0:0:0:
192,192,86162,1,0,0:0:0:0:
448,192,86162,1,0,0:0:0:0:
64,192,86278,1,0,0:0:0:0:
320,192,86278,1,0,0:0:0:0:
192,192,86394,1,0,0:0:0:0:
448,192,86510,1,0,0:0:0:0:
64,192,86627,1,0,0:0:0:0:
320,192,86743,1,0,0:0:0:0:
192,192,86859,1,0,0:0:0:0:
448,192,86976,1,0,0:0:0:0:
64,192,87092,1,0,0:0:0:0:
192,192,87208,1,0,0:0:0:0:
448,192,87208,1,0,0:0:0:0:
320,192,87324,1,0,0:0:0:0:
192,192,87441,1,0,0:0:0:0:
320,192,87557,1,0,0:0:0:0:
64,192,87673,1,0,0:0:0:0:
192,192,87673,1,0,0:0:0:0:
448,192,87673,1,0,0:0:0:0:
320,192,87790,1,0,0:0:0:0:
192,192,87906,1,0,0:0:0:0:
64,192,88022,1,0,0:0:0:0:
320,192,88138,1,0,0:0:0:0:
448,192,88255,1,0,0:0:0:0:
64,192,88371,1,0,0:0:0:0:
192,192,88371,1,0,0:0:0:0:
320,192,88487,1,0,0:0:0:0:
192,192,88603,1,0,0:0:0:0:
448,192,88662,1,0,0:0:0:0:
320,192,88720,1,0,0:0:0:0:
64,192,88778,1,0,0:0:0:0:
192,192,88836,1,0,0:0:0:0:
448,192,88894,1,0,0:0:0:0:
320,192,88952,1,0,0:0:0:0:
64,192,89010,1,0,0:0:0:0:
448,192,89069,1,0,0:0:0:0:
192,192,89069,1,0,0:0:0:0:
448,192,89417,1,0,0:0:0:0:
320,192,89417,1,0,0:0:0:0:
320,192,89766,1,0,0:0:0:0:
192,192,89766,1,0,0:0:0:0:
64,192,89999,1,0,0:0:0:0:
448,192,89999,1,0,0:0:0:0:
192,192,89999,128,0,90115:0:0:0:0:
320,192,90115,1,0,0:0:0:0:
448,192,90231,1,0,0:0:0:0:
64,192,90348,1,0,0:0:0:0:
192,192,90348,128,0,90464:0:0:0:0:
320,192,90464,1,0,0:0:0:0:
64,192,90580,1,0,0:0:0:0:
448,192,90696,1,0,0:0:0:0:
320,192,90696,128,0,90813:0:0:0:0:
64,192,90813,1,0,0:0:0:0:
448,192,90929,1,0,0:0:0:0:
192,192,90929,1,0,0:0:0:0:
64,192,91045,1,0,0:0:0:0:
192,192,91045,128,0,91162:0:0:0:0:
448,192,91162,1,0,0:0:0:0:
192,192,91278,1,0,0:0:0:0:
320,192,91394,1,0,0:0:0:0:
448,192,91394,128,0,91510:0:0:0:0:
64,192,91394,1,0,0:0:0:0:
320,192,91627,1,0,0:0:0:0:
64,192,91743,128,0,91859:0:0:0:0:
192,192,91743,1,0,0:0:0:0:
320,192,91859,1,0,0:0:0:0:
448,192,91976,1,0,0:0:0:0:
192,192,92092,128,0,92208:0:0:0:0:
320,192,92092,1,0,0:0:0:0:
448,192,92208,1,0,0:0:0:0:
320,192,92324,1,0,0:0:0:0:
64,192,92324,1,0,0:0:0:0:
320,192,92441,128,0,92557:0:0:0:0:
192,192,92441,1,0,0:0:0:0:
64,192,92557,1,0,0:0:0:0:
192,192,92673,1,0,0:0:0:0:
448,192,92790,128,0,92906:0:0:0:0:
320,192,92790,1,0,0:0:0:0:
64,192,92790,1,0,0:0:0:0:
192,192,92906,1,0,0:0:0:0:
320,192,93022,1,0,0:0:0:0:
64,192,93138,1,0,0:0:0:0:
192,192,93255,1,0,0:0:0:0:
448,192,93255,128,0,93371:0:0:0:0:
320,192,93371,1,0,0:0:0:0:
192,192,93487,128,0,93603:0:0:0:0:
64,192,93487,1,0,0:0:0:0:
64,192,93720,1,0,0:0:0:0:
448,192,93720,128,0,93836:0:0:0:0:
320,192,93720,1,0,0:0:0:0:
192,192,93836,1,0,0:0:0:0:
64,192,93952,1,0,0:0:0:0:
192,192,94069,128,0,94185:0:0:0:0:
320,192,94069,1,0,0:0:0:0:
64,192,94185,1,0,0:0:0:0:
192,192,94301,1,0,0:0:0:0:
448,192,94417,128,0,94534:0:0:0:0:
320,192,94417,1,0,0:0:0:0:
192,192,94534,1,0,0:0:0:0:
320,192,94650,1,0,0:0:0:0:
448,192,94650,1,0,0:0:0:0:
64,192,94766,128,0,94883:0:0:0:0:
192,192,94766,1,0,0:0:0:0:
448,192,94883,1,0,0:0:0:0:
320,192,94999,1,0,0:0:0:0:
320,192,95115,128,0,95231:0:0:0:0:
448,192,95115,1,0,0:0:0:0:
192,192,95115,1,0,0:0:0:0:
64,192,95348,1,0,0:0:0:0:
448,192,95464,128,0,95580:0:0:0:0:
320,192,95464,1,0,0:0:0:0:
192,192,95580,1,0,0:0:0:0:
64,192,95696,1,0,0:0:0:0:
320,192,95813,128,0,95929:0:0:0:0:
192,192,95813,1,0,0:0:0:0:
64,192,95929,1,0,0:0:0:0:
192,192,96045,1,0,0:0:0:0:
448,192,96045,1,0,0:0:0:0:
192,192,96162,128,0,96278:0:0:0:0:
320,192,96162,1,0,0:0:0:0:
448,192,96278,1,0,0:0:0:0:
192,192,96394,1,0,0:0:0:0:
64,192,96510,128,0,96627:0:0:0:0:
320,192,96510,1,0,0:0:0:0:
448,192,96510,1,0,0:0:0:0:
192,192,96627,1,0,0:0:0:0:
64,192,96859,1,0,0:0:0:0:
320,192,96859,1,0,0:0:0:0:
192,192,97208,1,0,0:0:0:0:
448,192,97208,1,0,0:0:0:0:
448,192,97441,128,0,97557:0:0:0:0:
320,192,97441,1,0,0:0:0:0:
64,192,97441,1,0,0:0:0:0:
192,192,97557,1,0,0:0:0:0:
320,192,97673,1,0,0:0:0:0:
192,192,97790,128,0,97906:0:0:0:0:
64,192,97790,1,0,0:0:0:0:
320,192,97906,1,0,0:0:0:0:
448,192,97906,1,0,0:0:0:0:
64,192,98022,1,0,0:0:0:0:
320,192,98138,128,0,98255:0:0:0:0:
448,192,98138,1,0,0:0:0:0:
64,192,98255,1,0,0:0:0:0:
320,192,98371,1,0,0:0:0:0:
448,192,98371,1,0,0:0:0:0:
64,192,98487,128,0,98603:0:0:0:0:
192,192,98487,1,0,0:0:0:0:
320,192,98603,1,0,0:0:0:0:
64,192,98720,1,0,0:0:0:0:
192,192,98836,128,0,98952:0:0:0:0:
320,192,98836,1,0,0:0:0:0:
448,192,98836,1,0,0:0:0:0:
320,192,99069,1,0,0:0:0:0:
448,192,99185,1,0,0:0:0:0:
64,192,99301,128,0,99417:0:0:0:0:
320,192,99301,1,0,0:0:0:0:
192,192,99417,1,0,0:0:0:0:
64,192,99534,1,0,0:0:0:0:
192,192,99650,128,0,99766:0:0:0:0:
448,192,99650,1,0,0:0:0:0:
320,192,99766,1,0,0:0:0:0:
64,192,99766,1,0,0:0:0:0:
448,192,99883,1,0,0:0:0:0:
320,192,99999,128,0,100115:0:0:0:0:
192,192,99999,1,0,0:0:0:0:
64,192,100115,1,0,0:0:0:0:
320,192,100231,1,0,0:0:0:0:
192,192,100231,1,0,0:0:0:0:
448,192,100348,128,0,100464:0:0:0:0:
64,192,100348,1,0,0:0:0:0:
320,192,100464,1,0,0:0:0:0:
64,192,100696,128,0,100813:0:0:0:0:
448,192,100929,1,0,0:0:0:0:
320,192,100929,128,0,101045:0:0:0:0:
192,192,101045,1,0,0:0:0:0:
448,192,101162,1,0,0:0:0:0:
64,192,101162,1,0,0:0:0:0:
192,192,101162,128,0,101278:0:0:0:0:
320,192,101278,1,0,0:0:0:0:
448,192,101394,1,0,0:0:0:0:
64,192,101510,128,0,101627:0:0:0:0:
192,192,101510,1,0,0:0:0:0:
320,192,101627,1,0,0:0:0:0:
192,192,101743,1,0,0:0:0:0:
448,192,101859,128,0,101976:0:0:0:0:
320,192,101859,1,0,0:0:0:0:
320,192,102092,1,0,0:0:0:0:
448,192,102092,1,0,0:0:0:0:
192,192,102208,128,0,102324:0:0:0:0:
64,192,102208,1,0,0:0:0:0:
320,192,102324,1,0,0:0:0:0:
64,192,102441,1,0,0:0:0:0:
320,192,102557,128,0,102673:0:0:0:0:
448,192,102557,1,0,0:0:0:0:
192,192,102557,1,0,0:0:0:0:
448,192,102906,128,0,103022:0:0:0:0:
320,192,103255,128,0,103371:0:0:0:0:
192,192,103603,128,0,103720:0:0:0:0:
64,192,103952,128,0,104069:0:0:0:0:
192,192,104069,1,0,0:0:0:0:
448,192,104185,1,0,0:0:0:0:
192,192,104301,1,0,0:0:0:0:
448,192,104417,1,0,0:0:0:0:
