osu file format v14

[General]
AudioFilename: audio.mp3
AudioLeadIn: 0
PreviewTime: 59301
Countdown: 0
SampleSet: Soft
StackLeniency: 0.7
Mode: 3
LetterboxInBreaks: 0
SpecialStyle: 0
WidescreenStoryboard: 0

[Editor]
DistanceSpacing: 1.2
BeatDivisor: 4
GridSize: 8
TimelineZoom: 1.8

[Metadata]
Title:sync
TitleUnicode:sync
Artist:lol
ArtistUnicode:lol
Creator:tuandi
Version:HD
Source:双星の陰陽師
Tags:english, japanese, instrumental Diva Days Flamingrok Rivals_7 Dreambunny gaston_2199 Chalwa Sousei No Onmyouji TwinStar Exorcist Op3 bye jpop hibiki komiyama naoto sato yusuke moca honoka
BeatmapID:1185666
BeatmapSetID:560696

[Difficulty]
HPDrainRate:7
CircleSize:4
OverallDifficulty:7
ApproachRate:5
SliderMultiplier:1.3
SliderTickRate:3

[Events]
//Background and Video events
0,0,"BG.jpg",0,0
//Break Periods
//Storyboard Layer 0 (Background)
//Storyboard Layer 1 (Fail)
//Storyboard Layer 2 (Pass)
//Storyboard Layer 3 (Foreground)
//Storyboard Layer 4 (Overlay)
//Storyboard Sound Samples

[TimingPoints]
697,465.116279069767,4,2,0,50,1,0
60231,-100,4,2,0,50,0,1
89999,-100,4,2,0,50,0,0

[HitObjects]
64,192,697,5,0,0:0:0:0:
448,192,697,1,0,0:0:0:0:
192,192,1045,1,0,0:0:0:0:
320,192,1394,1,0,0:0:0:0:
192,192,1743,1,0,0:0:0:0:
320,192,2092,1,0,0:0:0:0:
448,192,2092,1,0,0:0:0:0:
64,192,3952,1,0,0:0:0:0:
192,192,4185,1,0,0:0:0:0:
320,192,4417,1,0,0:0:0:0:
448,192,4417,1,0,0:0:0:0:
192,192,4766,1,0,0:0:0:0:
320,192,5115,1,0,0:0:0:0:
64,192,5464,1,0,0:0:0:0:
192,192,5813,1,0,0:0:0:0:
320,192,5813,1,0,0:0:0:0:
64,192,6162,128,0,6278:0:0:0:0:
448,192,6510,128,0,6627:0:0:0:0:
320,192,6859,128,0,6976:0:0:0:0:
192,192,7208,128,0,7673:0:0:0:0:
448,192,7673,1,0,0:0:0:0:
64,192,7673,1,0,0:0:0:0:
192,192,8138,128,0,8371:0:0:0:0:
64,192,8836,128,0,9069:0:0:0:0:
320,192,9534,128,0,9766:0:0:0:0:
320,192,9999,128,0,10115:0:0:0:0:
320,192,10464,128,0,10580:0:0:0:0:
192,192,10929,1,0,0:0:0:0:
320,192,10929,1,0,0:0:0:0:
64,192,11859,128,0,12092:0:0:0:0:
448,192,12557,128,0,12790:0:0:0:0:
192,192,13255,128,0,13487:0:0:0:0:
192,192,13720,128,0,13836:0:0:0:0:
192,192,14185,128,0,14301:0:0:0:0:
320,192,14650,1,0,0:0:0:0:
192,192,14650,1,0,0:0:0:0:
448,192,15580,128,0,15813:0:0:0:0:
320,192,16278,128,0,16510:0:0:0:0:
64,192,16976,128,0,17208:0:0:0:0:
64,192,17441,128,0,17557:0:0:0:0:
64,192,17906,128,0,18022:0:0:0:0:
448,192,18371,1,0,0:0:0:0:
320,192,18371,1,0,0:0:0:0:
192,192,19301,128,0,19534:0:0:0:0:
320,192,19999,128,0,20231:0:0:0:0:
448,192,20696,128,0,20929:0:0:0:0:
448,192,21162,128,0,21278:0:0:0:0:
448,192,21627,128,0,21743:0:0:0:0:
192,192,22092,1,0,0:0:0:0:
64,192,22092,1,0,0:0:0:0:
192,192,22557,1,0,0:0:0:0:
320,192,22557,1,0,0:0:0:0:
64,192,23022,1,0,0:0:0:0:
448,192,23022,1,0,0:0:0:0:
192,192,23487,1,0,0:0:0:0:
64,192,23487,128,0,23952:0:0:0:0:
320,192,23952,1,0,0:0:0:0:
448,192,23952,1,0,0:0:0:0:
64,192,24417,1,0,0:0:0:0:
448,192,24417,1,0,0:0:0:0:
192,192,25115,1,0,0:0:0:0:
64,192,25348,1,0,0:0:0:0:
448,192,25348,1,0,0:0:0:0:
320,192,25813,1,0,0:0:0:0:
448,192,25813,1,0,0:0:0:0:
192,192,26510,1,0,0:0:0:0:
320,192,26510,1,0,0:0:0:0:
64,192,26743,1,0,0:0:0:0:
448,192,26743,1,0,0:0:0:0:
320,192,27208,1,0,0:0:0:0:
448,192,27208,128,0,27673:0:0:0:0:
64,192,27673,1,0,0:0:0:0:
192,192,27673,1,0,0:0:0:0:
64,192,28138,1,0,0:0:0:0:
448,192,28138,1,0,0:0:0:0:
192,192,28836,1,0,0:0:0:0:
64,192,29069,1,0,0:0:0:0:
448,192,29069,1,0,0:0:0:0:
320,192,29534,1,0,0:0:0:0:
448,192,29534,1,0,0:0:0:0:
320,192,29999,1,0,0:0:0:0:
192,192,30231,1,0,0:0:0:0:
320,192,30348,1,0,0:0:0:0:
64,192,30464,1,0,0:0:0:0:
448,192,30464,1,0,0:0:0:0:
320,192,30929,1,0,0:0:0:0:
64,192,30929,128,0,31394:0:0:0:0:
192,192,31394,1,0,0:0:0:0:
448,192,31394,1,0,0:0:0:0:
64,192,31859,1,0,0:0:0:0:
448,192,31859,1,0,0:0:0:0:
320,192,32324,1,0,0:0:0:0:
192,192,32557,1,0,0:0:0:0:
64,192,32790,1,0,0:0:0:0:
448,192,32790,1,0,0:0:0:0:
64,192,33255,1,0,0:0:0:0:
320,192,33255,1,0,0:0:0:0:
320,192,33952,1,0,0:0:0:0:
64,192,34185,1,0,0:0:0:0:
448,192,34185,1,0,0:0:0:0:
192,192,34650,1,0,0:0:0:0:
448,192,34650,128,0,35115:0:0:0:0:
320,192,35115,1,0,0:0:0:0:
64,192,35115,1,0,0:0:0:0:
64,192,35580,1,0,0:0:0:0:
448,192,35580,1,0,0:0:0:0:
192,192,35580,128,0,36976:0:0:0:0:
64,192,37324,1,0,0:0:0:0:
448,192,37324,1,0,0:0:0:0:
192,192,37441,1,0,0:0:0:0:
320,192,37441,1,0,0:0:0:0:
192,192,37906,1,0,0:0:0:0:
64,192,37906,128,0,38371:0:0:0:0:
448,192,38371,1,0,0:0:0:0:
192,192,38371,1,0,0:0:0:0:
320,192,38603,1,0,0:0:0:0:
448,192,38836,1,0,0:0:0:0:
192,192,38836,1,0,0:0:0:0:
64,192,39069,1,0,0:0:0:0:
320,192,39301,1,0,0:0:0:0:
192,192,39301,1,0,0:0:0:0:
192,192,39766,1,0,0:0:0:0:
320,192,39766,128,0,40231:0:0:0:0:
64,192,39999,1,0,0:0:0:0:
192,192,40231,1,0,0:0:0:0:
448,192,40231,1,0,0:0:0:0:
64,192,40464,1,0,0:0:0:0:
192,192,40696,1,0,0:0:0:0:
448,192,40696,1,0,0:0:0:0:
320,192,40929,1,0,0:0:0:0:
192,192,41162,1,0,0:0:0:0:
64,192,41627,1,0,0:0:0:0:
320,192,41627,128,0,42092:0:0:0:0:
448,192,41859,1,0,0:0:0:0:
64,192,42092,1,0,0:0:0:0:
192,192,42092,1,0,0:0:0:0:
448,192,42324,1,0,0:0:0:0:
192,192,42557,1,0,0:0:0:0:
320,192,42557,1,0,0:0:0:0:
64,192,42790,1,0,0:0:0:0:
192,192,43022,1,0,0:0:0:0:
320,192,43022,1,0,0:0:0:0:
320,192,43255,1,0,0:0:0:0:
448,192,43487,1,0,0:0:0:0:
192,192,43487,1,0,0:0:0:0:
64,192,43487,128,0,43952:0:0:0:0:
320,192,43720,1,0,0:0:0:0:
448,192,43952,1,0,0:0:0:0:
192,192,43952,1,0,0:0:0:0:
320,192,44185,1,0,0:0:0:0:
192,192,44417,1,0,0:0:0:0:
64,192,44417,1,0,0:0:0:0:
448,192,44650,1,0,0:0:0:0:
192,192,44883,128,0,45231:0:0:0:0:
64,192,44883,1,0,0:0:0:0:
320,192,44883,128,0,45231:0:0:0:0:
448,192,44883,1,0,0:0:0:0:
448,192,45348,1,0,0:0:0:0:
64,192,45348,1,0,0:0:0:0:
192,192,45696,1,0,0:0:0:0:
320,192,45813,1,0,0:0:0:0:
448,192,45813,1,0,0:0:0:0:
320,192,46045,1,0,0:0:0:0:
64,192,46278,1,0,0:0:0:0:
192,192,46278,1,0,0:0:0:0:
64,192,46627,1,0,0:0:0:0:
192,192,46743,1,0,0:0:0:0:
448,192,46743,1,0,0:0:0:0:
448,192,46976,1,0,0:0:0:0:
64,192,47208,1,0,0:0:0:0:
320,192,47208,1,0,0:0:0:0:
192,192,47557,1,0,0:0:0:0:
64,192,47673,1,0,0:0:0:0:
320,192,47673,1,0,0:0:0:0:
320,192,47906,1,0,0:0:0:0:
192,192,48138,1,0,0:0:0:0:
448,192,48138,1,0,0:0:0:0:
192,192,48487,1,0,0:0:0:0:
320,192,48603,1,0,0:0:0:0:
448,192,48603,1,0,0:0:0:0:
192,192,48836,1,0,0:0:0:0:
320,192,48952,1,0,0:0:0:0:
64,192,49069,1,0,0:0:0:0:
448,192,49069,1,0,0:0:0:0:
320,192,49417,1,0,0:0:0:0:
64,192,49534,1,0,0:0:0:0:
192,192,49534,1,0,0:0:0:0:
192,192,49766,1,0,0:0:0:0:
320,192,49999,1,0,0:0:0:0:
448,192,49999,1,0,0:0:0:0:
320,192,50348,1,0,0:0:0:0:
192,192,50464,1,0,0:0:0:0:
448,192,50464,1,0,0:0:0:0:
320,192,50696,1,0,0:0:0:0:
192,192,50929,1,0,0:0:0:0:
448,192,50929,1,0,0:0:0:0:
192,192,51278,1,0,0:0:0:0:
64,192,51394,1,0,0:0:0:0:
320,192,51394,1,0,0:0:0:0:
192,192,51627,1,0,0:0:0:0:
64,192,51859,1,0,0:0:0:0:
320,192,51859,1,0,0:0:0:0:
320,192,52208,1,0,0:0:0:0:
64,192,52324,1,0,0:0:0:0:
192,192,52324,1,0,0:0:0:0:
320,192,52557,1,0,0:0:0:0:
192,192,52673,1,0,0:0:0:0:
448,192,52790,1,0,0:0:0:0:
64,192,52790,1,0,0:0:0:0:
64,192,53138,1,0,0:0:0:0:
192,192,53255,1,0,0:0:0:0:
320,192,53255,1,0,0:0:0:0:
192,192,53487,1,0,0:0:0:0:
448,192,53720,1,0,0:0:0:0:
320,192,53720,1,0,0:0:0:0:
192,192,53952,1,0,0:0:0:0:
320,192,54069,1,0,0:0:0:0:
192,192,54185,1,0,0:0:0:0:
448,192,54185,1,0,0:0:0:0:
448,192,54417,1,0,0:0:0:0:
64,192,54650,1,0,0:0:0:0:
192,192,54650,1,0,0:0:0:0:
320,192,54883,1,0,0:0:0:0:
192,192,54999,1,0,0:0:0:0:
64,192,55115,1,0,0:0:0:0:
320,192,55115,1,0,0:0:0:0:
64,192,55348,1,0,0:0:0:0:
192,192,55580,1,0,0:0:0:0:
448,192,55580,1,0,0:0:0:0:
320,192,55813,1,0,0:0:0:0:
192,192,55929,1,0,0:0:0:0:
64,192,56045,1,0,0:0:0:0:
320,192,56045,1,0,0:0:0:0:
192,192,56278,1,0,0:0:0:0:
320,192,56394,1,0,0:0:0:0:
192,192,56510,1,0,0:0:0:0:
448,192,56510,1,0,0:0:0:0:
320,192,56627,1,0,0:0:0:0:
192,192,56743,1,0,0:0:0:0:
64,192,56859,1,0,0:0:0:0:
192,192,56976,1,0,0:0:0:0:
320,192,57092,1,0,0:0:0:0:
448,192,57208,1,0,0:0:0:0:
320,192,57324,1,0,0:0:0:0:
192,192,57441,1,0,0:0:0:0:
64,192,57557,1,0,0:0:0:0:
192,192,57673,1,0,0:0:0:0:
320,192,57790,1,0,0:0:0:0:
448,192,57906,1,0,0:0:0:0:
320,192,58022,1,0,0:0:0:0:
192,192,58138,1,0,0:0:0:0:
64,192,58255,1,0,0:0:0:0:
192,192,58371,1,0,0:0:0:0:
64,192,59301,128,0,59766:0:0:0:0:
448,192,59301,1,0,0:0:0:0:
192,192,59766,1,0,0:0:0:0:
320,192,59766,1,0,0:0:0:0:
64,192,60231,1,0,0:0:0:0:
448,192,60231,1,0,0:0:0:0:
320,192,60580,1,0,0:0:0:0:
192,192,60696,1,0,0:0:0:0:
448,192,60696,1,0,0:0:0:0:
320,192,60929,1,0,0:0:0:0:
192,192,61162,1,0,0:0:0:0:
448,192,61162,1,0,0:0:0:0:
64,192,61278,1,0,0:0:0:0:
320,192,61394,1,0,0:0:0:0:
192,192,61510,1,0,0:0:0:0:
64,192,61627,1,0,0:0:0:0:
192,192,61743,1,0,0:0:0:0:
448,192,61859,1,0,0:0:0:0:
320,192,61976,1,0,0:0:0:0:
192,192,62092,1,0,0:0:0:0:
448,192,62092,1,0,0:0:0:0:
192,192,62324,1,0,0:0:0:0:
64,192,62557,1,0,0:0:0:0:
320,192,62557,1,0,0:0:0:0:
192,192,62790,1,0,0:0:0:0:
320,192,62906,1,0,0:0:0:0:
192,192,63022,1,0,0:0:0:0:
448,192,63022,1,0,0:0:0:0:
320,192,63138,1,0,0:0:0:0:
192,192,63255,1,0,0:0:0:0:
64,192,63371,1,0,0:0:0:0:
192,192,63487,1,0,0:0:0:0:
448,192,63603,1,0,0:0:0:0:
320,192,63720,1,0,0:0:0:0:
64,192,63952,1,0,0:0:0:0:
448,192,63952,1,0,0:0:0:0:
320,192,64185,1,0,0:0:0:0:
192,192,64301,1,0,0:0:0:0:
64,192,64417,1,0,0:0:0:0:
320,192,64417,1,0,0:0:0:0:
192,192,64650,1,0,0:0:0:0:
320,192,64766,1,0,0:0:0:0:
192,192,64883,1,0,0:0:0:0:
448,192,64883,1,0,0:0:0:0:
320,192,65115,1,0,0:0:0:0:
64,192,65348,1,0,0:0:0:0:
448,192,65348,1,0,0:0:0:0:
320,192,65580,1,0,0:0:0:0:
192,192,65696,1,0,0:0:0:0:
64,192,65813,1,0,0:0:0:0:
320,192,65813,1,0,0:0:0:0:
192,192,66045,1,0,0:0:0:0:
320,192,66162,1,0,0:0:0:0:
448,192,66278,1,0,0:0:0:0:
64,192,66278,128,0,66743:0:0:0:0:
320,192,66510,128,0,66743:0:0:0:0:
448,192,66743,1,0,0:0:0:0:
320,192,66859,1,0,0:0:0:0:
192,192,66976,1,0,0:0:0:0:
64,192,67092,1,0,0:0:0:0:
192,192,67208,1,0,0:0:0:0:
320,192,67208,1,0,0:0:0:0:
64,192,67673,1,0,0:0:0:0:
448,192,67673,1,0,0:0:0:0:
320,192,67906,1,0,0:0:0:0:
192,192,68138,1,0,0:0:0:0:
64,192,68138,1,0,0:0:0:0:
192,192,68371,1,0,0:0:0:0:
320,192,68603,1,0,0:0:0:0:
448,192,68603,1,0,0:0:0:0:
192,192,68720,1,0,0:0:0:0:
320,192,68836,1,0,0:0:0:0:
192,192,68952,1,0,0:0:0:0:
64,192,69069,1,0,0:0:0:0:
448,192,69069,1,0,0:0:0:0:
320,192,69185,1,0,0:0:0:0:
192,192,69301,1,0,0:0:0:0:
320,192,69417,1,0,0:0:0:0:
448,192,69534,1,0,0:0:0:0:
64,192,69534,1,0,0:0:0:0:
192,192,69766,1,0,0:0:0:0:
320,192,69999,1,0,0:0:0:0:
64,192,69999,1,0,0:0:0:0:
448,192,70231,1,0,0:0:0:0:
192,192,70464,1,0,0:0:0:0:
320,192,70464,1,0,0:0:0:0:
448,192,70696,1,0,0:0:0:0:
320,192,70813,1,0,0:0:0:0:
64,192,70929,1,0,0:0:0:0:
192,192,70929,1,0,0:0:0:0:
448,192,70929,1,0,0:0:0:0:
320,192,71045,1,0,0:0:0:0:
64,192,71162,1,0,0:0:0:0:
192,192,71278,1,0,0:0:0:0:
320,192,71394,1,0,0:0:0:0:
448,192,71394,1,0,0:0:0:0:
64,192,71394,1,0,0:0:0:0:
192,192,71510,1,0,0:0:0:0:
320,192,71627,1,0,0:0:0:0:
448,192,71743,1,0,0:0:0:0:
320,192,71859,1,0,0:0:0:0:
64,192,71859,1,0,0:0:0:0:
320,192,72092,1,0,0:0:0:0:
192,192,72324,1,0,0:0:0:0:
448,192,72324,1,0,0:0:0:0:
320,192,72557,1,0,0:0:0:0:
192,192,72673,1,0,0:0:0:0:
64,192,72790,1,0,0:0:0:0:
448,192,72790,1,0,0:0:0:0:
64,192,73138,1,0,0:0:0:0:
448,192,73138,1,0,0:0:0:0:
320,192,73487,1,0,0:0:0:0:
192,192,73487,1,0,0:0:0:0:
64,192,73836,1,0,0:0:0:0:
448,192,73836,1,0,0:0:0:0:
192,192,74185,1,0,0:0:0:0:
448,192,74417,1,0,0:0:0:0:
320,192,74650,1,0,0:0:0:0:
192,192,74650,1,0,0:0:0:0:
448,192,74883,1,0,0:0:0:0:
64,192,75115,1,0,0:0:0:0:
320,192,75115,1,0,0:0:0:0:
192,192,75231,1,0,0:0:0:0:
448,192,75348,1,0,0:0:0:0:
320,192,75464,1,0,0:0:0:0:
64,192,75580,1,0,0:0:0:0:
192,192,75696,1,0,0:0:0:0:
448,192,75813,1,0,0:0:0:0:
320,192,75929,1,0,0:0:0:0:
64,192,76045,1,0,0:0:0:0:
448,192,76045,1,0,0:0:0:0:
192,192,76510,1,0,0:0:0:0:
320,192,76510,1,0,0:0:0:0:
192,192,77208,1,0,0:0:0:0:
320,192,77208,1,0,0:0:0:0:
192,192,77441,1,0,0:0:0:0:
320,192,77441,1,0,0:0:0:0:
64,192,77906,1,0,0:0:0:0:
448,192,77906,1,0,0:0:0:0:
320,192,78371,1,0,0:0:0:0:
64,192,78603,1,0,0:0:0:0:
448,192,78836,1,0,0:0:0:0:
192,192,78836,1,0,0:0:0:0:
320,192,78952,1,0,0:0:0:0:
448,192,79069,1,0,0:0:0:0:
192,192,79185,1,0,0:0:0:0:
64,192,79301,1,0,0:0:0:0:
320,192,79417,1,0,0:0:0:0:
192,192,79534,1,0,0:0:0:0:
64,192,79534,1,0,0:0:0:0:
320,192,79766,1,0,0:0:0:0:
448,192,79766,1,0,0:0:0:0:
192,192,80231,1,0,0:0:0:0:
320,192,80231,1,0,0:0:0:0:
64,192,80929,1,0,0:0:0:0:
448,192,80929,1,0,0:0:0:0:
192,192,81162,1,0,0:0:0:0:
320,192,81162,1,0,0:0:0:0:
64,192,81627,1,0,0:0:0:0:
448,192,81627,1,0,0:0:0:0:
192,192,82324,1,0,0:0:0:0:
320,192,82441,1,0,0:0:0:0:
64,192,82557,1,0,0:0:0:0:
448,192,82557,1,0,0:0:0:0:
320,192,82673,1,0,0:0:0:0:
192,192,82790,1,0,0:0:0:0:
320,192,82906,1,0,0:0:0:0:
64,192,83022,1,0,0:0:0:0:
192,192,83022,1,0,0:0:0:0:
320,192,83255,1,0,0:0:0:0:
448,192,83255,1,0,0:0:0:0:
64,192,83487,1,0,0:0:0:0:
192,192,83487,1,0,0:0:0:0:
320,192,83603,1,0,0:0:0:0:
448,192,83720,1,0,0:0:0:0:
64,192,83836,1,0,0:0:0:0:
192,192,83952,1,0,0:0:0:0:
320,192,83952,1,0,0:0:0:0:
192,192,84650,1,0,0:0:0:0:
64,192,84650,1,0,0:0:0:0:
320,192,84883,1,0,0:0:0:0:
448,192,84883,1,0,0:0:0:0:
64,192,85348,1,0,0:0:0:0:
448,192,85348,1,0,0:0:0:0:
320,192,85813,1,0,0:0:0:0:
192,192,86045,1,0,0:0:0:0:
320,192,86162,1,0,0:0:0:0:
448,192,86278,1,0,0:0:0:0:
64,192,86278,1,0,0:0:0:0:
320,192,86394,1,0,0:0:0:0:
448,192,86510,1,0,0:0:0:0:
320,192,86627,1,0,0:0:0:0:
192,192,86743,1,0,0:0:0:0:
320,192,86859,1,0,0:0:0:0:
448,192,86976,1,0,0:0:0:0:
192,192,87092,1,0,0:0:0:0:
64,192,87208,1,0,0:0:0:0:
320,192,87208,1,0,0:0:0:0:
320,192,87673,1,0,0:0:0:0:
448,192,87673,1,0,0:0:0:0:
64,192,88371,1,0,0:0:0:0:
192,192,88371,1,0,0:0:0:0:
320,192,88487,1,0,0:0:0:0:
448,192,88603,1,0,0:0:0:0:
192,192,88603,1,0,0:0:0:0:
320,192,88720,1,0,0:0:0:0:
448,192,88836,1,0,0:0:0:0:
192,192,88952,1,0,0:0:0:0:
64,192,89069,1,0,0:0:0:0:
320,192,89069,1,0,0:0:0:0:
192,192,89534,1,0,0:0:0:0:
320,192,89534,1,0,0:0:0:0:
192,192,89766,1,0,0:0:0:0:
320,192,89766,1,0,0:0:0:0:
64,192,89999,1,0,0:0:0:0:
448,192,89999,1,0,0:0:0:0:
320,192,89999,128,0,90115:0:0:0:0:
64,192,90348,128,0,90464:0:0:0:0:
192,192,90348,1,0,0:0:0:0:
192,192,90696,128,0,90813:0:0:0:0:
320,192,90696,1,0,0:0:0:0:
448,192,91045,128,0,91162:0:0:0:0:
320,192,91045,1,0,0:0:0:0:
192,192,91394,128,0,91510:0:0:0:0:
320,192,91394,1,0,0:0:0:0:
64,192,91743,128,0,91859:0:0:0:0:
192,192,92092,128,0,92208:0:0:0:0:
320,192,92441,128,0,92557:0:0:0:0:
448,192,92790,128,0,92906:0:0:0:0:
192,192,93255,128,0,93371:0:0:0:0:
320,192,93487,128,0,93603:0:0:0:0:
448,192,93720,128,0,93836:0:0:0:0:
64,192,93720,1,0,0:0:0:0:
192,192,94069,128,0,94185:0:0:0:0:
320,192,94069,1,0,0:0:0:0:
320,192,94417,128,0,94534:0:0:0:0:
448,192,94417,1,0,0:0:0:0:
64,192,94766,128,0,94883:0:0:0:0:
192,192,94766,1,0,0:0:0:0:
320,192,95115,128,0,95231:0:0:0:0:
192,192,95115,1,0,0:0:0:0:
448,192,95464,128,0,95580:0:0:0:0:
320,192,95813,128,0,95929:0:0:0:0:
192,192,96162,128,0,96278:0:0:0:0:
64,192,96510,128,0,96627:0:0:0:0:
192,192,96859,1,0,0:0:0:0:
320,192,96859,1,0,0:0:0:0:
192,192,97208,1,0,0:0:0:0:
320,192,97208,1,0,0:0:0:0:
64,192,97441,1,0,0:0:0:0:
448,192,97441,128,0,97557:0:0:0:0:
192,192,97790,128,0,97906:0:0:0:0:
64,192,97790,1,0,0:0:0:0:
320,192,98138,128,0,98255:0:0:0:0:
448,192,98138,1,0,0:0:0:0:
64,192,98487,128,0,98603:0:0:0:0:
192,192,98487,1,0,0:0:0:0:
448,192,98836,128,0,98952:0:0:0:0:
320,192,98836,1,0,0:0:0:0:
64,192,99185,128,0,99301:0:0:0:0:
192,192,99534,128,0,99650:0:0:0:0:
320,192,99883,128,0,99999:0:0:0:0:
448,192,100231,128,0,100348:0:0:0:0:
320,192,100696,128,0,100813:0:0:0:0:
192,192,100929,128,0,101045:0:0:0:0:
64,192,101162,128,0,101278:0:0:0:0:
448,192,101162,1,0,0:0:0:0:
320,192,101510,128,0,101627:0:0:0:0:
448,192,101510,1,0,0:0:0:0:
192,192,101859,128,0,101976:0:0:0:0:
64,192,101859,1,0,0:0:0:0:
448,192,102208,128,0,102324:0:0:0:0:
320,192,102208,1,0,0:0:0:0:
64,192,102557,128,0,102673:0:0:0:0:
192,192,102557,1,0,0:0:0:0:
448,192,102906,128,0,103022:0:0:0:0:
320,192,103255,128,0,103371:0:0:0:0:
192,192,103603,128,0,103720:0:0:0:0:
64,192,103952,128,0,104069:0:0:0:0:
448,192,104069,1,0,0:0:0:0:
320,192,104185,1,0,0:0:0:0:
192,192,104301,1,0,0:0:0:0:
64,192,104417,1,0,0:0:0:0:
