osu file format v14

[General]
AudioFilename: audio.mp3
AudioLeadIn: 0
PreviewTime: -1
Countdown: 1
SampleSet: Soft
StackLeniency: 0.7
Mode: 0
LetterboxInBreaks: 0
WidescreenStoryboard: 1

[Editor]
Bookmarks: 922
DistanceSpacing: 1.3
BeatDivisor: 16
GridSize: 4
TimelineZoom: 1.1

[Metadata]
Title:Sync - Sousei no Onmyoji
TitleUnicode:Sync - Sōsei no onmyōji
Artist:lol
ArtistUnicode:lol
Creator:Edranii
Version:Normal
Source:Sōsei no onmyōji
Tags:Sync - Sōsei no onmyōji OP 3 Sousei no onmyoji twin star exorcist lol sync
BeatmapID:1218960
BeatmapSetID:575690

[Difficulty]
HPDrainRate:5
CircleSize:4
OverallDifficulty:6
ApproachRate:7
SliderMultiplier:2.5
SliderTickRate:1

[Events]
//Background and Video events
0,0,"souseiimg.jpg",0,0
//Break Periods
//Storyboard Layer 0 (Background)
//Storyboard Layer 1 (Fail)
//Storyboard Layer 2 (Pass)
//Storyboard Layer 3 (Foreground)
//Storyboard Sound Samples

[TimingPoints]
1532,465.116279069767,4,2,0,100,1,0

[HitObjects]
136,292,659,5,0,0:0:0:0:
320,120,1008,1,0,0:0:0:0:
392,312,1358,1,0,0:0:0:0:
208,192,1707,1,0,0:0:0:0:
452,236,2056,1,0,0:0:0:0:
100,232,2520,2,0,P|136:196|156:200,10,62.5
320,192,3916,1,0,0:0:0:0:
208,208,4149,1,0,0:0:0:0:
288,116,4381,1,0,0:0:0:0:
180,124,4730,1,0,0:0:0:0:
272,40,5079,1,0,0:0:0:0:
168,40,5428,1,0,0:0:0:0:
180,128,5777,2,0,L|392:128,3,187.5
40,64,7171,2,0,L|56:304,1,234.375
100,336,7840,1,0,0:0:0:0:
156,312,8073,6,0,P|216:252|312:196,1,187.5
244,144,8771,5,0,0:0:0:0:
244,144,8887,1,0,0:0:0:0:
248,148,9002,2,0,P|376:172|500:88,1,281.25
380,156,9934,5,0,0:0:0:0:
312,60,10166,1,0,0:0:0:0:
240,168,10399,1,0,0:0:0:0:
340,220,10631,1,0,0:0:0:0:
332,248,10863,1,0,0:0:0:0:
368,112,11590,1,0,0:0:0:0:
368,112,11706,1,0,0:0:0:0:
368,112,11822,1,0,0:0:0:0:
160,88,12171,2,0,P|164:128|192:152,1,62.5
248,148,12404,2,0,P|248:200|236:220,1,62.5
144,160,12869,1,0,0:0:0:0:
224,224,13189,2,0,L|364:168,2,125
212,136,14614,5,0,0:0:0:0:
176,212,14846,1,0,0:0:0:0:
184,292,15079,1,0,0:0:0:0:
236,352,15311,1,0,0:0:0:0:
304,360,15544,2,0,B|360:312|396:-4|396:-4|396:-4|396:-4,2,375
208,256,17171,5,0,0:0:0:0:
268,128,17404,1,0,0:0:0:0:
344,232,17636,1,0,0:0:0:0:
172,200,17869,1,0,0:0:0:0:
312,124,18102,1,0,0:0:0:0:
456,308,18334,1,0,0:0:0:0:
24,116,19149,1,0,0:0:0:0:
24,116,19265,2,0,L|212:100,1,187.5
210,100,19729,2,0,P|116:184|96:196,1,125
136,192,20078,2,0,B|256:131|248:131,1,125
192,208,20660,2,0,B|312:124|424:208|424:208|376:168|312:148|256:168|192:208|192:208|256:168|312:148|376:168|424:208|424:208|432:216,1,750
396,76,22288,5,0,0:0:0:0:
364,204,22521,1,0,0:0:0:0:
292,96,22753,1,0,0:0:0:0:
184,208,22986,1,0,0:0:0:0:
184,208,23102,1,0,0:0:0:0:
184,208,23218,1,0,0:0:0:0:
156,304,23684,6,0,P|328:356|532:316,1,375
512,328,24497,1,0,0:0:0:0:
512,328,24614,1,0,0:0:0:0:
464,192,24845,2,0,P|384:192|340:172,1,125
296,192,25311,2,0,P|192:192|156:176,1,125
144,112,25777,1,0,0:0:0:0:
36,188,26473,5,0,0:0:0:0:
216,196,26706,2,0,P|248:168|256:144,2,62.5
240,88,27171,1,0,0:0:0:0:
352,136,27404,1,0,0:0:0:0:
120,136,27870,1,0,0:0:0:0:
244,212,28101,2,0,P|280:284|392:296,1,187.5
404,252,28799,6,0,P|408:196|292:112,1,187.5
104,264,29497,6,0,P|140:180|176:20,1,250
188,48,30195,1,0,0:0:0:0:
60,88,30428,1,0,0:0:0:0:
60,88,30544,1,0,0:0:0:0:
60,88,30660,1,0,0:0:0:0:
216,192,31125,1,0,0:0:0:0:
228,320,31823,5,0,0:0:0:0:
292,176,32056,1,0,0:0:0:0:
444,236,32288,1,0,0:0:0:0:
440,104,32521,1,0,0:0:0:0:
332,48,32753,1,0,0:0:0:0:
208,128,32986,1,0,0:0:0:0:
136,240,33218,1,0,0:0:0:0:
232,248,33915,2,0,L|200:316,3,62.5
308,180,34526,2,0,L|392:176,3,62.5
208,156,35194,2,0,L|144:116,3,62.5
256,192,35660,12,0,36939,0:0:0:0:
204,72,37288,6,0,L|284:72,1,62.5
168,180,37956,1,0,0:0:0:0:
168,180,38072,2,0,L|232:164,2,62.5
136,264,38537,1,0,0:0:0:0:
240,132,38770,1,0,0:0:0:0:
328,284,39002,1,0,0:0:0:0:
432,176,39235,1,0,0:0:0:0:
184,168,39845,2,0,L|252:192,3,62.5
200,220,40630,1,0,0:0:0:0:
236,124,40863,1,0,0:0:0:0:
332,256,41095,1,0,0:0:0:0:
388,128,41357,1,0,0:0:0:0:
188,216,41706,2,0,P|236:172|244:168,3,62.5
168,136,42462,1,0,0:0:0:0:
396,92,42723,1,0,0:0:0:0:
492,252,42985,1,0,0:0:0:0:
176,260,43421,1,0,0:0:0:0:
268,168,43915,1,0,0:0:0:0:
312,284,44380,1,0,0:0:0:0:
444,168,44845,1,0,0:0:0:0:
152,56,45311,5,0,0:0:0:0:
284,52,45660,2,0,L|372:48,1,62.5
344,164,46009,1,0,0:0:0:0:
156,164,46241,1,0,0:0:0:0:
148,264,46590,2,0,L|148:352,1,78.125
276,336,46968,2,0,P|272:272|276:200,1,125
200,148,47521,1,0,0:0:0:0:
300,148,47637,2,0,L|424:148,1,125
416,168,48102,1,0,0:0:0:0:
420,316,48334,2,0,P|388:324|352:328,2,62.5
352,248,48799,2,0,P|288:252|280:248,2,62.5
316,88,49381,1,0,0:0:0:0:
152,168,49730,1,0,0:0:0:0:
288,240,50079,1,0,0:0:0:0:
224,88,50427,2,0,P|160:92|152:92,4,62.5
172,272,51242,6,0,L|220:228,1,62.5
224,232,51591,1,0,0:0:0:0:
224,232,51823,1,0,0:0:0:0:
304,236,52172,2,0,L|348:280,1,62.5
348,280,52521,1,0,0:0:0:0:
352,284,52753,1,0,0:0:0:0:
436,300,53102,2,0,L|456:236,1,62.5
454,240,53451,1,0,0:0:0:0:
454,240,53683,1,0,0:0:0:0:
368,156,54032,2,0,L|304:96,1,62.5
320,108,54381,1,0,0:0:0:0:
320,108,54613,1,0,0:0:0:0:
216,140,54963,2,0,L|176:192,1,62.5
177,189,55312,1,0,0:0:0:0:
177,189,55544,1,0,0:0:0:0:
168,292,55893,2,0,L|168:368,1,62.5
280,328,56241,2,0,P|324:328|344:312,17,62.5
256,192,58363,12,0,59206,0:0:0:0:
256,192,59730,5,0,0:0:0:0:
236,124,60195,1,0,0:0:0:0:
288,32,60428,2,0,L|364:32,1,62.5
448,52,60777,2,0,L|452:116,1,62.5
368,112,61125,2,0,L|372:176,1,62.5
300,100,61474,2,0,L|64:104,2,218.75
300,100,62521,5,0,0:0:0:0:
304,107,62637,1,0,0:0:0:0:
304,107,62753,2,0,L|304:247,1,125
320,248,63218,1,0,0:0:0:0:
452,188,63451,1,0,0:0:0:0:
440,296,63684,1,0,0:0:0:0:
400,240,63915,2,0,L|16:168,1,375
68,76,64845,2,0,B|76:44|76:44|108:52,3,62.5
424,168,65660,1,0,0:0:0:0:
512,116,66009,1,0,0:0:0:0:
416,276,66358,1,0,0:0:0:0:
304,76,66706,2,0,L|312:144,1,62.5
304,76,66938,2,0,L|312:144,1,62.5
304,76,67171,1,0,0:0:0:0:
280,232,67404,2,0,P|360:248|420:224,1,125
208,132,67870,5,0,0:0:0:0:
304,128,68102,2,0,L|300:24,1,93.75
248,32,68451,1,0,0:0:0:0:
188,28,68683,1,0,0:0:0:0:
192,32,68799,1,0,0:0:0:0:
192,32,68915,1,0,0:0:0:0:
188,28,69032,2,0,P|60:100|316:300,1,625
360,180,70428,1,0,0:0:0:0:
432,300,70660,1,0,0:0:0:0:
296,244,70893,1,0,0:0:0:0:
440,212,71125,1,0,0:0:0:0:
332,320,71358,1,0,0:0:0:0:
324,228,71822,6,0,L|320:96,1,125
208,108,72404,2,0,L|140:72,3,62.5
80,152,73044,2,0,L|136:156,1,31.25
192,272,73393,2,0,L|240:272,1,31.25
184,328,73858,1,0,0:0:0:0:
184,328,73974,1,0,0:0:0:0:
184,328,74090,2,0,L|348:304,1,156.25
392,224,74614,1,0,0:0:0:0:
288,152,74846,1,0,0:0:0:0:
412,112,75079,1,0,0:0:0:0:
304,224,75311,2,0,L|172:244,1,125
164,284,75777,1,0,0:0:0:0:
300,272,76009,1,0,0:0:0:0:
256,192,76067,12,0,77637,0:0:0:0:
316,176,77870,5,0,0:0:0:0:
112,200,78102,2,0,L|220:96,1,125
168,296,78567,1,0,0:0:0:0:
252,308,78800,2,0,P|264:152|296:60,1,250
176,68,79497,1,0,0:0:0:0:
72,112,79730,2,0,P|144:152|184:144,1,125
232,164,80195,2,0,P|288:208|300:264,1,125
320,116,80893,1,0,0:0:0:0:
320,116,81009,1,0,0:0:0:0:
320,116,81125,1,0,0:0:0:0:
200,152,81358,1,0,0:0:0:0:
200,152,81474,1,0,0:0:0:0:
200,152,81590,1,0,0:0:0:0:
200,316,81707,2,0,L|148:260,3,62.5
304,280,82288,2,0,P|436:280|436:280,2,125
168,256,82985,2,0,L|176:128,1,125
256,108,83451,6,0,P|376:68|376:68,1,125
336,280,83916,2,0,L|212:268,1,125
216,192,84265,6,0,L|348:188,1,125
236,256,84614,6,0,L|80:256,1,125
172,152,84963,6,0,L|252:252,1,125
84,256,85311,6,0,L|180:140,1,125
108,140,85777,1,0,0:0:0:0:
180,136,86009,1,0,0:0:0:0:
264,120,86242,1,0,0:0:0:0:
212,44,86590,2,0,L|284:44,1,62.5
224,160,86939,2,0,L|328:160,1,62.5
108,224,87287,1,0,0:0:0:0:
192,136,87636,5,0,0:0:0:0:
256,192,87665,12,0,89758,0:0:0:0:
