osu file format v14

[General]
AudioFilename: audio.mp3
AudioLeadIn: 0
PreviewTime: 45003
Countdown: 1
SampleSet: Normal
StackLeniency: 0.8
Mode: 0
LetterboxInBreaks: 0
WidescreenStoryboard: 1

[Editor]
Bookmarks: 98840
DistanceSpacing: 2.4
BeatDivisor: 4
GridSize: 4
TimelineZoom: 2

[Metadata]
Title:Sync
TitleUnicode:Sync
Artist:lol
ArtistUnicode:lol-エルオーエル-
Creator:Yanganof
Version:Insane
Source:Sousei no Onmyouji OP 3
Tags:
BeatmapID:1193769
BeatmapSetID:564710

[Difficulty]
HPDrainRate:6
CircleSize:4
OverallDifficulty:5
ApproachRate:9
SliderMultiplier:1.6
SliderTickRate:1

[Events]
//Background and Video events
0,0,"sousei.jpg",0,0
//Break Periods
//Storyboard Layer 0 (Background)
//Storyboard Layer 1 (Fail)
//Storyboard Layer 2 (Pass)
//Storyboard Layer 3 (Foreground)
Sprite,Foreground,Centre,"sb\highlight.png",220,304 M,0,0,595,320,400,220,304 F,0,0,595,0 S,0,0,595,0,0.7 C,0,595,,252,88,88 M,0,595,933,220,304,476,176 F,0,595,169654,1 C,0,933,,252,88,88 M,0,933,1292,476,176,180,104 C,0,1292,,252,88,88 M,0,1292,1631,180,104,308,360 C,0,1631,,252,88,88 M,0,1631,1990,308,360,472,108 C,0,1990,,252,88,88 M,0,1990,3840,472,108,152,240 C,0,3840,,0,0,0 M,0,3840,4073,152,240,248,100 C,0,4073,,0,0,0 M,0,4073,4422,248,100,300,348 C,0,4422,,0,0,0 M,0,4422,4538,300,348,360,312 C,0,4538,,0,0,0 M,0,4538,4654,360,312,355.68,351.6704 M,0,4654,4770,355.68,351.6704,339.1555,387.7881 M,0,4770,4886,339.1555,387.7881,360.1414,388.5944 M,0,4886,5003,360.1414,388.5944,398.8243,378.4146 M,0,5003,5236,398.8243,378.4146,520,392 C,0,5236,,0,0,0 M,0,5236,5701,520,392,492,112 C,0,5701,,0,0,0 M,0,5701,5817,492,112,458.8641,90.50977 M,0,5817,5933,458.8641,90.50977,419.6327,86.7626 M,0,5933,6166,419.6327,86.7626,288,100 C,0,6166,,0,0,0 M,0,6166,7096,288,100,160,124 C,0,7096,,119,86,186 M,0,7096,7212,160,124,145.0992,137.1361 M,0,7212,7328,145.0992,137.1361,134.7443,154.0237 M,0,7328,7444,134.7443,154.0237,129.8191,173.1777 M,0,7444,7561,129.8191,173.1777,130.2743,193.0072 M,0,7561,7794,130.2743,193.0072,96,316 C,0,7794,,119,86,186 M,0,7794,8026,96,316,212,368 C,0,8026,,119,86,186 M,0,8026,8142,212,368,251.7855,366.1332 M,0,8142,8258,251.7855,366.1332,287.8285,382.3768 M,0,8258,8374,287.8285,382.3768,323.3977,399.8527 M,0,8374,8491,323.3977,399.8527,363.2173,400.1036 M,0,8491,8724,363.2173,400.1036,492,392 C,0,8724,,119,86,186 M,0,8724,8957,492,392,540,272 C,0,8957,,119,86,186 M,0,8957,9422,540,272,352,96 C,0,9422,,255,255,255 M,0,9422,9654,352,96,476,120 C,0,9654,,255,255,255 M,0,9654,9887,476,120,392,216 C,0,9887,,255,255,255 M,0,9887,10119,392,216,352,96 C,0,10119,,255,255,255 M,0,10119,10352,352,96,280,204 C,0,10352,,255,255,255 M,0,10352,10468,280,204,241.1844,206.6586 M,0,10468,10584,241.1844,206.6586,210.0586,183.5763 M,0,10584,10817,210.0586,183.5763,112,100 C,0,10817,,255,255,255 M,0,10817,10933,112,100,72.35088,94.71346 M,0,10933,11049,72.35088,94.71346,55.07592,111.2245 M,0,11049,11165,55.07592,111.2245,61.39554,150.7221 M,0,11165,11282,61.39554,150.7221,67.71516,190.2198 M,0,11282,11515,67.71516,190.2198,220,244 C,0,11515,,255,255,47 M,0,11515,11747,220,244,120,324 C,0,11747,,255,255,47 M,0,11747,11863,120,324,137.8885,332.9443 M,0,11863,11979,137.8885,332.9443,155.7771,341.8885 M,0,11979,12212,155.7771,341.8885,284,356 C,0,12212,,255,255,47 M,0,12212,12328,284,356,303.1541,391.1158 M,0,12328,12444,303.1541,391.1158,337.688,400.6628 M,0,12444,12560,337.688,400.6628,371.5973,380.8998 M,0,12560,12677,371.5973,380.8998,391.1759,346.2794 M,0,12677,13143,391.1759,346.2794,504,116 C,0,13143,,255,255,47 M,0,13143,13375,504,116,480,240 C,0,13375,,255,255,47 M,0,13375,13608,480,240,504,116 C,0,13608,,255,255,47 M,0,13608,13724,504,116,464.2573,118.1744 M,0,13724,13840,464.2573,118.1744,427.0007,132.0692 M,0,13840,13956,427.0007,132.0692,395.724,156.6268 M,0,13956,14073,395.724,156.6268,373.2312,189.4603 M,0,14073,14538,373.2312,189.4603,128,112 C,0,14538,,124,243,133 M,0,14538,14771,128,112,256,112 C,0,14771,,124,243,133 M,0,14771,15003,256,112,192,220 C,0,15003,,124,243,133 M,0,15003,15236,192,220,96,304 C,0,15236,,124,243,133 M,0,15236,15468,96,304,200,380 C,0,15468,,124,243,133 M,0,15468,15584,200,380,211.8509,395.8319 M,0,15584,15700,211.8509,395.8319,228.6153,406.1556 M,0,15700,15816,228.6153,406.1556,247.9591,410.2066 M,0,15816,15933,247.9591,410.2066,267.3549,406.046 M,0,15933,16166,267.3549,406.046,396,404 C,0,16166,,124,243,133 M,0,16166,16282,396,404,413.3986,368.3405 M,0,16282,16398,413.3986,368.3405,449.9305,355.9999 M,0,16398,16514,449.9305,355.9999,486.5059,343.7607 M,0,16514,16631,486.5059,343.7607,503.9604,308.1333 M,0,16631,16864,503.9604,308.1333,536,184 C,0,16864,,124,243,133 M,0,16864,16980,536,184,552.8884,148.0182 M,0,16980,17096,552.8884,148.0182,556.7057,108.5041 M,0,17096,17329,556.7057,108.5041,412,108 C,0,17329,,252,88,88 M,0,17329,17561,412,108,364,228 C,0,17561,,252,88,88 M,0,17561,17794,364,228,320,108 C,0,17794,,252,88,88 M,0,17794,18026,320,108,192,100 C,0,18026,,252,88,88 M,0,18026,18259,192,100,156,224 C,0,18259,,252,88,88 M,0,18259,18375,156,224,133.0615,256.7693 M,0,18375,18491,133.0615,256.7693,110.123,289.5385 M,0,18491,18607,110.123,289.5385,109.4505,324.251 M,0,18607,18724,109.4505,324.251,126.3659,360.4983 M,0,18724,18957,126.3659,360.4983,252,380 C,0,18957,,0,0,0 M,0,18957,19189,252,380,380,388 C,0,19189,,0,0,0 M,0,19189,19305,380,388,397.8885,352.2229 M,0,19305,19421,397.8885,352.2229,415.7771,316.4458 M,0,19421,19537,415.7771,316.4458,436.0281,350.0477 M,0,19537,19654,436.0281,350.0477,456.6092,384 M,0,19654,19770,456.6092,384,496.6092,384 M,0,19770,19886,496.6092,384,536.6093,384 M,0,19886,20119,536.6093,384,540,256 C,0,20119,,0,0,0 M,0,20119,20584,540,256,340,96 C,0,20584,,0,0,0 M,0,20584,20700,340,96,300.534,91.45392 M,0,20700,20816,300.534,91.45392,261.9139,100.7016 M,0,20816,21050,261.9139,100.7016,148,160 C,0,21050,,0,0,0 M,0,21050,21980,148,160,264,176 C,0,21980,,119,86,186 M,0,21980,22096,264,176,264,216 M,0,22096,22212,264,216,264,256 M,0,22212,22445,264,256,184,356 C,0,22445,,119,86,186 M,0,22445,22678,184,356,312,360 C,0,22678,,119,86,186 M,0,22678,22910,312,360,292,232 C,0,22910,,119,86,186 M,0,22910,23026,292,232,311.9162,230.5025 M,0,23026,23142,311.9162,230.5025,331.8443,231.6553 M,0,23142,23258,331.8443,231.6553,351.4384,235.4362 M,0,23258,23375,351.4384,235.4362,370.4235,241.6146 M,0,23375,23608,370.4235,241.6146,444,348 C,0,23608,,119,86,186 M,0,23608,23724,444,348,482.5464,340.2274 M,0,23724,23840,482.5464,340.2274,511.0116,313.2833 M,0,23840,24073,511.0116,313.2833,540,188 C,0,24073,,119,86,186 M,0,24073,24305,540,188,452,280 C,0,24305,,119,86,186 M,0,24305,24538,452,280,476,152 C,0,24538,,119,86,186 M,0,24538,24771,476,152,348,136 C,0,24771,,255,255,255 M,0,24771,24887,348,136,315.3213,112.9327 M,0,24887,25003,315.3213,112.9327,282.6426,89.86535 M,0,25003,25119,282.6426,89.86535,275.9399,124.5405 M,0,25119,25236,275.9399,124.5405,268.5422,157.4066 M,0,25236,25352,268.5422,157.4066,236.5422,133.4066 M,0,25352,25468,236.5422,133.4066,204.5422,109.4066 M,0,25468,25584,204.5422,109.4066,182.9669,122.5827 M,0,25584,25701,182.9669,122.5827,168.1113,159.7218 M,0,25701,25817,168.1113,159.7218,136.4637,135.884 M,0,25817,25933,136.4637,135.884,104.6894,111.586 M,0,25933,26166,104.6894,111.586,104,111 C,0,26166,,255,255,255 M,0,26166,26398,104,111,100,240 C,0,26398,,255,255,255 M,0,26398,26631,100,240,112,368 C,0,26631,,255,255,47 M,0,26631,26747,112,368,135.6512,399.0942 M,0,26747,26863,135.6512,399.0942,173.1942,409.2643 M,0,26863,27096,173.1942,409.2643,204,284 C,0,27096,,255,255,47 M,0,27096,27329,204,284,252,404 C,0,27329,,255,255,47 M,0,27329,27445,252,404,290.1433,391.9547 M,0,27445,27561,290.1433,391.9547,328,380 M,0,27561,27794,328,380,456,392 C,0,27794,,255,255,47 M,0,27794,28026,456,392,544,300 C,0,28026,,255,255,47 M,0,28026,28142,544,300,559.23,263.0129 M,0,28142,28258,559.23,263.0129,565.8229,230.1069 M,0,28258,28374,565.8229,230.1069,529.1947,214.2172 M,0,28374,28491,529.1947,214.2172,497.72,189.7642 M,0,28491,28607,497.72,189.7642,475.475,156.7408 M,0,28607,28723,475.475,156.7408,464.354,118.4536 M,0,28723,28957,464.354,118.4536,336,104 C,0,28957,,255,255,47 M,0,28957,29422,336,104,124,248 C,0,29422,,124,243,133 M,0,29422,29887,124,248,480,392 C,0,29887,,124,243,133 M,0,29887,30119,480,392,556,288 C,0,30119,,124,243,133 M,0,30119,30352,556,288,544,160 C,0,30352,,124,243,133 M,0,30352,30468,544,160,540.662,140.4957 M,0,30468,30584,540.662,140.4957,530.7609,123.447 M,0,30584,30700,530.7609,123.447,515.6144,110.878 M,0,30700,30817,515.6144,110.878,496.7931,104.9935 M,0,30817,31050,496.7931,104.9935,404,116 C,0,31050,,124,243,133 M,0,31050,31166,404,116,391.08,153.2604 M,0,31166,31282,391.08,153.2604,361.7559,179.4847 M,0,31282,31398,361.7559,179.4847,323.249,187.7397 M,0,31398,31515,323.249,187.7397,285.6021,175.8718 M,0,31515,31747,285.6021,175.8718,188,92 C,0,31747,,124,243,133 M,0,31747,31980,188,92,80,160 C,0,31980,,124,243,133 M,0,31980,32212,80,160,196,216 C,0,32212,,252,88,88 M,0,32212,32445,196,216,188,344 C,0,32445,,252,88,88 M,0,32445,32678,188,344,72,400 C,0,32678,,252,88,88 M,0,32678,32794,72,400,111.664,405.1736 M,0,32794,32910,111.664,405.1736,151.328,410.3471 M,0,32910,33143,151.328,410.3471,280,396 C,0,33143,,252,88,88 M,0,33143,33840,280,396,484,124 C,0,33840,,252,88,88 M,0,33840,34073,484,124,564,224 C,0,34073,,0,0,0 M,0,34073,34189,564,224,579.0665,260.6655 M,0,34189,34305,579.0665,260.6655,578.4979,300.2443 M,0,34305,34538,578.4979,300.2443,492,396 C,0,34538,,0,0,0 M,0,34538,34771,492,396 C,0,34771,,0,0,0 M,0,34771,34887,492,396,455.8505,378.8766 M,0,34887,35003,455.8505,378.8766,419.701,361.7531 M,0,35003,35236,419.701,361.7531,292,352 C,0,35236,,0,0,0 M,0,35236,35468,292,352,164,332 C,0,35468,,0,0,0 M,0,35468,35584,164,332,148.7433,319.3395 M,0,35584,35700,148.7433,319.3395,138.634,302.3674 M,0,35700,35816,138.634,302.3674,134.7939,283.0347 M,0,35816,35933,134.7939,283.0347,137.0673,263.369 M,0,35933,36515,137.0673,263.369,468,144 C,0,36515,,119,86,186 M,0,36515,36631,468,144,506.0353,152.551 M,0,36631,36747,506.0353,152.551,529.8694,183.1515 M,0,36747,36863,529.8694,183.1515,528.7071,222.0994 M,0,36863,37096,528.7071,222.0994,532,304 C,0,37096,,119,86,186 M,0,37096,37212,532,304,512.1774,338.5807 M,0,37212,37328,512.1774,338.5807,484.305,367.0361 M,0,37328,37444,484.305,367.0361,450.0526,387.3725 M,0,37444,37561,450.0526,387.3725,411.7201,398.2226 M,0,37561,37794,411.7201,398.2226,300,356 C,0,37794,,255,255,255 M,0,37794,37910,300,356,265.3829,376.0414 M,0,37910,38026,265.3829,376.0414,230.7659,396.0829 M,0,38026,38259,230.7659,396.0829,292,180 C,0,38259,,255,255,255 M,0,38259,38375,292,180,271.9586,145.3829 M,0,38375,38491,271.9586,145.3829,251.9171,110.7659 M,0,38491,38724,251.9171,110.7659,460,196 C,0,38724,,255,255,255 M,0,38724,38840,460,196,493.5828,174.27 M,0,38840,38956,493.5828,174.27,527.1656,152.5399 M,0,38956,39189,527.1656,152.5399,480,372 C,0,39189,,255,255,255 M,0,39189,39305,480,372,445.8687,392.858 M,0,39305,39421,445.8687,392.858,411.7375,413.716 M,0,39421,39654,411.7375,413.716,432,192 C,0,39654,,255,255,47 M,0,39654,39770,432,192,412.5743,157.0337 M,0,39770,39886,412.5743,157.0337,393.1486,122.0674 M,0,39886,40119,393.1486,122.0674,168,128 C,0,40119,,255,255,47 M,0,40119,40235,168,128,134.1805,149.3597 M,0,40235,40351,134.1805,149.3597,100.3609,170.7194 M,0,40351,40584,100.3609,170.7194,172,384 C,0,40584,,255,255,47 M,0,40584,40700,172,384,207.7771,366.1115 M,0,40700,40816,207.7771,366.1115,243.5542,348.2229 M,0,40816,41050,243.5542,348.2229,408,192 C,0,41050,,255,255,47 M,0,41050,41166,408,192,430.188,225.282 M,0,41166,41282,430.188,225.282,452.376,258.564 M,0,41282,41398,452.376,258.564,428,300 C,0,41398,,255,255,47 M,0,41398,41515,428,300,476,292 C,0,41515,,255,255,47 M,0,41515,41631,476,292,492,248 C,0,41631,,124,243,133 M,0,41631,41747,492,248,518.7586,218.2682 M,0,41747,41980,518.7586,218.2682,520,216 C,0,41980,,124,243,133 M,0,41980,42096,520,216,490.7578,188.7073 M,0,42096,42212,490.7578,188.7073,461.5156,161.4145 M,0,42212,42329,461.5156,161.4145,392,200 C,0,42329,,124,243,133 M,0,42329,42445,392,200,340,160 C,0,42445,,124,243,133 M,0,42445,42561,340,160,304.6485,141.2845 M,0,42561,42678,304.6485,141.2845,244,156 C,0,42678,,124,243,133 M,0,42678,42794,244,156,213.6297,182.0316 M,0,42794,42910,213.6297,182.0316,192,244 C,0,42910,,124,243,133 M,0,42910,43026,192,244,215.5269,276.3494 M,0,43026,43142,215.5269,276.3494,192,244 M,0,43142,43258,192,244,215.5269,276.3494 M,0,43258,43375,215.5269,276.3494,232,332 C,0,43375,,252,88,88 M,0,43375,43491,232,332,248.3305,367.9836 M,0,43491,43607,248.3305,367.9836,279.1085,392.6447 M,0,43607,43723,279.1085,392.6447,317.8607,400.4395 M,0,43723,43840,317.8607,400.4395,352,364 C,0,43840,,252,88,88 M,0,43840,43956,352,364,372.9639,329.9337 M,0,43956,44189,372.9639,329.9337,448,224 C,0,44189,,252,88,88 M,0,44189,44305,448,224,418.1036,197.4254 M,0,44305,44422,418.1036,197.4254,376,172 C,0,44422,,252,88,88 M,0,44422,44538,376,172,320,160 C,0,44538,,252,88,88 M,0,44538,44654,320,160,268,144 C,0,44654,,252,88,88 M,0,44654,44771,268,144,212,136 C,0,44771,,252,88,88 M,0,44771,45003,212,136,88,236 C,0,45003,,0,0,0 M,0,45003,45236,88,236,156,380 C,0,45236,,0,0,0 M,0,45236,45468,156,380,204,228 C,0,45468,,0,0,0 M,0,45468,45701,204,228,264,376 C,0,45701,,0,0,0 M,0,45701,45933,264,376,412,320 C,0,45933,,0,0,0 M,0,45933,46166,412,320,252,304 C,0,46166,,0,0,0 M,0,46166,46282,252,304,251.5972,266.3539 M,0,46282,46398,251.5972,266.3539,283.8421,247.8097 M,0,46398,46631,283.8421,247.8097,436,200 C,0,46631,,0,0,0 M,0,46631,46747,436,200,426.345,163.3088 M,0,46747,46863,426.345,163.3088,390.6615,150.4271 M,0,46863,48491,390.6615,150.4271,320,252 C,0,48491,,0,0,0 M,0,48491,48724,320,252,448,352 C,0,48724,,119,86,186 M,0,48724,48957,448,352,288,344 C,0,48957,,119,86,186 M,0,48957,49073,288,344,248.5627,343.7167 M,0,49073,49189,248.5627,343.7167,214.4407,324.1626 M,0,49189,49422,214.4407,324.1626,272,176 C,0,49422,,119,86,186 M,0,49422,49654,272,176,404,268 C,0,49654,,119,86,186 M,0,49654,49770,404,268,437.8716,287.145 M,0,49770,49886,437.8716,287.145,476,280 M,0,49886,50119,476,280,544,136 C,0,50119,,119,86,186 M,0,50119,50352,544,136,384,112 C,0,50352,,119,86,186 M,0,50352,50468,384,112,346.6205,97.76019 M,0,50468,50584,346.6205,97.76019,309.241,83.52037 M,0,50584,50817,309.241,83.52037,309,83 C,0,50817,,119,86,186 M,0,50817,52212,309,83,172,248 C,0,52212,,119,86,186 M,0,52212,52445,172,248,128,404 C,0,52445,,255,255,255 M,0,52445,52678,128,404,260,312 C,0,52678,,255,255,255 M,0,52678,52910,260,312,384,412 C,0,52910,,255,255,255 M,0,52910,53026,384,412,419.7771,394.1115 M,0,53026,53142,419.7771,394.1115,455.5542,376.2229 M,0,53142,53259,455.5542,376.2229,464,296 C,0,53259,,255,255,255 M,0,53259,53375,464,296,492,248 C,0,53375,,255,255,255 M,0,53375,53491,492,248,513.3845,215.1869 M,0,53491,53607,513.3845,215.1869,511.5374,176.2283 M,0,53607,53723,511.5374,176.2283,486.8658,146.0192 M,0,53723,53840,486.8658,146.0192,449.0193,135.977 M,0,53840,54073,449.0193,135.977,288,124 C,0,54073,,255,255,255 M,0,54073,54189,288,124,252.2229,141.8885 M,0,54189,54305,252.2229,141.8885,216.4458,159.7771 M,0,54305,55701,216.4458,159.7771,444,152 C,0,55701,,255,255,255 M,0,55701,55933,444,152,360,224 C,0,55933,,255,255,47 M,0,55933,56166,360,224,520,244 C,0,56166,,255,255,47 M,0,56166,56398,520,244,372,304 C,0,56398,,255,255,47 M,0,56398,56514,372,304,396,329 C,0,56514,,255,255,47 M,0,56514,56630,396,329,420,354 C,0,56630,,255,255,47 M,0,56630,56746,420,354,444,380 C,0,56746,,255,255,47 M,0,56746,56863,444,380,422,368 C,0,56863,,255,255,47 M,0,56863,56979,422,368,391,353 C,0,56979,,255,255,47 M,0,56979,57095,391,353,357,343 C,0,57095,,255,255,47 M,0,57095,57211,357,343,323,336 C,0,57211,,255,255,47 M,0,57211,57328,323,336,288,333 C,0,57328,,255,255,47 M,0,57328,57444,288,333,253,330 C,0,57444,,255,255,47 M,0,57444,57560,253,330,218,327 C,0,57560,,255,255,47 M,0,57560,57677,218,327,184,319 C,0,57677,,255,255,47 M,0,57677,57793,184,319,155,301 C,0,57793,,255,255,47 M,0,57793,57909,155,301,133,273 C,0,57909,,255,255,47 M,0,57909,58025,133,273,119,241 C,0,58025,,255,255,47 M,0,58025,58142,119,241,110,207 C,0,58142,,255,255,47 M,0,58142,58258,110,207,104,173 C,0,58258,,255,255,47 M,0,58258,59189,104,173,432,252 C,0,59189,,124,243,133 M,0,59189,59305,432,252,412.1544,286.7297 M,0,59305,59421,412.1544,286.7297,392.3089,321.4594 M,0,59421,59654,392.3089,321.4594,320,348 C,0,59654,,124,243,133 M,0,59654,59770,320,348,282.8424,359.957 M,0,59770,59886,282.8424,359.957,246.2579,346.6022 M,0,59886,60119,246.2579,346.6022,148,316 C,0,60119,,124,243,133 M,0,60119,60352,148,316,340,284 C,0,60352,,124,243,133 M,0,60352,60584,340,284,164,204 C,0,60584,,124,243,133 M,0,60584,60817,164,204,332,104 C,0,60817,,124,243,133 M,0,60817,61050,332,104,344,300 C,0,61050,,124,243,133 M,0,61050,61282,344,300,176,204 C,0,61282,,124,243,133 M,0,61282,61515,176,204,360,132 C,0,61515,,124,243,133 M,0,61515,61747,360,132,408,320 C,0,61747,,124,243,133 M,0,61747,61980,408,320,220,372 C,0,61980,,124,243,133 M,0,61980,62678,220,372,452,136 C,0,62678,,124,243,133 M,0,62678,62910,452,136,496,240 C,0,62910,,252,88,88 M,0,62910,63143,496,240,452,136 C,0,63143,,252,88,88 M,0,63143,63375,452,136,344,160 C,0,63375,,252,88,88 M,0,63375,63608,344,160,248,100 C,0,63608,,252,88,88 M,0,63608,63840,248,100,148,108 C,0,63840,,252,88,88 M,0,63840,63956,148,108,109.1651,135.1121 M,0,63956,64072,109.1651,135.1121,88.7344,177.7443 M,0,64072,64188,88.7344,177.7443,92.27676,224.9017 M,0,64188,64305,92.27676,224.9017,118.8692,264.0349 M,0,64305,64538,118.8692,264.0349,204,352 C,0,64538,,252,88,88 M,0,64538,64654,204,352,248.3513,335.0057 M,0,64654,64770,248.3513,335.0057,293.1996,349.747 M,0,64770,64886,293.1996,349.747,338.5554,362.926 M,0,64886,65003,338.5554,362.926,383.8159,348.0987 M,0,65003,65236,383.8159,348.0987,500,324 C,0,65236,,252,88,88 M,0,65236,65352,500,324,534.8966,291.0421 M,0,65352,65468,534.8966,291.0421,569.7933,258.0841 M,0,65468,65701,569.7933,258.0841,536,156 C,0,65701,,252,88,88 M,0,65701,66631,536,156,208,252 C,0,66631,,252,88,88 M,0,66631,66747,208,252,228.2808,286.4774 M,0,66747,66863,228.2808,286.4774,247.3015,320.8597 M,0,66863,66979,247.3015,320.8597,222.0778,351.9042 M,0,66979,67096,222.0778,351.9042,196.8541,382.9488 M,0,67096,67329,196.8541,382.9488,312,372 C,0,67329,,252,88,88 M,0,67329,67561,312,372,272,208 C,0,67561,,0,0,0 M,0,67561,67794,272,208,440,208 C,0,67794,,0,0,0 M,0,67794,68026,440,208,308,104 C,0,68026,,0,0,0 M,0,68026,68259,308,104,356,264 C,0,68259,,0,0,0 M,0,68259,68491,356,264,192,232 C,0,68491,,0,0,0 M,0,68491,68724,192,232,288,368 C,0,68724,,0,0,0 M,0,68724,68957,288,368,360,216 C,0,68957,,0,0,0 M,0,68957,69189,360,216,192,232 C,0,69189,,0,0,0 M,0,69189,69422,192,232,288,368 C,0,69422,,0,0,0 M,0,69422,69654,288,368,360,216 C,0,69654,,0,0,0 M,0,69654,69887,360,216,464,348 C,0,69887,,0,0,0 M,0,69887,70119,464,348,448,248 C,0,70119,,119,86,186 M,0,70119,70235,448,248,457.0647,295.1363 M,0,70235,70351,457.0647,295.1363,466.1294,342.2726 M,0,70351,70467,466.1294,342.2726,502.7663,337.0301 M,0,70467,70584,502.7663,337.0301,526.6997,296.986 M,0,70584,70700,526.6997,296.986,521.9905,249.5654 M,0,70700,70816,521.9905,249.5654,504.4734,204.9415 M,0,70816,71050,504.4734,204.9415,440,148 C,0,71050,,119,86,186 M,0,71050,71282,440,148,340,128 C,0,71282,,119,86,186 M,0,71282,71398,340,128,319.4187,170.9932 M,0,71398,71514,319.4187,170.9932,315.8051,218.4897 M,0,71514,71747,315.8051,218.4897,312,308 C,0,71747,,119,86,186 M,0,71747,71863,312,308,329.4912,352.6996 M,0,71863,71979,329.4912,352.6996,346.9823,397.3993 M,0,71979,72095,346.9823,397.3993,303.351,404.4211 M,0,72095,72212,303.351,404.4211,263.3608,380.315 M,0,72212,72328,263.3608,380.315,245.238,336.2556 M,0,72328,72444,245.238,336.2556,240.0178,288.6048 M,0,72444,72678,240.0178,288.6048,144,168 C,0,72678,,119,86,186 M,0,72678,72794,144,168,176.1332,134.9076 M,0,72794,72910,176.1332,134.9076,222.0966,138.5262 M,0,72910,73840,222.0966,138.5262,504,188 C,0,73840,,119,86,186 M,0,73840,74073,504,188,516,272 C,0,74073,,255,255,255 M,0,74073,74305,516,272,476,344 C,0,74305,,255,255,255 M,0,74305,74538,476,344,400,308 C,0,74538,,255,255,255 M,0,74538,74771,400,308,416,392 C,0,74771,,255,255,255 M,0,74771,75003,416,392,348,344 C,0,75003,,255,255,255 M,0,75003,75119,348,344,332,332 M,0,75119,75235,332,332,316,320 M,0,75235,75351,316,320,326.6,303.04 M,0,75351,75468,326.6,303.04,334.0801,289.2 M,0,75468,75584,334.0801,289.2,317.1201,299.7999 M,0,75584,75700,317.1201,299.7999,306.6319,304.3153 M,0,75700,75816,306.6319,304.3153,318.2567,288.0406 M,0,75816,75933,318.2567,288.0406,315.4193,285.363 M,0,75933,76049,315.4193,285.363,298.4593,295.963 M,0,76049,76165,298.4593,295.963,299.1974,289.9236 M,0,76165,76282,299.1974,289.9236,310.8222,273.6489 M,0,76282,76398,310.8222,273.6489,296.3945,280.9174 M,0,76398,76514,296.3945,280.9174,284,282.2754 M,0,76514,76630,284,282.2754,284,262.2754 M,0,76630,76747,284,262.2754,276.5294,245.7745 M,0,76747,76863,276.5294,245.7745,261.1649,232.9708 M,0,76863,77096,261.1649,232.9708,196,188 C,0,77096,,255,255,255 M,0,77096,77561,196,188,360,148 C,0,77561,,255,255,255 M,0,77561,77794,360,148,452,252 C,0,77794,,255,255,47 M,0,77794,78026,452,252,316,284 C,0,78026,,255,255,47 M,0,78026,78259,316,284,412,384 C,0,78259,,255,255,47 M,0,78259,78491,412,384,452,252 C,0,78491,,255,255,47 M,0,78491,78724,452,252,316,284 C,0,78724,,255,255,47 M,0,78724,78957,316,284,380,160 C,0,78957,,255,255,47 M,0,78957,79189,380,160,240,168 C,0,79189,,255,255,47 M,0,79189,79422,240,168,316,284 C,0,79422,,255,255,47 M,0,79422,79654,316,284,312,396 C,0,79654,,255,255,47 M,0,79654,79770,312,396,278.4622,374.2005 M,0,79770,79886,278.4622,374.2005,244.9245,352.4009 M,0,79886,80119,244.9245,352.4009,128,304 C,0,80119,,255,255,47 M,0,80119,80235,128,304,122.5955,264.3668 M,0,80235,80351,122.5955,264.3668,117.1909,224.7336 M,0,80351,80584,117.1909,224.7336,144,100 C,0,80584,,124,243,133 M,0,80584,80817,144,100,272,104 C,0,80817,,124,243,133 M,0,80817,81050,272,104,420,160 C,0,81050,,124,243,133 M,0,81050,81166,420,160,448,192 C,0,81166,,124,243,133 M,0,81166,81282,448,192,468,228 C,0,81282,,124,243,133 M,0,81282,81398,468,228 C,0,81398,,124,243,133 M,0,81398,81515,468,228 C,0,81515,,124,243,133 M,0,81515,81631,468,228,491.87,259.7684 M,0,81631,81747,491.87,259.7684,503.6888,297.6999 M,0,81747,81863,503.6888,297.6999,491.87,259.7684 M,0,81863,81980,491.87,259.7684,468,228 M,0,81980,82212,468,228,388,256 C,0,82212,,124,243,133 M,0,82212,82445,388,256,324,308 C,0,82445,,252,88,88 M,0,82445,82561,324,308,286.7503,322.576 M,0,82561,82677,286.7503,322.576,249.5006,337.1519 M,0,82677,82910,249.5006,337.1519,192,272 C,0,82910,,252,88,88 M,0,82910,83143,192,272,244,204 C,0,83143,,252,88,88 M,0,83143,83375,244,204,300,140 C,0,83375,,252,88,88 M,0,83375,83491,300,140,331.0446,165.2237 M,0,83491,83607,331.0446,165.2237,362.0891,190.4474 M,0,83607,83840,362.0891,190.4474,436,252 C,0,83840,,252,88,88 M,0,83840,84073,436,252,476,96 C,0,84073,,252,88,88 M,0,84073,84305,476,96,548,236 C,0,84305,,252,88,88 M,0,84305,85468,548,236,148,352 C,0,85468,,252,88,88 M,0,85468,85701,148,352,284,380 C,0,85701,,0,0,0 M,0,85701,85933,284,380,260,296 C,0,85933,,0,0,0 M,0,85933,86166,260,296,320,236 C,0,86166,,0,0,0 M,0,86166,86398,320,236,396,268 C,0,86398,,0,0,0 M,0,86398,86514,396,268,435.0367,265.5064 M,0,86514,86630,435.0367,265.5064,464.7114,240.2844 M,0,86630,86864,464.7114,240.2844,548,144 C,0,86864,,0,0,0 M,0,86864,86980,548,144,515.3213,120.9327 M,0,86980,87096,515.3213,120.9327,482.6426,97.86535 M,0,87096,87212,482.6426,97.86535,420,100 C,0,87212,,0,0,0 M,0,87212,87328,420,100,380.0453,98.0974 M,0,87328,87444,380.0453,98.0974,340.0905,96.19479 M,0,87444,87561,340.0905,96.19479,288,132 C,0,87561,,0,0,0 M,0,87561,87677,288,132,256.9554,157.2237 M,0,87677,87793,256.9554,157.2237,225.9109,182.4474 M,0,87793,88957,225.9109,182.4474,320,248 C,0,88957,,119,86,186 M,0,88957,89189,320,248,260,192 C,0,89189,,119,86,186 M,0,89189,89422,260,192,224,268 C,0,89422,,119,86,186 M,0,89422,89538,224,268,231.4845,307.2935 M,0,89538,89654,231.4845,307.2935,238.969,346.5871 M,0,89654,89887,238.969,346.5871,324,352 C,0,89887,,119,86,186 M,0,89887,90003,324,352,341.0977,316.1772 M,0,90003,90119,341.0977,316.1772,370.152,289.2208 M,0,90119,90235,370.152,289.2208,407.2073,275.1584 M,0,90235,90352,407.2073,275.1584,446.8922,275.79 M,0,90352,90584,446.8922,275.79,504,224 C,0,90584,,119,86,186 M,0,90584,90700,504,224,466.6205,209.7602 M,0,90700,90816,466.6205,209.7602,429.241,195.5204 M,0,90816,90932,429.241,195.5204,442.1258,171.5762 M,0,90932,91049,442.1258,171.5762,471.5179,144.445 M,0,91049,91282,471.5179,144.445,376,144 C,0,91282,,119,86,186 M,0,91282,91515,376,144,292,128 C,0,91515,,119,86,186 M,0,91515,91747,292,128,212,148 C,0,91747,,255,255,255 M,0,91747,91980,212,148,248,224 C,0,91980,,255,255,255 M,0,91980,92212,248,224,164,216 C,0,92212,,255,255,255 M,0,92212,92328,164,216,191.3963,243.9747 M,0,92328,92444,191.3963,243.9747,197.2051,282.5337 M,0,92444,92678,197.2051,282.5337,172,356 C,0,92678,,255,255,255 M,0,92678,92794,172,356,208.4769,372.4146 M,0,92794,92910,208.4769,372.4146,244.9537,388.8292 M,0,92910,93375,244.9537,388.8292,424,108 C,0,93375,,255,255,255 M,0,93375,93608,424,108,496,152 C,0,93608,,255,255,47 M,0,93608,93724,496,152,512.7104,162.5993 M,0,93724,93840,512.7104,162.5993,524.5577,178.3506 M,0,93840,93956,524.5577,178.3506,530.4327,197.1776 M,0,93956,94073,530.4327,197.1776,528.7951,216.9438 M,0,94073,94305,528.7951,216.9438,524,352 C,0,94305,,255,255,47 M,0,94305,94538,524,352,384,364 C,0,94538,,255,255,47 M,0,94538,94654,384,364,392.9944,325.0244 M,0,94654,94770,392.9944,325.0244,381.2265,289.8397 M,0,94770,95003,381.2265,289.8397,304,184 C,0,95003,,255,255,47 M,0,95003,95236,304,184,244,312 C,0,95236,,255,255,47 M,0,95236,95468,244,312,128,236 C,0,95468,,255,255,47 M,0,95468,95584,128,236,164.4286,219.973 M,0,95584,95700,164.4286,219.973,179.7135,184.6269 M,0,95700,95816,179.7135,184.6269,200.3149,151.6422 M,0,95816,95933,200.3149,151.6422,235.2265,132.3305 M,0,95933,96398,235.2265,132.3305,536,260 C,0,96398,,255,255,47 M,0,96398,96631,536,260,440,396 C,0,96631,,124,243,133 M,0,96631,96864,440,396,368,244 C,0,96864,,124,243,133 M,0,96864,97096,368,244,536,260 C,0,97096,,124,243,133 M,0,97096,97329,536,260,440,396 C,0,97329,,124,243,133 M,0,97329,97445,440,396,400.7782,401.8881 M,0,97445,97561,400.7782,401.8881,362.3983,392.1573 M,0,97561,97794,362.3983,392.1573,236,300 C,0,97794,,124,243,133 M,0,97794,98026,236,300,340,168 C,0,98026,,124,243,133 M,0,98026,98142,340,168,307.6171,145.6413 M,0,98142,98258,307.6171,145.6413,268.3705,143.0074 M,0,98258,98491,268.3705,143.0074,444,120 C,0,98491,,124,243,133 M,0,98491,98724,444,120,512,276 C,0,98724,,124,243,133 M,0,98724,98957,512,276,356,216 C,0,98957,,124,243,133 M,0,98957,99190,356,216,424,372 C,0,99190,,252,88,88 M,0,99190,99422,424,372,256,388 C,0,99422,,252,88,88 M,0,99422,99654,256,388,384,284 C,0,99654,,252,88,88 M,0,99654,99887,384,284,248,184 C,0,99887,,252,88,88 M,0,99887,100119,248,184,408,136 C,0,100119,,252,88,88 M,0,100119,100235,408,136,446.3264,146.203 M,0,100235,100351,446.3264,146.203,467.0092,179.188 M,0,100351,100467,467.0092,179.188,488.2255,212.2152 M,0,100467,100584,488.2255,212.2152,524,228 M,0,100584,100817,524,228,468,344 C,0,100817,,0,0,0 M,0,100817,101050,468,344,276,352 C,0,101050,,0,0,0 M,0,101050,101282,276,352,432,240 C,0,101282,,0,0,0 M,0,101282,101515,432,240,284,116 C,0,101515,,0,0,0 M,0,101515,101747,284,116,148,248 C,0,101747,,0,0,0 M,0,101747,101980,148,248,340,220 C,0,101980,,0,0,0 M,0,101980,102096,340,220,358.7694,254.0754 M,0,102096,102212,358.7694,254.0754,350.9343,292.0342 M,0,102212,102445,350.9343,292.0342,200,344 C,0,102445,,0,0,0 M,0,102445,102561,200,344,237.1391,358.8556 M,0,102561,102677,237.1391,358.8556,274.2781,373.7112 M,0,102677,102793,274.2781,373.7112,311.4172,388.5669 M,0,102793,102910,311.4172,388.5669,348.5563,403.4225 M,0,102910,103840,348.5563,403.4225,184,148 C,0,103840,,119,86,186 M,0,103840,104073,184,148,344,148 C,0,104073,,119,86,186 M,0,104073,104305,344,148,260,284 C,0,104305,,119,86,186 M,0,104305,104538,260,284,420,268 C,0,104538,,119,86,186 M,0,104538,104771,420,268,312,388 C,0,104771,,119,86,186 M,0,104771,104887,312,388,293.1228,381.393 M,0,104887,105003,293.1228,381.393,274.2457,374.786 M,0,105003,105119,274.2457,374.786,255.3685,368.179 M,0,105119,105236,255.3685,368.179,236.4913,361.572 M,0,105236,105468,236.4913,361.572,160,220 C,0,105468,,255,255,255 M,0,105468,105584,160,220,194.1313,199.142 M,0,105584,105700,194.1313,199.142,228.2625,178.284 M,0,105700,105933,228.2625,178.284,388,180 C,0,105933,,255,255,255 M,0,105933,106049,388,180,389.3831,141.0679 M,0,106049,106165,389.3831,141.0679,415.2968,112.2506 M,0,106165,106281,415.2968,112.2506,389.3831,141.0679 M,0,106281,106398,389.3831,141.0679,388,180 M,0,106398,106631,388,180,452,328 C,0,106631,,255,255,255 M,0,106631,106864,452,328,292,316 C,0,106864,,255,255,255 M,0,106864,107096,292,316,372,176 C,0,107096,,255,255,255 M,0,107096,107329,372,176,216,204 C,0,107329,,255,255,255 M,0,107329,107561,216,204,284,348 C,0,107561,,255,255,255 M,0,107561,107677,284,348,321.3873,333.9693 M,0,107677,107793,321.3873,333.9693,352.5758,309.3828 M,0,107793,107909,352.5758,309.3828,378.6833,279.1801 M,0,107909,108026,378.6833,279.1801,413.2782,259.4835 M,0,108026,108259,413.2782,259.4835,256,148 C,0,108259,,255,255,255 M,0,108259,108491,256,148,200,332 C,0,108491,,255,255,47 M,0,108491,108607,200,332,233.0123,354.5873 M,0,108607,108723,233.0123,354.5873,266.0246,377.1747 M,0,108723,108957,266.0246,377.1747,356,244 C,0,108957,,255,255,47 M,0,108957,109189,356,244,516,232 C,0,109189,,255,255,47 M,0,109189,109422,516,232,384,140 C,0,109422,,255,255,47 M,0,109422,109654,384,140,336,292 C,0,109654,,255,255,47 M,0,109654,109887,336,292,244,160 C,0,109887,,255,255,47 M,0,109887,110119,244,160,124,264 C,0,110119,,255,255,47 M,0,110119,110235,124,264,146.5335,297.0491 M,0,110235,110351,146.5335,297.0491,169.0669,330.0982 M,0,110351,110467,169.0669,330.0982,196.5164,346.9703 M,0,110467,110584,196.5164,346.9703,235.5555,339.269 M,0,110584,110700,235.5555,339.269,272.3222,352.6005 M,0,110700,110816,272.3222,352.6005,293.0594,386.2875 M,0,110816,111282,293.0594,386.2875,548,196 C,0,111282,,124,243,133 M,0,111282,111515,548,196,404,264 C,0,111515,,124,243,133 M,0,111515,111747,404,264,448,112 C,0,111747,,124,243,133 M,0,111747,111980,448,112,316,204 C,0,111980,,124,243,133 M,0,111980,112212,316,204,184,116 C,0,112212,,124,243,133 M,0,112212,112328,184,116,166.8027,152.1144 M,0,112328,112444,166.8027,152.1144,149.6053,188.2289 M,0,112444,112678,149.6053,188.2289,248,316 C,0,112678,,252,88,88 M,0,112678,112910,248,316,400,368 C,0,112910,,252,88,88 M,0,112910,113026,400,368,438.4938,373.95 M,0,113026,113142,438.4938,373.95,471.537,353.7172 M,0,113142,113375,471.537,353.7172,524,204 C,0,113375,,252,88,88 M,0,113375,113608,524,204,384,128 C,0,113608,,252,88,88 M,0,113608,113840,384,128,376,288 C,0,113840,,252,88,88 M,0,113840,114073,376,288,240,204 C,0,114073,,0,0,0 M,0,114073,114305,240,204,148,332 C,0,114305,,0,0,0 M,0,114305,114538,148,332,88,184 C,0,114538,,0,0,0 M,0,114538,114771,88,184,212,288 C,0,114771,,0,0,0 M,0,114771,115003,212,288,224,128 C,0,115003,,0,0,0 M,0,115003,115119,224,128,261.3061,142.1904 M,0,115119,115235,261.3061,142.1904,291.8613,167.6035 M,0,115235,115351,291.8613,167.6035,321.5523,194.026 M,0,115351,115468,321.5523,194.026,358.9916,207.7566 M,0,115468,115701,358.9916,207.7566,200,320 C,0,115701,,119,86,186 M,0,115701,115933,200,320,108,188 C,0,115933,,119,86,186 M,0,115933,116049,108,188,146.0112,176.5094 M,0,116049,116165,146.0112,176.5094,185.5534,179.468 M,0,116165,116398,185.5534,179.468,328,252 C,0,116398,,119,86,186 M,0,116398,116631,328,252,372,96 C,0,116631,,119,86,186 M,0,116631,116864,372,96,484,208 C,0,116864,,119,86,186 M,0,116864,117096,484,208,328,252 C,0,117096,,119,86,186 M,0,117096,117329,328,252,436,320 C,0,117329,,119,86,186 M,0,117329,117445,436,320,452.7398,283.9418 M,0,117445,117561,452.7398,283.9418,456.6565,244.4277 M,0,117561,117677,456.6565,244.4277,447.0531,205.8909 M,0,117677,117794,447.0531,205.8909,425.0414,172.8199 M,0,117794,118957,425.0414,172.8199,136,268 C,0,118957,,255,255,255 M,0,118957,119073,136,268,156,328 C,0,119073,,255,255,255 M,0,119073,119189,156,328,208,364 C,0,119189,,255,255,255 M,0,119189,119305,208,364,243.7771,381.8885 M,0,119305,119422,243.7771,381.8885,308,396 C,0,119422,,255,255,255 M,0,119422,119538,308,396,348,396 M,0,119538,119654,348,396,408,376 C,0,119654,,255,255,255 M,0,119654,119770,408,376,442.6171,355.9586 M,0,119770,119886,442.6171,355.9586,477.2341,335.9171 M,0,119886,120119,477.2341,335.9171,232,268 C,0,120119,,255,255,255 M,0,120119,120235,232,268,197.5629,247.6508 M,0,120235,120351,197.5629,247.6508,163.1259,227.3017 M,0,120351,120584,163.1259,227.3017,404,144 C,0,120584,,255,255,255 M,0,120584,120700,404,144,440.3626,160.6662 M,0,120700,120816,440.3626,160.6662,476.7252,177.3324 M,0,120816,121050,476.7252,177.3324,300,364 C,0,121050,,255,255,255 M,0,121050,121166,300,364,261.883,376.1281 M,0,121166,121282,261.883,376.1281,223.7659,388.2563 M,0,121282,121515,223.7659,388.2563,200,132 C,0,121515,,255,255,47 M,0,121515,121631,200,132,236.6126,115.8905 M,0,121631,121747,236.6126,115.8905,273.2252,99.78091 M,0,121747,121980,273.2252,99.78091,468,268 C,0,121980,,255,255,47 M,0,121980,122096,468,268,499.7743,292.298 M,0,122096,122212,499.7743,292.298,531.5486,316.596 M,0,122212,122445,531.5486,316.596,280,372 C,0,122445,,255,255,47 M,0,122445,122561,280,372,240.5808,374.7173 M,0,122561,122677,240.5808,374.7173,204.3991,359.0797 M,0,122677,122910,204.3991,359.0797,132,112 C,0,122910,,255,255,47 M,0,122910,123026,132,112,168.437,127.1344 M,0,123026,123142,168.437,127.1344,207.6357,123.1261 M,0,123142,123375,207.6357,123.1261,464,128 C,0,123375,,255,255,47 M,0,123375,123491,464,128,494.788,152.3529 M,0,123491,123607,494.788,152.3529,507.1485,189.5248 M,0,123607,123840,507.1485,189.5248,328,372 C,0,123840,,255,255,47 M,0,123840,123956,328,372,292.5753,354.4261 M,0,123956,124072,292.5753,354.4261,253.1192,354.3584 M,0,124072,124305,253.1192,354.3584,104,144 C,0,124305,,255,255,47 M,0,124305,124421,104,144,139.8953,127.3332 M,0,124421,124537,139.8953,127.3332,165.155,96.97267 M,0,124537,124771,165.155,96.97267,372,248 C,0,124771,,255,255,47 M,0,124771,124887,372,248,364.3266,286.9356 M,0,124887,125003,364.3266,286.9356,371.6343,325.8826 M,0,125003,125236,371.6343,325.8826,120,376 C,0,125236,,124,243,133 M,0,125236,125352,120,376,127.4845,336.7065 M,0,125352,125468,127.4845,336.7065,134.969,297.4129 M,0,125468,125701,134.969,297.4129,340,144 C,0,125701,,124,243,133 M,0,125701,125817,340,144,378.9756,152.9944 M,0,125817,125933,378.9756,152.9944,417.9513,161.9888 M,0,125933,126166,417.9513,161.9888,544,192 C,0,126166,,124,243,133 M,0,126166,126398,544,192,464,292 C,0,126398,,124,243,133 M,0,126398,126631,464,292,340,328 C,0,126631,,124,243,133 M,0,126631,126864,340,328,184,364 C,0,126864,,252,88,88 M,0,126864,126980,184,364,161.0585,331.4102 M,0,126980,127096,161.0585,331.4102,130.6258,305.7085 M,0,127096,127329,130.6258,305.7085,276,244 C,0,127329,,252,88,88 M,0,127329,127561,276,244,356,384 C,0,127561,,252,88,88 M,0,127561,127794,356,384,484,288 C,0,127794,,252,88,88 M,0,127794,128026,484,288,348,208 C,0,128026,,252,88,88 M,0,128026,128142,348,208,331.4208,172.3576 M,0,128142,128258,331.4208,172.3576,298.4622,151.1721 M,0,128258,128491,298.4622,151.1721,144,200 C,0,128491,,252,88,88 M,0,128491,128607,144,200,158.011,237.2906 M,0,128607,128723,158.011,237.2906,181.632,269.3273 M,0,128723,128839,181.632,269.3273,213.2272,293.537 M,0,128839,128956,213.2272,293.537,250.3072,308.0117 M,0,128956,130584,250.3072,308.0117,496,140 C,0,130584,,252,88,88 M,0,130584,130817,496,140,308,108 C,0,130817,,0,0,0 M,0,130817,131050,308,108,436,252 C,0,131050,,0,0,0 M,0,131050,131282,436,252,244,232 C,0,131282,,0,0,0 M,0,131282,131515,244,232,372,376 C,0,131515,,0,0,0 M,0,131515,131747,372,376,180,372 C,0,131747,,0,0,0 M,0,131747,131980,180,372,344,276 C,0,131980,,0,0,0 M,0,131980,132212,344,276,248,108 C,0,132212,,0,0,0 M,0,132212,132328,248,108,208.7714,109.2847 M,0,132328,132444,208.7714,109.2847,176.7988,131.9008 M,0,132444,132560,176.7988,131.9008,208.7714,109.2847 M,0,132560,132677,208.7714,109.2847,248,108 M,0,132677,134073,248,108,452,364 C,0,134073,,0,0,0 M,0,134073,134305,452,364,260,388 C,0,134305,,119,86,186 M,0,134305,134538,260,388,116,260 C,0,134538,,119,86,186 M,0,134538,134771,116,260,308,244 C,0,134771,,119,86,186 M,0,134771,135003,308,244,148,352 C,0,135003,,119,86,186 M,0,135003,135236,148,352,148,160 C,0,135236,,119,86,186 M,0,135236,135468,148,160,236,328 C,0,135468,,119,86,186 M,0,135468,135701,236,328,316,152 C,0,135701,,119,86,186 M,0,135701,135933,316,152,504,124 C,0,135933,,119,86,186 M,0,135933,136049,504,124,521.08,160.0537 M,0,136049,136165,521.08,160.0537,527.9253,199.3292 M,0,136165,136281,527.9253,199.3292,523.9827,239.0263 M,0,136281,136398,523.9827,239.0263,511.2812,276.889 M,0,136398,137794,511.2812,276.889,132,240 C,0,137794,,119,86,186 M,0,137794,138026,132,240,188,388 C,0,138026,,255,255,255 M,0,138026,138142,188,388,226,377 C,0,138142,,255,255,255 M,0,138142,138258,226,377,265,367 C,0,138258,,255,255,255 M,0,138258,138374,265,367,304,362 C,0,138374,,255,255,255 M,0,138374,138491,304,362,343,369 C,0,138491,,255,255,255 M,0,138491,138607,343,369,383,366 C,0,138607,,255,255,255 M,0,138607,138723,383,366,419,351 C,0,138723,,255,255,255 M,0,138723,138839,419,351,450,325 C,0,138839,,255,255,255 M,0,138839,138956,450,325,473,293 C,0,138956,,255,255,255 M,0,138956,139072,473,293,491,257 C,0,139072,,255,255,255 M,0,139072,139188,491,257,505,220 C,0,139188,,255,255,255 M,0,139188,139305,505,220,517,181 C,0,139305,,255,255,255 M,0,139305,139421,517,181,527,143 C,0,139421,,255,255,255 M,0,139421,139537,527,143,492,149 C,0,139537,,255,255,255 M,0,139537,139653,492,149,452,153 C,0,139653,,255,255,255 M,0,139653,139770,452,153,412,152 C,0,139770,,255,255,255 M,0,139770,139886,412,152,373,146 C,0,139886,,255,255,255 M,0,139886,140002,373,146,334,136 C,0,140002,,255,255,255 M,0,140002,140119,334,136,296,123 C,0,140119,,255,255,255 M,0,140119,141050,296,123,316,244 C,0,141050,,255,255,47 M,0,141050,141166,316,244,277.319,236.7663 M,0,141166,141282,277.319,236.7663,240.7026,250.8294 M,0,141282,141515,240.7026,250.8294,132,368 C,0,141515,,255,255,47 M,0,141515,141631,132,368,112.1686,333.602 M,0,141631,141747,112.1686,333.602,106.0544,294.4273 M,0,141747,141980,106.0544,294.4273,136,136 C,0,141980,,255,255,47 M,0,141980,142212,136,136,276,212 C,0,142212,,255,255,47 M,0,142212,142445,276,212,136,288 C,0,142445,,255,255,47 M,0,142445,142678,136,288,296,308 C,0,142678,,255,255,47 M,0,142678,142910,296,308,248,156 C,0,142910,,255,255,47 M,0,142910,143143,248,156,188,304 C,0,143143,,255,255,47 M,0,143143,143375,188,304,332,372 C,0,143375,,255,255,47 M,0,143375,143608,332,372,400,228 C,0,143608,,255,255,47 M,0,143608,143840,400,228,240,232 C,0,143840,,255,255,47 M,0,143840,143956,240,232,242.3489,192.069 M,0,143956,144072,242.3489,192.069,255.7978,162.5843 M,0,144072,144188,255.7978,162.5843,295.5129,157.8185 M,0,144188,144305,295.5129,157.8185,335.228,153.0526 M,0,144305,144538,335.228,153.0526,500,248 C,0,144538,,124,243,133 M,0,144538,144771,500,248,384,360 C,0,144771,,124,243,133 M,0,144771,145003,384,360,364,200 C,0,145003,,124,243,133 M,0,145003,145236,364,200,264,324 C,0,145236,,124,243,133 M,0,145236,145468,264,324,412,380 C,0,145468,,124,243,133 M,0,145468,145701,412,380,512,264 C,0,145701,,124,243,133 M,0,145701,145817,512,264,518.3606,217.0281 M,0,145817,145933,518.3606,217.0281,501.438,172.8439 M,0,145933,146049,501.438,172.8439,465.1766,142.4476 M,0,146049,146166,465.1766,142.4476,418.7109,133.4998 M,0,146166,146399,418.7109,133.4998,264,112 C,0,146399,,124,243,133 M,0,146399,146515,264,112,244.2817,155.1931 M,0,146515,146631,244.2817,155.1931,201.9608,176.2029 M,0,146631,146747,201.9608,176.2029,160.625,199.0504 M,0,146747,146864,160.625,199.0504,139.1341,241.553 M,0,146864,147097,139.1341,241.553,220,372 C,0,147097,,124,243,133 M,0,147097,147213,220,372,267.9694,373.7132 M,0,147213,147329,267.9694,373.7132,315.9388,375.4264 M,0,147329,147562,315.9388,375.4264,444,368 C,0,147562,,124,243,133 M,0,147562,148491,444,368,136,128 C,0,148491,,124,243,133 M,0,148491,148724,136,128,216,304 C,0,148724,,252,88,88 M,0,148724,148957,216,304,324,148 C,0,148957,,252,88,88 M,0,148957,149189,324,148,136,128 C,0,149189,,252,88,88 M,0,149189,149422,136,128,216,304 C,0,149422,,252,88,88 M,0,149422,149654,216,304,400,248 C,0,149654,,252,88,88 M,0,149654,149887,400,248,216,188 C,0,149887,,252,88,88 M,0,149887,150119,216,188,336,340 C,0,150119,,252,88,88 M,0,150119,150352,336,340,412,164 C,0,150352,,252,88,88 M,0,150352,150584,412,164,252,272 C,0,150584,,252,88,88 M,0,150584,150817,252,272,392,140 C,0,150817,,252,88,88 M,0,150817,151050,392,140,200,168 C,0,151050,,252,88,88 M,0,151050,151282,200,168,388,200 C,0,151282,,252,88,88 M,0,151282,151398,388,200,427.4184,206.7963 M,0,151398,151514,427.4184,206.7963,466.8368,213.5926 M,0,151514,151630,466.8368,213.5926,502.6047,221.8139 M,0,151630,151747,502.6047,221.8139,478.2162,253.5189 M,0,151747,151980,478.2162,253.5189,248,280 C,0,151980,,0,0,0 M,0,151980,152096,248,280,238.1115,326.9704 M,0,152096,152212,238.1115,326.9704,214.1837,351.7458 M,0,152212,152328,214.1837,351.7458,177.8142,322.6581 M,0,152328,152445,177.8142,322.6581,176,276 M,0,152445,152678,176,276,388,368 C,0,152678,,0,0,0 M,0,152678,152910,388,368,276,168 C,0,152910,,0,0,0 M,0,152910,153143,276,168,488,264 C,0,153143,,0,0,0 M,0,153143,153375,488,264,272,348 C,0,153375,,0,0,0 M,0,153375,153608,272,348,444,196 C,0,153608,,0,0,0 M,0,153608,153724,444,196,461.4912,151.3004 M,0,153724,153840,461.4912,151.3004,478.9823,106.6007 M,0,153840,153956,478.9823,106.6007,435.351,99.57887 M,0,153956,154073,435.351,99.57887,395.3608,123.685 M,0,154073,154189,395.3608,123.685,377.238,167.7444 M,0,154189,154305,377.238,167.7444,372.0178,215.3952 M,0,154305,154539,372.0178,215.3952,276,336 C,0,154539,,0,0,0 M,0,154539,154655,276,336,308.1332,369.0924 M,0,154655,154771,308.1332,369.0924,354.0966,365.4738 M,0,154771,155701,354.0966,365.4738,152,136 C,0,155701,,0,0,0 M,0,155701,155933,152,136,148,264 C,0,155933,,119,86,186 M,0,155933,156166,148,264,260,200 C,0,156166,,119,86,186 M,0,156166,156398,260,200,252,328 C,0,156398,,119,86,186 M,0,156398,156631,252,328,376,304 C,0,156631,,119,86,186 M,0,156631,156864,376,304,424,184 C,0,156864,,119,86,186 M,0,156864,156980,424,184,440,196 M,0,156980,157096,440,196,456,208 M,0,157096,157212,456,208,445.4,224.96 M,0,157212,157329,445.4,224.96,437.9199,238.8 M,0,157329,157445,437.9199,238.8,454.8799,228.2001 M,0,157445,157561,454.8799,228.2001,465.3681,223.6847 M,0,157561,157677,465.3681,223.6847,453.7433,239.9594 M,0,157677,157794,453.7433,239.9594,456.5808,242.637 M,0,157794,157910,456.5808,242.637,473.5407,232.037 M,0,157910,158026,473.5407,232.037,472.8026,238.0764 M,0,158026,158143,472.8026,238.0764,461.1778,254.3511 M,0,158143,158259,461.1778,254.3511,475.6055,247.0826 M,0,158259,158375,475.6055,247.0826,488,245.7246 M,0,158375,158491,488,245.7246,488,265.7246 M,0,158491,158608,488,265.7246,495.4706,282.2255 M,0,158608,158724,495.4706,282.2255,510.8351,295.0292 M,0,158724,158957,510.8351,295.0292,404,364 C,0,158957,,119,86,186 M,0,158957,159422,404,364,184,132 C,0,159422,,119,86,186 M,0,159422,159654,184,132,144,288 C,0,159654,,255,255,255 M,0,159654,159887,144,288,288,220 C,0,159887,,255,255,255 M,0,159887,160119,288,220,248,376 C,0,160119,,255,255,255 M,0,160119,160352,248,376,156,244 C,0,160352,,255,255,255 M,0,160352,160584,156,244,316,244 C,0,160584,,255,255,255 M,0,160584,160817,316,244,212,120 C,0,160817,,255,255,255 M,0,160817,161050,212,120,220,280 C,0,161050,,255,255,255 M,0,161050,161282,220,280,376,248 C,0,161282,,255,255,255 M,0,161282,161515,376,248,312,396 C,0,161515,,255,255,255 M,0,161515,161631,312,396,278.4622,374.2005 M,0,161631,161747,278.4622,374.2005,244.9245,352.4009 M,0,161747,161980,244.9245,352.4009,128,304 C,0,161980,,255,255,255 M,0,161980,162096,128,304,122.5955,264.3668 M,0,162096,162212,122.5955,264.3668,117.1909,224.7336 M,0,162212,162678,117.1909,224.7336,144,100 C,0,162678,,255,255,47 M,0,162678,162911,144,100,272,104 C,0,162911,,255,255,47 M,0,162911,163144,272,104,420,160 C,0,163144,,255,255,47 M,0,163144,163260,420,160,448,192 C,0,163260,,255,255,47 M,0,163260,163376,448,192,468,228 C,0,163376,,255,255,47 M,0,163376,163492,468,228 C,0,163492,,255,255,47 M,0,163492,163608,468,228 C,0,163608,,255,255,47 M,0,163608,163724,468,228,459.298,266.1339 M,0,163724,163840,459.298,266.1339,429.7717,291.6071 M,0,163840,164073,429.7717,291.6071,256,372 C,0,164073,,124,243,133 M,0,164073,164305,256,372,108,252 C,0,164305,,124,243,133 M,0,164305,164538,108,252,288,188 C,0,164538,,124,243,133 M,0,164538,164771,288,188,256,372 C,0,164771,,124,243,133 M,0,164771,165003,256,372,108,252 C,0,165003,,124,243,133 M,0,165003,165236,108,252,288,188 C,0,165236,,124,243,133 M,0,165236,165468,288,188,256,372 C,0,165468,,124,243,133 M,0,165468,165701,256,372,400,244 C,0,165701,,124,243,133 M,0,165701,165933,400,244,232,152 C,0,165933,,124,243,133 M,0,165933,167329,232,152,484,352 C,0,167329,,124,243,133 M,0,167329,167561,484,352,292,376 C,0,167561,,252,88,88 M,0,167561,167794,292,376,312,184 C,0,167794,,252,88,88 M,0,167794,168026,312,184,156,296 C,0,168026,,252,88,88 M,0,168026,168259,156,296,164,104 C,0,168259,,252,88,88 M,0,168259,168491,164,104,328,200 C,0,168491,,252,88,88 M,0,168491,168724,328,200,144,260 C,0,168724,,252,88,88 M,0,168724,168957,144,260,320,336 C,0,168957,,252,88,88 M,0,168957,169073,320,336,358.8979,330.0277 M,0,169073,169189,358.8979,330.0277,388.9686,304.8264 M,0,169189,169422,388.9686,304.8264,220,216 C,0,169422,,252,88,88 M,0,169422,169538,220,216,201.3215,181.6432 M,0,169538,169654,201.3215,181.6432,206.5645,142.9159
//Storyboard Sound Samples

[TimingPoints]
585,465.116279069767,4,1,0,40,1,0
7096,-200,4,1,0,40,0,0
7561,-100,4,1,0,40,0,0
11747,-200,4,1,0,40,0,0
11980,-100,4,1,0,40,0,0
15468,-200,4,1,0,40,0,0
15933,-100,4,1,0,40,0,0
22910,-200,4,1,0,40,0,0
23375,-100,4,1,0,40,0,0
30352,-200,4,1,0,40,0,0
30817,-100,4,1,0,40,0,0
35468,-200,4,1,0,40,0,0
35933,-100,4,1,0,40,0,0
59189,-100,4,1,0,50,0,1
63840,-83.3333333333333,4,1,0,50,0,1
65701,-100,4,1,0,50,0,1
70119,-83.3333333333333,4,1,0,50,0,1
73143,-100,4,1,0,50,0,1
75003,-200,4,1,0,50,0,1
76864,-100,4,1,0,50,0,1
88957,-100,4,1,0,40,0,0
93608,-200,4,1,0,40,0,0
94073,-100,4,1,0,40,0,0
104771,-200,4,1,0,40,0,0
105236,-100,4,1,0,40,0,0
141050,-100,4,1,0,50,0,1
145701,-83.3333333333333,4,1,0,50,0,1
147561,-100,4,1,0,50,0,1
151980,-83.3333333333333,4,1,0,50,0,1
155003,-100,4,1,0,50,0,1
156864,-200,4,1,0,50,0,1
158724,-100,4,1,0,50,0,1
171747,-100,4,1,0,40,0,0
215468,-100,4,1,0,50,0,1
246166,-100,4,1,0,40,0,0

[Colours]
Combo1 : 124,243,133
Combo2 : 252,88,88
Combo3 : 0,0,0
Combo4 : 119,86,186
Combo5 : 255,255,255
Combo6 : 255,255,47

[HitObjects]
156,248,595,5,0,0:0:0:0:
412,120,933,1,0,0:0:0:0:
116,48,1292,1,0,0:0:0:0:
244,304,1631,1,0,0:0:0:0:
408,52,1990,1,0,0:0:0:0:
88,184,3840,5,0,0:0:0:0:
184,44,4073,1,0,0:0:0:0:
236,292,4422,1,0,0:0:0:0:
296,256,4538,2,0,B|296:312|268:340|268:340|344:320,1,160
456,336,5236,1,0,0:0:0:0:
428,56,5701,2,0,P|388:32|336:36,1,80
224,44,6166,1,0,0:0:0:0:
96,68,7096,6,0,P|68:104|68:144,1,80
32,260,7794,1,0,0:0:0:0:
148,312,8026,2,0,B|236:296|212:356|300:344,1,160
428,336,8724,1,0,0:0:0:0:
476,216,8957,1,0,0:0:0:0:
288,40,9422,5,0,0:0:0:0:
412,64,9654,1,0,0:0:0:0:
328,160,9887,1,0,0:0:0:0:
288,40,10119,1,0,0:0:0:0:
216,148,10352,2,0,P|180:152|140:116,1,80
48,44,10817,2,0,B|-12:36|-12:36|4:136,1,160
156,188,11515,5,0,0:0:0:0:
56,268,11747,2,0,L|96:288,1,40
220,300,12212,2,0,B|244:344|244:344|304:356|328:288,1,160
440,60,13143,1,0,0:0:0:0:
416,184,13375,1,0,0:0:0:0:
440,60,13608,2,0,P|356:80|308:136,1,160
64,56,14538,5,0,0:0:0:0:
192,56,14771,1,0,0:0:0:0:
128,164,15003,1,0,0:0:0:0:
32,248,15236,1,0,0:0:0:0:
136,324,15468,2,0,P|168:352|208:348,1,80
332,348,16166,2,0,B|360:252|412:348|440:252,1,160
472,128,16864,2,0,P|488:96|492:44,1,80
348,52,17329,5,0,0:0:0:0:
300,172,17561,1,0,0:0:0:0:
256,52,17794,1,0,0:0:0:0:
128,44,18026,1,0,0:0:0:0:
92,168,18259,2,0,B|36:248|36:248|64:308,1,160
188,324,18957,5,0,0:0:0:0:
316,332,19189,2,0,B|352:260|352:260|392:328|392:328|484:328,1,240
476,200,20119,1,0,0:0:0:0:
276,40,20584,2,0,P|228:36|184:52,1,80
84,104,21050,1,0,0:0:0:0:
200,120,21980,6,0,B|200:200|200:200,1,80
120,300,22445,1,0,0:0:0:0:
248,304,22678,1,0,0:0:0:0:
228,176,22910,2,0,P|272:176|312:188,1,80
380,292,23608,2,0,P|420:284|452:248,1,80
476,132,24073,1,0,0:0:0:0:
388,224,24305,1,0,0:0:0:0:
412,96,24538,1,0,0:0:0:0:
284,80,24771,6,0,B|216:32|216:32|208:104|208:104|128:44|128:44|104:104|104:104|36:52,1,400
40,55,26166,1,0,0:0:0:0:
36,184,26398,1,0,0:0:0:0:
48,312,26631,6,0,P|72:344|120:352,1,80
140,228,27096,1,0,0:0:0:0:
188,348,27329,2,0,L|264:324,1,80
392,336,27794,1,0,0:0:0:0:
480,244,28026,2,0,B|508:176|508:176|412:148|400:60,1,240
272,48,28957,1,0,0:0:0:0:
60,192,29422,5,0,0:0:0:0:
416,336,29887,1,0,0:0:0:0:
492,232,30119,1,0,0:0:0:0:
480,104,30352,2,0,P|468:68|424:48,1,80
340,60,31050,2,0,P|288:128|216:116,1,160
124,36,31747,1,0,0:0:0:0:
16,104,31980,1,0,0:0:0:0:
132,160,32212,5,0,0:0:0:0:
124,288,32445,1,0,0:0:0:0:
8,344,32678,2,0,L|100:356,1,80
216,340,33143,1,0,0:0:0:0:
420,68,33840,1,0,0:0:0:0:
500,168,34073,6,0,P|516:208|508:264,1,80
428,340,34538,1,0,0:0:0:0:
428,340,34771,2,0,L|352:304,1,80
228,296,35236,1,0,0:0:0:0:
100,276,35468,2,0,P|72:240|76:200,1,80
404,88,36515,6,0,P|456:108|464:168,1,120
468,248,37096,2,0,P|408:320|328:344,1,160
236,300,37794,6,0,L|160:344,1,80
228,124,38259,2,0,L|184:48,1,80
396,140,38724,2,0,L|464:96,1,80
416,316,39189,2,0,L|344:360,1,80
368,136,39654,6,0,L|328:64,1,80
104,72,40119,2,0,L|28:120,1,80
108,328,40584,2,0,L|180:292,1,80
344,136,41050,2,0,L|392:208,1,80
364,244,41398,1,0,0:0:0:0:
412,236,41515,1,0,0:0:0:0:
428,192,41631,6,0,L|464:152,1,40
456,160,41980,2,0,L|396:104,1,80
328,144,42329,1,0,0:0:0:0:
276,104,42445,2,0,L|208:68,1,40
180,100,42678,2,0,L|124:148,1,40
128,188,42910,2,0,L|160:232,3,40
168,276,43375,6,0,P|200:328|260:344,1,120
288,308,43840,2,0,L|320:256,1,40
384,168,44189,2,0,L|348:136,1,40
312,116,44422,1,0,0:0:0:0:
256,104,44538,1,0,0:0:0:0:
204,88,44654,1,0,0:0:0:0:
148,80,44771,1,0,0:0:0:0:
24,180,45003,5,0,0:0:0:0:
92,324,45236,1,0,0:0:0:0:
140,172,45468,1,0,0:0:0:0:
200,320,45701,1,0,0:0:0:0:
348,264,45933,1,0,0:0:0:0:
188,248,46166,2,0,P|188:208|228:192,1,80
372,144,46631,2,0,P|364:108|320:96,1,80
256,196,48491,1,0,0:0:0:0:
384,296,48724,5,0,0:0:0:0:
224,288,48957,2,0,P|184:288|140:256,1,80
208,120,49422,1,0,0:0:0:0:
340,212,49654,2,0,P|376:232|412:224,1,80
480,80,50119,1,0,0:0:0:0:
320,56,50352,2,0,L|236:24,1,80
245,27,50817,1,0,0:0:0:0:
108,192,52212,1,0,0:0:0:0:
64,348,52445,5,0,0:0:0:0:
196,256,52678,1,0,0:0:0:0:
320,356,52910,2,0,L|400:316,1,80
400,240,53259,1,0,0:0:0:0:
428,192,53375,2,0,P|448:120|384:80,1,160
224,68,54073,2,0,L|144:108,1,80
380,96,55701,1,0,0:0:0:0:
296,168,55933,5,0,0:0:0:0:
456,188,56166,1,0,0:0:0:0:
308,248,56398,1,0,0:0:0:0:
332,273,56514,1,0,0:0:0:0:
356,298,56630,1,0,0:0:0:0:
380,324,56746,1,0,0:0:0:0:
358,312,56863,1,0,0:0:0:0:
327,297,56979,1,0,0:0:0:0:
293,287,57095,1,0,0:0:0:0:
259,280,57211,1,0,0:0:0:0:
224,277,57328,1,0,0:0:0:0:
189,274,57444,1,0,0:0:0:0:
154,271,57560,1,0,0:0:0:0:
120,263,57677,1,0,0:0:0:0:
91,245,57793,1,0,0:0:0:0:
69,217,57909,1,0,0:0:0:0:
55,185,58025,1,0,0:0:0:0:
46,151,58142,1,0,0:0:0:0:
40,117,58258,1,0,0:0:0:0:
368,196,59189,6,0,L|320:280,1,80
256,292,59654,2,0,P|212:304|172:280,1,80
84,260,60119,1,0,0:0:0:0:
276,228,60352,1,0,0:0:0:0:
100,148,60584,1,0,0:0:0:0:
268,48,60817,1,0,0:0:0:0:
280,244,61050,1,0,0:0:0:0:
112,148,61282,1,0,0:0:0:0:
296,76,61515,1,0,0:0:0:0:
344,264,61747,1,0,0:0:0:0:
156,316,61980,1,0,0:0:0:0:
388,80,62678,1,0,0:0:0:0:
432,184,62910,5,0,0:0:0:0:
388,80,63143,1,0,0:0:0:0:
280,104,63375,1,0,0:0:0:0:
184,44,63608,1,0,0:0:0:0:
84,52,63840,2,0,P|24:124|72:220,1,191.999994140625
140,296,64538,2,0,B|228:240|224:344|320:292,1,191.999994140625
436,268,65236,2,0,L|508:200,1,95.9999970703126
472,100,65701,1,0,0:0:0:0:
144,196,66631,2,0,B|184:264|184:264|132:328,1,160
248,316,67329,1,0,0:0:0:0:
208,152,67561,5,0,0:0:0:0:
376,152,67794,1,0,0:0:0:0:
244,48,68026,1,0,0:0:0:0:
292,208,68259,1,0,0:0:0:0:
128,176,68491,1,0,0:0:0:0:
224,312,68724,1,0,0:0:0:0:
296,160,68957,1,0,0:0:0:0:
128,176,69189,1,0,0:0:0:0:
224,312,69422,1,0,0:0:0:0:
296,160,69654,1,0,0:0:0:0:
400,292,69887,1,0,0:0:0:0:
384,192,70119,6,0,B|404:296|404:296|504:272|436:140,1,287.999991210938
376,92,71050,1,0,0:0:0:0:
276,72,71282,2,0,P|256:112|256:184,1,95.9999970703126
248,252,71747,2,0,B|284:344|284:344|180:374|176:232,1,287.999991210938
80,112,72678,2,0,P|108:80|159:83,1,95.9999970703126
440,132,73840,1,0,0:0:0:0:
452,216,74073,5,0,0:0:0:0:
412,288,74305,1,0,0:0:0:0:
336,252,74538,1,0,0:0:0:0:
352,336,74771,1,0,0:0:0:0:
284,288,75003,2,0,B|252:264|252:264|272:232|272:232|240:252|240:252|260:224|260:224|228:244|228:244|248:216|248:216|220:232|220:232|220:196|220:196|196:176,1,320
132,132,77096,1,0,0:0:0:0:
296,92,77561,1,0,0:0:0:0:
388,196,77794,5,0,0:0:0:0:
252,228,78026,1,0,0:0:0:0:
348,328,78259,1,0,0:0:0:0:
388,196,78491,1,0,0:0:0:0:
252,228,78724,1,0,0:0:0:0:
316,104,78957,1,0,0:0:0:0:
176,112,79189,1,0,0:0:0:0:
252,228,79422,1,0,0:0:0:0:
248,340,79654,2,0,L|168:288,1,80
64,248,80119,2,0,L|52:160,1,80
80,44,80584,5,0,0:0:0:0:
208,48,80817,1,0,0:0:0:0:
356,104,81050,1,0,0:0:0:0:
384,136,81166,1,0,0:0:0:0:
404,172,81282,1,0,0:0:0:0:
404,172,81398,1,0,0:0:0:0:
404,172,81515,2,0,P|432:212|440:244,2,80
324,200,82212,1,0,0:0:0:0:
260,252,82445,6,0,L|168:288,1,80
128,216,82910,1,0,0:0:0:0:
180,148,83143,1,0,0:0:0:0:
236,84,83375,2,0,L|300:136,1,80
372,196,83840,1,0,0:0:0:0:
412,40,84073,1,0,0:0:0:0:
484,180,84305,1,0,0:0:0:0:
84,296,85468,1,0,0:0:0:0:
220,324,85701,5,0,0:0:0:0:
196,240,85933,1,0,0:0:0:0:
256,180,86166,1,0,0:0:0:0:
332,212,86398,2,0,P|388:200|408:168,1,80
484,88,86864,2,0,L|416:40,1,80
356,44,87212,2,0,L|272:40,1,80
224,76,87561,2,0,L|160:128,1,80
256,192,88957,5,0,0:0:0:0:
196,136,89189,1,0,0:0:0:0:
160,212,89422,2,0,L|176:296,1,80
260,296,89887,2,0,P|296:240|384:220,1,160
440,168,90584,2,0,B|356:136|356:136|408:88,1,160
312,88,91282,1,0,0:0:0:0:
228,72,91515,1,0,0:0:0:0:
148,92,91747,5,0,0:0:0:0:
184,168,91980,1,0,0:0:0:0:
100,160,92212,2,0,P|128:188|128:244,1,80
108,300,92678,2,0,L|188:336,1,80
360,52,93375,1,0,0:0:0:0:
432,96,93608,6,0,P|460:120|464:164,1,80
460,296,94305,1,0,0:0:0:0:
320,308,94538,2,0,B|332:256|332:256|308:220,1,80
240,128,95003,1,0,0:0:0:0:
180,256,95236,1,0,0:0:0:0:
64,180,95468,2,0,B|160:152|68:120|172:76,1,160
472,204,96398,1,0,0:0:0:0:
376,340,96631,5,0,0:0:0:0:
304,188,96864,1,0,0:0:0:0:
472,204,97096,1,0,0:0:0:0:
376,340,97329,2,0,P|320:344|284:328,1,80
172,244,97794,1,0,0:0:0:0:
276,112,98026,2,0,P|240:88|200:88,1,80
380,64,98491,1,0,0:0:0:0:
448,220,98724,1,0,0:0:0:0:
292,160,98957,1,0,0:0:0:0:
360,316,99190,5,0,0:0:0:0:
192,332,99422,1,0,0:0:0:0:
320,228,99654,1,0,0:0:0:0:
184,128,99887,1,0,0:0:0:0:
344,80,100119,2,0,B|436:88|368:148|460:172,1,160
404,288,100817,5,0,0:0:0:0:
212,296,101050,1,0,0:0:0:0:
368,184,101282,1,0,0:0:0:0:
220,60,101515,1,0,0:0:0:0:
84,192,101747,1,0,0:0:0:0:
276,164,101980,2,0,P|296:208|272:252,1,80
136,288,102445,2,0,L|296:352,1,160
120,92,103840,5,0,0:0:0:0:
280,92,104073,1,0,0:0:0:0:
196,228,104305,1,0,0:0:0:0:
356,212,104538,1,0,0:0:0:0:
248,332,104771,2,0,L|168:304,1,80
96,164,105468,6,0,L|168:120,1,80
324,124,105933,2,0,P|332:72|360:52,2,80
388,272,106631,1,0,0:0:0:0:
228,260,106864,1,0,0:0:0:0:
308,120,107096,1,0,0:0:0:0:
152,148,107329,1,0,0:0:0:0:
220,292,107561,2,0,B|320:264|272:224|372:196,1,160
192,92,108259,1,0,0:0:0:0:
136,276,108491,6,0,L|212:328,1,80
292,188,108957,1,0,0:0:0:0:
452,176,109189,1,0,0:0:0:0:
320,84,109422,1,0,0:0:0:0:
272,236,109654,1,0,0:0:0:0:
180,104,109887,1,0,0:0:0:0:
60,208,110119,2,0,B|120:296|120:296|220:252|236:360,1,240
484,140,111282,5,0,0:0:0:0:
340,208,111515,1,0,0:0:0:0:
384,56,111747,1,0,0:0:0:0:
252,148,111980,1,0,0:0:0:0:
120,60,112212,2,0,L|80:144,1,80
184,260,112678,5,0,0:0:0:0:
336,312,112910,2,0,P|392:312|416:284,1,80
460,148,113375,1,0,0:0:0:0:
320,72,113608,1,0,0:0:0:0:
312,232,113840,1,0,0:0:0:0:
176,148,114073,5,0,0:0:0:0:
84,276,114305,1,0,0:0:0:0:
24,128,114538,1,0,0:0:0:0:
148,232,114771,1,0,0:0:0:0:
160,72,115003,2,0,B|248:96|212:132|296:152,1,160
136,264,115701,5,0,0:0:0:0:
44,132,115933,2,0,P|84:120|144:132,1,80
264,196,116398,1,0,0:0:0:0:
308,40,116631,1,0,0:0:0:0:
420,152,116864,1,0,0:0:0:0:
264,196,117096,1,0,0:0:0:0:
372,264,117329,2,0,P|392:180|352:108,1,160
72,212,118957,5,0,0:0:0:0:
92,272,119073,1,0,0:0:0:0:
144,308,119189,2,0,L|184:328,1,40
244,340,119422,2,0,L|292:340,1,40
344,320,119654,2,0,L|420:276,1,80
168,212,120119,2,0,L|80:160,1,80
340,88,120584,2,0,L|436:132,1,80
236,308,121050,2,0,L|148:336,1,80
136,76,121515,6,0,L|236:32,1,80
404,212,121980,2,0,L|472:264,1,80
216,316,122445,2,0,P|164:316|128:292,1,80
68,56,122910,2,0,P|108:72|164:56,1,80
400,72,123375,2,0,P|436:104|440:156,1,80
264,316,123840,2,0,P|216:296|172:304,1,80
40,88,124305,2,0,P|92:56|108:24,1,80
308,192,124771,2,0,P|300:232|312:280,1,80
56,320,125236,6,0,L|72:236,1,80
276,88,125701,2,0,L|380:112,1,80
480,136,126166,1,0,0:0:0:0:
400,236,126398,1,0,0:0:0:0:
276,272,126631,1,0,0:0:0:0:
120,308,126864,6,0,P|76:256|40:236,1,80
212,188,127329,1,0,0:0:0:0:
292,328,127561,1,0,0:0:0:0:
420,232,127794,1,0,0:0:0:0:
284,152,128026,2,0,P|264:112|216:92,1,80
80,144,128491,2,0,P|120:216|220:256,1,160
432,84,130584,1,0,0:0:0:0:
244,52,130817,5,0,0:0:0:0:
372,196,131050,1,0,0:0:0:0:
180,176,131282,1,0,0:0:0:0:
308,320,131515,1,0,0:0:0:0:
116,316,131747,1,0,0:0:0:0:
280,220,131980,1,0,0:0:0:0:
184,52,132212,2,0,P|124:64|100:104,2,80
388,308,134073,1,0,0:0:0:0:
196,332,134305,5,0,0:0:0:0:
52,204,134538,1,0,0:0:0:0:
244,188,134771,1,0,0:0:0:0:
84,296,135003,1,0,0:0:0:0:
84,104,135236,1,0,0:0:0:0:
172,272,135468,1,0,0:0:0:0:
252,96,135701,1,0,0:0:0:0:
440,68,135933,2,0,B|488:144|440:236,1,160
68,184,137794,1,0,0:0:0:0:
124,332,138026,5,0,0:0:0:0:
162,321,138142,1,0,0:0:0:0:
201,311,138258,1,0,0:0:0:0:
240,306,138374,1,0,0:0:0:0:
279,313,138491,1,0,0:0:0:0:
319,310,138607,1,0,0:0:0:0:
355,295,138723,1,0,0:0:0:0:
386,269,138839,1,0,0:0:0:0:
409,237,138956,1,0,0:0:0:0:
427,201,139072,1,0,0:0:0:0:
441,164,139188,1,0,0:0:0:0:
453,125,139305,1,0,0:0:0:0:
463,87,139421,1,0,0:0:0:0:
428,93,139537,1,0,0:0:0:0:
388,97,139653,1,0,0:0:0:0:
348,96,139770,1,0,0:0:0:0:
309,90,139886,1,0,0:0:0:0:
270,80,140002,1,0,0:0:0:0:
232,67,140119,1,0,0:0:0:0:
252,188,141050,6,0,P|196:184|160:212,1,80
68,312,141515,2,0,P|44:264|44:220,1,80
72,80,141980,1,0,0:0:0:0:
212,156,142212,1,0,0:0:0:0:
72,232,142445,1,0,0:0:0:0:
232,252,142678,1,0,0:0:0:0:
184,100,142910,1,0,0:0:0:0:
124,248,143143,1,0,0:0:0:0:
268,316,143375,1,0,0:0:0:0:
336,172,143608,1,0,0:0:0:0:
176,176,143840,2,0,B|180:108|180:108|280:96,1,160
436,192,144538,5,0,0:0:0:0:
320,304,144771,1,0,0:0:0:0:
300,144,145003,1,0,0:0:0:0:
200,268,145236,1,0,0:0:0:0:
348,324,145468,1,0,0:0:0:0:
448,208,145701,2,0,P|440:120|337:80,1,191.999994140625
200,56,146399,2,0,B|177:157|106:81|75:186,1,191.999994140625
156,316,147097,2,0,L|268:320,1,95.9999970703126
380,312,147562,1,0,0:0:0:0:
72,72,148491,1,0,0:0:0:0:
152,248,148724,5,0,0:0:0:0:
260,92,148957,1,0,0:0:0:0:
72,72,149189,1,0,0:0:0:0:
152,248,149422,1,0,0:0:0:0:
336,192,149654,1,0,0:0:0:0:
152,132,149887,1,0,0:0:0:0:
272,284,150119,1,0,0:0:0:0:
348,108,150352,1,0,0:0:0:0:
188,216,150584,1,0,0:0:0:0:
328,84,150817,1,0,0:0:0:0:
136,112,151050,1,0,0:0:0:0:
324,144,151282,2,0,B|440:164|440:164|400:216,1,160
184,224,151980,6,0,B|168:300|168:300|96:288|112:220,1,191.999994140625
324,312,152678,1,0,0:0:0:0:
212,112,152910,1,0,0:0:0:0:
424,208,153143,1,0,0:0:0:0:
208,292,153375,1,0,0:0:0:0:
380,140,153608,2,0,B|416:48|416:48|312:18|308:160,1,287.999991210938
212,280,154539,2,0,P|240:312|291:309,1,95.9999970703126
88,80,155701,1,0,0:0:0:0:
84,208,155933,5,0,0:0:0:0:
196,144,156166,1,0,0:0:0:0:
188,272,156398,1,0,0:0:0:0:
312,248,156631,1,0,0:0:0:0:
360,128,156864,2,0,B|392:152|392:152|372:184|372:184|404:164|404:164|384:192|384:192|416:172|416:172|396:200|396:200|424:184|424:184|424:220|424:220|448:240,1,320
340,308,158957,1,0,0:0:0:0:
120,76,159422,1,0,0:0:0:0:
80,232,159654,5,0,0:0:0:0:
224,164,159887,1,0,0:0:0:0:
184,320,160119,1,0,0:0:0:0:
92,188,160352,1,0,0:0:0:0:
252,188,160584,1,0,0:0:0:0:
148,64,160817,1,0,0:0:0:0:
156,224,161050,1,0,0:0:0:0:
312,192,161282,1,0,0:0:0:0:
248,340,161515,2,0,L|168:288,1,80
64,248,161980,2,0,L|52:160,1,80
80,44,162678,5,0,0:0:0:0:
208,48,162911,1,0,0:0:0:0:
356,104,163144,1,0,0:0:0:0:
384,136,163260,1,0,0:0:0:0:
404,172,163376,1,0,0:0:0:0:
404,172,163492,1,0,0:0:0:0:
404,172,163608,2,0,P|392:216|336:240,1,80
192,316,164073,5,0,0:0:0:0:
44,196,164305,1,0,0:0:0:0:
224,132,164538,1,0,0:0:0:0:
192,316,164771,1,0,0:0:0:0:
44,196,165003,1,0,0:0:0:0:
224,132,165236,1,0,0:0:0:0:
192,316,165468,1,0,0:0:0:0:
336,188,165701,1,0,0:0:0:0:
168,96,165933,1,0,0:0:0:0:
420,296,167329,1,0,0:0:0:0:
228,320,167561,5,0,0:0:0:0:
248,128,167794,1,0,0:0:0:0:
92,240,168026,1,0,0:0:0:0:
100,48,168259,1,0,0:0:0:0:
264,144,168491,1,0,0:0:0:0:
80,204,168724,1,0,0:0:0:0:
256,280,168957,2,0,P|320:256|336:224,1,80
156,160,169422,2,0,P|136:120|144:84,1,80
