osu file format v14

[General]
AudioFilename: audio.mp3
AudioLeadIn: 0
PreviewTime: 59792
Countdown: 0
SampleSet: Normal
StackLeniency: 0.7
Mode: 0
LetterboxInBreaks: 0
WidescreenStoryboard: 1

[Editor]
DistanceSpacing: 1.1
BeatDivisor: 4
GridSize: 8
TimelineZoom: 1.7

[Metadata]
Title:Sync (TV Size)
TitleUnicode:Sync (TV Size)
Artist:lol
ArtistUnicode:lol
Creator:Jaycruz1
Version:Easy (New)
Source:双星の陰陽師
Tags:Sousei no Onmyouji Twin Star Exorcist Enmado Rokuro Adashino Benio Kegare
BeatmapID:1577404
BeatmapSetID:620763

[Difficulty]
HPDrainRate:2
CircleSize:2
OverallDifficulty:2
ApproachRate:2.3
SliderMultiplier:0.9
SliderTickRate:1

[Events]
//Background and Video events
0,0,"Sousei no Onmyouji.png",0,0
//Break Periods
//Storyboard Layer 0 (Background)
//Storyboard Layer 1 (Fail)
//Storyboard Layer 2 (Pass)
//Storyboard Layer 3 (Foreground)
//Storyboard Layer 4 (Overlay)
//Storyboard Sound Samples

[TimingPoints]
1921,465.116279069767,4,1,0,40,1,0
61452,-100,4,1,0,40,0,1
74708,-100,4,1,0,40,0,0

[Colours]
Combo1 : 0,255,128
Combo2 : 255,0,0
Combo3 : 56,56,56
Combo4 : 255,255,255

[HitObjects]
80,72,1921,5,0,0:0:0:0:
164,153,2269,1,0,0:0:0:0:
224,48,2618,2,0,B|288:40|328:56|360:72,1,135
56,328,5176,5,0,0:0:0:0:
71,221,5409,1,0,0:0:0:0:
144,288,5641,2,0,P|216:208|208:184,2,135
120,72,9362,6,0,P|88:104|128:224,2,180,0|8|0,0:0|0:0|0:0,0:0:0:0:
320,56,12153,1,8,0:0:0:0:
448,208,13083,2,0,B|424:264|416:280|384:288,1,90
304,248,14014,2,0,P|264:224|216:224,1,90,8|0,0:0|0:0,0:0:0:0:
333,161,15874,5,0,0:0:0:0:
120,320,16804,2,0,P|80:296|88:256,1,90
168,208,17734,2,0,P|216:224|256:208,1,90,8|0,0:0|0:0,0:0:0:0:
336,152,18665,5,0,0:0:0:0:
411,248,19130,1,0,0:0:0:0:
392,344,19595,2,0,B|312:360|248:336|240:320|208:296,1,180,8|0,0:0|0:0,0:0:0:0:
105,230,21455,1,8,0:0:0:0:
112,120,23316,6,0,B|168:104|184:104|216:120,1,90,8|0,0:0|0:0,0:0:0:0:
280,168,24246,2,0,B|328:216|328:280|248:280|216:272,1,180,0|8,0:0|0:0,0:0:0:0:
152,208,25641,1,0,0:0:0:0:
88,288,26107,2,0,P|56:216|56:192,2,90,0|0|8,0:0|0:0|0:0,0:0:0:0:
120,96,27967,6,0,P|200:96|216:112,1,90
272,168,28897,2,0,B|320:200|320:240,2,90,8|0|0,0:0|0:0|0:0,0:0:0:0:
200,96,30293,1,0,0:0:0:0:
296,64,30758,6,0,P|432:88|472:200,1,270,8|0,0:0|0:0,0:0:0:0:
456,296,32618,2,0,P|392:296|368:264,1,90,8|0,0:0|0:0,0:0:0:0:
288,232,33548,2,0,B|320:208|352:192|352:160,1,90
264,120,34479,5,8,0:0:0:0:
152,280,35409,2,0,B|216:256|224:192|72:112|184:56,1,270,0|4,0:0|0:0,0:0:0:0:
256,192,37037,12,0,38665,0:0:0:0:
88,120,39130,6,0,P|136:80|176:88,1,90
176,176,40060,2,0,P|120:240|120:256,2,90
256,112,41455,2,0,B|288:104|312:104|344:152,1,90
344,240,42386,1,0,0:0:0:0:
272,304,42851,5,0,0:0:0:0:
176,312,43316,2,0,P|112:296|104:264,2,90
216,224,44711,2,0,P|176:160|176:144,1,90
248,80,45641,2,0,P|288:80|304:96,2,45
224,176,46572,6,0,P|296:232|352:224,2,135
120,96,50293,2,0,P|80:144|80:176,1,90
112,264,51223,2,0,P|168:296|208:288,1,90
272,240,52153,2,0,P|304:216|304:168,1,90
208,168,53083,2,0,P|208:128|256:96,1,90
144,240,54014,6,0,B|136:296|128:368|336:224,1,270
416,104,57269,6,0,P|368:64|328:64,1,90
272,136,58200,2,0,P|224:176|208:168,1,90
168,80,59130,1,4,0:0:0:0:
88,112,61455,6,0,P|168:88|184:96,2,90
80,208,62851,2,0,P|96:248|144:280,1,90
224,304,63781,1,0,0:0:0:0:
320,320,64246,2,0,B|352:296|384:288|328:248|288:224|248:184|320:184,3,180
400,96,68897,5,0,0:0:0:0:
312,56,69362,2,0,P|240:40|216:56,1,90
152,104,70293,2,0,P|120:152|128:192,2,90
240,64,71688,2,0,P|280:56|320:80,1,90
240,144,72618,2,0,B|224:192|184:208|152:216|152:248|160:280|184:296|200:312|232:312|288:272,1,270,0|4,0:0|0:0,0:0:0:0:
80,288,76339,5,0,0:0:0:0:
64,192,76804,2,0,P|48:160|80:120,1,90
168,88,77734,2,0,P|232:80|272:136,1,135
321,255,78897,6,0,P|337:279|337:303,1,45
240,314,79595,1,0,0:0:0:0:
150,274,80060,2,0,P|94:234|102:210,3,90,0|4|0|4,0:0|0:0|0:0|0:0,0:0:0:0:
360,80,83781,5,0,0:0:0:0:
392,176,84246,2,0,P|376:224|336:232,3,90
103,99,87502,6,0,P|156:99|187:120,1,90
141,181,88200,2,0,P|200:198|257:188,1,112.5
256,192,89362,12,0,90758,0:0:0:0:
