osu file format v14

[General]
AudioFilename: audio.mp3
AudioLeadIn: 0
PreviewTime: 237191
Countdown: 0
SampleSet: Soft
StackLeniency: 0.2
Mode: 0
LetterboxInBreaks: 0
WidescreenStoryboard: 1

[Editor]
Bookmarks: 9191,13191,21191,25991,26491,34591,34791,35091,38791,45191,46391,46491,46591,46691,47091,47191,48691,49091,49191,49391,49591,49791,51591,54391,57991,62791,69291,73391,79091,79691,79891,81491,89991,102791,115591,121991,128391,128691,128991,129191,129491,129591,129791,129991,130291,130391,130591,130791,131091,131191,131391,131591,131891,131991,132191,132391,132791,134791,139591,160791,166791,173191,174791,178791,179591,180191,181191,182791,185191,185991,198791,211591,217991,218191,222791,265630
DistanceSpacing: 1.2
BeatDivisor: 4
GridSize: 4
TimelineZoom: 1.600006

[Metadata]
Title:never ender
TitleUnicode:never ender
Artist:livetune feat. Hatsune Miku
ArtistUnicode:livetune feat. 初音ミク
Creator:Aro
Version:endless
Source:
Tags:kz hatsune miku vocaloid wildcry nihongo japanese edm kimi to odori akasou
BeatmapID:1641154
BeatmapSetID:781401

[Difficulty]
HPDrainRate:5.5
CircleSize:3.5
OverallDifficulty:8.5
ApproachRate:9.5
SliderMultiplier:2
SliderTickRate:2

[Events]
//Background and Video events
0,0,"bgi.jpg",0,0
//Break Periods
2,166991,171066
//Storyboard Layer 0 (Background)
//Storyboard Layer 1 (Fail)
//Storyboard Layer 2 (Pass)
//Storyboard Layer 3 (Foreground)
//Storyboard Layer 4 (Overlay)
//Storyboard Sound Samples

[TimingPoints]
391,400,4,2,1,50,1,0
13191,-133.333333333333,4,2,1,50,0,0
13591,-133.333333333333,4,2,1,20,0,0
13991,-133.333333333333,4,2,1,50,0,0
14391,-133.333333333333,4,2,1,20,0,0
14591,-133.333333333333,4,2,1,50,0,0
15191,-133.333333333333,4,2,1,20,0,0
15591,-133.333333333333,4,2,1,50,0,0
16191,-133.333333333333,4,2,1,50,0,0
16291,-133.333333333333,4,2,1,20,0,0
16391,-133.333333333333,4,2,1,50,0,0
16791,-133.333333333333,4,2,1,20,0,0
16991,-133.333333333333,4,2,1,50,0,0
17591,-133.333333333333,4,2,1,20,0,0
17791,-133.333333333333,4,2,1,50,0,0
17991,-133.333333333333,4,2,1,50,0,0
18391,-133.333333333333,4,2,1,20,0,0
18791,-133.333333333333,4,2,1,50,0,0
18891,-133.333333333333,4,2,1,20,0,0
19191,-133.333333333333,4,2,1,50,0,0
19291,-133.333333333333,4,2,1,20,0,0
19591,-133.333333333333,4,2,1,50,0,0
20191,-133.333333333333,4,2,1,20,0,0
20391,-133.333333333333,4,2,1,50,0,0
20791,-133.333333333333,4,2,1,20,0,0
20991,-133.333333333333,4,2,1,50,0,0
21591,-133.333333333333,4,2,1,20,0,0
21991,-133.333333333333,4,2,1,50,0,0
22191,-133.333333333333,4,2,1,20,0,0
22391,-133.333333333333,4,2,1,50,0,0
23191,-133.333333333333,4,2,1,20,0,0
23391,-133.333333333333,4,2,1,50,0,0
23991,-133.333333333333,4,2,1,20,0,0
24391,-125,4,2,1,65,0,0
24591,-125,4,2,1,20,0,0
24791,-125,4,2,1,65,0,0
24991,-125,4,2,1,20,0,0
25191,-125,4,2,1,65,0,0
25991,-125,4,2,1,55,0,0
26391,-125,4,2,1,20,0,0
26791,-125,4,2,1,55,0,0
27191,-125,4,2,1,20,0,0
27391,-125,4,2,1,55,0,0
27991,-125,4,2,1,20,0,0
28391,-125,4,2,1,55,0,0
29091,-125,4,2,1,20,0,0
29191,-125,4,2,1,55,0,0
29591,-125,4,2,1,20,0,0
29791,-125,4,2,1,55,0,0
30391,-125,4,2,1,20,0,0
30591,-125,4,2,1,55,0,0
31191,-125,4,2,1,20,0,0
31391,-125,4,2,1,55,0,0
32391,-125,4,2,1,60,0,0
32791,-125,4,2,1,20,0,0
32991,-125,4,2,1,55,0,0
33991,-125,4,2,1,60,0,0
34391,-125,4,2,1,20,0,0
34591,-125,4,2,1,55,0,0
35091,-125,4,2,1,30,0,0
35391,-125,4,2,1,55,0,0
35491,-125,4,2,1,20,0,0
35591,-125,4,2,1,55,0,0
35791,-125,4,2,1,55,0,0
36591,-125,4,2,1,57,0,0
36791,-125,4,2,1,60,0,0
37991,-125,4,2,1,75,0,0
38791,-83.3333333333333,4,2,1,55,0,0
38991,-83.3333333333333,4,2,1,20,0,0
39191,-83.3333333333333,4,2,1,55,0,0
39391,-83.3333333333333,4,2,1,20,0,0
39591,-83.3333333333333,4,2,1,55,0,0
39791,-83.3333333333333,4,2,1,20,0,0
39991,-83.3333333333333,4,2,1,55,0,0
40091,-83.3333333333333,4,2,1,20,0,0
40191,-83.3333333333333,4,2,1,55,0,0
40291,-83.3333333333333,4,2,1,20,0,0
40391,-83.3333333333333,4,2,1,55,0,0
40591,-83.3333333333333,4,2,1,20,0,0
40791,-83.3333333333333,4,2,1,55,0,0
40991,-83.3333333333333,4,2,1,20,0,0
41191,-83.3333333333333,4,2,1,55,0,0
41591,-83.3333333333333,4,2,1,20,0,0
41791,-83.3333333333333,4,2,1,55,0,0
41891,-83.3333333333333,4,2,1,20,0,0
41991,-83.3333333333333,4,2,1,55,0,0
42091,-83.3333333333333,4,2,1,20,0,0
42191,-83.3333333333333,4,2,1,55,0,0
42291,-83.3333333333333,4,2,1,20,0,0
42391,-83.3333333333333,4,2,1,55,0,0
42691,-83.3333333333333,4,2,1,20,0,0
42791,-83.3333333333333,4,2,1,55,0,0
42891,-83.3333333333333,4,2,1,20,0,0
42991,-83.3333333333333,4,2,1,55,0,0
43091,-83.3333333333333,4,2,1,20,0,0
43191,-83.3333333333333,4,2,1,55,0,0
43291,-83.3333333333333,4,2,1,20,0,0
43391,-83.3333333333333,4,2,1,55,0,0
43491,-83.3333333333333,4,2,1,20,0,0
43591,-83.3333333333333,4,2,1,55,0,0
45191,-83.3333333333333,4,2,1,55,0,0
45391,-83.3333333333333,4,2,1,20,0,0
45591,-83.3333333333333,4,2,1,55,0,0
45791,-83.3333333333333,4,2,1,20,0,0
45991,-83.3333333333333,4,2,1,55,0,0
46191,-83.3333333333333,4,2,1,20,0,0
46391,-83.3333333333333,4,2,1,55,0,0
46491,-83.3333333333333,4,2,1,20,0,0
46591,-83.3333333333333,4,2,1,55,0,0
46691,-83.3333333333333,4,2,1,20,0,0
46791,-71.4285714285714,4,2,1,55,0,0
47091,-71.4285714285714,4,2,1,20,0,0
47191,-71.4285714285714,4,2,1,55,0,0
47491,-71.4285714285714,4,2,1,20,0,0
47591,-83.3333333333333,4,2,1,55,0,0
47691,-83.3333333333333,4,2,1,20,0,0
47791,-83.3333333333333,4,2,1,55,0,0
47891,-83.3333333333333,4,2,1,20,0,0
47991,-83.3333333333333,4,2,1,55,0,0
48191,-83.3333333333333,4,2,1,20,0,0
48391,-83.3333333333333,4,2,1,55,0,0
48491,-83.3333333333333,4,2,1,20,0,0
48591,-83.3333333333333,4,2,1,55,0,0
48691,-83.3333333333333,4,2,1,20,0,0
48791,-83.3333333333333,4,2,1,55,0,0
48891,-83.3333333333333,4,2,1,20,0,0
48991,-83.3333333333333,4,2,1,55,0,0
49091,-83.3333333333333,4,2,1,20,0,0
49191,-83.3333333333333,4,2,1,55,0,0
49491,-83.3333333333333,4,2,1,20,0,0
49591,-83.3333333333333,4,2,1,55,0,0
49691,-83.3333333333333,4,2,1,20,0,0
49791,-83.3333333333333,4,2,1,55,0,0
49891,-83.3333333333333,4,2,1,20,0,0
49991,-83.3333333333333,4,2,1,55,0,0
50391,-83.3333333333333,4,2,1,20,0,0
50591,-83.3333333333333,4,2,1,55,0,0
51091,-83.3333333333333,4,2,1,20,0,0
51191,-55.5555555555556,4,2,1,70,0,0
51391,-55.5555555555556,4,2,1,20,0,0
51591,-71.4285714285714,4,2,1,65,0,0
57991,-62.5,4,2,1,70,0,0
60591,-71.4285714285714,4,2,1,80,0,0
61191,-71.4285714285714,4,2,1,70,0,0
61591,-71.4285714285714,4,2,1,60,0,0
61991,-71.4285714285714,4,2,1,50,0,0
62391,-71.4285714285714,4,2,1,40,0,0
62791,-55.5555555555556,4,2,1,90,0,0
62891,-133.333333333333,4,2,1,90,0,0
63591,-111.111111111111,4,2,1,60,0,0
63691,-111.111111111111,4,2,1,5,0,0
63991,-55.5555555555556,4,2,1,80,0,0
64091,-55.5555555555556,4,2,1,5,0,0
64391,-50,4,2,1,80,0,1
65391,-40,4,2,1,80,0,1
65991,-50,4,2,1,80,0,1
66991,-40,4,2,1,80,0,1
67591,-50,4,2,1,80,0,1
68591,-40,4,2,1,80,0,1
69191,-40,4,2,1,80,0,1
69591,-36.3636363636364,4,2,1,80,0,1
69991,-33.3333333333333,4,2,1,80,0,1
70391,-66.6666666666667,4,2,1,80,0,1
70791,-50,4,2,1,80,0,1
71791,-40,4,2,1,80,0,1
72391,-50,4,2,1,80,0,1
73391,-40,4,2,1,80,0,1
73991,-50,4,2,1,80,0,1
74991,-66.6666666666667,4,2,1,80,0,1
75091,-66.6666666666667,4,2,1,5,0,1
75191,-66.6666666666667,4,2,1,80,0,1
75291,-66.6666666666667,4,2,1,5,0,1
75391,-66.6666666666667,4,2,1,80,0,1
75491,-66.6666666666667,4,2,1,5,0,1
75591,-100,4,2,1,90,0,0
75691,-133.333333333333,4,2,1,90,0,0
76391,-100,4,2,1,80,0,0
76791,-100,4,2,1,80,0,0
76891,-100,4,2,1,5,0,0
77191,-50,4,2,1,80,0,1
77491,-50,4,2,1,5,0,1
77591,-50,4,2,1,80,0,1
77891,-50,4,2,1,5,0,1
77991,-50,4,2,1,90,0,1
78091,-50,4,2,1,5,0,1
78191,-40,4,2,1,80,0,1
78291,-40,4,2,1,5,0,1
78391,-40,4,2,1,80,0,1
78491,-40,4,2,1,5,0,1
78591,-40,4,2,1,80,0,1
78691,-40,4,2,1,5,0,1
78791,-200,4,2,1,80,0,1
78891,-200,4,2,1,5,0,1
78991,-200,4,2,1,80,0,1
79091,-200,4,2,1,5,0,1
79191,-200,4,2,1,80,0,1
79291,-200,4,2,1,5,0,1
79391,-40,4,2,1,80,0,1
79591,-50,4,2,1,80,0,1
79691,-50,4,2,1,5,0,1
79791,-40,4,2,1,80,0,1
79891,-40,4,2,1,5,0,1
79991,-40,4,2,1,80,0,1
80091,-40,4,2,1,5,0,1
80191,-40,4,2,1,80,0,1
80291,-40,4,2,1,5,0,1
80391,-50,4,2,1,80,0,1
80691,-50,4,2,1,5,0,1
80791,-50,4,2,1,80,0,1
81091,-50,4,2,1,5,0,1
81191,-50,4,2,1,90,0,1
81291,-50,4,2,1,5,0,1
81391,-40,4,2,1,80,0,1
81491,-40,4,2,1,5,0,1
81591,-40,4,2,1,80,0,1
81691,-40,4,2,1,5,0,1
81791,-40,4,2,1,80,0,1
81891,-40,4,2,1,5,0,1
81991,-33.3333333333333,4,2,1,80,0,1
82091,-33.3333333333333,4,2,1,5,0,1
82191,-200,4,2,1,80,0,1
82291,-200,4,2,1,5,0,1
82391,-33.3333333333333,4,2,1,80,0,1
82491,-33.3333333333333,4,2,1,5,0,1
82591,-200,4,2,1,80,0,1
82691,-200,4,2,1,5,0,1
82791,-33.3333333333333,4,2,1,80,0,1
82891,-33.3333333333333,4,2,1,5,0,1
82991,-200,4,2,1,80,0,1
83091,-100,4,2,1,5,0,1
83191,-100,4,2,1,80,0,1
83491,-100,4,2,1,5,0,1
83591,-50,4,2,1,80,0,1
83891,-50,4,2,1,5,0,1
83991,-50,4,2,1,80,0,1
84291,-50,4,2,1,5,0,1
84391,-50,4,2,1,90,0,1
84492,-50,4,2,1,5,0,1
84591,-40,4,2,1,80,0,1
84691,-40,4,2,1,5,0,1
84791,-40,4,2,1,80,0,1
84891,-40,4,2,1,5,0,1
84991,-40,4,2,1,80,0,1
85091,-40,4,2,1,5,0,1
85191,-200,4,2,1,80,0,1
85291,-200,4,2,1,5,0,1
85391,-200,4,2,1,80,0,1
85491,-200,4,2,1,5,0,1
85591,-200,4,2,1,80,0,1
85691,-200,4,2,1,5,0,1
85791,-200,4,2,1,80,0,1
85991,-50,4,2,1,90,0,1
86091,-50,4,2,1,5,0,1
86191,-40,4,2,1,80,0,1
86291,-40,4,2,1,5,0,1
86391,-40,4,2,1,80,0,1
86491,-40,4,2,1,5,0,1
86591,-40,4,2,1,80,0,1
86691,-40,4,2,1,5,0,1
86791,-50,4,2,1,80,0,1
87091,-50,4,2,1,5,0,1
87191,-50,4,2,1,80,0,1
87491,-50,4,2,1,5,0,1
87591,-50,4,2,1,90,0,1
87691,-50,4,2,1,5,0,1
87791,-66.6666666666667,4,2,1,60,0,1
87891,-66.6666666666667,4,2,1,5,0,1
87991,-66.6666666666667,4,2,1,60,0,1
88091,-66.6666666666667,4,2,1,5,0,1
88191,-66.6666666666667,4,2,1,60,0,1
88291,-66.6666666666667,4,2,1,5,0,1
88391,-100,4,2,1,80,0,0
88791,-66.6666666666667,4,2,1,80,0,0
88991,-66.6666666666667,4,2,1,50,0,0
89191,-66.6666666666667,4,2,1,70,0,0
89591,-50,4,2,1,60,0,0
89691,-50,4,2,1,5,0,0
89991,-133.333333333333,4,2,1,50,0,0
90391,-133.333333333333,4,2,1,20,0,0
90791,-133.333333333333,4,2,1,50,0,0
91191,-133.333333333333,4,2,1,20,0,0
91391,-133.333333333333,4,2,1,50,0,0
91991,-133.333333333333,4,2,1,20,0,0
92391,-133.333333333333,4,2,1,50,0,0
93591,-133.333333333333,4,2,1,20,0,0
93791,-133.333333333333,4,2,1,50,0,0
94391,-133.333333333333,4,2,1,20,0,0
94791,-133.333333333333,4,2,1,50,0,0
95191,-133.333333333333,4,2,1,20,0,0
95591,-133.333333333333,4,2,1,50,0,0
95991,-133.333333333333,4,2,1,20,0,0
96391,-133.333333333333,4,2,1,50,0,0
96991,-133.333333333333,4,2,1,20,0,0
97191,-133.333333333333,4,2,1,50,0,0
97591,-133.333333333333,4,2,1,20,0,0
97791,-133.333333333333,4,2,1,50,0,0
98391,-133.333333333333,4,2,1,20,0,0
98791,-133.333333333333,4,2,1,50,0,0
98891,-133.333333333333,4,2,1,30,0,0
99191,-133.333333333333,4,2,1,50,0,0
99291,-133.333333333333,4,2,1,30,0,0
99591,-133.333333333333,4,2,1,50,0,0
99991,-133.333333333333,4,2,1,20,0,0
100191,-133.333333333333,4,2,1,50,0,0
100791,-133.333333333333,4,2,1,20,0,0
101191,-117.647058823529,4,2,1,50,0,0
101491,-117.647058823529,4,2,1,20,0,0
101591,-117.647058823529,4,2,1,50,0,0
101891,-117.647058823529,4,2,1,20,0,0
101991,-117.647058823529,4,2,1,50,0,0
102791,-83.3333333333333,4,2,1,55,0,0
114791,-125,4,2,1,75,0,0
115591,-71.4285714285714,4,2,1,60,0,0
127991,-55.5555555555556,4,2,1,70,0,0
128391,-62.5,4,2,1,65,0,0
134791,-62.5,4,2,1,70,0,0
137391,-62.5,4,2,1,80,0,0
137991,-62.5,4,2,1,70,0,0
138391,-62.5,4,2,1,60,0,0
138791,-62.5,4,2,1,50,0,0
139191,-62.5,4,2,1,40,0,0
139591,-133.333333333333,4,2,1,90,0,0
140391,-111.111111111111,4,2,1,60,0,0
140491,-111.111111111111,4,2,1,5,0,0
140791,-55.5555555555556,4,2,1,80,0,0
140891,-55.5555555555556,4,2,1,5,0,0
141191,-50,4,2,1,80,0,1
142191,-40,4,2,1,80,0,1
142491,-40,4,2,1,80,0,1
142791,-50,4,2,1,80,0,1
143791,-40,4,2,1,80,0,1
144391,-50,4,2,1,80,0,1
145391,-40,4,2,1,80,0,1
146391,-36.3636363636364,4,2,1,80,0,1
146791,-33.3333333333333,4,2,1,80,0,1
147191,-66.6666666666667,4,2,1,80,0,1
147591,-50,4,2,1,80,0,1
148591,-40,4,2,1,80,0,1
149191,-50,4,2,1,80,0,1
150191,-40,4,2,1,80,0,1
150791,-50,4,2,1,80,0,1
151791,-66.6666666666667,4,2,1,80,0,1
151891,-66.6666666666667,4,2,1,5,0,1
151991,-66.6666666666667,4,2,1,80,0,1
152091,-66.6666666666667,4,2,1,5,0,1
152191,-66.6666666666667,4,2,1,80,0,1
152291,-66.6666666666667,4,2,1,5,0,1
152391,-133.333333333333,4,2,1,90,0,0
153191,-100,4,2,1,80,0,0
153591,-100,4,2,1,80,0,0
153691,-100,4,2,1,5,0,0
153991,-50,4,2,1,80,0,1
154291,-50,4,2,1,5,0,1
154391,-50,4,2,1,80,0,1
154691,-50,4,2,1,5,0,1
154791,-50,4,2,1,90,0,1
154991,-40,4,2,1,80,0,1
155091,-40,4,2,1,5,0,1
155191,-40,4,2,1,80,0,1
155291,-40,4,2,1,5,0,1
155391,-40,4,2,1,80,0,1
155491,-40,4,2,1,5,0,1
155591,-200,4,2,1,80,0,1
155691,-200,4,2,1,5,0,1
155791,-200,4,2,1,80,0,1
155891,-200,4,2,1,5,0,1
155991,-200,4,2,1,80,0,1
156091,-200,4,2,1,5,0,1
156191,-200,4,2,1,80,0,1
156391,-50,4,2,1,90,0,1
156591,-40,4,2,1,80,0,1
156691,-40,4,2,1,5,0,1
156791,-40,4,2,1,80,0,1
156891,-40,4,2,1,5,0,1
156991,-40,4,2,1,80,0,1
157091,-40,4,2,1,5,0,1
157191,-50,4,2,1,80,0,1
157491,-50,4,2,1,5,0,1
157591,-50,4,2,1,80,0,1
157891,-50,4,2,1,5,0,1
157991,-50,4,2,1,90,0,1
158191,-40,4,2,1,80,0,1
158291,-40,4,2,1,5,0,1
158391,-40,4,2,1,80,0,1
158491,-40,4,2,1,5,0,1
158591,-40,4,2,1,80,0,1
158691,-40,4,2,1,5,0,1
158791,-33.3333333333333,4,2,1,80,0,1
158891,-33.3333333333333,4,2,1,5,0,1
158991,-200,4,2,1,80,0,1
159091,-200,4,2,1,5,0,1
159191,-30.3030303030303,4,2,1,80,0,1
159291,-30.3030303030303,4,2,1,5,0,1
159391,-200,4,2,1,80,0,1
159491,-200,4,2,1,5,0,1
159591,-27.7777777777778,4,2,1,80,0,1
159691,-27.7777777777778,4,2,1,5,0,1
159791,-200,4,2,1,80,0,1
159891,-200,4,2,1,5,0,1
159991,-100,4,2,1,80,0,1
160291,-100,4,2,1,5,0,1
160391,-50,4,2,1,80,0,1
160691,-50,4,2,1,5,0,1
160791,-50,4,2,1,80,0,1
161091,-50,4,2,1,5,0,1
161191,-50,4,2,1,80,0,1
161391,-40,4,2,1,80,0,1
161491,-40,4,2,1,5,0,1
161591,-40,4,2,1,80,0,1
161691,-40,4,2,1,5,0,1
161791,-40,4,2,1,80,0,1
161891,-40,4,2,1,5,0,1
161991,-200,4,2,1,80,0,1
162091,-200,4,2,1,5,0,1
162191,-200,4,2,1,80,0,1
162291,-200,4,2,1,5,0,1
162391,-200,4,2,1,80,0,1
162491,-200,4,2,1,5,0,1
162591,-200,4,2,1,80,0,1
162791,-50,4,2,1,90,0,1
162991,-40,4,2,1,80,0,1
163091,-40,4,2,1,5,0,1
163191,-40,4,2,1,80,0,1
163291,-40,4,2,1,5,0,1
163391,-40,4,2,1,80,0,1
163491,-40,4,2,1,5,0,1
163591,-50,4,2,1,80,0,1
163891,-50,4,2,1,5,0,1
163991,-50,4,2,1,80,0,1
164291,-50,4,2,1,5,0,1
164391,-50,4,2,1,90,0,1
164591,-66.6666666666667,4,2,1,80,0,1
164691,-66.6666666666667,4,2,1,5,0,1
164791,-66.6666666666667,4,2,1,80,0,1
164891,-66.6666666666667,4,2,1,5,0,1
164991,-66.6666666666667,4,2,1,80,0,1
165091,-66.6666666666667,4,2,1,5,0,1
165191,-66.6666666666667,4,2,1,80,0,0
165791,-66.6666666666667,4,2,1,50,0,0
165991,-66.6666666666667,4,2,1,70,0,0
166391,-55.5555555555556,4,2,1,60,0,0
166491,-55.5555555555556,4,2,1,5,0,0
173191,-200,4,2,1,35,0,0
185991,-200,4,2,1,40,0,0
186016,-200,4,2,1,45,0,0
191591,-200,4,2,1,5,0,0
192391,-200,4,2,1,45,0,0
198391,-200,4,2,1,75,0,0
198791,-83.3333333333333,4,2,1,50,0,0
198991,-83.3333333333333,4,2,1,20,0,0
199191,-83.3333333333333,4,2,1,50,0,0
199391,-83.3333333333333,4,2,1,20,0,0
199591,-83.3333333333333,4,2,1,50,0,0
199791,-83.3333333333333,4,2,1,20,0,0
199991,-83.3333333333333,4,2,1,50,0,0
200091,-83.3333333333333,4,2,1,20,0,0
200191,-83.3333333333333,4,2,1,50,0,0
200291,-83.3333333333333,4,2,1,20,0,0
200391,-83.3333333333333,4,2,1,50,0,0
200591,-83.3333333333333,4,2,1,20,0,0
200791,-83.3333333333333,4,2,1,50,0,0
200991,-83.3333333333333,4,2,1,20,0,0
201191,-83.3333333333333,4,2,1,50,0,0
201591,-83.3333333333333,4,2,1,20,0,0
201791,-71.4285714285714,4,2,1,50,0,0
201891,-71.4285714285714,4,2,1,20,0,0
201991,-71.4285714285714,4,2,1,50,0,0
202091,-71.4285714285714,4,2,1,20,0,0
202191,-71.4285714285714,4,2,1,50,0,0
202291,-71.4285714285714,4,2,1,20,0,0
202391,-71.4285714285714,4,2,1,50,0,0
202691,-71.4285714285714,4,2,1,20,0,0
202791,-71.4285714285714,4,2,1,50,0,0
202891,-71.4285714285714,4,2,1,20,0,0
202991,-71.4285714285714,4,2,1,50,0,0
203091,-71.4285714285714,4,2,1,20,0,0
203191,-71.4285714285714,4,2,1,50,0,0
203291,-71.4285714285714,4,2,1,20,0,0
203391,-71.4285714285714,4,2,1,50,0,0
203491,-71.4285714285714,4,2,1,20,0,0
203591,-100,4,2,1,50,0,0
205191,-83.3333333333333,4,2,1,50,0,0
205391,-83.3333333333333,4,2,1,20,0,0
205591,-83.3333333333333,4,2,1,50,0,0
205791,-83.3333333333333,4,2,1,20,0,0
205991,-83.3333333333333,4,2,1,50,0,0
206191,-83.3333333333333,4,2,1,20,0,0
206391,-83.3333333333333,4,2,1,50,0,0
206491,-83.3333333333333,4,2,1,20,0,0
206591,-83.3333333333333,4,2,1,50,0,0
206691,-83.3333333333333,4,2,1,20,0,0
206791,-71.4285714285714,4,2,1,50,0,0
207091,-71.4285714285714,4,2,1,20,0,0
207191,-71.4285714285714,4,2,1,50,0,0
207491,-71.4285714285714,4,2,1,20,0,0
207591,-83.3333333333333,4,2,1,50,0,0
207691,-83.3333333333333,4,2,1,20,0,0
207791,-83.3333333333333,4,2,1,50,0,0
207891,-83.3333333333333,4,2,1,20,0,0
207991,-83.3333333333333,4,2,1,50,0,0
208191,-83.3333333333333,4,2,1,20,0,0
208391,-83.3333333333333,4,2,1,50,0,0
208491,-83.3333333333333,4,2,1,20,0,0
208591,-83.3333333333333,4,2,1,50,0,0
208691,-83.3333333333333,4,2,1,20,0,0
208791,-83.3333333333333,4,2,1,50,0,0
208891,-83.3333333333333,4,2,1,20,0,0
208991,-83.3333333333333,4,2,1,50,0,0
209091,-83.3333333333333,4,2,1,20,0,0
209191,-83.3333333333333,4,2,1,50,0,0
209491,-83.3333333333333,4,2,1,20,0,0
209591,-83.3333333333333,4,2,1,50,0,0
209691,-83.3333333333333,4,2,1,20,0,0
209791,-83.3333333333333,4,2,1,50,0,0
209891,-83.3333333333333,4,2,1,20,0,0
209991,-83.3333333333333,4,2,1,50,0,0
210391,-83.3333333333333,4,2,1,20,0,0
210591,-83.3333333333333,4,2,1,50,0,0
211091,-83.3333333333333,4,2,1,20,0,0
211191,-55.5555555555556,4,2,1,50,0,0
211591,-71.4285714285714,4,2,1,60,0,0
217991,-62.5,4,2,1,70,0,0
220591,-62.5,4,2,1,80,0,0
221191,-62.5,4,2,1,70,0,0
221591,-62.5,4,2,1,60,0,0
221991,-62.5,4,2,1,50,0,0
222391,-62.5,4,2,1,40,0,0
222791,-133.333333333333,4,2,1,90,0,0
223591,-111.111111111111,4,2,1,60,0,0
223691,-111.111111111111,4,2,1,5,0,0
223991,-55.5555555555556,4,2,1,80,0,0
224091,-55.5555555555556,4,2,1,5,0,0
224391,-50,4,2,1,80,0,1
225391,-40,4,2,1,80,0,1
225491,-40,4,2,1,5,0,1
225591,-40,4,2,1,80,0,1
225691,-40,4,2,1,5,0,1
225791,-40,4,2,1,80,0,1
225891,-40,4,2,1,5,0,1
225991,-50,4,2,1,80,0,1
226991,-40,4,2,1,80,0,1
227091,-40,4,2,1,5,0,1
227191,-40,4,2,1,80,0,1
227291,-40,4,2,1,5,0,1
227391,-40,4,2,1,80,0,1
227491,-40,4,2,1,5,0,1
227591,-50,4,2,1,80,0,1
228591,-40,4,2,1,80,0,1
228691,-40,4,2,1,5,0,1
228791,-40,4,2,1,80,0,1
228891,-40,4,2,1,5,0,1
228991,-40,4,2,1,80,0,1
229091,-40,4,2,1,5,0,1
229191,-40,4,2,1,80,0,1
229491,-40,4,2,1,5,0,1
229591,-36.3636363636364,4,2,1,80,0,1
229891,-36.3636363636364,4,2,1,5,0,1
229991,-33.3333333333333,4,2,1,80,0,1
230291,-33.3333333333333,4,2,1,80,0,1
230391,-33.3333333333333,4,2,1,80,0,1
230491,-66.6666666666667,4,2,1,80,0,1
230791,-50,4,2,1,80,0,1
231791,-40,4,2,1,80,0,1
231891,-40,4,2,1,5,0,1
231991,-40,4,2,1,80,0,1
232091,-40,4,2,1,5,0,1
232191,-40,4,2,1,80,0,1
232291,-40,4,2,1,5,0,1
232391,-50,4,2,1,80,0,1
233391,-40,4,2,1,80,0,1
233491,-40,4,2,1,5,0,1
233591,-40,4,2,1,80,0,1
233691,-40,4,2,1,5,0,1
233791,-40,4,2,1,80,0,1
233891,-40,4,2,1,5,0,1
233991,-50,4,2,1,80,0,1
234991,-66.6666666666667,4,2,1,80,0,1
235091,-66.6666666666667,4,2,1,5,0,1
235191,-66.6666666666667,4,2,1,80,0,1
235291,-66.6666666666667,4,2,1,5,0,1
235391,-66.6666666666667,4,2,1,80,0,1
235491,-66.6666666666667,4,2,1,5,0,1
235591,-133.333333333333,4,2,1,90,0,0
236391,-100,4,2,1,80,0,0
236791,-100,4,2,1,80,0,0
236891,-100,4,2,1,5,0,0
237191,-50,4,2,1,80,0,1
237491,-50,4,2,1,5,0,1
237591,-50,4,2,1,80,0,1
237891,-50,4,2,1,5,0,1
237991,-50,4,2,1,90,0,1
238091,-50,4,2,1,5,0,1
238191,-40,4,2,1,80,0,1
238291,-40,4,2,1,5,0,1
238391,-40,4,2,1,80,0,1
238491,-40,4,2,1,5,0,1
238591,-40,4,2,1,80,0,1
238691,-40,4,2,1,5,0,1
238791,-200,4,2,1,80,0,1
238891,-200,4,2,1,5,0,1
238991,-200,4,2,1,80,0,1
239091,-200,4,2,1,5,0,1
239191,-200,4,2,1,80,0,1
239291,-200,4,2,1,5,0,1
239391,-200,4,2,1,80,0,1
239591,-50,4,2,1,90,0,1
239791,-40,4,2,1,80,0,1
239891,-40,4,2,1,5,0,1
239991,-40,4,2,1,80,0,1
240091,-40,4,2,1,5,0,1
240191,-40,4,2,1,80,0,1
240291,-40,4,2,1,5,0,1
240391,-50,4,2,1,80,0,1
240691,-50,4,2,1,5,0,1
240791,-50,4,2,1,80,0,1
241091,-50,4,2,1,5,0,1
241191,-50,4,2,1,90,0,1
241291,-50,4,2,1,5,0,1
241391,-40,4,2,1,80,0,1
241491,-40,4,2,1,5,0,1
241591,-40,4,2,1,80,0,1
241691,-40,4,2,1,5,0,1
241791,-40,4,2,1,80,0,1
241891,-40,4,2,1,5,0,1
241991,-33.3333333333333,4,2,1,80,0,1
242091,-33.3333333333333,4,2,1,5,0,1
242191,-200,4,2,1,80,0,1
242291,-200,4,2,1,5,0,1
242391,-33.3333333333333,4,2,1,80,0,1
242491,-33.3333333333333,4,2,1,5,0,1
242591,-200,4,2,1,80,0,1
242691,-200,4,2,1,5,0,1
242791,-33.3333333333333,4,2,1,80,0,1
242891,-33.3333333333333,4,2,1,5,0,1
242991,-200,4,2,1,80,0,1
243091,-200,4,2,1,5,0,1
243191,-100,4,2,1,80,0,1
243491,-100,4,2,1,5,0,1
243591,-50,4,2,1,80,0,1
243891,-50,4,2,1,5,0,1
243991,-50,4,2,1,80,0,1
244291,-50,4,2,1,5,0,1
244391,-50,4,2,1,90,0,1
244491,-50,4,2,1,5,0,1
244591,-40,4,2,1,80,0,1
244691,-40,4,2,1,5,0,1
244791,-40,4,2,1,80,0,1
244891,-40,4,2,1,5,0,1
244991,-40,4,2,1,80,0,1
245091,-40,4,2,1,5,0,1
245191,-200,4,2,1,80,0,1
245291,-200,4,2,1,5,0,1
245391,-200,4,2,1,80,0,1
245491,-200,4,2,1,5,0,1
245591,-200,4,2,1,80,0,1
245691,-200,4,2,1,5,0,1
245791,-200,4,2,1,90,0,1
245991,-50,4,2,1,90,0,1
246191,-40,4,2,1,80,0,1
246291,-40,4,2,1,5,0,1
246391,-40,4,2,1,80,0,1
246491,-40,4,2,1,5,0,1
246591,-40,4,2,1,80,0,1
246691,-40,4,2,1,5,0,1
246791,-50,4,2,1,80,0,1
247091,-50,4,2,1,5,0,1
247191,-50,4,2,1,80,0,1
247491,-50,4,2,1,5,0,1
247591,-50,4,2,1,90,0,1
247791,-50,4,2,1,80,0,1
247891,-50,4,2,1,5,0,1
247991,-66.6666666666667,4,2,1,70,0,1
248091,-66.6666666666667,4,2,1,5,0,1
248191,-100,4,2,1,60,0,1
248291,-100,4,2,1,5,0,1
248391,-100,4,2,1,80,0,0
248991,-100,4,2,1,50,0,0
249191,-100,4,2,1,70,0,0
249591,-100,4,2,1,60,0,0
249991,-133.333333333333,4,2,1,50,0,0
250791,-133.333333333333,4,2,1,5,0,0
250991,-133.333333333333,4,2,1,40,0,0
251591,-200,4,2,1,40,0,0
252391,-200,4,2,1,5,0,0
252591,-200,4,2,1,30,0,0
253191,-399.999999999997,4,2,1,30,0,0
253991,-399.999999999997,4,2,1,5,0,0
254191,-399.999999999997,4,2,1,30,0,0
254591,-399.999999999997,4,2,1,40,0,0
254791,-200,4,2,1,50,0,0
255091,-200,4,2,1,5,0,0
255191,-133.333333333333,4,2,1,50,0,0
255491,-133.333333333333,4,2,1,5,0,0
255591,-200,4,2,1,50,0,0
255891,-200,4,2,1,5,0,0
255991,-399.999999999997,4,2,1,50,0,0
256291,-399.999999999997,4,2,1,5,0,0
256391,-133.333333333333,4,2,1,50,0,0
257191,-133.333333333333,4,2,1,5,0,0
257391,-133.333333333333,4,2,1,40,0,0
257991,-200,4,2,1,40,0,0
258791,-200,4,2,1,5,0,0
258991,-200,4,2,1,30,0,0
259591,-666.666666666658,4,2,1,30,0,0
260591,545.454545454546,4,2,1,30,1,0
260863,612.244897959184,4,2,1,50,1,0
261475,659.340659340659,4,2,1,50,1,0
261804,612.244897959184,4,2,1,50,1,0
265630,-100,4,2,1,5,0,0

[Colours]
Combo1 : 140,140,140
Combo2 : 149,222,247
Combo3 : 184,184,184
Combo4 : 255,183,219
Combo5 : 211,168,255
Combo6 : 255,197,168
SliderBorder : 230,219,253

[HitObjects]
143,256,391,5,0,0:0:0:0:
138,267,1191,1,0,0:0:0:0:
256,62,1991,21,0,0:0:0:0:
255,50,2791,1,0,0:0:0:0:
368,256,3591,5,0,0:0:0:0:
374,267,4391,1,0,0:0:0:0:
255,50,5191,5,0,0:0:0:0:
254,37,5991,1,0,0:0:0:0:
256,192,6791,21,0,0:0:0:0:
222,315,7591,1,0,0:0:0:0:
132,158,8391,1,0,0:0:0:0:
289,68,9191,1,0,0:0:0:0:
256,192,9991,21,0,0:0:0:0:
222,315,10791,1,0,0:0:0:0:
157,11,11591,21,0,0:0:0:0:
355,373,12391,1,0,0:0:0:0:
16,221,13191,38,0,P|50:288|41:361,1,150.000005722046,14|0,0:0|0:0,0:0:0:0:
30,147,13991,2,0,B|71:144|71:144|111:214|111:214|139:211,1,150.000005722046
218,199,14591,1,0,0:0:0:0:
382,93,14791,2,0,B|341:101|341:101|322:179|322:179|294:184,1,150.000005722046
162,125,15591,1,0,0:0:0:0:
254,113,15791,1,0,0:0:0:0:
218,199,15991,1,0,0:0:0:0:
230,325,16191,2,0,L|225:273,1,37.5000014305115,8|0,0:0|0:0,0:0:0:0:
235,331,16391,54,0,B|264:322|264:322|344:349|344:349|378:341,1,150.000005722046,12|0,0:0|0:0,0:0:0:0:
351,265,16991,1,0,0:0:0:0:
467,199,17191,2,0,B|438:208|438:208|358:181|358:181|323:188,1,150.000005722046,0|0,0:0|0:0,0:0:0:0:
444,122,17791,1,0,0:0:0:0:
379,68,17991,2,0,P|446:39|511:71,1,150.000005722046,0|0,0:0|0:0,0:0:0:0:
380,68,18791,2,0,L|342:64,1,37.5000014305115,4|0,0:0|0:0,0:0:0:0:
224,92,19191,2,0,L|186:95,1,37.5000014305115,4|0,0:0|0:0,0:0:0:0:
116,47,19591,22,0,B|86:103|124:153|124:153|164:201|133:257,1,225.000008583069,12|0,0:0|0:0,0:0:0:0:
61,216,20391,2,0,B|79:201|79:201|206:194,1,150.000005722046,0|0,0:0|0:0,0:0:0:0:
288,266,20991,1,0,0:0:0:0:
506,192,21191,2,0,B|486:178|486:178|360:181,1,150.000005722046,0|0,0:0|0:0,0:0:0:0:
473,268,21991,2,0,B|463:261|463:261|400:262,1,75.0000028610231,0|0,0:0|0:0,0:0:0:0:
288,266,22391,1,0,0:0:0:0:
345,361,22591,1,8,0:0:0:0:
342,170,22791,54,0,B|337:120|337:120|302:76|302:76|297:32,1,150.000005722046,0|0,0:0|0:0,0:0:0:0:
228,170,23391,1,0,0:0:0:0:
154,32,23591,2,0,B|149:82|149:82|114:126|114:126|110:170,1,150.000005722046
0,254,24391,2,0,B|9:246|9:246|76:247,1,80,0|0,0:0|0:0,0:0:0:0:
234,237,24791,2,0,B|224:244|224:244|156:242,1,80,0|0,0:0|0:0,0:0:0:0:
110,168,25191,5,0,0:0:0:0:
124,323,25391,1,0,0:0:0:0:
234,227,25591,1,0,0:0:0:0:
220,382,25791,1,0,0:0:0:0:
459,314,25991,6,0,B|417:299|417:299|350:322|350:322|307:309,1,160,14|0,0:0|0:0,0:0:0:0:
459,314,26791,2,0,B|416:299|416:299|375:242|375:242|332:227,1,160
199,231,27391,1,0,0:0:0:0:
106,141,27591,2,0,B|126:169|126:169|101:253|101:253|64:261,1,160,10|0,0:0|0:0,0:0:0:0:
46,272,28391,1,0,0:0:0:0:
27,182,28591,1,0,0:0:0:0:
98,122,28791,1,0,0:0:0:0:
199,231,28991,2,0,L|159:219,1,40,8|0,0:0|0:0,0:0:0:0:
313,231,29191,54,0,B|352:219|352:219|314:106,1,160,10|0,0:0|0:0,0:0:0:0:
426,151,29791,1,0,0:0:0:0:
506,242,29991,2,0,B|467:227|467:227|430:340,1,160,0|0,0:0|0:0,0:0:0:0:
347,307,30591,1,0,0:0:0:0:
125,365,30791,22,0,B|204:395|198:332|280:363,1,160,10|0,0:0|0:0,0:0:0:0:
165,291,31391,1,0,0:0:0:0:
200,211,31591,2,0,B|224:227|224:227|260:310,2,120
56,83,32391,54,0,B|97:57|97:57|116:166,1,160,14|0,0:0|0:0,0:0:0:0:
193,124,32991,1,0,0:0:0:0:
175,44,33191,2,0,B|92:23|92:23|97:57,2,120
385,131,33991,22,0,B|335:114|335:114|288:126|288:126|233:107,1,160,10|0,0:0|0:0,0:0:0:0:
331,203,34591,1,0,0:0:0:0:
277,275,34791,5,0,0:0:0:0:
154,231,35091,5,0,0:0:0:0:
23,258,35391,6,0,L|28:218,1,40,8|0,0:0|0:0,0:0:0:0:
33,178,35591,1,0,0:0:0:0:
256,192,35791,12,14,37191,0:0:0:0:
252,192,37991,21,0,0:0:0:0:
245,187,38091,1,0,0:0:0:0:
238,182,38191,1,8,0:0:0:0:
276,96,38391,1,12,0:0:0:0:
5,63,38791,6,0,L|124:68,1,119.999996337891,12|0,0:0|0:0,0:0:0:0:
34,147,39191,2,0,L|153:152,1,119.999996337891
63,231,39591,2,0,L|182:236,1,119.999996337891,8|0,0:0|0:0,0:0:0:0:
203,373,39991,2,0,L|194:313,1,59.9999981689454,8|0,0:0|0:0,0:0:0:0:
307,373,40191,2,0,L|315:313,1,59.9999981689454,8|0,0:0|0:0,0:0:0:0:
447,231,40391,54,0,L|327:236,1,119.999996337891,12|0,0:0|0:0,0:0:0:0:
476,147,40791,2,0,L|356:152,1,119.999996337891
505,63,41191,2,0,L|265:73,1,239.999992675781,8|0,0:0|0:0,0:0:0:0:
248,218,41791,6,0,L|230:160,1,59.9999981689454,8|0,0:0|0:0,0:0:0:0:
200,304,41991,6,0,B|180:289|180:289|145:296,1,59.9999981689454,12|0,0:0|0:0,0:0:0:0:
13,247,42191,2,0,B|32:261|32:261|67:253,1,59.9999981689454,8|0,0:0|0:0,0:0:0:0:
112,168,42391,2,0,B|91:206|91:206|117:339,1,179.999994506836,8|0,0:0|0:0,0:0:0:0:
200,304,42791,2,0,B|180:289|180:289|145:296,1,59.9999981689454,8|0,0:0|0:0,0:0:0:0:
13,247,42991,2,0,B|32:261|32:261|67:253,1,59.9999981689454
112,168,43191,2,0,L|105:108,1,59.9999981689454,8|0,0:0|0:0,0:0:0:0:
247,210,43391,2,0,L|188:216,1,59.9999981689454,0|0,0:0|0:0,0:0:0:0:
310,336,43591,54,0,L|283:97,2,239.999992675781,12|0|8,0:0|0:0|0:0,0:0:0:0:
478,318,44591,37,8,0:0:0:0:
394,327,44791,1,8,0:0:0:0:
458,138,45191,70,0,L|338:151,1,119.999996337891,12|0,0:0|0:0,0:0:0:0:
440,36,45591,2,0,L|320:49,1,119.999996337891,0|0,0:0|0:0,0:0:0:0:
121,129,45991,2,0,L|241:116,1,119.999996337891,8|0,0:0|0:0,0:0:0:0:
141,38,46391,2,0,L|200:32,1,59.9999981689454,8|0,0:0|0:0,0:0:0:0:
220,207,46591,2,0,L|160:212,1,59.9999981689454,8|0,0:0|0:0,0:0:0:0:
26,351,46791,54,0,B|56:330|56:330|228:315,1,209.999993591309,8|0,0:0|0:0,0:0:0:0:
347,342,47191,2,0,B|326:312|326:312|311:139,1,209.999993591309,8|0,0:0|0:0,0:0:0:0:
408,131,47591,2,0,L|413:190,1,59.9999981689454,8|0,0:0|0:0,0:0:0:0:
220,207,47791,2,0,L|214:147,1,59.9999981689454,8|0,0:0|0:0,0:0:0:0:
311,139,47991,2,0,L|323:279,1,119.999996337891,8|0,0:0|0:0,0:0:0:0:
369,58,48391,22,0,B|389:43|389:43|423:50,1,59.9999981689454,12|0,0:0|0:0,0:0:0:0:
244,70,48591,2,0,B|224:58|224:58|188:68,1,59.9999981689454
413,190,48791,2,0,L|408:131,1,59.9999981689454
220,207,48991,2,0,L|214:147,1,59.9999981689454,8|0,0:0|0:0,0:0:0:0:
300,19,49191,2,0,L|315:198,1,179.999994506836,8|0,0:0|0:0,0:0:0:0:
453,325,49591,2,0,L|398:299,1,59.9999981689454
249,310,49791,2,0,L|200:345,1,59.9999981689454
15,341,49991,54,0,P|109:279|201:345,1,239.999992675781,8|0,0:0|0:0,0:0:0:0:
107,379,50591,1,8,0:0:0:0:
21,225,50791,2,0,P|107:201|193:225,1,179.999994506836,8|0,0:0|0:0,0:0:0:0:
308,372,51191,6,0,L|324:184,1,179.999994506836,14|0,0:0|0:0,0:0:0:0:
463,190,51591,6,0,P|387:171|313:184,1,139.999995727539,14|0,0:0|0:0,0:0:0:0:
267,239,51891,1,8,0:0:0:0:
207,300,51991,2,0,P|271:322|331:291,1,139.999995727539,2|0,0:0|0:0,0:0:0:0:
391,231,52291,1,8,0:0:0:0:
326,179,52391,2,0,P|262:157|202:188,1,139.999995727539,2|0,0:0|0:0,0:0:0:0:
139,247,52691,1,8,0:0:0:0:
59,282,52791,2,0,P|52:247|58:211,1,69.9999978637696,2|0,0:0|0:0,0:0:0:0:
121,81,52991,2,0,P|127:116|122:152,1,69.9999978637696,8|0,0:0|0:0,0:0:0:0:
55,31,53191,6,0,P|115:0|179:22,1,139.999995727539,14|0,0:0|0:0,0:0:0:0:
238,84,53491,1,8,0:0:0:0:
296,145,53591,2,0,P|360:167|421:135,1,139.999995727539,2|0,0:0|0:0,0:0:0:0:
354,83,53891,1,8,0:0:0:0:
296,145,53991,2,0,L|307:285,1,139.999995727539,2|0,0:0|0:0,0:0:0:0:
380,335,54291,1,0,0:0:0:0:
432,269,54391,1,0,0:0:0:0:
432,269,54491,1,0,0:0:0:0:
432,269,54591,2,0,L|437:200,1,69.9999978637696,8|0,0:0|0:0,0:0:0:0:
354,83,54791,38,0,B|422:106|422:106|486:72,1,139.999995727539,14|0,0:0|0:0,0:0:0:0:
416,23,55091,1,8,0:0:0:0:
333,8,55191,2,0,B|264:31|264:31|200:-2,1,139.999995727539,2|0,0:0|0:0,0:0:0:0:
144,60,55491,1,8,0:0:0:0:
84,120,55591,2,0,P|113:139|148:141,1,69.9999978637696,2|0,0:0|0:0,0:0:0:0:
287,113,55791,2,0,P|257:93|222:91,1,69.9999978637696,8|0,0:0|0:0,0:0:0:0:
73,166,55991,2,0,P|106:176|140:169,1,69.9999978637696,2|0,0:0|0:0,0:0:0:0:
299,67,56191,2,0,P|266:56|232:63,1,69.9999978637696,8|0,0:0|0:0,0:0:0:0:
243,202,56391,6,0,L|232:62,1,139.999995727539,14|0,0:0|0:0,0:0:0:0:
144,60,56691,1,8,0:0:0:0:
61,59,56791,2,0,P|78:113|155:142,1,139.999995727539,2|0,0:0|0:0,0:0:0:0:
210,202,57091,1,8,0:0:0:0:
229,283,57191,2,0,P|283:241|288:174,1,139.999995727539,2|0,0:0|0:0,0:0:0:0:
288,161,57491,1,0,0:0:0:0:
288,146,57591,1,0,0:0:0:0:
288,122,57691,1,0,0:0:0:0:
290,89,57791,1,0,0:0:0:0:
306,57,57891,1,0,0:0:0:0:
390,94,57991,6,0,B|378:120|378:120|395:203,1,80,14|0,0:0|0:0,0:0:0:0:
478,242,58191,2,0,B|490:216|490:216|473:133,1,80,2|0,0:0|0:0,0:0:0:0:
242,88,58391,6,0,B|243:116|243:116|277:154,1,80,10|0,0:0|0:0,0:0:0:0:
389,171,58591,2,0,B|386:142|386:142|352:103,1,80,2|0,0:0|0:0,0:0:0:0:
108,156,58791,38,0,B|123:179|123:179|172:195,1,80,10|0,0:0|0:0,0:0:0:0:
277,154,58991,2,0,B|260:130|260:130|212:113,1,80,2|0,0:0|0:0,0:0:0:0:
136,355,59191,6,0,L|127:275,1,80,10|0,0:0|0:0,0:0:0:0:
322,236,59391,2,0,L|306:314,1,80,2|0,0:0|0:0,0:0:0:0:
173,196,59591,6,0,L|205:122,1,80,10|0,0:0|0:0,0:0:0:0:
393,185,59791,2,0,L|339:244,1,80,2|0,0:0|0:0,0:0:0:0:
282,76,59991,6,0,L|346:28,1,80,10|0,0:0|0:0,0:0:0:0:
478,176,60191,2,0,L|402:201,1,80,2|0,0:0|0:0,0:0:0:0:
455,48,60391,37,14,0:0:0:0:
463,88,60591,69,8,0:0:0:0:
424,75,60691,1,8,0:0:0:0:
424,35,60791,1,8,0:0:0:0:
463,23,60891,1,8,0:0:0:0:
486,55,60991,1,8,0:0:0:0:
463,88,61091,1,8,0:0:0:0:
347,45,61191,21,10,0:0:0:0:
272,72,61291,1,8,0:0:0:0:
193,64,61391,1,8,0:0:0:0:
124,24,61491,1,8,0:0:0:0:
137,125,61591,21,10,0:0:0:0:
193,157,61691,1,8,0:0:0:0:
255,162,61791,1,8,0:0:0:0:
314,143,61891,1,8,0:0:0:0:
291,230,61991,5,10,0:0:0:0:
243,248,62091,1,8,0:0:0:0:
192,243,62191,1,8,0:0:0:0:
144,225,62291,1,8,0:0:0:0:
157,317,62391,5,8,0:0:0:0:
193,332,62491,1,8,0:0:0:0:
234,337,62591,1,8,0:0:0:0:
274,326,62691,1,8,0:0:0:0:
360,285,62791,21,10,0:0:0:0:
305,133,62891,2,0,L|309:95,1,37.5000014305115,10|0,0:0|0:0,0:0:0:0:
416,203,63091,21,10,0:0:0:0:
509,70,63191,2,0,L|513:32,1,37.5000014305115,10|0,0:0|0:0,0:0:0:0:
424,210,63391,5,10,0:0:0:0:
424,210,63491,1,10,0:0:0:0:
424,210,63591,2,0,L|469:214,2,44.999998626709
424,211,63991,6,0,P|393:207|424:202,1,89.9999972534181,8|0,0:0|0:0,0:0:0:0:
424,211,64391,22,0,B|331:134|251:196|251:196|128:273|59:199,2,400,6|2|2,0:0|0:0|0:0,0:0:0:0:
49,311,65391,1,0,0:0:0:0:
49,311,65491,2,0,P|106:291|130:235,1,125,2|0,0:0|0:0,0:0:0:0:
310,271,65691,1,0,0:0:0:0:
310,270,65790,2,0,P|298:330|335:378,1,125,2|0,0:0|0:0,0:0:0:0:
206,323,65991,22,0,B|192:203|308:171|308:171|437:124|410:20,2,400,6|2|2,0:0|0:0|0:0,0:0:0:0:
323,24,66991,1,0,0:0:0:0:
323,23,67091,2,0,P|297:79|240:98,1,125,2|0,0:0|0:0,0:0:0:0:
336,256,67291,1,0,0:0:0:0:
335,256,67391,2,0,P|298:304|310:363,1,125,2|0,0:0|0:0,0:0:0:0:
369,127,67591,22,0,B|291:212|195:173|195:173|65:120|15:215,2,400,6|2|2,0:0|0:0|0:0,0:0:0:0:
99,346,68591,1,0,0:0:0:0:
99,346,68690,2,0,P|86:287|123:239,1,125,2|0,0:0|0:0,0:0:0:0:
277,185,68891,1,0,0:0:0:0:
277,185,68991,2,0,P|335:203|358:259,1,125,2|0,0:0|0:0,0:0:0:0:
171,305,69191,22,0,P|336:234|365:56,1,375,6|0,0:0|0:0,0:0:0:0:
152,29,69591,2,0,B|101:73|101:73|366:55|366:55|298:13,1,412.500003933907,2|0,0:0|0:0,0:0:0:0:
184,152,69991,2,0,B|147:185|147:185|344:172|344:172|299:143,1,300.000011444092,2|0,0:0|0:0,0:0:0:0:
225,266,70291,2,0,B|206:282|206:282|304:275|304:275|281:260,1,150.000005722046,2|0,0:0|0:0,0:0:0:0:
238,87,70491,1,0,0:0:0:0:
238,87,70591,2,0,L|231:12,1,75.0000028610231,2|0,0:0|0:0,0:0:0:0:
261,360,70791,22,0,B|254:264|254:264|329:186|329:186|244:120|244:120|237:32,2,400,6|2|2,0:0|0:0|0:0,0:0:0:0:
73,205,71791,1,0,0:0:0:0:
73,205,71891,2,0,L|197:195,1,125,2|0,0:0|0:0,0:0:0:0:
454,196,72091,1,0,0:0:0:0:
454,196,72191,2,0,L|329:186,1,125,2|0,0:0|0:0,0:0:0:0:
86,62,72391,6,0,B|182:55|182:55|260:130|260:130|326:45|326:45|413:38,2,400,6|2|2,0:0|0:0|0:0,0:0:0:0:
33,153,73391,1,0,0:0:0:0:
33,153,73491,2,0,L|157:143,1,125,2|0,0:0|0:0,0:0:0:0:
498,117,73691,1,0,0:0:0:0:
498,117,73791,2,0,L|373:126,1,125,2|0,0:0|0:0,0:0:0:0:
104,244,73991,6,0,B|199:252|199:252|279:179|279:179|343:265|343:265|430:272,2,400,6|2|2,0:0|0:0|0:0,0:0:0:0:
64,328,74991,22,0,L|138:334,1,75.0000028610231,8|0,0:0|0:0,0:0:0:0:
298,347,75191,2,0,L|223:340,1,75.0000028610231,8|0,0:0|0:0,0:0:0:0:
382,352,75391,2,0,L|456:358,1,75.0000028610231,10|0,0:0|0:0,0:0:0:0:
496,276,75591,21,10,0:0:0:0:
497,132,75691,2,0,L|494:73,1,37.5000014305115,10|0,0:0|0:0,0:0:0:0:
412,232,75891,21,10,0:0:0:0:
374,92,75991,2,0,L|361:35,1,37.5000014305115,10|0,0:0|0:0,0:0:0:0:
325,218,76191,21,10,0:0:0:0:
325,218,76291,1,10,0:0:0:0:
325,218,76391,1,8,0:0:0:0:
238,194,76491,1,8,0:0:0:0:
208,108,76591,1,8,0:0:0:0:
332,212,76791,38,0,P|338:230|324:217,1,50,12|0,0:0|0:0,0:0:0:0:
325,218,77191,70,0,P|195:170|125:289,1,300,6|0,0:0|0:0,0:0:0:0:
124,288,77591,2,0,P|203:168|326:219,1,300,2|0,0:0|0:0,0:0:0:0:
212,260,77991,6,0,B|211:289|243:293|243:293|257:264|233:249,1,100,8|0,0:0|0:0,0:0:0:0:
110,124,78191,6,0,P|69:170|47:228,1,125,8|0,0:0|0:0,0:0:0:0:
226,86,78391,2,0,P|164:94|109:124,1,125,8|0,0:0|0:0,0:0:0:0:
343,121,78591,2,0,P|288:93|227:85,1,125,10|0,0:0|0:0,0:0:0:0:
3,61,78791,22,0,L|9:85,1,25,12|0,0:0|0:0,0:0:0:0:
109,123,78991,2,0,L|115:147,1,25,8|0,0:0|0:0,0:0:0:0:
219,187,79191,2,0,L|225:211,1,25,8|0,0:0|0:0,0:0:0:0:
322,244,79391,21,10,0:0:0:0:
326,248,79591,2,0,B|325:220|357:216|357:216|371:245|347:259,1,100
434,130,79791,6,0,P|436:68|447:7,1,125,8|0,0:0|0:0,0:0:0:0:
449,254,79991,2,0,P|444:191|434:129,1,125,8|0,0:0|0:0,0:0:0:0:
435,377,80190,2,0,P|437:315|448:254,1,125,8|0,0:0|0:0,0:0:0:0:
352,327,80391,6,0,P|247:238|141:326,1,300,6|0,0:0|0:0,0:0:0:0:
140,327,80791,2,0,P|246:238|353:335,1,300,2|0,0:0|0:0,0:0:0:0:
232,327,81191,22,0,B|220:353|249:368|249:368|272:345|255:323,1,100,8|0,0:0|0:0,0:0:0:0:
57,261,81391,22,0,P|54:323|43:384,1,125,8|0,0:0|0:0,0:0:0:0:
42,137,81591,2,0,P|47:199|57:261,1,125,8|0,0:0|0:0,0:0:0:0:
56,13,81790,2,0,P|53:75|42:136,1,125,10|0,0:0|0:0,0:0:0:0:
56,260,81991,6,0,B|126:228|126:228|189:263,1,150.000005722046,12|0,0:0|0:0,0:0:0:0:
289,341,82191,2,0,L|290:316,1,25,8|0,0:0|0:0,0:0:0:0:
429,224,82391,6,0,B|359:192|359:192|295:227,1,150.000005722046,12|0,0:0|0:0,0:0:0:0:
191,288,82591,2,0,L|189:263,1,25,8|0,0:0|0:0,0:0:0:0:
42,136,82791,22,0,B|112:104|112:104|175:139,1,150.000005722046,12|0,0:0|0:0,0:0:0:0:
295,227,82991,2,0,L|296:202,1,25,8|0,0:0|0:0,0:0:0:0:
443,100,83191,22,0,B|373:68|373:68|309:103,1,150.000005722046,12|0,0:0|0:0,0:0:0:0:
259,326,83591,6,0,L|272:26,1,300,6|0,0:0|0:0,0:0:0:0:
272,26,83991,2,0,L|258:325,1,300,2|0,0:0|0:0,0:0:0:0:
356,183,84391,6,0,B|343:204|343:204|348:150|348:150|356:169,1,100,8|0,0:0|0:0,0:0:0:0:
178,134,84591,22,0,L|183:9,1,125,8|0,0:0|0:0,0:0:0:0:
172,258,84791,2,0,L|177:133,1,125,8|0,0:0|0:0,0:0:0:0:
166,382,84991,2,0,L|171:257,1,125,10|0,0:0|0:0,0:0:0:0:
69,133,85191,22,0,L|66:108,1,25,8|0,0:0|0:0,0:0:0:0:
75,257,85391,2,0,L|72:232,1,25,8|0,0:0|0:0,0:0:0:0:
79,382,85591,2,0,L|76:357,1,25,8|0,0:0|0:0,0:0:0:0:
59,130,85791,5,10,0:0:0:0:
62,133,85991,2,0,B|41:146|41:146|95:141|95:141|76:133,1,100,8|0,0:0|0:0,0:0:0:0:
196,227,86191,6,0,L|71:232,1,125,8|0,0:0|0:0,0:0:0:0:
320,221,86391,2,0,L|195:226,1,125,8|0,0:0|0:0,0:0:0:0:
444,215,86591,2,0,L|319:220,1,125,8|0,0:0|0:0,0:0:0:0:
402,131,86791,22,0,L|103:145,1,300,6|0,0:0|0:0,0:0:0:0:
102,145,87191,2,0,L|401:131,1,300,2|0,0:0|0:0,0:0:0:0:
246,47,87591,38,0,B|224:59|224:59|278:56|278:56|259:47,1,100,8|0,0:0|0:0,0:0:0:0:
361,219,87791,6,0,L|365:294,1,75.0000028610231,8|0,0:0|0:0,0:0:0:0:
258,222,87991,2,0,L|262:297,1,75.0000028610231,8|0,0:0|0:0,0:0:0:0:
155,225,88191,2,0,L|159:300,1,75.0000028610231,10|0,0:0|0:0,0:0:0:0:
58,190,88391,21,8,0:0:0:0:
58,100,88491,1,8,0:0:0:0:
144,72,88591,1,8,0:0:0:0:
196,145,88691,1,8,0:0:0:0:
144,218,88791,2,0,L|147:292,1,75.0000028610231,8|0,0:0|0:0,0:0:0:0:
273,359,88991,21,8,0:0:0:0:
271,321,89091,1,8,0:0:0:0:
269,284,89191,1,8,0:0:0:0:
359,252,89291,1,8,0:0:0:0:
452,278,89391,1,8,0:0:0:0:
349,144,89591,70,0,P|353:109|359:144,1,100,12|0,0:0|0:0,0:0:0:0:
501,214,89991,54,0,P|468:280|476:353,1,150.000005722046,14|0,0:0|0:0,0:0:0:0:
251,337,90791,2,0,B|270:366|270:366|385:364,1,150.000005722046,0|0,0:0|0:0,0:0:0:0:
329,179,91391,1,0,0:0:0:0:
290,258,91591,2,0,B|309:287|309:287|424:285,1,150.000005722046,0|0,0:0|0:0,0:0:0:0:
329,179,92391,1,0,0:0:0:0:
212,258,92591,1,0,0:0:0:0:
290,258,92791,1,0,0:0:0:0:
173,179,92991,1,0,0:0:0:0:
251,337,93191,22,0,B|232:366|232:366|116:364,1,150.000005722046,12|0,0:0|0:0,0:0:0:0:
173,179,93791,1,0,0:0:0:0:
212,258,93991,2,0,B|193:287|193:287|77:285,1,150.000005722046,0|0,0:0|0:0,0:0:0:0:
110,57,94791,54,0,B|134:140|66:121|92:225,1,150.000005722046,8|0,0:0|0:0,0:0:0:0:
315,186,95591,2,0,B|231:165|282:115|179:86,1,150.000005722046,8|0,0:0|0:0,0:0:0:0:
374,25,96391,22,0,B|344:81|382:131|382:131|422:179|391:235,1,225.000008583069,12|0,0:0|0:0,0:0:0:0:
340,305,97191,2,0,B|359:283|359:283|479:282,1,150.000005722046,0|0,0:0|0:0,0:0:0:0:
272,151,97791,1,0,0:0:0:0:
306,228,97991,2,0,B|325:206|325:206|445:205,1,150.000005722046,0|0,0:0|0:0,0:0:0:0:
204,305,98791,2,0,L|167:313,2,37.5000014305115,0|0|0,0:0|0:0|0:0,0:0:0:0:
344,311,99191,2,0,L|380:319,2,37.5000014305115,0|0|0,0:0|0:0|0:0,0:0:0:0:
204,305,99591,2,12,B|185:283|185:283|64:282,1,150.000005722046,12|0,0:0|0:0,0:0:0:0:
272,151,100191,1,0,0:0:0:0:
238,228,100391,2,0,B|219:206|219:206|98:205,1,150.000005722046,0|0,0:0|0:0,0:0:0:0:
339,304,101191,6,0,P|396:280|457:293,1,127.50000243187,8|0,0:0|0:0,0:0:0:0:
199,303,101591,6,0,P|142:279|81:292,1,127.50000243187,8|0,0:0|0:0,0:0:0:0:
264,368,101991,5,0,0:0:0:0:
264,144,102191,1,0,0:0:0:0:
264,256,102391,1,0,0:0:0:0:
264,32,102591,1,0,0:0:0:0:
91,146,102791,6,0,B|129:124|129:124|263:143,1,179.999994506836,14|0,0:0|0:0,0:0:0:0:
64,224,103191,2,0,P|8:160|40:80,1,179.999994506836,2|0,0:0|0:0,0:0:0:0:
147,209,103591,2,0,B|147:252|147:252|63:360,1,179.999994506836,2|0,0:0|0:0,0:0:0:0:
27,279,103991,1,2,0:0:0:0:
151,375,104191,1,0,0:0:0:0:
275,279,104391,22,0,B|253:241|253:241|272:106,1,179.999994506836,14|0,0:0|0:0,0:0:0:0:
353,305,104791,2,0,P|289:361|209:329,1,179.999994506836,2|0,0:0|0:0,0:0:0:0:
338,223,105191,1,2,0:0:0:0:
189,128,105391,1,0,0:0:0:0:
339,32,105591,2,0,B|354:58|354:58|345:147,1,119.999996337891,2|0,0:0|0:0,0:0:0:0:
345,147,105991,54,0,B|309:141|309:141|237:228|237:228|207:222,1,179.999994506836,14|0,0:0|0:0,0:0:0:0:
161,247,106391,1,2,0:0:0:0:
15,148,106591,1,0,0:0:0:0:
94,201,106791,2,0,B|114:162|114:162|90:27,1,179.999994506836,2|0,0:0|0:0,0:0:0:0:
16,230,107191,2,0,P|83:282|161:247,1,179.999994506836,2|0,0:0|0:0,0:0:0:0:
380,246,107591,22,0,P|300:206|211:215,1,179.999994506836,14|0,0:0|0:0,0:0:0:0:
161,247,107991,1,2,0:0:0:0:
268,368,108191,1,0,0:0:0:0:
325,307,108391,2,0,P|240:290|186:357,2,179.999994506836,2|0|0,0:0|0:0|0:0,0:0:0:0:
161,246,109191,54,0,P|240:208|328:218,1,179.999994506836,10|0,0:0|0:0,0:0:0:0:
380,246,109591,1,2,0:0:0:0:
268,368,109791,1,0,0:0:0:0:
186,356,109991,2,0,P|239:290|323:305,2,179.999994506836,2|0|0,0:0|0:0|0:0,0:0:0:0:
380,246,110791,22,0,P|300:206|211:215,1,179.999994506836,10|0,0:0|0:0,0:0:0:0:
161,247,111191,1,2,0:0:0:0:
268,368,111391,1,0,0:0:0:0:
323,305,111591,2,0,P|238:290|185:357,2,179.999994506836,2|0|0,0:0|0:0|0:0,0:0:0:0:
256,192,112391,12,14,113991,0:0:0:0:
366,110,114791,5,0,0:0:0:0:
357,113,114891,1,0,0:0:0:0:
350,115,114991,1,8,0:0:0:0:
328,210,115191,1,12,0:0:0:0:
9,54,115591,38,0,B|49:46|49:46|145:70,1,139.999995727539,14|0,0:0|0:0,0:0:0:0:
204,129,115891,1,8,0:0:0:0:
231,214,115991,2,0,P|163:205|121:151,1,139.999995727539,2|0,0:0|0:0,0:0:0:0:
204,129,116291,1,8,0:0:0:0:
285,145,116391,2,0,P|317:206|297:271,1,139.999995727539,2|0,0:0|0:0,0:0:0:0:
219,294,116691,1,8,0:0:0:0:
165,233,116791,2,0,P|195:215|230:214,1,69.9999978637696,2|0,0:0|0:0,0:0:0:0:
271,355,116991,2,0,P|241:373|206:374,1,69.9999978637696,8|0,0:0|0:0,0:0:0:0:
20,372,117191,38,0,B|28:350|28:350|139:315,1,139.999995727539,14|0,0:0|0:0,0:0:0:0:
219,294,117491,1,8,0:0:0:0:
297,271,117591,2,0,B|408:236|408:236|416:214,1,139.999995727539,2|0,0:0|0:0,0:0:0:0:
348,163,117891,1,8,0:0:0:0:
269,188,117991,2,0,P|0:266|0:266,1,279.999991455078,2|0,0:0|0:0,0:0:0:0:
59,137,118491,1,8,0:0:0:0:
59,137,118591,2,0,L|39:69,1,69.9999978637696,8|0,0:0|0:0,0:0:0:0:
209,112,118791,38,0,L|141:96,1,69.9999978637696,14|0,0:0|0:0,0:0:0:0:
283,37,118991,2,0,L|215:21,1,69.9999978637696,8|0,0:0|0:0,0:0:0:0:
269,188,119191,2,0,L|134:228,1,139.999995727539,2|0,0:0|0:0,0:0:0:0:
209,112,119491,1,8,0:0:0:0:
209,112,119591,2,0,L|141:96,1,69.9999978637696,2|0,0:0|0:0,0:0:0:0:
283,37,119791,2,0,L|215:21,1,69.9999978637696,8|0,0:0|0:0,0:0:0:0:
385,61,119991,2,0,L|453:77,1,69.9999978637696,2|0,0:0|0:0,0:0:0:0:
413,160,120191,2,0,L|481:176,1,69.9999978637696,8|0,0:0|0:0,0:0:0:0:
311,136,120391,6,0,L|278:272,1,139.999995727539,14|0,0:0|0:0,0:0:0:0:
333,336,120691,1,8,0:0:0:0:
407,371,120791,2,0,P|411:303|361:257,1,139.999995727539,2|0,0:0|0:0,0:0:0:0:
278,272,121091,1,8,0:0:0:0:
228,342,121191,2,0,P|198:249|276:187,1,209.999993591309
122,221,121591,1,0,0:0:0:0:
122,221,121691,1,0,0:0:0:0:
122,221,121791,1,0,0:0:0:0:
122,221,121891,1,0,0:0:0:0:
121,220,121991,6,0,P|109:152|149:97,1,139.999995727539,14|0,0:0|0:0,0:0:0:0:
235,109,122291,1,8,0:0:0:0:
200,31,122391,2,0,P|135:13|78:51,1,139.999995727539,2|0,0:0|0:0,0:0:0:0:
149,98,122691,1,8,0:0:0:0:
235,109,122791,2,0,P|302:93|360:129,1,139.999995727539,2|0,0:0|0:0,0:0:0:0:
288,178,123091,1,8,0:0:0:0:
234,242,123191,2,0,P|210:218|204:184,1,69.9999978637696,2|0,0:0|0:0,0:0:0:0:
364,207,123391,2,0,P|349:237|319:255,1,69.9999978637696,8|0,0:0|0:0,0:0:0:0:
288,178,123591,6,0,B|265:337|265:337|217:351,1,209.999993591309,14|0,0:0|0:0,0:0:0:0:
71,140,123991,2,0,B|203:230|203:230|195:279,1,209.999993591309,2|0,0:0|0:0,0:0:0:0:
59,228,124391,2,0,L|117:267,1,69.9999978637696,2|0,0:0|0:0,0:0:0:0:
147,96,124591,2,0,L|205:135,1,69.9999978637696,8|0,0:0|0:0,0:0:0:0:
71,140,124791,2,0,B|186:218|186:218,1,139.999995727539,2|0,0:0|0:0,0:0:0:0:
18,285,125091,1,8,0:0:0:0:
18,285,125191,70,0,L|58:227,1,69.9999978637696,14|0,0:0|0:0,0:0:0:0:
187,38,125391,2,0,L|146:95,1,69.9999978637696,8|0,0:0|0:0,0:0:0:0:
186,218,125591,2,0,B|255:265,1,69.9999978637696,2|0,0:0|0:0,0:0:0:0:
326,166,125791,2,0,B|256:118,1,69.9999978637696,8|0,0:0|0:0,0:0:0:0:
135,352,125991,2,0,L|215:236,1,139.999995727539,2|0,0:0|0:0,0:0:0:0:
366,288,126291,1,8,0:0:0:0:
366,288,126391,2,0,L|325:345,1,69.9999978637696,2|0,0:0|0:0,0:0:0:0:
454,157,126591,2,0,L|494:99,1,69.9999978637696,8|0,0:0|0:0,0:0:0:0:
376,30,126791,70,0,L|256:202,1,209.999993591309,14|0,0:0|0:0,0:0:0:0:
236,231,127191,1,2,0:0:0:0:
204,30,127391,1,8,0:0:0:0:
430,100,127591,2,0,L|350:215,1,139.999995727539,2|0,0:0|0:0,0:0:0:0:
236,231,127991,22,0,P|323:255|363:342,1,179.999994506836,14|0,0:0|0:0,0:0:0:0:
144,384,128391,69,8,0:0:0:0:
189,101,128691,1,8,0:0:0:0:
189,101,128791,1,8,0:0:0:0:
157,297,128991,1,8,0:0:0:0:
173,199,129191,53,8,0:0:0:0:
452,94,129491,1,8,0:0:0:0:
452,94,129591,1,8,0:0:0:0:
80,234,129791,1,8,0:0:0:0:
266,164,129991,21,8,0:0:0:0:
112,37,130291,1,8,0:0:0:0:
112,37,130391,1,8,0:0:0:0:
80,234,130591,1,8,0:0:0:0:
234,361,130791,53,8,0:0:0:0:
420,291,131091,1,8,0:0:0:0:
420,291,131191,1,8,0:0:0:0:
80,234,131391,1,8,0:0:0:0:
247,263,131591,37,8,0:0:0:0:
278,52,131891,1,8,0:0:0:0:
278,52,131991,1,8,0:0:0:0:
506,274,132191,1,8,0:0:0:0:
328,269,132391,69,8,0:0:0:0:
512,106,132691,1,8,0:0:0:0:
512,106,132791,1,8,0:0:0:0:
278,52,132991,1,8,0:0:0:0:
403,200,133191,69,8,0:0:0:0:
242,354,133491,1,8,0:0:0:0:
242,354,133591,1,8,0:0:0:0:
75,183,133791,1,8,0:0:0:0:
265,186,133991,69,8,0:0:0:0:
42,384,134291,1,8,0:0:0:0:
42,384,134391,1,8,0:0:0:0:
250,322,134591,37,8,0:0:0:0:
250,322,134791,70,0,L|262:242,1,80,14|0,0:0|0:0,0:0:0:0:
432,223,134991,2,0,L|357:194,1,80,8|0,0:0|0:0,0:0:0:0:
217,317,135191,70,0,L|249:244,1,80,10|0,0:0|0:0,0:0:0:0:
444,192,135391,2,0,L|364:183,1,80,8|0,0:0|0:0,0:0:0:0:
186,304,135591,70,0,L|236:242,1,80,10|0,0:0|0:0,0:0:0:0:
449,159,135791,2,0,L|369:171,1,80,8|0,0:0|0:0,0:0:0:0:
234,79,135991,38,0,L|271:149,1,80,10|0,0:0|0:0,0:0:0:0:
367,336,136191,2,0,L|331:264,1,80,8|0,0:0|0:0,0:0:0:0:
369,170,136391,70,0,L|382:91,1,80,10|0,0:0|0:0,0:0:0:0:
235,241,136591,2,0,L|161:213,1,80,8|0,0:0|0:0,0:0:0:0:
448,159,136791,70,0,L|481:86,1,80,10|0,0:0|0:0,0:0:0:0:
185,303,136991,2,0,L|106:295,1,80,8|0,0:0|0:0,0:0:0:0:
367,336,137191,69,14,0:0:0:0:
375,376,137391,69,8,0:0:0:0:
336,363,137491,1,8,0:0:0:0:
336,323,137591,1,8,0:0:0:0:
375,311,137691,1,8,0:0:0:0:
398,343,137791,1,8,0:0:0:0:
375,376,137891,1,8,0:0:0:0:
265,310,137991,21,10,0:0:0:0:
190,283,138091,1,8,0:0:0:0:
111,291,138191,1,8,0:0:0:0:
42,331,138291,1,8,0:0:0:0:
55,230,138391,21,10,0:0:0:0:
111,198,138491,1,8,0:0:0:0:
173,193,138591,1,8,0:0:0:0:
233,211,138691,1,8,0:0:0:0:
209,125,138791,5,10,0:0:0:0:
161,107,138891,1,8,0:0:0:0:
110,112,138991,1,8,0:0:0:0:
62,130,139091,1,8,0:0:0:0:
78,38,139191,5,10,0:0:0:0:
117,23,139291,1,8,0:0:0:0:
158,24,139391,1,8,0:0:0:0:
196,36,139491,1,8,0:0:0:0:
285,89,139591,21,0,0:0:0:0:
136,187,139691,2,0,L|133:229,1,37.5000014305115
296,112,139891,21,0,0:0:0:0:
232,266,139991,2,0,L|234:303,1,37.5000014305115
375,255,140191,5,10,0:0:0:0:
375,255,140291,1,10,0:0:0:0:
375,255,140391,2,0,L|335:214,2,44.999998626709,8|0|0,0:0|0:0|0:0,0:0:0:0:
263,160,140791,6,0,B|240:137|240:137|257:120|257:120|279:143|279:143|319:184,1,89.9999972534181,8|0,0:0|0:0,0:0:0:0:
261,239,141191,22,0,B|170:148|170:148|266:51|266:51|362:148|362:148,2,400,6|0|6,0:0|0:0|0:0,0:0:0:0:
423,93,142191,1,0,0:0:0:0:
423,93,142291,2,0,L|333:5,1,125,2|0,0:0|0:0,0:0:0:0:
117,206,142491,1,0,0:0:0:0:
117,206,142591,2,0,L|206:293,1,125,2|0,0:0|0:0,0:0:0:0:
509,127,142791,22,0,B|404:221|404:221|358:227|358:227|347:272|347:272|214:392,2,400,6|2|2,0:0|0:0|0:0,0:0:0:0:
512,382,143791,1,0,0:0:0:0:
512,382,143891,2,0,L|410:288,1,125,2|0,0:0|0:0,0:0:0:0:
189,74,144091,1,0,0:0:0:0:
189,74,144191,2,0,L|291:168,1,125,2|0,0:0|0:0,0:0:0:0:
506,344,144391,22,0,B|373:220|373:220|341:221|341:221|309:222|309:222|177:99,2,400,6|2|2,0:0|0:0|0:0,0:0:0:0:
342,139,145391,1,0,0:0:0:0:
342,139,145491,2,0,L|240:45,1,125,2|0,0:0|0:0,0:0:0:0:
335,300,145691,1,0,0:0:0:0:
335,300,145791,2,0,L|437:394,1,125,2|0,0:0|0:0,0:0:0:0:
424,109,145991,22,0,P|272:67|299:222,1,375,6|0,0:0|0:0,0:0:0:0:
512,229,146391,2,0,B|421:226|333:132|333:132|348:260|291:331,1,412.500003933907,2|0,0:0|0:0,0:0:0:0:
35,178,146791,2,0,B|101:176|166:107|166:107|155:201|197:253,1,300.000011444092,2|0,0:0|0:0,0:0:0:0:
305,51,147091,2,0,B|272:60|250:102|250:102|243:56|216:36,1,150.000005722046,2|0,0:0|0:0,0:0:0:0:
102,257,147291,1,0,0:0:0:0:
102,257,147391,2,0,P|79:286|66:321,1,75.0000028610231,2|0,0:0|0:0,0:0:0:0:
448,165,147591,22,0,P|253:177|118:318,2,400,6|2|2,0:0|0:0|0:0,0:0:0:0:
234,384,148591,1,0,0:0:0:0:
234,384,148691,2,0,P|236:323|295:243,1,125,2|0,0:0|0:0,0:0:0:0:
512,37,148891,1,0,0:0:0:0:
512,37,148991,2,0,P|458:65|359:54,1,125,2|0,0:0|0:0,0:0:0:0:
150,53,149191,22,0,B|314:62|314:62|225:198|225:198|189:132,2,400,6|2|2,0:0|0:0|0:0,0:0:0:0:
305,225,150191,1,0,0:0:0:0:
305,225,150291,2,0,L|374:118,1,125,2|0,0:0|0:0,0:0:0:0:
106,123,150491,1,0,0:0:0:0:
106,123,150590,2,0,L|37:227,1,125,2|0,0:0|0:0,0:0:0:0:
185,364,150791,22,0,B|328:364|328:364|240:275|240:275|108:275,2,400,6|2|2,0:0|0:0|0:0,0:0:0:0:
16,239,151791,22,0,P|35:208|66:188,1,75.0000028610231,8|0,0:0|0:0,0:0:0:0:
59,82,151991,2,0,P|94:73|130:81,1,75.0000028610231,8|0,0:0|0:0,0:0:0:0:
200,2,152191,2,0,P|231:21|251:52,1,75.0000028610231,10|0,0:0|0:0,0:0:0:0:
335,165,152391,5,10,0:0:0:0:
145,160,152491,2,0,L|150:122,1,37.5000014305115,10|0,0:0|0:0,0:0:0:0:
227,240,152691,5,10,0:0:0:0:
288,60,152791,2,0,L|251:52,1,37.5000014305115,10|0,0:0|3:0,3:0:0:0:
103,31,152991,21,10,0:0:0:0:
103,31,153091,1,10,0:0:0:0:
103,31,153191,1,8,0:0:0:0:
33,56,153291,1,8,0:0:0:0:
18,129,153391,1,8,0:0:0:0:
120,192,153591,38,0,B|127:208|127:208|139:203|139:203|131:187,1,50,8|0,0:0|0:0,0:0:0:0:
133,293,153991,70,0,B|113:355|113:355|263:287|263:287|190:251,1,300,6|0,0:0|0:0,0:0:0:0:
200,255,154391,2,0,B|263:287|263:287|113:355|113:355|133:293,1,300,2|0,0:0|0:0,0:0:0:0:
66,37,154791,1,8,0:0:0:0:
329,215,154991,6,0,L|214:167,1,125,8|0,0:0|0:0,0:0:0:0:
85,95,155191,2,0,L|132:210,1,125,8|0,0:0|0:0,0:0:0:0:
0,353,155391,2,0,L|47:238,1,125,10|0,0:0|0:0,0:0:0:0:
189,55,155591,6,0,L|181:78,1,25,8|0,0:0|0:0,0:0:0:0:
289,41,155791,2,0,L|281:64,1,25,8|0,0:0|0:0,0:0:0:0:
389,27,155991,2,0,L|381:50,1,25,8|0,0:0|0:0,0:0:0:0:
489,13,156191,21,10,0:0:0:0:
89,69,156391,1,8,0:0:0:0:
451,132,156591,22,0,L|489:13,1,125,8|0,0:0|0:0,0:0:0:0:
251,160,156791,2,0,L|289:41,1,125,8|0,0:0|0:0,0:0:0:0:
51,188,156991,2,0,L|89:69,1,125,8|0,0:0|0:0,0:0:0:0:
341,178,157191,6,0,P|226:248|164:130,1,300,6|0,0:0|0:0,0:0:0:0:
164,130,157591,2,0,P|226:248|341:176,1,300,2|0,0:0|0:0,0:0:0:0:
200,347,157991,1,8,0:0:0:0:
7,178,158191,6,0,L|101:259,1,125,8|0,0:0|0:0,0:0:0:0:
255,128,158391,2,0,L|222:248,1,125,8|0,0:0|0:0,0:0:0:0:
453,298,158591,2,0,L|330:321,1,125,8|0,0:0|0:0,0:0:0:0:
206,62,158791,22,0,P|276:45|329:94,1,150.000005722046,12|0,0:0|0:0,0:0:0:0:
223,248,158991,2,0,L|230:220,1,25,8|0,0:0|0:0,0:0:0:0:
202,47,159191,22,0,P|279:29|338:82,1,165.000001573563,12|0,0:0|0:0,0:0:0:0:
223,248,159391,2,0,L|230:220,1,25,8|0,0:0|0:0,0:0:0:0:
199,34,159591,6,0,P|283:15|348:72,1,179.999994506836,12|0,0:0|0:0,0:0:0:0:
223,248,159791,2,0,L|230:220,1,25,8|0,0:0|0:0,0:0:0:0:
262,103,159991,6,0,L|219:257,1,150,12|0,0:0|0:0,0:0:0:0:
80,369,160391,22,0,P|222:330|358:384,1,300,6|0,0:0|0:0,0:0:0:0:
358,384,160791,2,0,P|222:330|80:369,1,300,2|0,0:0|0:0,0:0:0:0:
1,191,161191,1,0,0:0:0:0:
298,264,161391,22,0,L|422:254,1,125,8|0,0:0|0:0,0:0:0:0:
168,243,161592,2,0,L|271:172,1,125,8|0,0:0|0:0,0:0:0:0:
45,289,161791,2,0,L|99:177,1,125,10|0,0:0|0:0,0:0:0:0:
184,0,161991,6,0,L|167:41,1,25,8|0,0:0|0:0,0:0:0:0:
352,32,162191,2,0,L|324:-3,1,25,8|0,0:0|0:0,0:0:0:0:
240,161,162391,2,0,L|284:155,1,25,8|0,0:0|0:0,0:0:0:0:
443,133,162591,5,10,0:0:0:0:
77,188,162791,1,8,0:0:0:0:
184,364,162991,22,0,L|165:228,1,125,8|0,0:0|0:0,0:0:0:0:
283,361,163191,2,0,L|264:225,1,125,8|0,0:0|0:0,0:0:0:0:
380,336,163391,2,0,L|362:212,1,125,8|0,0:0|0:0,0:0:0:0:
322,20,163591,22,0,B|268:57|251:148|251:148|210:65|149:45,1,300,6|0,0:0|0:0,0:0:0:0:
149,45,163991,2,0,B|210:65|251:148|251:148|268:57|322:20,1,300,2|0,0:0|0:0,0:0:0:0:
266,237,164391,1,8,0:0:0:0:
471,191,164591,6,0,L|388:211,1,75.0000028610231,8|0,0:0|0:0,0:0:0:0:
318,327,164791,2,0,L|401:307,1,75.0000028610231,8|0,0:0|0:0,0:0:0:0:
266,237,164991,2,0,L|193:254,1,75.0000028610231,10|0,0:0|0:0,0:0:0:0:
211,162,165191,5,8,0:0:0:0:
299,142,165291,1,8,0:0:0:0:
388,124,165391,1,8,0:0:0:0:
477,106,165491,1,8,0:0:0:0:
471,191,165591,2,8,L|388:211,1,75.0000028610231,8|0,0:0|0:0,0:0:0:0:
251,242,165791,21,8,0:0:0:0:
214,251,165891,1,8,0:0:0:0:
178,259,165991,1,8,0:0:0:0:
131,176,166091,1,8,0:0:0:0:
141,80,166191,1,8,0:0:0:0:
291,118,166391,70,0,B|324:110|324:110|330:133|330:133|299:142,1,89.9999972534181,12|0,0:0|0:0,0:0:0:0:
204,164,166791,1,0,0:0:0:0:
256,192,171591,12,0,172791,0:0:0:0:
204,164,173191,6,0,B|189:97|243:7|243:7|266:169|325:248|383:313|491:337|491:337|409:367|335:367|239:338|239:338|291:302|260:228|195:241|178:280|178:280|185:224|128:200|75:237|94:289|94:289|39:251|-14:299|6:377|77:365,1,1400,4|0,0:0|0:0,0:0:0:0:
222,177,179591,22,0,B|195:106|47:46|-41:211|-15:295|78:345|78:345|235:191|466:12|466:12|444:90|463:138|463:138|510:251|372:272|372:272|433:224|405:160,1,1400,4|0,0:0|0:0,0:0:0:0:
91,105,185991,5,0,0:0:0:0:
256,192,186016,12,0,191591,0:0:0:0:
256,192,192391,12,14,197191,0:0:0:0:
347,134,198391,69,12,0:0:0:0:
438,9,198791,38,0,L|433:128,1,119.999996337891,12|0,0:0|0:0,0:0:0:0:
353,15,199191,2,0,L|348:134,1,119.999996337891,0|0,0:0|0:0,0:0:0:0:
268,21,199591,2,0,L|263:140,1,119.999996337891,8|0,0:0|0:0,0:0:0:0:
112,160,199991,2,0,L|179:153,1,59.9999981689454,8|0,0:0|0:0,0:0:0:0:
400,224,200191,2,0,L|333:231,1,59.9999981689454,8|0,0:0|0:0,0:0:0:0:
244,363,200391,22,0,L|249:244,1,119.999996337891,12|0,0:0|0:0,0:0:0:0:
159,369,200791,2,0,L|164:250,1,119.999996337891
74,375,201191,2,0,L|86:86,1,239.999992675781,8|0,0:0|0:0,0:0:0:0:
187,98,201791,70,0,L|255:82,1,69.9999978637696,8|0,0:0|0:0,0:0:0:0:
92,120,201991,70,0,L|30:58,1,69.9999978637696,12|0,0:0|0:0,0:0:0:0:
161,198,202190,2,0,P|59:222|59:222,1,69.9999978637696,8|0,0:0|0:0,0:0:0:0:
269,178,202391,2,0,L|206:409,1,209.999993591309
404,297,202791,2,0,L|354:247,1,69.9999978637696,8|0,0:0|0:0,0:0:0:0:
512,196,202991,2,0,L|453:213,1,69.9999978637696,0|0,0:0|0:0,0:0:0:0:
330,100,203191,2,0,L|379:148,1,69.9999978637696,8|0,0:0|0:0,0:0:0:0:
255,81,203391,2,0,L|187:97,1,69.9999978637696,0|0,0:0|0:0,0:0:0:0:
218,370,203591,22,8,L|270:177,2,200,12|0|0,0:0|0:0|0:0,0:0:0:0:
148,302,204591,5,8,0:0:0:0:
314,347,204791,1,8,0:0:0:0:
458,332,205191,38,0,L|453:213,1,119.999996337891,12|0,0:0|0:0,0:0:0:0:
314,347,205591,2,0,L|309:228,1,119.999996337891
373,39,205991,2,0,L|378:158,1,119.999996337891,8|0,0:0|0:0,0:0:0:0:
462,65,206391,2,0,L|463:124,1,59.9999981689454,8|0,0:0|0:0,0:0:0:0:
288,132,206591,2,0,L|287:71,1,59.9999981689454,8|0,0:0|0:0,0:0:0:0:
102,44,206791,22,0,B|134:79|134:79|111:251,1,209.999993591309,12|0,0:0|0:0,0:0:0:0:
196,326,207191,2,0,B|228:290|228:290|205:118,1,209.999993591309,8|0,0:0|0:0,0:0:0:0:
36,114,207591,2,0,L|25:198,1,59.9999981689454,8|0,0:0|0:0,0:0:0:0:
129,249,207791,2,0,L|116:152,1,59.9999981689454,8|0,0:0|0:0,0:0:0:0:
19,21,207991,2,0,L|0:159,1,119.999996337891,8|0,0:0|0:0,0:0:0:0:
206,46,208391,54,0,B|170:54|170:54|144:75,1,59.9999981689454,12|0,0:0|0:0,0:0:0:0:
322,14,208591,2,0,B|356:3|356:3|389:9,1,59.9999981689454,0|0,0:0|0:0,0:0:0:0:
216,132,208791,2,0,L|195:198,1,59.9999981689454,8|0,0:0|0:0,0:0:0:0:
358,90,208991,2,0,L|409:137,1,59.9999981689454,0|0,0:0|0:0,0:0:0:0:
352,353,209191,22,0,L|297:150,1,179.999994506836,8|0,0:0|0:0,0:0:0:0:
494,172,209591,2,0,P|473:199|442:215,1,59.9999981689454
204,284,209791,2,0,P|169:285|137:271,1,59.9999981689454
365,122,209991,2,0,P|316:217|224:163,1,239.999992675781,12|0,0:0|0:0,0:0:0:0:
251,5,210591,1,8,0:0:0:0:
418,243,210791,2,0,P|345:294|256:296,1,179.999994506836,8|0,0:0|0:0,0:0:0:0:
109,240,211191,70,0,B|207:248|207:248|287:220,1,179.999994506836,14|0,0:0|0:0,0:0:0:0:
269,54,211591,70,0,L|302:189,1,139.999995727539,14|0,0:0|0:0,0:0:0:0:
362,249,211891,1,8,0:0:0:0:
445,247,211991,2,0,P|380:268|359:332,1,139.999995727539,2|0,0:0|0:0,0:0:0:0:
441,356,212291,1,8,0:0:0:0:
512,312,212391,2,0,P|474:255|407:251,1,139.999995727539,2|0,0:0|0:0,0:0:0:0:
368,176,212691,1,8,0:0:0:0:
341,96,212791,2,0,P|354:59|386:37,1,69.9999978637696,2|0,0:0|0:0,0:0:0:0:
504,142,212991,2,0,P|484:176|449:192,1,69.9999978637696,8|0,0:0|0:0,0:0:0:0:
505,2,213191,38,0,L|418:121,1,139.999995727539,14|0,0:0|0:0,0:0:0:0:
342,139,213491,1,8,0:0:0:0:
268,179,213591,2,0,B|191:183|191:183|162:239,1,139.999995727539,2|0,0:0|0:0,0:0:0:0:
246,261,213891,1,8,0:0:0:0:
327,242,213991,2,0,B|286:178|286:178|222:181,1,139.999995727539,2|0,0:0|0:0,0:0:0:0:
182,106,214291,1,0,0:0:0:0:
182,106,214391,1,0,0:0:0:0:
182,106,214491,1,0,0:0:0:0:
182,106,214591,2,0,L|252:98,1,69.9999978637696,8|0,0:0|0:0,0:0:0:0:
269,16,214791,70,0,L|129:29,1,139.999995727539,14|0,0:0|0:0,0:0:0:0:
70,88,215091,1,8,0:0:0:0:
29,160,215191,2,0,L|42:299,1,139.999995727539,2|0,0:0|0:0,0:0:0:0:
114,340,215491,1,8,0:0:0:0:
195,362,215591,2,0,P|197:327|182:295,1,69.9999978637696,2|0,0:0|0:0,0:0:0:0:
116,165,215791,2,0,P|113:199|128:231,1,69.9999978637696,8|0,0:0|0:0,0:0:0:0:
215,360,215991,2,0,P|217:325|202:293,1,69.9999978637696,2|0,0:0|0:0,0:0:0:0:
136,162,216191,2,0,P|133:196|148:228,1,69.9999978637696,8|0,0:0|0:0,0:0:0:0:
376,201,216391,6,0,L|236:214,1,139.999995727539,14|0,0:0|0:0,0:0:0:0:
236,129,216691,1,8,0:0:0:0:
317,114,216791,2,0,B|351:102|351:102|418:113|418:113|452:102,1,139.999995727539,2|0,0:0|0:0,0:0:0:0:
506,38,217091,1,8,0:0:0:0:
423,23,217191,2,0,B|390:36|390:36|344:86|344:86|310:98,1,139.999995727539,2|0,0:0|0:0,0:0:0:0:
303,99,217491,1,0,0:0:0:0:
289,99,217591,1,0,0:0:0:0:
261,94,217691,1,0,0:0:0:0:
221,79,217791,1,0,0:0:0:0:
176,57,217891,1,0,0:0:0:0:
93,48,217991,38,0,L|108:138,1,80,14|0,0:0|0:0,0:0:0:0:
81,284,218191,2,0,L|65:201,1,80,8|0,0:0|0:0,0:0:0:0:
193,71,218391,6,0,L|212:178,1,80,10|0,0:0|0:0,0:0:0:0:
181,307,218591,2,0,L|161:205,1,80,8|0,0:0|0:0,0:0:0:0:
293,94,218791,6,0,L|307:175,1,80,10|0,0:0|0:0,0:0:0:0:
286,357,218991,2,0,L|267:261,1,80,8|0,0:0|0:0,0:0:0:0:
419,113,219191,6,0,L|390:190,1,80,10|0,0:0|0:0,0:0:0:0:
160,338,219391,2,0,L|188:260,1,80,8|0,0:0|0:0,0:0:0:0:
499,255,219591,38,0,L|418:269,1,80,10|0,0:0|0:0,0:0:0:0:
80,196,219791,2,0,L|161:182,1,80,8|0,0:0|0:0,0:0:0:0:
488,283,219991,6,0,L|407:297,1,80,10|0,0:0|0:0,0:0:0:0:
69,224,220191,2,0,L|150:210,1,80,8|0,0:0|0:0,0:0:0:0:
273,201,220391,5,14,0:0:0:0:
304,208,220591,37,10,0:0:0:0:
281,176,220691,1,8,0:0:0:0:
242,188,220791,1,8,0:0:0:0:
242,228,220891,1,8,0:0:0:0:
281,241,220991,1,8,0:0:0:0:
304,208,221091,1,8,0:0:0:0:
391,115,221191,21,10,0:0:0:0:
418,190,221291,1,8,0:0:0:0:
410,269,221391,1,8,0:0:0:0:
370,338,221491,1,8,0:0:0:0:
161,309,221591,21,10,0:0:0:0:
129,253,221691,1,8,0:0:0:0:
124,191,221791,1,8,0:0:0:0:
138,130,221891,1,8,0:0:0:0:
317,148,221991,5,10,0:0:0:0:
335,197,222091,1,8,0:0:0:0:
330,248,222191,1,8,0:0:0:0:
310,296,222291,1,8,0:0:0:0:
226,263,222391,5,10,0:0:0:0:
209,228,222491,1,8,0:0:0:0:
210,194,222591,1,8,0:0:0:0:
216,163,222691,1,8,0:0:0:0:
300,213,222791,21,10,0:0:0:0:
68,214,222891,2,0,L|21:214,1,37.5000014305115,10|0,0:0|0:0,0:0:0:0:
320,141,223091,21,10,0:0:0:0:
119,140,223191,2,0,L|72:140,1,37.5000014305115,10|0,0:0|0:0,0:0:0:0:
377,59,223391,5,10,0:0:0:0:
377,59,223491,1,10,0:0:0:0:
377,59,223591,2,0,P|399:56|421:60,2,44.999998626709,8|0|0,0:0|0:0|0:0,0:0:0:0:
247,147,223991,6,0,B|280:176|280:176|299:135,1,89.9999972534181,8|0,0:0|0:0,0:0:0:0:
376,90,224391,22,0,B|308:166|308:166|295:209|293:267|293:267|277:211|245:178|245:178|163:132,2,400,6|2|2,0:0|0:0|0:0,0:0:0:0:
451,333,225391,22,0,P|424:267|372:242,1,125,8|0,0:0|0:0,0:0:0:0:
250,357,225591,2,0,P|320:366|368:334,1,125,8|0,0:0|0:0,0:0:0:0:
207,277,225791,2,0,P|163:333|167:390,1,125,10|0,0:0|0:0,0:0:0:0:
300,281,225991,6,0,B|283:208|228:175|176:162|176:162|228:175|273:174|306:156|351:110|351:110|335:141|338:155,2,400,6|2|2,0:0|0:0|0:0,0:0:0:0:
300,51,226991,6,0,P|260:84|170:72,1,125,8|0,0:0|0:0,0:0:0:0:
383,291,227191,2,0,P|376:230|410:179,1,125,8|0,0:0|0:0,0:0:0:0:
144,236,227391,2,0,P|192:254|227:338,1,125,10|0,0:0|0:0,0:0:0:0:
28,247,227591,22,0,B|34:205|52:187|65:170|94:148|129:145|175:162|175:162|137:151|126:143|109:135|94:118|82:98|73:63|76:36|97:-1,2,400,6|2|2,0:0|0:0|0:0,0:0:0:0:
252,126,228591,22,0,P|259:193|202:239,1,125,8|0,0:0|0:0,0:0:0:0:
418,283,228791,2,0,P|411:216|468:170,1,125,8|0,0:0|0:0,0:0:0:0:
389,13,228991,2,0,L|354:133,1,125,10|0,0:0|0:0,0:0:0:0:
222,232,229191,6,0,B|185:198|96:236|96:236|136:185|191:176|237:176|272:194|320:240,1,375,14|0,0:0|0:0,0:0:0:0:
435,321,229591,2,0,P|333:148|136:114,1,412.500003933907,10|0,0:0|0:0,0:0:0:0:
177,324,229991,2,0,B|154:322|120:309|95:275|96:236|96:236|136:185|195:169|239:173|275:196|313:215|336:254|347:279|355:320,1,450.000017166138,10|0,0:0|0:0,0:0:0:0:
512,383,230391,1,8,0:0:0:0:
512,383,230491,2,0,L|512:233,1,150.000005722046,8|0,0:0|0:0,0:0:0:0:
422,316,230791,6,0,P|275:315|402:240,2,400,6|2|2,0:0|0:0|0:0,0:0:0:0:
83,375,231791,22,0,P|142:358|202:371,1,125,8|0,0:0|0:0,0:0:0:0:
276,148,231991,2,0,P|233:193|174:212,1,125,8|0,0:0|0:0,0:0:0:0:
401,240,232191,2,0,P|415:180|456:134,1,125,8|0,0:0|0:0,0:0:0:0:
339,0,232391,22,0,B|230:66|230:66|192:128|192:128|121:134|121:134|12:203,2,400,6|2|2,0:0|0:0|0:0,0:0:0:0:
123,23,233391,2,0,L|192:127,1,125,8|0,0:0|0:0,0:0:0:0:
147,339,233591,2,0,L|201:226,1,125,8|0,0:0|0:0,0:0:0:0:
409,161,233791,2,0,L|284:168,1,125,10|0,0:0|0:0,0:0:0:0:
25,256,233991,6,0,B|101:332|201:226|201:226|179:377|299:379,2,400,6|0|0,0:0|0:0|0:0,0:0:0:0:
240,153,234991,6,0,L|272:85,1,75.0000028610231,8|0,0:0|0:0,0:0:0:0:
128,139,235191,2,0,L|95:206,1,75.0000028610231,8|0,0:0|0:0,0:0:0:0:
282,292,235391,2,0,L|314:224,1,75.0000028610231,10|0,0:0|0:0,0:0:0:0:
349,152,235591,21,10,0:0:0:0:
188,73,235691,2,0,L|155:54,1,37.5000014305115,10|0,0:0|0:0,0:0:0:0:
273,207,235891,21,10,0:0:0:0:
47,138,235991,2,0,L|10:128,1,37.5000014305115,10|0,0:0|0:0,0:0:0:0:
111,268,236191,21,10,0:0:0:0:
111,268,236291,1,10,0:0:0:0:
111,268,236391,1,8,0:0:0:0:
197,280,236491,1,8,0:0:0:0:
282,292,236591,1,8,0:0:0:0:
445,298,236791,70,0,B|461:315|461:315|439:327,1,50,8|0,0:0|0:0,0:0:0:0:
350,384,237191,38,0,L|393:87,1,300,6|0,0:0|0:0,0:0:0:0:
393,87,237591,2,0,L|350:384,1,300,2|0,0:0|0:0,0:0:0:0:
275,316,237991,22,0,B|240:280|240:280|284:257,1,100,8|0,0:0|0:0,0:0:0:0:
151,316,238191,22,0,B|140:254|140:254|175:203,1,125,8|0,0:0|0:0,0:0:0:0:
198,22,238391,2,0,B|257:38|257:38|289:92,1,125,8|0,0:0|0:0,0:0:0:0:
108,154,238591,2,0,B|71:204|71:204|10:215,1,125,10|0,0:0|0:0,0:0:0:0:
202,106,238791,22,0,L|187:126,1,25,8|0,0:0|0:0,0:0:0:0:
48,311,238991,2,0,L|62:290,1,25,8|0,0:0|0:0,0:0:0:0:
232,281,239191,2,0,L|211:266,1,25,8|0,0:0|0:0,0:0:0:0:
20,145,239391,21,10,0:0:0:0:
328,337,239591,1,8,0:0:0:0:
354,53,239791,22,0,L|459:119,1,125,8|0,0:0|0:0,0:0:0:0:
414,324,239991,2,0,L|481:217,1,125,8|0,0:0|0:0,0:0:0:0:
214,276,240191,2,0,L|320:342,1,125,8|0,0:0|0:0,0:0:0:0:
319,130,240391,22,0,B|403:182|403:182|350:267|350:267|266:214,1,300,6|0,0:0|0:0,0:0:0:0:
264,213,240791,2,0,B|350:267|350:267|403:182|403:182|319:130,1,300,2|0,0:0|0:0,0:0:0:0:
178,152,241191,22,0,B|221:128|221:128|229:78,1,100,8|0,0:0|0:0,0:0:0:0:
136,229,241391,6,0,P|98:181|102:120,1,125,8|0,0:0|0:0,0:0:0:0:
284,10,241591,2,0,P|227:-9|171:14,1,125,8|0,0:0|0:0,0:0:0:0:
259,150,241791,2,0,L|367:214,1,125,8|0,0:0|0:0,0:0:0:0:
505,322,241991,6,0,L|355:321,1,150.000005722046,12|0,0:0|0:0,0:0:0:0:
163,318,242191,2,0,L|199:317,1,25,8|0,0:0|0:0,0:0:0:0:
24,217,242391,22,0,L|173:216,1,150.000005722046,12|0,0:0|0:0,0:0:0:0:
366,213,242591,2,0,L|330:212,1,25,8|0,0:0|0:0,0:0:0:0:
505,112,242791,22,0,L|355:111,1,150.000005722046,12|0,0:0|0:0,0:0:0:0:
163,108,242991,2,0,L|199:107,1,25,8|0,0:0|0:0,0:0:0:0:
76,37,243191,6,0,P|54:108|77:178,1,150,12|0,0:0|0:0,0:0:0:0:
260,19,243591,6,0,P|256:163|136:242,1,300,6|0,0:0|0:0,0:0:0:0:
136,242,243991,2,0,P|256:163|260:19,1,300,2|0,0:0|0:0,0:0:0:0:
142,90,244391,22,0,B|133:122|156:133|156:133|183:123|177:94,1,100,8|0,0:0|0:0,0:0:0:0:
76,177,244591,22,0,P|45:229|58:288,1,125,8|0,0:0|0:0,0:0:0:0:
313,239,244791,2,0,P|260:208|201:221,1,125,8|0,0:0|0:0,0:0:0:0:
429,335,244991,2,0,P|459:282|446:223,1,125,10|0,0:0|0:0,0:0:0:0:
243,315,245191,6,0,L|246:283,1,25,8|0,0:0|0:0,0:0:0:0:
368,162,245391,2,0,L|371:130,1,25,8|0,0:0|0:0,0:0:0:0:
158,136,245591,2,0,L|161:104,1,25,8|0,0:0|0:0,0:0:0:0:
281,0,245791,5,10,0:0:0:0:
243,315,245991,1,8,0:0:0:0:
434,113,246191,22,0,P|451:171|425:226,1,125,8|0,0:0|0:0,0:0:0:0:
243,315,246391,2,0,L|258:190,1,125,8|0,0:0|0:0,0:0:0:0:
109,73,246591,2,0,P|77:125|89:185,1,125,8|0,0:0|0:0,0:0:0:0:
342,217,246791,22,0,P|270:106|170:193,1,300,6|0,0:0|0:0,0:0:0:0:
170,193,247191,2,0,P|270:106|342:217,1,300,2|0,0:0|0:0,0:0:0:0:
258,190,247591,5,8,0:0:0:0:
422,161,247791,6,0,B|413:109|413:109|375:76,1,100,8|0,0:0|0:0,0:0:0:0:
258,190,247991,2,0,B|261:229|261:229|242:260,1,75.0000028610231,8|0,0:0|0:0,0:0:0:0:
199,80,248191,2,0,B|189:56|189:56|164:34,1,50,8|0,2:0|2:0,2:0:0:0:
117,103,248391,21,8,0:0:0:0:
154,179,248491,1,8,0:0:0:0:
106,249,248591,1,8,0:0:0:0:
143,326,248691,1,8,0:0:0:0:
227,331,248791,2,0,L|276:334,1,50,8|0,0:0|0:0,0:0:0:0:
448,308,248991,21,8,0:0:0:0:
452,283,249091,1,8,0:0:0:0:
456,258,249191,1,8,0:0:0:0:
396,197,249291,1,8,0:0:0:0:
312,214,249391,1,8,0:0:0:0:
364,325,249591,5,12,0:0:0:0:
436,33,249991,6,0,L|360:338,1,300,6|0,0:0|0:0,0:0:0:0:
344,37,250991,21,0,0:0:0:0:
324,114,251191,1,0,0:0:0:0:
305,192,251391,1,0,0:0:0:0:
291,268,251591,22,0,L|96:219,1,200,4|0,0:0|0:0,0:0:0:0:
305,192,252591,21,0,0:0:0:0:
249,177,252791,1,0,0:0:0:0:
194,164,252991,1,0,0:0:0:0:
139,151,253191,22,0,L|163:53,1,100,4|0,0:0|0:0,0:0:0:0:
194,164,254191,21,0,0:0:0:0:
201,135,254391,1,0,0:0:0:0:
315,91,254591,1,0,0:0:0:0:
399,176,254791,22,0,L|380:248,1,75,4|0,0:0|0:0,0:0:0:0:
290,178,255191,2,0,L|262:287,1,112.500004291535
162,132,255591,2,0,L|181:204,1,75
62,166,255991,2,0,L|72:202,1,37.5
0,272,256391,22,0,B|41:317|115:292|115:292|154:278|208:272|246:297|277:330,1,300.000011444092,4|0,0:0|0:0,0:0:0:0:
66,208,257391,21,0,0:0:0:0:
155,196,257591,1,0,0:0:0:0:
243,210,257791,1,0,0:0:0:0:
321,255,257991,6,0,B|351:227|334:178|334:178|325:152|321:116|337:90|359:70,1,200,4|0,0:0|0:0,0:0:0:0:
408,134,258991,1,0,0:0:0:0:
421,212,259191,1,0,0:0:0:0:
399,289,259391,1,0,0:0:0:0:
286,286,259591,6,0,P|305:317|308:360,1,74.9999977111817,4|0,0:0|0:0,0:0:0:0:
175,133,260863,21,0,0:0:0:0:
355,192,261169,21,0,0:0:0:0:
175,250,261475,5,0,0:0:0:0:
286,96,261804,5,0,0:0:0:0:
256,192,261957,12,0,265630,0:0:0:0:
