osu file format v14

[General]
AudioFilename: Tell_your_world.mp3
AudioLeadIn: 1500
PreviewTime: 23930
Countdown: 0
SampleSet: Soft
StackLeniency: 0.7
Mode: 0
LetterboxInBreaks: 1
WidescreenStoryboard: 0

[Editor]
DistanceSpacing: 0.1
BeatDivisor: 4
GridSize: 4
TimelineZoom: 1

[Metadata]
Title:Tell Your World
TitleUnicode:Tell Your World
Artist:livetune feat. Hatsune Miku
ArtistUnicode:livetune feat. Hatsune Miku
Creator:Neptune
Version:Neptune
Source:
Tags:vocaloid vocaloid2 google chrome kz karenying aesopl19193
BeatmapID:1311923
BeatmapSetID:622275

[Difficulty]
HPDrainRate:8
CircleSize:4
OverallDifficulty:7
ApproachRate:8
SliderMultiplier:1.095
SliderTickRate:2

[Events]
//Background and Video events
0,0,"original_couple_anime_earth_red_hair_blonde_love_space_girl_boy_2836x2024 (1).jpg",0,0
//Break Periods
//Storyboard Layer 0 (Background)
//Storyboard Layer 1 (Fail)
//Storyboard Layer 2 (Pass)
//Storyboard Layer 3 (Foreground)
//Storyboard Sound Samples

[TimingPoints]
1026,400,4,2,1,45,1,0
1126,-100,4,2,2,45,0,0
8826,-200,4,2,1,45,0,0
9826,-66.6666666666667,4,2,1,45,0,0
10526,-66.6666666666667,4,2,1,55,0,0
22726,-66.6666666666667,4,2,1,5,0,0
23926,-66.6666666666667,4,2,1,90,0,0
24626,-50,4,2,2,90,0,0
24726,-50,4,2,1,90,0,0
25026,-50,4,2,1,90,0,1
37026,-50,4,1,2,45,0,1
37726,-50,4,2,1,100,0,0
37826,-50,4,2,1,90,0,1
50626,-66.6666666666667,4,2,1,35,0,0
50826,-50,4,2,1,35,0,0
51026,-50,4,2,1,30,0,0
51626,-50,4,2,1,25,0,0
51826,-50,4,2,1,30,0,0
52026,-50,4,2,1,20,0,0
52426,-50,4,2,1,25,0,0
52626,-50,4,2,1,30,0,0
52826,-50,4,2,1,20,0,0
53126,-50,4,2,1,35,0,0
53426,-50,4,2,1,30,0,0
53626,-50,4,2,1,20,0,0
53826,-66.6666666666667,4,2,1,30,0,0
54026,-100,4,2,1,25,0,0
54226,-66.6666666666667,4,2,1,35,0,0
54426,-100,4,2,1,25,0,0
54826,-100,4,2,1,25,0,0
55026,-100,4,2,1,30,0,0
55226,-100,4,2,1,25,0,0
56426,-100,4,2,1,30,0,0
56526,-133.333333333333,4,2,1,5,0,0

[Colours]
Combo1 : 255,151,203
Combo2 : 112,235,228
Combo3 : 204,130,253
Combo4 : 255,255,255

[HitObjects]
96,48,1026,5,0,0:0:0:0:
160,108,1226,1,0,0:0:0:0:
76,132,1426,1,0,0:0:0:0:
72,208,1626,2,0,B|52:272|96:320,1,109.5
160,352,2226,1,0,0:0:0:0:
220,288,2426,1,0,0:0:0:0:
408,264,2826,5,0,0:0:0:0:
328,264,3026,1,0,0:0:0:0:
328,184,3226,2,0,B|332:120|284:132|288:80,1,109.5
204,84,3826,1,0,0:0:0:0:
120,84,4026,1,0,0:0:0:0:
80,152,4226,2,0,B|24:180|24:248,2,109.5
328,188,5226,5,0,0:0:0:0:
224,188,5426,1,0,0:0:0:0:
276,280,5626,1,0,0:0:0:0:
400,268,5826,1,0,0:0:0:0:
280,88,6026,1,0,0:0:0:0:
176,268,6226,1,0,0:0:0:0:
144,100,6426,6,0,B|100:144|116:216,1,109.5
116,296,7026,2,0,B|196:232|260:376|316:232|400:312,1,273.75
432,228,8226,1,0,0:0:0:0:
388,152,8426,1,0,0:0:0:0:
304,148,8626,2,0,B|192:148,2,109.5
96,220,9826,5,0,0:0:0:0:
192,320,10026,1,0,0:0:0:0:
96,220,10226,1,0,0:0:0:0:
96,120,10426,2,0,B|148:60|284:28,1,205.312507832051
292,76,11026,1,0,0:0:0:0:
292,172,11226,1,0,0:0:0:0:
296,264,11426,2,0,B|380:260|440:192,2,164.250006265641
200,140,12626,5,0,0:0:0:0:
136,232,12826,1,0,0:0:0:0:
244,236,13026,1,0,0:0:0:0:
244,236,13126,1,0,0:0:0:0:
244,236,13226,1,0,0:0:0:0:
316,152,13426,2,0,B|360:172|372:232,1,82.1250031328203
472,196,13826,2,0,B|452:116|376:68,1,164.250006265641
284,64,14426,1,0,0:0:0:0:
152,64,14826,6,0,B|120:112|104:76|96:144,1,82.1250031328203
96,208,15226,1,0,0:0:0:0:
96,296,15426,2,0,B|152:280|208:340|252:256,1,164.250006265641
340,280,16026,1,0,0:0:0:0:
336,108,16226,6,0,B|336:200,1,82.1250031328203
244,156,16626,1,0,0:0:0:0:
156,172,16826,2,0,B|156:356,1,164.250006265641
248,332,17426,2,0,B|344:324|396:240,1,164.250006265641
408,92,18226,5,0,0:0:0:0:
336,160,18426,1,0,0:0:0:0:
244,140,18626,2,0,B|192:140|192:212,1,82.1250031328203
104,224,19026,2,0,B|60:224|60:164,1,82.1250031328203
48,80,19426,2,0,B|212:48,2,164.250006265641
76,180,20426,6,0,B|76:356,1,164.250006265641
416,312,21026,2,0,B|416:132,1,164.250006265641
256,320,21826,1,0,0:0:0:0:
252,180,22226,1,0,0:0:0:0:
252,48,22626,1,0,0:0:0:0:
256,192,22826,12,0,23826,0:0:0:0:
176,236,24026,5,0,0:0:0:0:
256,112,24226,1,0,0:0:0:0:
332,240,24426,1,0,0:0:0:0:
320,336,24626,2,0,B|188:336,1,109.5
188,160,25026,2,0,B|356:160,1,164.25
392,160,25426,5,0,0:0:0:0:
312,44,25626,1,0,0:0:0:0:
188,44,25826,1,0,0:0:0:0:
116,160,26026,1,0,0:0:0:0:
260,160,26226,1,0,0:0:0:0:
260,248,26426,1,0,0:0:0:0:
260,292,26526,1,0,0:0:0:0:
260,336,26626,1,0,0:0:0:0:
352,336,26826,1,0,0:0:0:0:
300,172,27026,5,0,0:0:0:0:
200,72,27226,1,0,0:0:0:0:
324,72,27426,1,0,0:0:0:0:
204,168,27626,2,0,B|140:168|92:208,2,109.5
212,260,28226,6,0,B|296:264|392:212,1,164.25
376,184,28626,1,0,0:0:0:0:
384,324,28826,1,0,0:0:0:0:
264,328,29026,1,0,0:0:0:0:
256,184,29226,1,0,0:0:0:0:
256,184,29326,1,0,0:0:0:0:
256,184,29426,1,0,0:0:0:0:
160,180,29626,2,0,B|88:220|104:328,1,164.25
140,332,30026,2,0,B|260:332,2,109.5
120,152,30626,6,0,B|168:100|244:80,1,109.5
216,208,31026,2,0,B|264:172|312:156,1,109.5
420,152,31426,2,0,B|420:296|268:292,1,219
252,292,31926,1,0,0:0:0:0:
204,292,32026,1,0,0:0:0:0:
116,184,32226,5,0,0:0:0:0:
196,100,32426,1,0,0:0:0:0:
288,184,32626,1,0,0:0:0:0:
364,96,32826,1,0,0:0:0:0:
432,192,33026,2,0,B|432:344,2,109.5,0|0|0,0:0|0:0|0:0,0:0:0:0:
304,304,33626,6,0,B|240:304|208:252,1,109.5
192,168,34026,2,0,B|120:168|92:236,1,109.5
316,204,34426,2,0,B|312:140|248:100,1,109.5
432,204,34826,1,0,0:0:0:0:
432,204,34926,1,0,0:0:0:0:
432,204,35026,1,0,0:0:0:0:
456,100,35226,2,0,B|344:100,1,109.5
248,100,35626,5,0,0:0:0:0:
184,188,35826,1,0,0:0:0:0:
248,272,36026,1,0,0:0:0:0:
320,192,36226,1,0,0:0:0:0:
40,192,36626,1,8,0:0:0:0:
464,188,37026,1,8,0:0:0:0:
248,28,37426,1,8,0:0:0:0:
248,140,37826,6,0,B|248:312,1,164.25
208,304,38226,1,0,0:0:0:0:
48,184,38426,1,0,0:0:0:0:
248,184,38626,1,0,0:0:0:0:
92,304,38826,1,0,0:0:0:0:
152,104,39026,1,0,0:0:0:0:
428,80,39226,6,0,B|320:64|224:104,1,164.25
264,140,39626,1,0,0:0:0:0:
352,272,39826,1,0,0:0:0:0:
432,144,40026,1,0,0:0:0:0:
432,144,40126,1,0,0:0:0:0:
432,144,40226,1,0,0:0:0:0:
436,248,40426,2,0,B|444:316|388:352,2,109.5
336,216,41026,2,0,B|112:216,1,219
252,64,41626,6,0,B|252:176,1,109.5
112,284,42026,2,0,B|164:188,1,109.5
208,328,42426,2,0,B|268:332|300:272,2,109.5
256,208,43026,1,0,0:0:0:0:
256,104,43226,1,0,0:0:0:0:
168,156,43426,1,0,0:0:0:0:
344,156,43626,1,0,0:0:0:0:
344,156,43726,1,0,0:0:0:0:
344,156,43826,1,0,0:0:0:0:
424,248,44026,5,0,0:0:0:0:
344,304,44226,2,0,B|288:304,2,54.75
200,240,44626,2,0,B|128:224,2,54.75
120,120,45026,2,0,B|120:60,2,54.75
220,64,45426,1,0,0:0:0:0:
324,104,45626,1,0,0:0:0:0:
420,156,45826,2,0,B|420:268,1,109.5
328,240,46226,2,0,B|260:332,1,109.5
240,192,46626,2,0,B|120:192,1,109.5
72,272,47026,5,0,0:0:0:0:
112,296,47126,1,0,0:0:0:0:
160,312,47226,1,0,0:0:0:0:
208,320,47326,1,0,0:0:0:0:
256,320,47426,1,0,0:0:0:0:
304,312,47526,1,0,0:0:0:0:
348,300,47626,1,0,0:0:0:0:
392,276,47726,1,0,0:0:0:0:
432,244,47826,1,0,0:0:0:0:
424,136,48026,5,0,0:0:0:0:
352,36,48226,1,0,0:0:0:0:
244,96,48426,1,0,0:0:0:0:
308,200,48626,1,0,0:0:0:0:
64,136,48826,5,0,0:0:0:0:
136,36,49026,1,0,0:0:0:0:
244,96,49226,1,0,0:0:0:0:
180,200,49426,1,0,0:0:0:0:
256,320,49626,5,0,0:0:0:0:
256,220,49826,1,0,0:0:0:0:
352,256,50026,2,0,B|420:256|460:208,1,109.5
436,132,50426,2,0,B|400:80|348:56,1,109.5
296,56,50826,5,0,0:0:0:0:
232,56,51026,1,0,0:0:0:0:
168,56,51226,1,0,0:0:0:0:
104,180,51626,6,0,B|104:296,2,109.5
204,288,52226,1,0,0:0:0:0:
248,196,52426,1,0,0:0:0:0:
300,288,52626,1,0,0:0:0:0:
300,288,52826,1,0,0:0:0:0:
388,288,53026,2,0,B|388:176,1,109.5
392,120,53426,5,0,0:0:0:0:
344,76,53626,1,0,0:0:0:0:
284,52,53826,1,0,0:0:0:0:
272,112,54026,1,0,0:0:0:0:
216,116,54226,1,0,0:0:0:0:
168,88,54426,1,0,0:0:0:0:
144,256,54826,6,0,B|144:192,1,54.75
296,256,55226,2,0,B|228:256,1,54.75
256,68,55826,5,0,0:0:0:0:
256,156,56226,1,0,0:0:0:0:
280,188,56426,1,0,0:0:0:0:
256,192,56626,12,0,58626,0:0:0:0:
