osu file format v14

[General]
AudioFilename: audio.mp3
AudioLeadIn: 0
PreviewTime: 24026
Countdown: 0
SampleSet: Soft
StackLeniency: 0.7
Mode: 2
LetterboxInBreaks: 0
WidescreenStoryboard: 0

[Editor]
Bookmarks: 10626,15226,20226,25026,28226,31426,34626,37826,41026,44226,47426
DistanceSpacing: 0.6
BeatDivisor: 4
GridSize: 8
TimelineZoom: 1

[Metadata]
Title:Tell Your World
TitleUnicode:Tell Your World
Artist:livetune feat. Hatsune Miku
ArtistUnicode:livetune feat. 初音ミク
Creator:-Sh1n1-
Version:Platter
Source:
Tags:Electropop EP Daison-P RE-NDZ 初音未来 vocaloid vocaloid2 kz Nicovideo chrome shini xinely
BeatmapID:1281912
BeatmapSetID:606859

[Difficulty]
HPDrainRate:5
CircleSize:4
OverallDifficulty:7.6
ApproachRate:7.6
SliderMultiplier:1.4
SliderTickRate:2

[Events]
//Background and Video events
0,0,"MikuBG.jpg",0,0
Video,0,"video.avi"
//Break Periods
//Storyboard Layer 0 (Background)
//Storyboard Layer 1 (Fail)
//Storyboard Layer 2 (Pass)
//Storyboard Layer 3 (Foreground)
//Storyboard Sound Samples

[TimingPoints]
1026,400,4,2,97,40,1,0
10626,-100,4,2,1,60,0,0
13826,-100,4,2,38,60,0,0
14026,-100,4,2,1,60,0,0
18026,-100,4,2,38,60,0,0
18226,-100,4,2,1,60,0,0
20226,-100,4,2,38,60,0,0
20426,-100,4,2,1,60,0,0
21826,-100,4,2,38,50,0,0
23526,-100,4,2,1,60,0,0
24626,-100,4,2,1,70,0,0
25026,-100,4,2,1,70,0,1
37726,-100,4,2,1,70,0,0
37826,-100,4,2,1,70,0,1
50626,-100,4,2,97,40,0,0
58426,-100,4,2,97,20,0,0

[Colours]
Combo1 : 128,128,255
Combo2 : 145,236,197
Combo3 : 255,255,128
Combo4 : 255,128,255

[HitObjects]
194,313,1026,5,8,0:0:0:0:
131,292,1226,1,0,0:0:0:0:
131,226,1426,1,0,0:0:0:0:
192,204,1626,1,0,0:0:0:0:
297,212,1826,2,0,L|264:278,1,70,2|0,0:0|0:0,0:0:0:0:
160,106,2226,2,0,L|193:40,1,70
374,277,2626,6,0,P|422:241|367:202,1,140,2|0,0:0|0:0,0:0:0:0:
270,158,3226,1,0,0:0:0:0:
165,134,3426,2,0,B|226:83,1,70,2|0,0:0|0:0,0:0:0:0:
324,70,3826,2,0,B|263:19,1,70,2|0,0:0|0:0,0:0:0:0:
87,191,4226,5,8,0:0:0:0:
24,170,4426,1,0,0:0:0:0:
24,104,4626,1,0,0:0:0:0:
85,82,4826,1,0,0:0:0:0:
190,82,5026,2,0,L|284:82,2,70,2|0|0,0:0|0:0|0:0,0:0:0:0:
372,117,5626,6,0,P|417:72|367:39,1,140
263,191,6226,2,0,L|191:191,1,70,0|0,0:0|0:0,0:0:0:0:
88,266,6626,2,0,L|13:265,2,70,2|0|2,0:0|0:0|0:0,0:0:0:0:
410,299,7426,6,0,P|460:270|399:238,1,140,8|0,0:0|0:0,0:0:0:0:
265,168,8026,2,0,B|227:178|227:178|157:168,2,105
371,102,8826,1,0,0:0:0:0:
189,233,9026,6,0,P|122:175|193:104,1,210,4|0,0:0|0:0,0:0:0:0:
296,149,9826,2,0,L|317:75,1,70,0|0,0:0|0:0,0:0:0:0:
420,102,10226,2,0,L|441:28,1,70,0|0,0:0|0:0,0:0:0:0:
179,43,10626,5,2,0:0:0:0:
117,66,10826,1,0,0:0:0:0:
117,132,11026,1,4,0:0:0:0:
178,157,11226,1,0,0:0:0:0:
360,152,11426,2,0,P|408:115|350:86,1,140,4|0,0:0|0:0,0:0:0:0:
253,303,12026,1,4,0:0:0:0:
148,290,12226,6,0,L|110:230,1,70
237,173,12626,2,0,L|275:113,1,70,4|0,0:0|0:0,0:0:0:0:
92,35,13026,2,0,L|21:35,2,70,4|0|0,0:0|0:0|0:0,0:0:0:0:
176,36,13626,1,4,0:0:0:0:
302,125,13826,6,0,B|272:200,1,70,8|0,0:0|0:0,0:0:0:0:
150,181,14226,2,0,B|120:256,1,70,4|0,0:0|0:0,0:0:0:0:
250,125,14626,2,0,B|280:200,1,70,4|0,0:0|0:0,0:0:0:0:
171,323,15026,1,0,0:0:0:0:
439,309,15226,6,0,P|486:261|434:230,1,140,4|0,0:0|0:0,0:0:0:0:
314,149,15826,2,0,L|289:81,1,70,4|0,0:0|0:0,0:0:0:0:
416,146,16226,2,0,B|446:71,1,70,4|0,0:0|0:0,0:0:0:0:
337,43,16626,1,0,0:0:0:0:
155,269,16826,2,0,P|107:232|165:203,1,140,4|0,0:0|0:0,0:0:0:0:
283,199,17426,6,0,L|258:131,1,70,4|0,0:0|0:0,0:0:0:0:
133,108,17826,2,0,L|158:40,1,70,4|8,0:0|0:0,0:0:0:0:
262,42,18226,1,0,0:0:0:0:
324,65,18426,1,4,0:0:0:0:
324,131,18626,1,0,0:0:0:0:
263,156,18826,1,0,0:0:0:0:
137,239,19026,6,0,L|112:307,1,70,4|0,0:0|0:0,0:0:0:0:
239,239,19426,2,0,L|264:307,1,70,4|0,0:0|0:0,0:0:0:0:
137,239,19826,2,0,L|112:307,1,70,0|4,0:0|0:0,0:0:0:0:
372,171,20226,6,0,P|420:132|357:107,1,140,8|4,0:0|0:0,0:0:0:0:
266,136,20826,1,0,0:0:0:0:
140,119,21026,2,0,L|56:119,2,70,4|0|0,0:0|0:0|0:0,0:0:0:0:
210,119,21626,1,4,0:0:0:0:
392,249,21826,6,0,B|350:261|350:261|247:250,1,140,8|0,0:0|0:0,0:0:0:0:
464,142,22626,2,0,P|512:105|455:69,1,140
128,104,23426,1,8,0:0:0:0:
330,196,24226,6,0,L|352:129,1,70
211,131,24626,2,0,L|186:60,1,70,4|0,0:0|0:0,0:0:0:0:
448,37,25026,6,0,B|507:171,1,140,2|8,0:0|0:0,0:0:0:0:
399,152,25626,1,0,0:0:0:0:
293,153,25826,2,0,L|253:214,1,70,2|8,0:0|0:0,0:0:0:0:
385,243,26226,2,0,L|425:304,1,70,8|0,0:0|0:0,0:0:0:0:
241,360,26626,6,0,P|192:328|249:293,1,140,2|8,0:0|0:0,0:0:0:0:
345,262,27226,1,0,0:0:0:0:
450,164,27426,2,0,L|378:164,1,70,2|8,0:0|0:0,0:0:0:0:
275,71,27826,1,8,0:0:0:0:
310,71,27926,1,8,0:0:0:0:
345,71,28026,1,8,0:0:0:0:
68,66,28226,6,0,P|20:103|77:138,1,140,2|8,0:0|0:0,0:0:0:0:
173,101,28826,1,0,0:0:0:0:
279,100,29026,2,0,L|319:161,1,70,2|8,0:0|0:0,0:0:0:0:
437,201,29426,2,0,L|477:262,1,70,8|0,0:0|0:0,0:0:0:0:
265,300,29826,6,0,P|216:262|262:221,1,140,2|8,0:0|0:0,0:0:0:0:
369,144,30426,1,0,0:0:0:0:
474,145,30626,2,0,L|514:84,1,70,2|0,0:0|0:0,0:0:0:0:
383,143,31026,2,0,L|345:85,1,70,8|0,0:0|0:0,0:0:0:0:
64,69,31426,6,0,P|16:106|73:141,1,140,2|8,0:0|0:0,0:0:0:0:
169,109,32026,1,0,0:0:0:0:
274,200,32226,2,0,L|204:200,1,70,2|8,0:0|0:0,0:0:0:0:
74,298,32626,2,0,L|154:298,1,70,8|0,0:0|0:0,0:0:0:0:
328,369,33026,6,0,P|376:332|319:297,1,140,2|8,0:0|0:0,0:0:0:0:
223,326,33626,1,0,0:0:0:0:
118,226,33826,2,0,L|198:226,1,70,2|0,0:0|0:0,0:0:0:0:
83,95,34226,2,0,L|35:95,2,35,8|8|8,0:0|0:0|0:0,0:0:0:0:
344,95,34626,6,0,L|433:212,1,140,2|8,0:0|0:0,0:0:0:0:
324,258,35226,1,0,0:0:0:0:
141,320,35426,2,0,L|52:203,1,140,2|8,0:0|0:0,0:0:0:0:
161,178,36026,1,0,0:0:0:0:
346,191,36226,5,2,0:0:0:0:
406,164,36426,1,0,0:0:0:0:
403,98,36626,1,2,0:0:0:0:
340,78,36826,1,0,0:0:0:0:
235,78,37026,2,0,L|195:78,2,35,2|2|2,0:0|0:0|0:0,0:0:0:0:
420,132,37426,2,0,L|492:132,1,70,4|0,0:0|0:0,0:0:0:0:
168,190,37826,6,0,L|95:309,1,140,2|8,0:0|0:0,0:0:0:0:
201,310,38426,1,0,0:0:0:0:
306,310,38626,2,0,L|346:249,1,70,2|8,0:0|0:0,0:0:0:0:
215,32,39026,2,0,L|175:93,1,70,8|0,0:0|0:0,0:0:0:0:
362,165,39426,6,0,L|434:165,2,70,2|0|8,0:0|0:0|0:0,0:0:0:0:
257,165,40026,1,0,0:0:0:0:
127,230,40226,2,0,L|208:230,1,70,2|8,0:0|0:0,0:0:0:0:
302,321,40626,1,2,0:0:0:0:
341,321,40726,1,0,0:0:0:0:
302,321,40826,1,8,0:0:0:0:
42,287,41026,6,0,P|-5:249|43:211,1,140,2|8,0:0|0:0,0:0:0:0:
149,181,41626,1,0,0:0:0:0:
255,188,41826,2,0,L|294:129,1,70,2|8,0:0|0:0,0:0:0:0:
423,118,42226,2,0,L|461:59,1,70,8|0,0:0|0:0,0:0:0:0:
279,222,42626,6,0,L|207:222,2,70,2|0|8,0:0|0:0|0:0,0:0:0:0:
384,222,43226,1,0,0:0:0:0:
254,118,43426,2,0,L|173:118,1,70,2|8,0:0|0:0,0:0:0:0:
314,43,43826,2,0,L|395:43,1,70,2|0,0:0|0:0,0:0:0:0:
118,177,44226,6,0,P|67:142|126:120,1,140,2|8,0:0|0:0,0:0:0:0:
220,65,44826,1,0,0:0:0:0:
115,65,45026,2,0,L|43:65,1,70,2|8,0:0|0:0,0:0:0:0:
175,156,45426,2,0,L|247:156,1,70,8|0,0:0|0:0,0:0:0:0:
434,247,45826,6,0,P|484:276|420:296,1,140,2|8,0:0|0:0,0:0:0:0:
329,284,46426,1,0,0:0:0:0:
224,284,46626,2,0,L|194:199,1,70,2|8,0:0|0:0,0:0:0:0:
96,155,47026,2,0,L|61:155,2,35,2|8|8,0:0|0:0|0:0,0:0:0:0:
369,120,47426,6,0,P|415:94|367:45,1,140,2|8,0:0|0:0,0:0:0:0:
263,80,48026,1,0,0:0:0:0:
158,194,48226,2,0,L|211:144,1,70,2|8,0:0|0:0,0:0:0:0:
335,263,48626,2,0,L|388:213,1,70,8|0,0:0|0:0,0:0:0:0:
203,155,49026,6,0,P|154:119|215:103,1,140,2|8,0:0|0:0,0:0:0:0:
310,31,49626,1,0,0:0:0:0:
204,215,49826,2,0,L|124:215,1,70,2|0,0:0|0:0,0:0:0:0:
264,282,50226,2,0,L|344:282,1,70,8|0,0:0|0:0,0:0:0:0:
152,348,50626,6,0,L|80:348,2,70,8|0|0,0:0|0:0|0:0,0:0:0:0:
334,364,51226,2,0,L|414:364,1,70,2|0,0:0|0:0,0:0:0:0:
299,269,51626,1,0,0:0:0:0:
404,269,51826,1,0,0:0:0:0:
222,172,52026,6,0,L|142:172,1,70,2|0,0:0|0:0,0:0:0:0:
257,77,52426,1,0,0:0:0:0:
152,77,52626,1,0,0:0:0:0:
334,364,52826,2,0,L|414:364,1,70,2|0,0:0|0:0,0:0:0:0:
299,269,53226,1,0,0:0:0:0:
404,269,53426,2,0,L|482:270,1,70,2|0,0:0|0:0,0:0:0:0:
292,163,53826,5,8,0:0:0:0:
256,192,54026,12,0,58426,0:0:0:0:
