osu file format v14

[General]
AudioFilename: audio.mp3
AudioLeadIn: 0
PreviewTime: 24026
Countdown: 0
SampleSet: Soft
StackLeniency: 0.7
Mode: 2
LetterboxInBreaks: 0
WidescreenStoryboard: 0

[Editor]
DistanceSpacing: 0.6
BeatDivisor: 4
GridSize: 8
TimelineZoom: 1

[Metadata]
Title:Tell Your World
TitleUnicode:Tell Your World
Artist:livetune feat. Hatsune Miku
ArtistUnicode:livetune feat. 初音ミク
Creator:-Sh1n1-
Version:Cup
Source:
Tags:Electropop EP Daison-P RE-NDZ 初音未来 vocaloid vocaloid2 kz Nicovideo chrome shini xinely
BeatmapID:1281911
BeatmapSetID:606859

[Difficulty]
HPDrainRate:3
CircleSize:3
OverallDifficulty:5.6
ApproachRate:5.6
SliderMultiplier:1
SliderTickRate:1

[Events]
//Background and Video events
0,0,"MikuBG.jpg",0,0
Video,0,"video.avi"
//Break Periods
//Storyboard Layer 0 (Background)
//Storyboard Layer 1 (Fail)
//Storyboard Layer 2 (Pass)
//Storyboard Layer 3 (Foreground)
//Storyboard Sound Samples

[TimingPoints]
1026,400,4,2,97,40,1,0
10626,-100,4,2,1,60,0,0
13826,-100,4,2,38,60,0,0
14026,-100,4,2,1,60,0,0
18026,-100,4,2,38,60,0,0
18226,-100,4,2,1,60,0,0
20226,-100,4,2,38,60,0,0
20426,-100,4,2,1,60,0,0
21826,-100,4,2,38,50,0,0
23526,-100,4,2,1,60,0,0
24626,-100,4,2,1,70,0,0
25026,-100,4,2,1,70,0,1
37726,-100,4,2,1,70,0,0
37826,-100,4,2,1,70,0,1
44226,-133.333333333333,4,2,1,70,0,1
46226,-100,4,2,1,70,0,1
47426,-133.333333333333,4,2,1,70,0,1
49426,-100,4,2,1,70,0,1
50626,-100,4,2,97,40,0,0
58426,-100,4,2,97,20,0,0

[Colours]
Combo1 : 128,128,255
Combo2 : 145,236,197
Combo3 : 255,255,128
Combo4 : 255,128,255

[HitObjects]
256,192,1026,6,0,B|316:216|316:216|452:192,2,200,8|2|2,0:0|0:0|0:0,0:0:0:0:
76,88,3426,2,0,P|126:85|180:88,1,100,2|2,0:0|0:0,0:0:0:0:
326,184,4226,6,0,B|188:208|188:208|126:184,2,200,8|2|2,0:0|0:0|0:0,0:0:0:0:
426,112,6226,1,0,0:0:0:0:
326,56,6626,2,0,P|274:52|222:56,1,100,2|2,0:0|0:0,0:0:0:0:
76,168,7426,6,0,B|204:192|204:192|236:168|276:168,2,200,8|0|4,0:0|0:0|0:0,0:0:0:0:
276,288,9826,2,0,L|380:288,1,100,0|0,0:0|0:0,0:0:0:0:
226,76,10626,6,0,L|122:76,1,100,2|4,0:0|0:0,0:0:0:0:
26,176,11426,2,0,L|130:176,1,100,4|0,0:0|0:0,0:0:0:0:
256,176,12226,2,0,P|327:228|246:259,1,200,0|4,0:0|0:0,0:0:0:0:
157,224,13426,1,0,0:0:0:0:
257,112,13826,6,0,L|361:112,1,100,8|4,0:0|0:0,0:0:0:0:
457,232,14626,2,0,L|357:232,1,100,4|0,0:0|0:0,0:0:0:0:
227,232,15426,2,0,L|331:40,1,200,0|4,0:0|0:0,0:0:0:0:
222,56,16626,1,0,0:0:0:0:
95,58,17026,6,0,L|0:233,1,200,0|4,0:0|0:0,0:0:0:0:
100,239,18226,1,0,0:0:0:0:
200,239,18626,2,0,B|213:259|213:259|295:238,1,100,0|4,0:0|0:0,0:0:0:0:
387,129,19426,2,0,L|286:129,1,100,4|0,0:0|0:0,0:0:0:0:
157,256,20226,6,0,B|197:240|197:240|304:272|304:272|347:256,2,200,8|4|8,0:0|0:0|0:0,0:0:0:0:
57,154,22226,1,0,0:0:0:0:
157,72,22626,2,0,B|205:64|205:64|261:72,1,100,0|0,0:0|0:0,0:0:0:0:
386,104,23426,1,8,0:0:0:0:
187,223,24226,6,0,P|237:213|286:223,1,100,0|4,0:0|0:0,0:0:0:0:
465,335,25026,6,0,P|366:355|270:334,1,200,2|2,0:0|0:0,0:0:0:0:
150,270,26226,1,8,0:0:0:0:
30,216,26626,2,0,L|97:133,1,100,2|8,0:0|0:0,0:0:0:0:
213,102,27426,2,0,L|280:19,1,100,2|8,0:0|0:0,0:0:0:0:
96,40,28226,6,0,P|25:93|101:128,1,200,2|2,0:0|0:0,0:0:0:0:
216,160,29426,1,8,0:0:0:0:
339,281,29826,2,0,P|291:290|240:281,1,100,2|8,0:0|0:0,0:0:0:0:
361,160,30626,2,0,P|409:151|460:160,1,100,2|8,0:0|0:0,0:0:0:0:
279,123,31426,6,0,P|208:71|289:40,1,200,2|2,0:0|0:0,0:0:0:0:
398,207,32626,1,8,0:0:0:0:
279,208,33026,1,2,0:0:0:0:
159,208,33426,1,8,0:0:0:0:
299,208,33826,1,2,0:0:0:0:
149,208,34226,1,8,0:0:0:0:
330,251,34626,6,0,P|401:199|320:168,1,200,2|2,0:0|0:0,0:0:0:0:
217,118,35826,1,8,0:0:0:0:
337,118,36226,2,0,L|449:118,2,100,2|2|2,0:0|0:0|0:0,0:0:0:0:
217,118,37426,1,4,0:0:0:0:
37,117,37826,6,0,P|169:233|35:347,1,400,2|2,0:0|0:0,0:0:0:0:
156,232,39826,1,8,0:0:0:0:
276,232,40226,2,0,L|376:232,1,100,2|8,0:0|0:0,0:0:0:0:
196,348,41026,6,0,P|61:233|194:118,1,400,2|2,0:0|0:0,0:0:0:0:
315,118,43026,1,8,0:0:0:0:
436,27,43426,2,0,L|336:27,1,100,2|8,0:0|0:0,0:0:0:0:
471,111,44226,6,0,L|167:115,1,300.000011444092,2|8,0:0|0:0,0:0:0:0:
291,177,46226,1,8,0:0:0:0:
411,177,46626,2,0,L|511:177,1,100,2|8,0:0|0:0,0:0:0:0:
375,257,47426,6,0,P|272:168|384:137,1,300.000011444092,2|8,0:0|0:0,0:0:0:0:
494,28,49426,2,0,L|394:28,2,100,8|2|0,0:0|0:0|0:0,0:0:0:0:
344,140,50626,6,0,L|194:140,1,150,8|2,0:0|0:0,0:0:0:0:
94,140,51626,1,0,0:0:0:0:
214,235,52026,2,0,P|285:267|206:307,1,200,2|2,0:0|0:0,0:0:0:0:
63,127,53426,5,2,0:0:0:0:
243,127,53826,1,8,0:0:0:0:
256,192,54226,12,0,58426,0:0:0:0:
