osu file format v14

[General]
AudioFilename: Satisfaction.mp3
AudioLeadIn: 0
PreviewTime: 73123
Countdown: 1
SampleSet: Soft
StackLeniency: 0.7
Mode: 0
LetterboxInBreaks: 1
WidescreenStoryboard: 0

[Editor]
Bookmarks: 13578,13805,13919,15964,36646,36759,36987,37100,37328,37555,50282,50509,50737,50850,51078,51305,51873,53237,53691,53919,54146,54373,54487,54714,54941,55509,55737,55964,56646,56873,57328,57555,57782,58009,58123,58350,58578,59146,59600,74146
DistanceSpacing: 1
BeatDivisor: 8
GridSize: 4
TimelineZoom: 1.7

[Metadata]
Title:Satisfaction
TitleUnicode:Satisfaction
Artist:livetune feat. Hatsune Miku
ArtistUnicode:livetune feat.初音ミク
Creator:Imperf3kt
Version:guaranteed!
Source:Project Diva X
Tags:
BeatmapID:1021644
BeatmapSetID:478333

[Difficulty]
HPDrainRate:7
CircleSize:5.5
OverallDifficulty:5.5
ApproachRate:9.6
SliderMultiplier:1.79999990463257
SliderTickRate:1

[Events]
//Background and Video events
0,0,"HMDJ.jpg",0,0
//Break Periods
//Storyboard Layer 0 (Background)
//Storyboard Layer 1 (Fail)
//Storyboard Layer 2 (Pass)
//Storyboard Layer 3 (Foreground)
//Storyboard Sound Samples

[TimingPoints]
1419,454.545454545455,4,2,0,100,1,0
30509,-66.6666666666667,4,1,0,100,0,1
45055,-100,4,2,0,100,0,0
103237,-66.6666666666667,4,1,0,100,0,1
117782,-100,4,2,0,100,0,0
146873,-133.333333333333,4,2,0,80,0,0
161419,-100,4,2,0,100,0,0
175964,-66.6666666666667,4,1,0,100,0,1
190509,-100,4,2,0,100,0,0

[HitObjects]
112,48,1419,5,0,0:0:0:0:
200,48,1873,1,0,0:0:0:0:
292,48,2328,1,0,0:0:0:0:
360,48,2669,1,0,0:0:0:0:
404,48,2896,2,0,L|404:92,1,44.9999976158143
448,92,3237,1,0,0:0:0:0:
256,288,3691,5,0,0:0:0:0:
164,288,4146,1,0,0:0:0:0:
164,288,4487,1,0,0:0:0:0:
120,284,4715,2,0,L|120:240,1,44.9999976158143
76,240,5055,1,0,0:0:0:0:
256,40,5509,5,0,0:0:0:0:
256,132,5964,1,0,0:0:0:0:
208,180,6305,1,0,0:0:0:0:
252,180,6532,2,0,L|296:180,1,44.9999976158143
344,180,6873,1,0,0:0:0:0:
112,320,7328,6,0,P|68:256|68:156,1,179.999990463257
191,211,8123,2,0,P|251:167|263:135,1,89.9999952316285
257,154,8464,1,0,0:0:0:0:
257,154,8691,1,0,0:0:0:0:
452,284,9146,5,0,0:0:0:0:
452,284,9600,2,0,B|472:216|408:216|436:140,1,134.999992847443
431,155,10169,1,0,0:0:0:0:
431,155,10282,1,0,0:0:0:0:
352,68,10509,1,0,0:0:0:0:
120,100,10964,5,0,0:0:0:0:
260,288,11419,1,0,0:0:0:0:
256,112,11759,1,0,0:0:0:0:
256,112,11987,2,0,L|256:156,1,44.9999976158143
256,157,12328,1,0,0:0:0:0:
84,204,12782,1,0,0:0:0:0:
244,288,13237,1,0,0:0:0:0:
348,204,13578,2,0,P|256:204|252:208,1,89.9999952316285
264,197,13919,1,0,0:0:0:0:
256,192,14146,12,0,15509,0:0:0:0:
125,36,15964,5,0,0:0:0:0:
312,36,16419,1,0,0:0:0:0:
312,216,16873,1,0,0:0:0:0:
132,216,17328,1,0,0:0:0:0:
36,44,17782,5,0,0:0:0:0:
210,0,18237,1,0,0:0:0:0:
253,174,18691,1,0,0:0:0:0:
78,217,19146,1,0,0:0:0:0:
272,312,19600,5,0,0:0:0:0:
160,128,20055,1,0,0:0:0:0:
356,36,20509,1,0,0:0:0:0:
468,220,20964,1,0,0:0:0:0:
284,76,21419,5,0,0:0:0:0:
416,268,21873,1,0,0:0:0:0:
224,132,22328,1,0,0:0:0:0:
352,328,22782,1,0,0:0:0:0:
428,88,23237,5,0,0:0:0:0:
312,40,23464,1,0,0:0:0:0:
388,140,23691,1,0,0:0:0:0:
272,92,23919,1,0,0:0:0:0:
352,200,24146,1,0,0:0:0:0:
288,320,24373,1,0,0:0:0:0:
400,244,24600,1,0,0:0:0:0:
340,364,24828,1,0,0:0:0:0:
220,284,25055,5,0,0:0:0:0:
140,164,25282,1,0,0:0:0:0:
284,160,25509,1,0,0:0:0:0:
176,64,25737,1,0,0:0:0:0:
48,148,25964,1,0,0:0:0:0:
192,200,26191,1,0,0:0:0:0:
312,104,26419,1,0,0:0:0:0:
464,120,26646,1,0,0:0:0:0:
336,204,26873,5,8,0:0:0:0:
326,160,26986,1,8,0:0:0:0:
305,120,27100,1,8,0:0:0:0:
272,90,27213,1,8,0:0:0:0:
231,71,27327,1,8,0:0:0:0:
187,64,27441,1,8,0:0:0:0:
143,72,27554,1,8,0:0:0:0:
103,93,27668,1,8,0:0:0:0:
72,125,27782,1,8,0:0:0:0:
51,164,27895,1,8,0:0:0:0:
44,209,28009,1,8,0:0:0:0:
50,253,28123,1,8,0:0:0:0:
69,293,28236,1,8,0:0:0:0:
100,326,28350,1,8,0:0:0:0:
139,348,28463,1,8,0:0:0:0:
183,356,28577,1,4,0:0:0:0:
228,351,28691,1,4,0:0:0:0:
184,68,30623,6,0,L|144:84,2,33.749999499321
452,100,31191,1,0,0:0:0:0:
324,144,31305,1,0,0:0:0:0:
324,144,31646,1,0,0:0:0:0:
324,144,32100,1,0,0:0:0:0:
132,208,32441,2,0,L|163:195,2,33.749999499321
396,152,33009,1,0,0:0:0:0:
396,152,33123,1,0,0:0:0:0:
272,312,33350,1,0,0:0:0:0:
272,312,33464,1,0,0:0:0:0:
272,312,33691,1,0,0:0:0:0:
172,184,33919,1,0,0:0:0:0:
392,328,34259,6,0,L|432:344,2,33.749999499321
76,72,34828,2,0,L|144:72,1,67.499998998642
396,152,35282,2,0,P|404:288|296:328,1,269.999995994568
120,80,36078,2,0,L|145:101,2,33.749999499321
60,344,36646,1,0,0:0:0:0:
60,344,36759,2,0,P|176:328|188:320,1,134.999997997284
318,309,37100,2,0,P|254:328|187:318,1,134.999997997284
187,318,37555,1,0,0:0:0:0:
256,192,37782,12,0,43237,0:0:0:0:
168,304,44600,5,0,0:0:0:0:
68,72,45055,2,0,P|144:56|244:80,1,179.999990463257
308,16,45737,2,0,P|332:64|324:116,1,89.9999952316285
272,160,46646,2,0,P|249:121|249:76,1,89.9999952316285
249,76,47100,1,0,0:0:0:0:
249,76,47214,1,0,0:0:0:0:
172,28,47441,2,0,P|96:44|88:40,1,89.9999952316285
404,44,48464,5,0,0:0:0:0:
424,132,48691,2,0,P|379:135|343:110,1,89.9999952316285
164,312,49373,1,0,0:0:0:0:
212,236,49600,2,0,B|232:248|242:269|242:269|329:292,1,134.999992847443
428,200,50282,1,0,0:0:0:0:
380,124,50509,2,0,B|360:136|349:157|349:157|324:160|300:172,1,89.9999952316285
260,120,50850,2,0,P|240:156|256:212,1,89.9999952316285
380,240,51305,2,0,P|332:324|208:340,1,224.999988079071
248,212,52100,5,0,0:0:0:0:
112,192,52328,2,0,B|168:188|168:188|240:196|240:196|292:192,1,179.999990463257
400,112,53009,1,0,0:0:0:0:
268,132,53237,2,0,B|216:136|216:136|144:128|144:128|88:132,1,179.999990463257
188,224,53919,2,0,P|196:136|204:124,1,89.9999952316285
268,188,54373,1,0,0:0:0:0:
268,188,54487,2,0,P|340:188|352:176,1,89.9999952316285
232,112,54941,2,0,P|328:64|452:80,1,224.999988079071
480,204,55737,6,0,P|424:264|412:264,1,89.9999952316285
48,112,56646,2,0,P|64:71|104:51,1,89.9999952316285
132,320,57328,2,0,P|180:304|204:268,2,89.9999952316285
128,232,58009,2,0,L|128:180,1,44.9999976158143
128,96,58350,1,0,0:0:0:0:
196,36,58578,2,0,P|240:120|356:164,1,224.999988079071,0|4,0:0|0:0,0:0:0:0:
