osu file format v14

[General]
AudioFilename: audio.ogg
AudioLeadIn: 0
PreviewTime: 224413
Countdown: 0
SampleSet: Soft
StackLeniency: 0.6
Mode: 0
LetterboxInBreaks: 0
EpilepsyWarning: 1
WidescreenStoryboard: 1

[Editor]
Bookmarks: 351,15351,30351,45351,60351,75351,79101,82851,86601,90351,94101,97851,101601,105351,120351,135351,150351,154101,157851,161601,165351,169101,172851,176601,180351,195351,208476,217851,225351,229101,232851,236601,240351,244101,247851,251601,255351,270351,285351,300351
DistanceSpacing: 0.5
BeatDivisor: 1
GridSize: 4
TimelineZoom: 1.8

[Metadata]
Title:Hand in Hand
TitleUnicode:Hand in Hand
Artist:livetune feat. Hatsune Miku
ArtistUnicode:livetune feat. 初音ミク
Creator:R3aCt10n
Version:Holding hands together
Source:初音ミク -Project DIVA- X HD
Tags:japanese マジカルミライ kz(livetune) Magical Mirai 2015 pop vocaloid kz hoshima
BeatmapID:3748247
BeatmapSetID:1826422

[Difficulty]
HPDrainRate:6
CircleSize:4
OverallDifficulty:8
ApproachRate:9.2
SliderMultiplier:2
SliderTickRate:1

[Events]
//Background and Video events
0,0,"bg.png",0,0
//Break Periods
//Storyboard Layer 0 (Background)
//Storyboard Layer 1 (Fail)
//Storyboard Layer 2 (Pass)
//Storyboard Layer 3 (Foreground)
Sprite,Foreground,Centre,"sb\dot.png",358,265 C,0,180351,,255,128,0 F,2,180351,180851,0.2,0 S,19,180351,180851,0.6,1 P,0,180351,180851,A
Sprite,Foreground,Centre,"sb\notes\sharpflat.png",0,0 R,0,180351,,3.50703 C,0,180351,,255,128,0 C,0,180351,,255,128,0 M,19,180351,180851,358,265,299,276 S,18,180951,181351,0.1953014,0.05 F,0,181201,181351,1,0
Sprite,Foreground,Centre,"sb\dot.png",418,185 C,0,180819,,160,32,240 F,2,180819,181319,0.2,0 S,19,180819,181319,0.6,1 P,0,180819,181319,A
Sprite,Foreground,Centre,"sb\notes\trebleclef.png",0,0 R,0,180819,,1.834101 C,0,180819,,255,100,127 C,0,180819,,255,100,127 M,19,180819,181319,418,185,411,211 S,18,181419,181819,0.1734756,0.05 F,0,181669,181819,1,0
Sprite,Foreground,Centre,"sb\dot.png",515,196 C,0,181054,,255,128,0 F,2,181054,181554,0.2,0 S,19,181054,181554,0.6,1 P,0,181054,181554,A
Sprite,Foreground,Centre,"sb\notes\bassclef.png",0,0 R,0,181054,,6.25395 C,0,181054,,255,128,0 C,0,181054,,255,128,0 M,19,181054,181554,515,196,550,158 S,18,181654,182054,0.1908454,0.05 F,0,181904,182054,1,0
Sprite,Foreground,Centre,"sb\dot.png",576,271 C,0,181288,,255,128,0 F,2,181288,181788,0.2,0 S,19,181288,181788,0.6,1 P,0,181288,181788,A
Sprite,Foreground,Centre,"sb\notes\trebleclef.png",0,0 R,0,181288,,4.397865 C,0,181288,,255,100,127 C,0,181288,,255,100,127 M,19,181288,181788,576,271,581,357 S,18,181888,182288,0.184381,0.05 F,0,182138,182288,1,0
Sprite,Foreground,Centre,"sb\dot.png",480,391 C,0,181757,,160,32,240 F,2,181757,182257,0.2,0 S,19,181757,182257,0.6,1 P,0,181757,182257,A
Sprite,Foreground,Centre,"sb\notes\bassclef.png",0,0 R,0,181757,,2.848339 C,0,181757,,255,100,127 C,0,181757,,255,100,127 M,19,181757,182257,480,391,439,488 S,18,182357,182757,0.1821349,0.05 F,0,182607,182757,1,0
Sprite,Foreground,Centre,"sb\dot.png",303,343 C,0,182226,,255,128,0 F,2,182226,182726,0.2,0 S,19,182226,182726,0.6,1 P,0,182226,182726,A
Sprite,Foreground,Centre,"sb\notes\bassclef.png",0,0 R,0,182226,,2.156024 C,0,182226,,160,32,240 C,0,182226,,160,32,240 M,19,182226,182726,303,343,394,344 S,18,182826,183226,0.1857986,0.05 F,0,183076,183226,1,0
Sprite,Foreground,Centre,"sb\dot.png",223,412 C,0,182694,,255,100,127 F,2,182694,183194,0.2,0 S,19,182694,183194,0.6,1 P,0,182694,183194,A
Sprite,Foreground,Centre,"sb\notes\beamnotes.png",0,0 R,0,182694,,4.993659 C,0,182694,,255,128,0 C,0,182694,,255,128,0 M,19,182694,183194,223,412,190,403 S,18,183294,183694,0.1573413,0.05 F,0,183544,183694,1,0
Sprite,Foreground,Centre,"sb\dot.png",142,360 C,0,182929,,255,100,127 F,2,182929,183429,0.2,0 S,19,182929,183429,0.6,1 P,0,182929,183429,A
Sprite,Foreground,Centre,"sb\notes\flat.png",0,0 R,0,182929,,3.894509 C,0,182929,,255,128,0 C,0,182929,,255,128,0 M,19,182929,183429,142,360,139,298 S,18,183529,183929,0.1939096,0.05 F,0,183779,183929,1,0
Sprite,Foreground,Centre,"sb\dot.png",186,274 C,0,183163,,255,128,0 F,2,183163,183663,0.2,0 S,19,183163,183663,0.6,1 P,0,183163,183663,A
Sprite,Foreground,Centre,"sb\notes\sharpflat.png",0,0 R,0,183163,,4.270989 C,0,183163,,255,128,0 C,0,183163,,255,128,0 M,19,183163,183663,186,274,210,217 S,18,183763,184163,0.1947681,0.05 F,0,184013,184163,1,0
Sprite,Foreground,Centre,"sb\dot.png",140,119 C,0,183632,,255,128,0 F,2,183632,184132,0.2,0 S,19,183632,184132,0.6,1 P,0,183632,184132,A
Sprite,Foreground,Centre,"sb\notes\bassclef.png",0,0 R,0,183632,,1.069039 C,0,183632,,255,128,0 C,0,183632,,255,128,0 M,19,183632,184132,140,119,168,184 S,18,184232,184632,0.1609594,0.05 F,0,184482,184632,1,0
Sprite,Foreground,Centre,"sb\dot.png",325,64 C,0,184101,,255,128,0 F,2,184101,184601,0.2,0 S,19,184101,184601,0.6,1 P,0,184101,184601,A
Sprite,Foreground,Centre,"sb\notes\minim.png",0,0 R,0,184101,,4.522171 C,0,184101,,160,32,240 C,0,184101,,160,32,240 M,19,184101,184601,325,64,386,-16 S,18,184701,185101,0.1864547,0.05 F,0,184951,185101,1,0
Sprite,Foreground,Centre,"sb\dot.png",257,127 C,0,184569,,255,128,0 F,2,184569,185069,0.2,0 S,19,184569,185069,0.6,1 P,0,184569,185069,A
Sprite,Foreground,Centre,"sb\notes\bassclef.png",0,0 R,0,184569,,1.1883 C,0,184569,,255,128,0 C,0,184569,,255,128,0 M,19,184569,185069,257,127,252,135 S,18,185169,185569,0.166275,0.05 F,0,185419,185569,1,0
Sprite,Foreground,Centre,"sb\dot.png",336,177 C,0,184804,,255,128,0 F,2,184804,185304,0.2,0 S,19,184804,185304,0.6,1 P,0,184804,185304,A
Sprite,Foreground,Centre,"sb\notes\minim.png",0,0 R,0,184804,,5.084377 C,0,184804,,255,128,0 C,0,184804,,255,128,0 M,19,184804,185304,336,177,394,229 S,18,185404,185804,0.196877,0.05 F,0,185654,185804,1,0
Sprite,Foreground,Centre,"sb\dot.png",410,124 C,0,185038,,255,100,127 F,2,185038,185538,0.2,0 S,19,185038,185538,0.6,1 P,0,185038,185538,A
Sprite,Foreground,Centre,"sb\notes\minim.png",0,0 R,0,185038,,2.089719 C,0,185038,,160,32,240 C,0,185038,,160,32,240 M,19,185038,185538,410,124,367,188 S,18,185638,186038,0.1611259,0.05 F,0,185888,186038,1,0
Sprite,Foreground,Centre,"sb\dot.png",569,162 C,0,185507,,255,100,127 F,2,185507,186007,0.2,0 S,19,185507,186007,0.6,1 P,0,185507,186007,A
Sprite,Foreground,Centre,"sb\notes\bassclef.png",0,0 R,0,185507,,4.35453 C,0,185507,,160,32,240 C,0,185507,,160,32,240 M,19,185507,186007,569,162,595,247 S,18,186107,186507,0.1610671,0.05 F,0,186357,186507,1,0
Sprite,Foreground,Centre,"sb\dot.png",403,273 C,0,185976,,255,128,0 F,2,185976,186476,0.2,0 S,19,185976,186476,0.6,1 P,0,185976,186476,A
Sprite,Foreground,Centre,"sb\notes\bassclef.png",0,0 R,0,185976,,4.263175 C,0,185976,,255,128,0 C,0,185976,,255,128,0 M,19,185976,186476,403,273,321,202 S,18,186576,186976,0.1553486,0.05 F,0,186826,186976,1,0
Sprite,Foreground,Centre,"sb\dot.png",501,261 C,0,186444,,160,32,240 F,2,186444,186944,0.2,0 S,19,186444,186944,0.6,1 P,0,186444,186944,A
Sprite,Foreground,Centre,"sb\notes\trebleclef.png",0,0 R,0,186444,,0.9302649 C,0,186444,,160,32,240 C,0,186444,,160,32,240 M,19,186444,186944,501,261,536,274 S,18,187044,187444,0.1612702,0.05 F,0,187294,187444,1,0
Sprite,Foreground,Centre,"sb\dot.png",573,326 C,0,186679,,160,32,240 F,2,186679,187179,0.2,0 S,19,186679,187179,0.6,1 P,0,186679,187179,A
Sprite,Foreground,Centre,"sb\notes\bassclef.png",0,0 R,0,186679,,5.343755 C,0,186679,,160,32,240 C,0,186679,,160,32,240 M,19,186679,187179,573,326,485,282 S,18,187279,187679,0.1852488,0.05 F,0,187529,187679,1,0
Sprite,Foreground,Centre,"sb\dot.png",499,276 C,0,186913,,255,128,0 F,2,186913,187413,0.2,0 S,19,186913,187413,0.6,1 P,0,186913,187413,A
Sprite,Foreground,Centre,"sb\notes\trebleclef.png",0,0 R,0,186913,,3.284473 C,0,186913,,160,32,240 C,0,186913,,160,32,240 M,19,186913,187413,499,276,455,277 S,18,187513,187913,0.176579,0.05 F,0,187763,187913,1,0
Sprite,Foreground,Centre,"sb\dot.png",408,406 C,0,187382,,255,100,127 F,2,187382,187882,0.2,0 S,19,187382,187882,0.6,1 P,0,187382,187882,A
Sprite,Foreground,Centre,"sb\notes\beamnotes.png",0,0 R,0,187382,,5.318185 C,0,187382,,160,32,240 C,0,187382,,160,32,240 M,19,187382,187882,408,406,430,326 S,18,187982,188382,0.1871165,0.05 F,0,188232,188382,1,0
Sprite,Foreground,Centre,"sb\dot.png",238,347 C,0,187851,,160,32,240 F,2,187851,188351,0.2,0 S,19,187851,188351,0.6,1 P,0,187851,188351,A
Sprite,Foreground,Centre,"sb\notes\trebleclef.png",0,0 R,0,187851,,4.396045 C,0,187851,,255,100,127 C,0,187851,,255,100,127 M,19,187851,188351,238,347,261,413 S,18,188451,188851,0.1842563,0.05 F,0,188701,188851,1,0
Sprite,Foreground,Centre,"sb\dot.png",185,270 C,0,188319,,160,32,240 F,2,188319,188819,0.2,0 S,19,188319,188819,0.6,1 P,0,188319,188819,A
Sprite,Foreground,Centre,"sb\notes\beamnotes.png",0,0 R,0,188319,,3.827157 C,0,188319,,255,100,127 C,0,188319,,255,100,127 M,19,188319,188819,185,270,135,369 S,18,188919,189319,0.1784345,0.05 F,0,189169,189319,1,0
Sprite,Foreground,Centre,"sb\dot.png",260,225 C,0,188554,,255,100,127 F,2,188554,189054,0.2,0 S,19,188554,189054,0.6,1 P,0,188554,189054,A
Sprite,Foreground,Centre,"sb\notes\beamnotes.png",0,0 R,0,188554,,3.569389 C,0,188554,,255,128,0 C,0,188554,,255,128,0 M,19,188554,189054,260,225,289,228 S,18,189154,189554,0.1985064,0.05 F,0,189404,189554,1,0
Sprite,Foreground,Centre,"sb\dot.png",345,264 C,0,188788,,255,100,127 F,2,188788,189288,0.2,0 S,19,188788,189288,0.6,1 P,0,188788,189288,A
Sprite,Foreground,Centre,"sb\notes\minim.png",0,0 R,0,188788,,5.112331 C,0,188788,,255,100,127 C,0,188788,,255,100,127 M,19,188788,189288,345,264,373,279 S,18,189388,189788,0.1776431,0.05 F,0,189638,189788,1,0
Sprite,Foreground,Centre,"sb\dot.png",425,119 C,0,189257,,255,128,0 F,2,189257,189757,0.2,0 S,19,189257,189757,0.6,1 P,0,189257,189757,A
Sprite,Foreground,Centre,"sb\notes\trebleclef.png",0,0 R,0,189257,,0.4049744 C,0,189257,,255,100,127 C,0,189257,,255,100,127 M,19,189257,189757,425,119,418,115 S,18,189857,190257,0.1608153,0.05 F,0,190107,190257,1,0
Sprite,Foreground,Centre,"sb\dot.png",234,63 C,0,189726,,255,100,127 F,2,189726,190226,0.2,0 S,19,189726,190226,0.6,1 P,0,189726,190226,A
Sprite,Foreground,Centre,"sb\notes\beamnotes.png",0,0 R,0,189726,,2.807955 C,0,189726,,255,100,127 C,0,189726,,255,100,127 M,19,189726,190226,234,63,224,-34 S,18,190326,190726,0.1694419,0.05 F,0,190576,190726,1,0
Sprite,Foreground,Centre,"sb\dot.png",195,146 C,0,190194,,255,128,0 F,2,190194,190694,0.2,0 S,19,190194,190694,0.6,1 P,0,190194,190694,A
Sprite,Foreground,Centre,"sb\notes\beamnotes.png",0,0 R,0,190194,,0.1858377 C,0,190194,,255,128,0 C,0,190194,,255,128,0 M,19,190194,190694,195,146,196,238 S,18,190794,191194,0.1996786,0.05 F,0,191044,191194,1,0
Sprite,Foreground,Centre,"sb\dot.png",113,90 C,0,190429,,255,100,127 F,2,190429,190929,0.2,0 S,19,190429,190929,0.6,1 P,0,190429,190929,A
Sprite,Foreground,Centre,"sb\notes\quaver.png",0,0 R,0,190429,,6.076894 C,0,190429,,255,100,127 C,0,190429,,255,100,127 M,19,190429,190929,113,90,130,144 S,18,191029,191429,0.1662083,0.05 F,0,191279,191429,1,0
Sprite,Foreground,Centre,"sb\dot.png",64,172 C,0,190663,,160,32,240 F,2,190663,191163,0.2,0 S,19,190663,191163,0.6,1 P,0,190663,191163,A
Sprite,Foreground,Centre,"sb\notes\trebleclef.png",0,0 R,0,190663,,6.112831 C,0,190663,,255,128,0 C,0,190663,,255,128,0 M,19,190663,191163,64,172,15,98 S,18,191263,191663,0.1948627,0.05 F,0,191513,191663,1,0
Sprite,Foreground,Centre,"sb\dot.png",180,289 C,0,191132,,255,100,127 F,2,191132,191632,0.2,0 S,19,191132,191632,0.6,1 P,0,191132,191632,A
Sprite,Foreground,Centre,"sb\notes\trebleclef.png",0,0 R,0,191132,,4.932585 C,0,191132,,160,32,240 C,0,191132,,160,32,240 M,19,191132,191632,180,289,182,259 S,18,191732,192132,0.1995874,0.05 F,0,191982,192132,1,0
Sprite,Foreground,Centre,"sb\dot.png",372,181 C,0,191601,,255,100,127 F,2,191601,192101,0.2,0 S,19,191601,192101,0.6,1 P,0,191601,192101,A
Sprite,Foreground,Centre,"sb\notes\quaver.png",0,0 R,0,191601,,1.224661 C,0,191601,,255,100,127 C,0,191601,,255,100,127 M,19,191601,192101,372,181,371,197 S,18,192201,192601,0.1630832,0.05 F,0,192451,192601,1,0
Sprite,Foreground,Centre,"sb\dot.png",436,243 C,0,192069,,255,100,127 F,2,192069,192569,0.2,0 S,19,192069,192569,0.6,1 P,0,192069,192569,A
Sprite,Foreground,Centre,"sb\notes\beamnotes.png",0,0 R,0,192069,,0.8360404 C,0,192069,,255,128,0 C,0,192069,,255,128,0 M,19,192069,192569,436,243,458,254 S,18,192669,193069,0.182781,0.05 F,0,192919,193069,1,0
Sprite,Foreground,Centre,"sb\dot.png",360,288 C,0,192304,,160,32,240 F,2,192304,192804,0.2,0 S,19,192304,192804,0.6,1 P,0,192304,192804,A
Sprite,Foreground,Centre,"sb\notes\bassclef.png",0,0 R,0,192304,,5.516075 C,0,192304,,255,100,127 C,0,192304,,255,100,127 M,19,192304,192804,360,288,402,366 S,18,192904,193304,0.1825632,0.05 F,0,193154,193304,1,0
Sprite,Foreground,Centre,"sb\dot.png",277,235 C,0,192538,,255,100,127 F,2,192538,193038,0.2,0 S,19,192538,193038,0.6,1 P,0,192538,193038,A
Sprite,Foreground,Centre,"sb\notes\beamnotes.png",0,0 R,0,192538,,1.230906 C,0,192538,,160,32,240 C,0,192538,,160,32,240 M,19,192538,193038,277,235,354,233 S,18,193138,193538,0.1818912,0.05 F,0,193388,193538,1,0
Sprite,Foreground,Centre,"sb\dot.png",212,391 C,0,193007,,255,100,127 F,2,193007,193507,0.2,0 S,19,193007,193507,0.6,1 P,0,193007,193507,A
Sprite,Foreground,Centre,"sb\notes\flat.png",0,0 R,0,193007,,6.254412 C,0,193007,,255,100,127 C,0,193007,,255,100,127 M,19,193007,193507,212,391,234,291 S,18,193607,194007,0.1991713,0.05 F,0,193857,194007,1,0
Sprite,Foreground,Centre,"sb\dot.png",422,422 C,0,193476,,255,128,0 F,2,193476,193976,0.2,0 S,19,193476,193976,0.6,1 P,0,193476,193976,A
Sprite,Foreground,Centre,"sb\notes\beamnotes.png",0,0 R,0,193476,,0.5735021 C,0,193476,,255,128,0 C,0,193476,,255,128,0 M,19,193476,193976,422,422,360,334 S,18,194076,194476,0.1555031,0.05 F,0,194326,194476,1,0
Sprite,Foreground,Centre,"sb\dot.png",454,334 C,0,193944,,255,128,0 F,2,193944,194444,0.2,0 S,19,193944,194444,0.6,1 P,0,193944,194444,A
Sprite,Foreground,Centre,"sb\notes\bassclef.png",0,0 R,0,193944,,4.038019 C,0,193944,,255,128,0 C,0,193944,,255,128,0 M,19,193944,194444,454,334,468,282 S,18,194544,194944,0.1918597,0.05 F,0,194794,194944,1,0
Sprite,Foreground,Centre,"sb\dot.png",421,246 C,0,194179,,255,128,0 F,2,194179,194679,0.2,0 S,19,194179,194679,0.6,1 P,0,194179,194679,A
Sprite,Foreground,Centre,"sb\notes\minim.png",0,0 R,0,194179,,5.046455 C,0,194179,,255,128,0 C,0,194179,,255,128,0 M,19,194179,194679,421,246,413,214 S,18,194779,195179,0.1889068,0.05 F,0,195029,195179,1,0
Sprite,Foreground,Centre,"sb\dot.png",467,332 C,0,194413,,160,32,240 F,2,194413,194913,0.2,0 S,19,194413,194913,0.6,1 P,0,194413,194913,A
Sprite,Foreground,Centre,"sb\notes\quaver.png",0,0 R,0,194413,,3.826034 C,0,194413,,255,128,0 C,0,194413,,255,128,0 M,19,194413,194913,467,332,384,356 S,18,195013,195413,0.1995326,0.05 F,0,195263,195413,1,0
Sprite,Foreground,Centre,"sb\dot.png",576,218 C,0,194882,,255,128,0 F,2,194882,195382,0.2,0 S,19,194882,195382,0.6,1 P,0,194882,195382,A
Sprite,Foreground,Centre,"sb\notes\minim.png",0,0 R,0,194882,,0.01255125 C,0,194882,,255,100,127 C,0,194882,,255,100,127 M,19,194882,195382,576,218,587,252 S,18,195482,195882,0.1689618,0.05 F,0,195732,195882,1,0
Sprite,Foreground,Centre,"sb\dot.png",497,88 C,0,195351,,255,128,0 F,2,195351,195851,0.2,0 S,19,195351,195851,0.6,1 P,0,195351,195851,A
Sprite,Foreground,Centre,"sb\notes\flat.png",0,0 R,0,195351,,3.267005 C,0,195351,,255,128,0 C,0,195351,,255,128,0 M,19,195351,195851,497,88,562,96 S,18,195951,196351,0.1761255,0.05 F,0,196201,196351,1,0
Sprite,Foreground,Centre,"sb\dot.png",497,88 C,0,195468,,255,100,127 F,2,195468,195968,0.2,0 S,19,195468,195968,0.6,1 P,0,195468,195968,A
Sprite,Foreground,Centre,"sb\notes\quaver.png",0,0 R,0,195468,,1.976753 C,0,195468,,160,32,240 C,0,195468,,160,32,240 M,19,195468,195968,497,88,446,148 S,18,196068,196468,0.1730066,0.05 F,0,196318,196468,1,0
Sprite,Foreground,Centre,"sb\dot.png",497,88 C,0,195585,,255,128,0 F,2,195585,196085,0.2,0 S,19,195585,196085,0.6,1 P,0,195585,196085,A
Sprite,Foreground,Centre,"sb\notes\flat.png",0,0 R,0,195585,,0.9441224 C,0,195585,,255,100,127 C,0,195585,,255,100,127 M,19,195585,196085,497,88,529,29 S,18,196185,196585,0.1767448,0.05 F,0,196435,196585,1,0
Sprite,Foreground,Centre,"sb\dot.png",335,131 C,0,195819,,160,32,240 F,2,195819,196319,0.2,0 S,19,195819,196319,0.6,1 P,0,195819,196319,A
Sprite,Foreground,Centre,"sb\notes\sharpflat.png",0,0 R,0,195819,,0.6359054 C,0,195819,,160,32,240 C,0,195819,,160,32,240 M,19,195819,196319,335,131,322,54 S,18,196419,196819,0.1929816,0.05 F,0,196669,196819,1,0
Sprite,Foreground,Centre,"sb\dot.png",411,66 C,0,196054,,160,32,240 F,2,196054,196554,0.2,0 S,19,196054,196554,0.6,1 P,0,196054,196554,A
Sprite,Foreground,Centre,"sb\notes\quaver.png",0,0 R,0,196054,,0.0974472 C,0,196054,,160,32,240 C,0,196054,,160,32,240 M,19,196054,196554,411,66,424,57 S,18,196654,197054,0.1996706,0.05 F,0,196904,197054,1,0
Sprite,Foreground,Centre,"sb\dot.png",370,227 C,0,196288,,255,100,127 F,2,196288,196788,0.2,0 S,19,196288,196788,0.6,1 P,0,196288,196788,A
Sprite,Foreground,Centre,"sb\notes\bassclef.png",0,0 R,0,196288,,3.962226 C,0,196288,,255,100,127 C,0,196288,,255,100,127 M,19,196288,196788,370,227,429,178 S,18,196888,197288,0.1631993,0.05 F,0,197138,197288,1,0
Sprite,Foreground,Centre,"sb\dot.png",435,301 C,0,196757,,255,100,127 F,2,196757,197257,0.2,0 S,19,196757,197257,0.6,1 P,0,196757,197257,A
Sprite,Foreground,Centre,"sb\notes\minim.png",0,0 R,0,196757,,5.276332 C,0,196757,,255,100,127 C,0,196757,,255,100,127 M,19,196757,197257,435,301,499,307 S,18,197357,197757,0.1975782,0.05 F,0,197607,197757,1,0
Sprite,Foreground,Centre,"sb\dot.png",435,301 C,0,196874,,255,100,127 F,2,196874,197374,0.2,0 S,19,196874,197374,0.6,1 P,0,196874,197374,A
Sprite,Foreground,Centre,"sb\notes\trebleclef.png",0,0 R,0,196874,,5.630509 C,0,196874,,255,128,0 C,0,196874,,255,128,0 M,19,196874,197374,435,301,428,369 S,18,197474,197874,0.1678099,0.05 F,0,197724,197874,1,0
Sprite,Foreground,Centre,"sb\dot.png",435,301 C,0,196991,,160,32,240 F,2,196991,197491,0.2,0 S,19,196991,197491,0.6,1 P,0,196991,197491,A
Sprite,Foreground,Centre,"sb\notes\flat.png",0,0 R,0,196991,,2.456567 C,0,196991,,160,32,240 C,0,196991,,160,32,240 M,19,196991,197491,435,301,419,333 S,18,197591,197991,0.1800265,0.05 F,0,197841,197991,1,0
Sprite,Foreground,Centre,"sb\dot.png",244,391 C,0,197226,,255,128,0 F,2,197226,197726,0.2,0 S,19,197226,197726,0.6,1 P,0,197226,197726,A
Sprite,Foreground,Centre,"sb\notes\trebleclef.png",0,0 R,0,197226,,4.275764 C,0,197226,,255,100,127 C,0,197226,,255,100,127 M,19,197226,197726,244,391,212,384 S,18,197826,198226,0.1899629,0.05 F,0,198076,198226,1,0
Sprite,Foreground,Centre,"sb\dot.png",244,391 C,0,197343,,255,100,127 F,2,197343,197843,0.2,0 S,19,197343,197843,0.6,1 P,0,197343,197843,A
Sprite,Foreground,Centre,"sb\notes\trebleclef.png",0,0 R,0,197343,,5.416492 C,0,197343,,160,32,240 C,0,197343,,160,32,240 M,19,197343,197843,244,391,333,345 S,18,197943,198343,0.1748491,0.05 F,0,198193,198343,1,0
Sprite,Foreground,Centre,"sb\dot.png",244,391 C,0,197460,,255,100,127 F,2,197460,197960,0.2,0 S,19,197460,197960,0.6,1 P,0,197460,197960,A
Sprite,Foreground,Centre,"sb\notes\beamnotes.png",0,0 R,0,197460,,3.866993 C,0,197460,,255,100,127 C,0,197460,,255,100,127 M,19,197460,197960,244,391,261,472 S,18,198060,198460,0.1680117,0.05 F,0,198310,198460,1,0
Sprite,Foreground,Centre,"sb\dot.png",127,286 C,0,197694,,255,128,0 F,2,197694,198194,0.2,0 S,19,197694,198194,0.6,1 P,0,197694,198194,A
Sprite,Foreground,Centre,"sb\notes\sharpflat.png",0,0 R,0,197694,,0.6442811 C,0,197694,,255,100,127 C,0,197694,,255,100,127 M,19,197694,198194,127,286,149,313 S,18,198294,198694,0.1785282,0.05 F,0,198544,198694,1,0
Sprite,Foreground,Centre,"sb\dot.png",159,372 C,0,197929,,255,128,0 F,2,197929,198429,0.2,0 S,19,197929,198429,0.6,1 P,0,197929,198429,A
Sprite,Foreground,Centre,"sb\notes\trebleclef.png",0,0 R,0,197929,,2.371836 C,0,197929,,255,100,127 C,0,197929,,255,100,127 M,19,197929,198429,159,372,177,404 S,18,198529,198929,0.1540495,0.05 F,0,198779,198929,1,0
Sprite,Foreground,Centre,"sb\dot.png",176,189 C,0,198163,,160,32,240 F,2,198163,198663,0.2,0 S,19,198163,198663,0.6,1 P,0,198163,198663,A
Sprite,Foreground,Centre,"sb\notes\trebleclef.png",0,0 R,0,198163,,3.019304 C,0,198163,,255,100,127 C,0,198163,,255,100,127 M,19,198163,198663,176,189,88,119 S,18,198763,199163,0.1992625,0.05 F,0,199013,199163,1,0
Sprite,Foreground,Centre,"sb\dot.png",269,225 C,0,198632,,255,100,127 F,2,198632,199132,0.2,0 S,19,198632,199132,0.6,1 P,0,198632,199132,A
Sprite,Foreground,Centre,"sb\notes\flat.png",0,0 R,0,198632,,3.249879 C,0,198632,,255,100,127 C,0,198632,,255,100,127 M,19,198632,199132,269,225,283,296 S,18,199232,199632,0.1612149,0.05 F,0,199482,199632,1,0
Sprite,Foreground,Centre,"sb\dot.png",269,225 C,0,198749,,255,100,127 F,2,198749,199249,0.2,0 S,19,198749,199249,0.6,1 P,0,198749,199249,A
Sprite,Foreground,Centre,"sb\notes\beamnotes.png",0,0 R,0,198749,,5.233262 C,0,198749,,255,128,0 C,0,198749,,255,128,0 M,19,198749,199249,269,225,319,173 S,18,199349,199749,0.1587598,0.05 F,0,199599,199749,1,0
Sprite,Foreground,Centre,"sb\dot.png",269,225 C,0,198866,,255,100,127 F,2,198866,199366,0.2,0 S,19,198866,199366,0.6,1 P,0,198866,199366,A
Sprite,Foreground,Centre,"sb\notes\beamnotes.png",0,0 R,0,198866,,4.580796 C,0,198866,,160,32,240 C,0,198866,,160,32,240 M,19,198866,199366,269,225,334,170 S,18,199466,199866,0.1700345,0.05 F,0,199716,199866,1,0
Sprite,Foreground,Centre,"sb\dot.png",83,172 C,0,199101,,255,100,127 F,2,199101,199601,0.2,0 S,19,199101,199601,0.6,1 P,0,199101,199601,A
Sprite,Foreground,Centre,"sb\notes\beamnotes.png",0,0 R,0,199101,,2.242593 C,0,199101,,160,32,240 C,0,199101,,160,32,240 M,19,199101,199601,83,172,104,155 S,18,199701,200101,0.1897134,0.05 F,0,199951,200101,1,0
Sprite,Foreground,Centre,"sb\dot.png",83,172 C,0,199218,,255,100,127 F,2,199218,199718,0.2,0 S,19,199218,199718,0.6,1 P,0,199218,199718,A
Sprite,Foreground,Centre,"sb\notes\bassclef.png",0,0 R,0,199218,,3.299242 C,0,199218,,255,100,127 C,0,199218,,255,100,127 M,19,199218,199718,83,172,134,146 S,18,199818,200218,0.1860229,0.05 F,0,200068,200218,1,0
Sprite,Foreground,Centre,"sb\dot.png",83,172 C,0,199335,,160,32,240 F,2,199335,199835,0.2,0 S,19,199335,199835,0.6,1 P,0,199335,199835,A
Sprite,Foreground,Centre,"sb\notes\bassclef.png",0,0 R,0,199335,,0.2525151 C,0,199335,,160,32,240 C,0,199335,,160,32,240 M,19,199335,199835,83,172,138,141 S,18,199935,200335,0.1849969,0.05 F,0,200185,200335,1,0
Sprite,Foreground,Centre,"sb\dot.png",224,56 C,0,199569,,255,128,0 F,2,199569,200069,0.2,0 S,19,199569,200069,0.6,1 P,0,199569,200069,A
Sprite,Foreground,Centre,"sb\notes\minim.png",0,0 R,0,199569,,5.264925 C,0,199569,,160,32,240 C,0,199569,,160,32,240 M,19,199569,200069,224,56,208,137 S,18,200169,200569,0.1704794,0.05 F,0,200419,200569,1,0
Sprite,Foreground,Centre,"sb\dot.png",144,103 C,0,199804,,255,128,0 F,2,199804,200304,0.2,0 S,19,199804,200304,0.6,1 P,0,199804,200304,A
Sprite,Foreground,Centre,"sb\notes\quaver.png",0,0 R,0,199804,,1.472134 C,0,199804,,255,128,0 C,0,199804,,255,128,0 M,19,199804,200304,144,103,228,119 S,18,200404,200804,0.1995877,0.05 F,0,200654,200804,1,0
Sprite,Foreground,Centre,"sb\dot.png",301,145 C,0,200038,,255,100,127 F,2,200038,200538,0.2,0 S,19,200038,200538,0.6,1 P,0,200038,200538,A
Sprite,Foreground,Centre,"sb\notes\minim.png",0,0 R,0,200038,,6.069383 C,0,200038,,255,100,127 C,0,200038,,255,100,127 M,19,200038,200538,301,145,289,131 S,18,200638,201038,0.1961735,0.05 F,0,200888,201038,1,0
Sprite,Foreground,Centre,"sb\dot.png",493,56 C,0,200507,,255,100,127 F,2,200507,201007,0.2,0 S,19,200507,201007,0.6,1 P,0,200507,201007,A
Sprite,Foreground,Centre,"sb\notes\quaver.png",0,0 R,0,200507,,6.277174 C,0,200507,,255,100,127 C,0,200507,,255,100,127 M,19,200507,201007,493,56,566,46 S,18,201107,201507,0.1833384,0.05 F,0,201357,201507,1,0
Sprite,Foreground,Centre,"sb\dot.png",493,56 C,0,200624,,255,100,127 F,2,200624,201124,0.2,0 S,19,200624,201124,0.6,1 P,0,200624,201124,A
Sprite,Foreground,Centre,"sb\notes\trebleclef.png",0,0 R,0,200624,,0.3236122 C,0,200624,,255,128,0 C,0,200624,,255,128,0 M,19,200624,201124,493,56,569,96 S,18,201224,201624,0.1668716,0.05 F,0,201474,201624,1,0
Sprite,Foreground,Centre,"sb\dot.png",493,56 C,0,200741,,255,128,0 F,2,200741,201241,0.2,0 S,19,200741,201241,0.6,1 P,0,200741,201241,A
Sprite,Foreground,Centre,"sb\notes\trebleclef.png",0,0 R,0,200741,,1.157967 C,0,200741,,160,32,240 C,0,200741,,160,32,240 M,19,200741,201241,493,56,495,32 S,18,201341,201741,0.1688647,0.05 F,0,201591,201741,1,0
Sprite,Foreground,Centre,"sb\dot.png",570,233 C,0,200976,,160,32,240 F,2,200976,201476,0.2,0 S,19,200976,201476,0.6,1 P,0,200976,201476,A
Sprite,Foreground,Centre,"sb\notes\flat.png",0,0 R,0,200976,,5.228577 C,0,200976,,255,100,127 C,0,200976,,255,100,127 M,19,200976,201476,570,233,628,278 S,18,201576,201976,0.1702397,0.05 F,0,201826,201976,1,0
Sprite,Foreground,Centre,"sb\dot.png",570,233 C,0,201093,,160,32,240 F,2,201093,201593,0.2,0 S,19,201093,201593,0.6,1 P,0,201093,201593,A
Sprite,Foreground,Centre,"sb\notes\flat.png",0,0 R,0,201093,,2.103447 C,0,201093,,255,100,127 C,0,201093,,255,100,127 M,19,201093,201593,570,233,653,288 S,18,201693,202093,0.1826033,0.05 F,0,201943,202093,1,0
Sprite,Foreground,Centre,"sb\dot.png",570,233 C,0,201210,,255,128,0 F,2,201210,201710,0.2,0 S,19,201210,201710,0.6,1 P,0,201210,201710,A
Sprite,Foreground,Centre,"sb\notes\beamnotes.png",0,0 R,0,201210,,3.505055 C,0,201210,,255,128,0 C,0,201210,,255,128,0 M,19,201210,201710,570,233,560,281 S,18,201810,202210,0.1860557,0.05 F,0,202060,202210,1,0
Sprite,Foreground,Centre,"sb\dot.png",503,155 C,0,201444,,160,32,240 F,2,201444,201944,0.2,0 S,19,201444,201944,0.6,1 P,0,201444,201944,A
Sprite,Foreground,Centre,"sb\notes\bassclef.png",0,0 R,0,201444,,0.2587594 C,0,201444,,255,100,127 C,0,201444,,255,100,127 M,19,201444,201944,503,155,579,185 S,18,202044,202444,0.1618075,0.05 F,0,202294,202444,1,0
Sprite,Foreground,Centre,"sb\dot.png",441,265 C,0,201679,,160,32,240 F,2,201679,202179,0.2,0 S,19,201679,202179,0.6,1 P,0,201679,202179,A
Sprite,Foreground,Centre,"sb\notes\quaver.png",0,0 R,0,201679,,5.862389 C,0,201679,,255,128,0 C,0,201679,,255,128,0 M,19,201679,202179,441,265,350,274 S,18,202279,202679,0.176708,0.05 F,0,202529,202679,1,0
Sprite,Foreground,Centre,"sb\dot.png",352,220 C,0,201913,,255,100,127 F,2,201913,202413,0.2,0 S,19,201913,202413,0.6,1 P,0,201913,202413,A
Sprite,Foreground,Centre,"sb\notes\bassclef.png",0,0 R,0,201913,,0.4705469 C,0,201913,,255,100,127 C,0,201913,,255,100,127 M,19,201913,202413,352,220,397,172 S,18,202513,202913,0.1779279,0.05 F,0,202763,202913,1,0
Sprite,Foreground,Centre,"sb\dot.png",166,298 C,0,202382,,160,32,240 F,2,202382,202882,0.2,0 S,19,202382,202882,0.6,1 P,0,202382,202882,A
Sprite,Foreground,Centre,"sb\notes\quaver.png",0,0 R,0,202382,,6.070767 C,0,202382,,255,128,0 C,0,202382,,255,128,0 M,19,202382,202882,166,298,250,335 S,18,202982,203382,0.1996206,0.05 F,0,203232,203382,1,0
Sprite,Foreground,Centre,"sb\dot.png",166,298 C,0,202499,,255,128,0 F,2,202499,202999,0.2,0 S,19,202499,202999,0.6,1 P,0,202499,202999,A
Sprite,Foreground,Centre,"sb\notes\quaver.png",0,0 R,0,202499,,0.3715957 C,0,202499,,160,32,240 C,0,202499,,160,32,240 M,19,202499,202999,166,298,194,329 S,18,203099,203499,0.1966158,0.05 F,0,203349,203499,1,0
Sprite,Foreground,Centre,"sb\dot.png",166,298 C,0,202616,,255,100,127 F,2,202616,203116,0.2,0 S,19,202616,203116,0.6,1 P,0,202616,203116,A
Sprite,Foreground,Centre,"sb\notes\bassclef.png",0,0 R,0,202616,,5.696417 C,0,202616,,255,128,0 C,0,202616,,255,128,0 M,19,202616,203116,166,298,80,231 S,18,203216,203616,0.1963163,0.05 F,0,203466,203616,1,0
Sprite,Foreground,Centre,"sb\dot.png",97,170 C,0,202851,,255,128,0 F,2,202851,203351,0.2,0 S,19,202851,203351,0.6,1 P,0,202851,203351,A
Sprite,Foreground,Centre,"sb\notes\flat.png",0,0 R,0,202851,,5.47194 C,0,202851,,160,32,240 C,0,202851,,160,32,240 M,19,202851,203351,97,170,43,93 S,18,203451,203851,0.1783161,0.05 F,0,203701,203851,1,0
Sprite,Foreground,Centre,"sb\dot.png",97,170 C,0,202968,,255,100,127 F,2,202968,203468,0.2,0 S,19,202968,203468,0.6,1 P,0,202968,203468,A
Sprite,Foreground,Centre,"sb\notes\quaver.png",0,0 R,0,202968,,4.555432 C,0,202968,,160,32,240 C,0,202968,,160,32,240 M,19,202968,203468,97,170,93,102 S,18,203568,203968,0.1510472,0.05 F,0,203818,203968,1,0
Sprite,Foreground,Centre,"sb\dot.png",97,170 C,0,203085,,160,32,240 F,2,203085,203585,0.2,0 S,19,203085,203585,0.6,1 P,0,203085,203585,A
Sprite,Foreground,Centre,"sb\notes\minim.png",0,0 R,0,203085,,6.02889 C,0,203085,,255,100,127 C,0,203085,,255,100,127 M,19,203085,203585,97,170,190,118 S,18,203685,204085,0.1953153,0.05 F,0,203935,204085,1,0
Sprite,Foreground,Centre,"sb\dot.png",176,218 C,0,203319,,255,128,0 F,2,203319,203819,0.2,0 S,19,203319,203819,0.6,1 P,0,203319,203819,A
Sprite,Foreground,Centre,"sb\notes\beamnotes.png",0,0 R,0,203319,,2.535184 C,0,203319,,255,128,0 C,0,203319,,255,128,0 M,19,203319,203819,176,218,253,238 S,18,203919,204319,0.1968179,0.05 F,0,204169,204319,1,0
Sprite,Foreground,Centre,"sb\dot.png",64,308 C,0,203554,,255,128,0 F,2,203554,204054,0.2,0 S,19,203554,204054,0.6,1 P,0,203554,204054,A
Sprite,Foreground,Centre,"sb\notes\flat.png",0,0 R,0,203554,,4.094479 C,0,203554,,255,100,127 C,0,203554,,255,100,127 M,19,203554,204054,64,308,-18,334 S,18,204154,204554,0.1892006,0.05 F,0,204404,204554,1,0
Sprite,Foreground,Centre,"sb\dot.png",184,378 C,0,203788,,255,100,127 F,2,203788,204288,0.2,0 S,19,203788,204288,0.6,1 P,0,203788,204288,A
Sprite,Foreground,Centre,"sb\notes\flat.png",0,0 R,0,203788,,4.360471 C,0,203788,,255,100,127 C,0,203788,,255,100,127 M,19,203788,204288,184,378,197,363 S,18,204388,204788,0.1741718,0.05 F,0,204638,204788,1,0
Sprite,Foreground,Centre,"sb\dot.png",340,297 C,0,204257,,255,100,127 F,2,204257,204757,0.2,0 S,19,204257,204757,0.6,1 P,0,204257,204757,A
Sprite,Foreground,Centre,"sb\notes\beamnotes.png",0,0 R,0,204257,,1.011702 C,0,204257,,160,32,240 C,0,204257,,160,32,240 M,19,204257,204757,340,297,338,379 S,18,204857,205257,0.1936428,0.05 F,0,205107,205257,1,0
Sprite,Foreground,Centre,"sb\dot.png",340,297 C,0,204374,,160,32,240 F,2,204374,204874,0.2,0 S,19,204374,204874,0.6,1 P,0,204374,204874,A
Sprite,Foreground,Centre,"sb\notes\sharpflat.png",0,0 R,0,204374,,0.6623885 C,0,204374,,255,128,0 C,0,204374,,255,128,0 M,19,204374,204874,340,297,424,201 S,18,204974,205374,0.1911205,0.05 F,0,205224,205374,1,0
Sprite,Foreground,Centre,"sb\dot.png",340,297 C,0,204491,,255,100,127 F,2,204491,204991,0.2,0 S,19,204491,204991,0.6,1 P,0,204491,204991,A
Sprite,Foreground,Centre,"sb\notes\minim.png",0,0 R,0,204491,,2.138129 C,0,204491,,160,32,240 C,0,204491,,160,32,240 M,19,204491,204991,340,297,343,322 S,18,205091,205491,0.1655375,0.05 F,0,205341,205491,1,0
Sprite,Foreground,Centre,"sb\dot.png",431,421 C,0,204726,,255,100,127 F,2,204726,205226,0.2,0 S,19,204726,205226,0.6,1 P,0,204726,205226,A
Sprite,Foreground,Centre,"sb\notes\flat.png",0,0 R,0,204726,,2.434825 C,0,204726,,255,100,127 C,0,204726,,255,100,127 M,19,204726,205226,431,421,437,368 S,18,205326,205726,0.1562927,0.05 F,0,205576,205726,1,0
Sprite,Foreground,Centre,"sb\dot.png",431,421 C,0,204843,,255,100,127 F,2,204843,205343,0.2,0 S,19,204843,205343,0.6,1 P,0,204843,205343,A
Sprite,Foreground,Centre,"sb\notes\trebleclef.png",0,0 R,0,204843,,2.522671 C,0,204843,,255,100,127 C,0,204843,,255,100,127 M,19,204843,205343,431,421,494,405 S,18,205443,205843,0.1976585,0.05 F,0,205693,205843,1,0
Sprite,Foreground,Centre,"sb\dot.png",431,421 C,0,204960,,255,100,127 F,2,204960,205460,0.2,0 S,19,204960,205460,0.6,1 P,0,204960,205460,A
Sprite,Foreground,Centre,"sb\notes\minim.png",0,0 R,0,204960,,2.490513 C,0,204960,,255,100,127 C,0,204960,,255,100,127 M,19,204960,205460,431,421,469,333 S,18,205560,205960,0.1633539,0.05 F,0,205810,205960,1,0
Sprite,Foreground,Centre,"sb\dot.png",528,321 C,0,205194,,160,32,240 F,2,205194,205694,0.2,0 S,19,205194,205694,0.6,1 P,0,205194,205694,A
Sprite,Foreground,Centre,"sb\notes\beamnotes.png",0,0 R,0,205194,,1.058244 C,0,205194,,160,32,240 C,0,205194,,160,32,240 M,19,205194,205694,528,321,550,413 S,18,205794,206194,0.1592398,0.05 F,0,206044,206194,1,0
Sprite,Foreground,Centre,"sb\dot.png",569,406 C,0,205429,,255,128,0 F,2,205429,205929,0.2,0 S,19,205429,205929,0.6,1 P,0,205429,205929,A
Sprite,Foreground,Centre,"sb\notes\quaver.png",0,0 R,0,205429,,0.3229536 C,0,205429,,160,32,240 C,0,205429,,160,32,240 M,19,205429,205929,569,406,628,340 S,18,206029,206429,0.1855995,0.05 F,0,206279,206429,1,0
Sprite,Foreground,Centre,"sb\dot.png",449,252 C,0,205663,,255,128,0 F,2,205663,206163,0.2,0 S,19,205663,206163,0.6,1 P,0,205663,206163,A
Sprite,Foreground,Centre,"sb\notes\beamnotes.png",0,0 R,0,205663,,6.052549 C,0,205663,,255,128,0 C,0,205663,,255,128,0 M,19,205663,206163,449,252,483,301 S,18,206263,206663,0.174543,0.05 F,0,206513,206663,1,0
Sprite,Foreground,Centre,"sb\dot.png",576,214 C,0,206132,,255,128,0 F,2,206132,206632,0.2,0 S,19,206132,206632,0.6,1 P,0,206132,206632,A
Sprite,Foreground,Centre,"sb\notes\quaver.png",0,0 R,0,206132,,0.6739058 C,0,206132,,255,128,0 C,0,206132,,255,128,0 M,19,206132,206632,576,214,595,287 S,18,206732,207132,0.156279,0.05 F,0,206982,207132,1,0
Sprite,Foreground,Centre,"sb\dot.png",576,214 C,0,206249,,255,128,0 F,2,206249,206749,0.2,0 S,19,206249,206749,0.6,1 P,0,206249,206749,A
Sprite,Foreground,Centre,"sb\notes\beamnotes.png",0,0 R,0,206249,,5.187342 C,0,206249,,255,128,0 C,0,206249,,255,128,0 M,19,206249,206749,576,214,589,122 S,18,206849,207249,0.1818075,0.05 F,0,207099,207249,1,0
Sprite,Foreground,Centre,"sb\dot.png",576,214 C,0,206366,,255,100,127 F,2,206366,206866,0.2,0 S,19,206366,206866,0.6,1 P,0,206366,206866,A
Sprite,Foreground,Centre,"sb\notes\minim.png",0,0 R,0,206366,,5.768698 C,0,206366,,255,100,127 C,0,206366,,255,100,127 M,19,206366,206866,576,214,531,302 S,18,206966,207366,0.1681976,0.05 F,0,207216,207366,1,0
Sprite,Foreground,Centre,"sb\dot.png",412,92 C,0,206601,,160,32,240 F,2,206601,207101,0.2,0 S,19,206601,207101,0.6,1 P,0,206601,207101,A
Sprite,Foreground,Centre,"sb\notes\trebleclef.png",0,0 R,0,206601,,0.1352603 C,0,206601,,160,32,240 C,0,206601,,160,32,240 M,19,206601,207101,412,92,362,40 S,18,207201,207601,0.1591461,0.05 F,0,207451,207601,1,0
Sprite,Foreground,Centre,"sb\dot.png",412,92 C,0,206718,,255,100,127 F,2,206718,207218,0.2,0 S,19,206718,207218,0.6,1 P,0,206718,207218,A
Sprite,Foreground,Centre,"sb\notes\minim.png",0,0 R,0,206718,,0.100715 C,0,206718,,160,32,240 C,0,206718,,160,32,240 M,19,206718,207218,412,92,375,147 S,18,207318,207718,0.196182,0.05 F,0,207568,207718,1,0
Sprite,Foreground,Centre,"sb\dot.png",412,92 C,0,206835,,160,32,240 F,2,206835,207335,0.2,0 S,19,206835,207335,0.6,1 P,0,206835,207335,A
Sprite,Foreground,Centre,"sb\notes\sharpflat.png",0,0 R,0,206835,,0.0946316 C,0,206835,,255,100,127 C,0,206835,,255,100,127 M,19,206835,207335,412,92,330,3 S,18,207435,207835,0.1899516,0.05 F,0,207685,207835,1,0
Sprite,Foreground,Centre,"sb\dot.png",463,169 C,0,207069,,160,32,240 F,2,207069,207569,0.2,0 S,19,207069,207569,0.6,1 P,0,207069,207569,A
Sprite,Foreground,Centre,"sb\notes\flat.png",0,0 R,0,207069,,1.442984 C,0,207069,,255,100,127 C,0,207069,,255,100,127 M,19,207069,207569,463,169,388,84 S,18,207669,208069,0.1867662,0.05 F,0,207919,208069,1,0
Sprite,Foreground,Centre,"sb\dot.png",248,203 C,0,207304,,255,128,0 F,2,207304,207804,0.2,0 S,19,207304,207804,0.6,1 P,0,207304,207804,A
Sprite,Foreground,Centre,"sb\notes\minim.png",0,0 R,0,207304,,2.507697 C,0,207304,,255,100,127 C,0,207304,,255,100,127 M,19,207304,207804,248,203,309,128 S,18,207904,208304,0.169226,0.05 F,0,208154,208304,1,0
Sprite,Foreground,Centre,"sb\dot.png",326,136 C,0,207538,,255,128,0 F,2,207538,208038,0.2,0 S,19,207538,208038,0.6,1 P,0,207538,208038,A
Sprite,Foreground,Centre,"sb\notes\flat.png",0,0 R,0,207538,,2.180041 C,0,207538,,255,100,127 C,0,207538,,255,100,127 M,19,207538,208038,326,136,351,224 S,18,208138,208538,0.1854544,0.05 F,0,208388,208538,1,0
Sprite,Foreground,Centre,"sb\dot.png",196,284 C,0,208007,,255,128,0 F,2,208007,208507,0.2,0 S,19,208007,208507,0.6,1 P,0,208007,208507,A
Sprite,Foreground,Centre,"sb\notes\minim.png",0,0 R,0,208007,,1.570588 C,0,208007,,255,128,0 C,0,208007,,255,128,0 M,19,208007,208507,196,284,149,326 S,18,208607,209007,0.1776922,0.05 F,0,208857,209007,1,0
Sprite,Foreground,Centre,"sb\dot.png",196,284 C,0,208124,,255,128,0 F,2,208124,208624,0.2,0 S,19,208124,208624,0.6,1 P,0,208124,208624,A
Sprite,Foreground,Centre,"sb\notes\beamnotes.png",0,0 R,0,208124,,1.149609 C,0,208124,,255,128,0 C,0,208124,,255,128,0 M,19,208124,208624,196,284,272,296 S,18,208724,209124,0.19744,0.05 F,0,208974,209124,1,0
Sprite,Foreground,Centre,"sb\dot.png",196,284 C,0,208241,,160,32,240 F,2,208241,208741,0.2,0 S,19,208241,208741,0.6,1 P,0,208241,208741,A
Sprite,Foreground,Centre,"sb\notes\bassclef.png",0,0 R,0,208241,,0.761345 C,0,208241,,255,128,0 C,0,208241,,255,128,0 M,19,208241,208741,196,284,129,273 S,18,208841,209241,0.1772688,0.05 F,0,209091,209241,1,0
Sprite,Foreground,Centre,"sb\dot.png",253,56 C,0,208476,,255,128,0 F,2,208476,208976,0.2,0 S,19,208476,208976,0.6,1 P,0,208476,208976,A
Sprite,Foreground,Centre,"sb\notes\flat.png",0,0 R,0,208476,,3.207895 C,0,208476,,160,32,240 C,0,208476,,160,32,240 M,19,208476,208976,253,56,282,63 S,18,209076,209476,0.1884968,0.05 F,0,209326,209476,1,0
Sprite,Foreground,Centre,"sb\dot.png",253,56 C,0,208593,,160,32,240 F,2,208593,209093,0.2,0 S,19,208593,209093,0.6,1 P,0,208593,209093,A
Sprite,Foreground,Centre,"sb\notes\trebleclef.png",0,0 R,0,208593,,2.917298 C,0,208593,,255,128,0 C,0,208593,,255,128,0 M,19,208593,209093,253,56,176,-27 S,18,209193,209593,0.1823508,0.05 F,0,209443,209593,1,0
Sprite,Foreground,Centre,"sb\dot.png",253,56 C,0,208710,,255,128,0 F,2,208710,209210,0.2,0 S,19,208710,209210,0.6,1 P,0,208710,209210,A
Sprite,Foreground,Centre,"sb\notes\flat.png",0,0 R,0,208710,,5.413334 C,0,208710,,255,128,0 C,0,208710,,255,128,0 M,19,208710,209210,253,56,225,-8 S,18,209310,209710,0.1524404,0.05 F,0,209560,209710,1,0
Sprite,Foreground,Centre,"sb\dot.png",144,201 C,0,208944,,160,32,240 F,2,208944,209444,0.2,0 S,19,208944,209444,0.6,1 P,0,208944,209444,A
Sprite,Foreground,Centre,"sb\notes\bassclef.png",0,0 R,0,208944,,5.806317 C,0,208944,,255,100,127 C,0,208944,,255,100,127 M,19,208944,209444,144,201,156,188 S,18,209544,209944,0.1633824,0.05 F,0,209794,209944,1,0
Sprite,Foreground,Centre,"sb\dot.png",76,84 C,0,209179,,255,100,127 F,2,209179,209679,0.2,0 S,19,209179,209679,0.6,1 P,0,209179,209679,A
Sprite,Foreground,Centre,"sb\notes\flat.png",0,0 R,0,209179,,2.907358 C,0,209179,,255,100,127 C,0,209179,,255,100,127 M,19,209179,209679,76,84,75,16 S,18,209779,210179,0.1920704,0.05 F,0,210029,210179,1,0
Sprite,Foreground,Centre,"sb\dot.png",159,199 C,0,209413,,255,100,127 F,2,209413,209913,0.2,0 S,19,209413,209913,0.6,1 P,0,209413,209913,A
Sprite,Foreground,Centre,"sb\notes\beamnotes.png",0,0 R,0,209413,,3.883913 C,0,209413,,255,128,0 C,0,209413,,255,128,0 M,19,209413,209913,159,199,93,255 S,18,210013,210413,0.1598173,0.05 F,0,210263,210413,1,0
Sprite,Foreground,Centre,"sb\dot.png",308,121 C,0,209882,,255,100,127 F,2,209882,210382,0.2,0 S,19,209882,210382,0.6,1 P,0,209882,210382,A
Sprite,Foreground,Centre,"sb\notes\beamnotes.png",0,0 R,0,209882,,4.808418 C,0,209882,,255,128,0 C,0,209882,,255,128,0 M,19,209882,210382,308,121,302,81 S,18,210482,210882,0.1801556,0.05 F,0,210732,210882,1,0
Sprite,Foreground,Centre,"sb\dot.png",308,121 C,0,209999,,255,128,0 F,2,209999,210499,0.2,0 S,19,209999,210499,0.6,1 P,0,209999,210499,A
Sprite,Foreground,Centre,"sb\notes\sharpflat.png",0,0 R,0,209999,,5.039185 C,0,209999,,255,100,127 C,0,209999,,255,100,127 M,19,209999,210499,308,121,261,120 S,18,210599,210999,0.1759031,0.05 F,0,210849,210999,1,0
Sprite,Foreground,Centre,"sb\dot.png",308,121 C,0,210116,,255,100,127 F,2,210116,210616,0.2,0 S,19,210116,210616,0.6,1 P,0,210116,210616,A
Sprite,Foreground,Centre,"sb\notes\flat.png",0,0 R,0,210116,,0.5486675 C,0,210116,,160,32,240 C,0,210116,,160,32,240 M,19,210116,210616,308,121,228,121 S,18,210716,211116,0.1629467,0.05 F,0,210966,211116,1,0
Sprite,Foreground,Centre,"sb\dot.png",496,187 C,0,210351,,255,128,0 F,2,210351,210851,0.2,0 S,19,210351,210851,0.6,1 P,0,210351,210851,A
Sprite,Foreground,Centre,"sb\notes\minim.png",0,0 R,0,210351,,3.904984 C,0,210351,,255,100,127 C,0,210351,,255,100,127 M,19,210351,210851,496,187,581,248 S,18,210951,211351,0.1888012,0.05 F,0,211201,211351,1,0
Sprite,Foreground,Centre,"sb\dot.png",502,155 C,0,210468,,255,100,127 F,2,210468,210968,0.2,0 S,19,210468,210968,0.6,1 P,0,210468,210968,A
Sprite,Foreground,Centre,"sb\notes\beamnotes.png",0,0 R,0,210468,,1.193419 C,0,210468,,255,100,127 C,0,210468,,255,100,127 M,19,210468,210968,502,155,481,225 S,18,211068,211468,0.1607007,0.05 F,0,211318,211468,1,0
Sprite,Foreground,Centre,"sb\dot.png",508,124 C,0,210585,,255,128,0 F,2,210585,211085,0.2,0 S,19,210585,211085,0.6,1 P,0,210585,211085,A
Sprite,Foreground,Centre,"sb\notes\minim.png",0,0 R,0,210585,,0.5467106 C,0,210585,,255,100,127 C,0,210585,,255,100,127 M,19,210585,211085,508,124,434,156 S,18,211185,211585,0.1760751,0.05 F,0,211435,211585,1,0
Sprite,Foreground,Centre,"sb\dot.png",392,166 C,0,210819,,160,32,240 F,2,210819,211319,0.2,0 S,19,210819,211319,0.6,1 P,0,210819,211319,A
Sprite,Foreground,Centre,"sb\notes\trebleclef.png",0,0 R,0,210819,,1.438486 C,0,210819,,160,32,240 C,0,210819,,160,32,240 M,19,210819,211319,392,166,425,130 S,18,211419,211819,0.1938568,0.05 F,0,211669,211819,1,0
Sprite,Foreground,Centre,"sb\dot.png",575,237 C,0,211054,,255,128,0 F,2,211054,211554,0.2,0 S,19,211054,211554,0.6,1 P,0,211054,211554,A
Sprite,Foreground,Centre,"sb\notes\beamnotes.png",0,0 R,0,211054,,0.4397672 C,0,211054,,160,32,240 C,0,211054,,160,32,240 M,19,211054,211554,575,237,531,324 S,18,211654,212054,0.1750448,0.05 F,0,211904,212054,1,0
Sprite,Foreground,Centre,"sb\dot.png",402,280 C,0,211288,,255,128,0 F,2,211288,211788,0.2,0 S,19,211288,211788,0.6,1 P,0,211288,211788,A
Sprite,Foreground,Centre,"sb\notes\sharpflat.png",0,0 R,0,211288,,3.447842 C,0,211288,,255,100,127 C,0,211288,,255,100,127 M,19,211288,211788,402,280,401,345 S,18,211888,212288,0.174222,0.05 F,0,212138,212288,1,0
Sprite,Foreground,Centre,"sb\dot.png",545,332 C,0,211522,,160,32,240 F,2,211522,212022,0.2,0 S,19,211522,212022,0.6,1 P,0,211522,212022,A
Sprite,Foreground,Centre,"sb\notes\bassclef.png",0,0 R,0,211522,,5.457246 C,0,211522,,160,32,240 C,0,211522,,160,32,240 M,19,211522,212022,545,332,573,292 S,18,212122,212522,0.1669313,0.05 F,0,212372,212522,1,0
Sprite,Foreground,Centre,"sb\dot.png",496,187 C,0,211757,,255,128,0 F,2,211757,212257,0.2,0 S,19,211757,212257,0.6,1 P,0,211757,212257,A
Sprite,Foreground,Centre,"sb\notes\flat.png",0,0 R,0,211757,,6.091306 C,0,211757,,255,100,127 C,0,211757,,255,100,127 M,19,211757,212257,496,187,563,234 S,18,212357,212757,0.1599951,0.05 F,0,212607,212757,1,0
Sprite,Foreground,Centre,"sb\dot.png",490,219 C,0,211874,,160,32,240 F,2,211874,212374,0.2,0 S,19,211874,212374,0.6,1 P,0,211874,212374,A
Sprite,Foreground,Centre,"sb\notes\flat.png",0,0 R,0,211874,,1.627929 C,0,211874,,160,32,240 C,0,211874,,160,32,240 M,19,211874,212374,490,219,486,298 S,18,212474,212874,0.1715863,0.05 F,0,212724,212874,1,0
Sprite,Foreground,Centre,"sb\dot.png",484,250 C,0,211991,,255,100,127 F,2,211991,212491,0.2,0 S,19,211991,212491,0.6,1 P,0,211991,212491,A
Sprite,Foreground,Centre,"sb\notes\quaver.png",0,0 R,0,211991,,0.7285352 C,0,211991,,255,100,127 C,0,211991,,255,100,127 M,19,211991,212491,484,250,567,292 S,18,212591,212991,0.1557253,0.05 F,0,212841,212991,1,0
Sprite,Foreground,Centre,"sb\dot.png",364,370 C,0,212226,,255,128,0 F,2,212226,212726,0.2,0 S,19,212226,212726,0.6,1 P,0,212226,212726,A
Sprite,Foreground,Centre,"sb\notes\bassclef.png",0,0 R,0,212226,,4.007168 C,0,212226,,160,32,240 C,0,212226,,160,32,240 M,19,212226,212726,364,370,431,277 S,18,212826,213226,0.195489,0.05 F,0,213076,213226,1,0
Sprite,Foreground,Centre,"sb\dot.png",333,359 C,0,212343,,255,128,0 F,2,212343,212843,0.2,0 S,19,212343,212843,0.6,1 P,0,212343,212843,A
Sprite,Foreground,Centre,"sb\notes\bassclef.png",0,0 R,0,212343,,0.1447377 C,0,212343,,160,32,240 C,0,212343,,160,32,240 M,19,212343,212843,333,359,236,366 S,18,212943,213343,0.1944293,0.05 F,0,213193,213343,1,0
Sprite,Foreground,Centre,"sb\dot.png",311,335 C,0,212460,,255,128,0 F,2,212460,212960,0.2,0 S,19,212460,212960,0.6,1 P,0,212460,212960,A
Sprite,Foreground,Centre,"sb\notes\minim.png",0,0 R,0,212460,,2.788907 C,0,212460,,255,100,127 C,0,212460,,255,100,127 M,19,212460,212960,311,335,250,295 S,18,213060,213460,0.1658265,0.05 F,0,213310,213460,1,0
Sprite,Foreground,Centre,"sb\dot.png",290,170 C,0,212694,,160,32,240 F,2,212694,213194,0.2,0 S,19,212694,213194,0.6,1 P,0,212694,213194,A
Sprite,Foreground,Centre,"sb\notes\sharpflat.png",0,0 R,0,212694,,0.08744812 C,0,212694,,255,100,127 C,0,212694,,255,100,127 M,19,212694,213194,290,170,375,80 S,18,213294,213694,0.1742295,0.05 F,0,213544,213694,1,0
Sprite,Foreground,Centre,"sb\dot.png",229,367 C,0,212929,,255,100,127 F,2,212929,213429,0.2,0 S,19,212929,213429,0.6,1 P,0,212929,213429,A
Sprite,Foreground,Centre,"sb\notes\minim.png",0,0 R,0,212929,,4.580787 C,0,212929,,255,128,0 C,0,212929,,255,128,0 M,19,212929,213429,229,367,247,311 S,18,213529,213929,0.1561443,0.05 F,0,213779,213929,1,0
Sprite,Foreground,Centre,"sb\dot.png",173,289 C,0,213163,,160,32,240 F,2,213163,213663,0.2,0 S,19,213163,213663,0.6,1 P,0,213163,213663,A
Sprite,Foreground,Centre,"sb\notes\minim.png",0,0 R,0,213163,,0.001907303 C,0,213163,,255,100,127 C,0,213163,,255,100,127 M,19,213163,213663,173,289,213,247 S,18,213763,214163,0.1763072,0.05 F,0,214013,214163,1,0
Sprite,Foreground,Centre,"sb\dot.png",370,214 C,0,213398,,255,100,127 F,2,213398,213898,0.2,0 S,19,213398,213898,0.6,1 P,0,213398,213898,A
Sprite,Foreground,Centre,"sb\notes\bassclef.png",0,0 R,0,213398,,2.908861 C,0,213398,,255,100,127 C,0,213398,,255,100,127 M,19,213398,213898,370,214,342,222 S,18,213998,214398,0.1680986,0.05 F,0,214248,214398,1,0
Sprite,Foreground,Centre,"sb\dot.png",384,372 C,0,213632,,255,100,127 F,2,213632,214132,0.2,0 S,19,213632,214132,0.6,1 P,0,213632,214132,A
Sprite,Foreground,Centre,"sb\notes\bassclef.png",0,0 R,0,213632,,4.492911 C,0,213632,,255,128,0 C,0,213632,,255,128,0 M,19,213632,214132,384,372,366,431 S,18,214232,214632,0.1702096,0.05 F,0,214482,214632,1,0
Sprite,Foreground,Centre,"sb\dot.png",333,359 C,0,213749,,255,100,127 F,2,213749,214249,0.2,0 S,19,213749,214249,0.6,1 P,0,213749,214249,A
Sprite,Foreground,Centre,"sb\notes\beamnotes.png",0,0 R,0,213749,,5.712981 C,0,213749,,160,32,240 C,0,213749,,160,32,240 M,19,213749,214249,333,359,429,344 S,18,214349,214749,0.1823189,0.05 F,0,214599,214749,1,0
Sprite,Foreground,Centre,"sb\dot.png",301,320 C,0,213866,,160,32,240 F,2,213866,214366,0.2,0 S,19,213866,214366,0.6,1 P,0,213866,214366,A
Sprite,Foreground,Centre,"sb\notes\quaver.png",0,0 R,0,213866,,2.691514 C,0,213866,,255,100,127 C,0,213866,,255,100,127 M,19,213866,214366,301,320,263,373 S,18,214466,214866,0.1656373,0.05 F,0,214716,214866,1,0
Sprite,Foreground,Centre,"sb\dot.png",130,190 C,0,214101,,255,100,127 F,2,214101,214601,0.2,0 S,19,214101,214601,0.6,1 P,0,214101,214601,A
Sprite,Foreground,Centre,"sb\notes\sharpflat.png",0,0 R,0,214101,,3.139173 C,0,214101,,160,32,240 C,0,214101,,160,32,240 M,19,214101,214601,130,190,32,248 S,18,214701,215101,0.1541986,0.05 F,0,214951,215101,1,0
Sprite,Foreground,Centre,"sb\dot.png",161,184 C,0,214218,,255,128,0 F,2,214218,214718,0.2,0 S,19,214218,214718,0.6,1 P,0,214218,214718,A
Sprite,Foreground,Centre,"sb\notes\bassclef.png",0,0 R,0,214218,,3.567735 C,0,214218,,160,32,240 C,0,214218,,160,32,240 M,19,214218,214718,161,184,162,108 S,18,214818,215218,0.156076,0.05 F,0,215068,215218,1,0
Sprite,Foreground,Centre,"sb\dot.png",193,178 C,0,214335,,160,32,240 F,2,214335,214835,0.2,0 S,19,214335,214835,0.6,1 P,0,214335,214835,A
Sprite,Foreground,Centre,"sb\notes\bassclef.png",0,0 R,0,214335,,1.1235 C,0,214335,,255,100,127 C,0,214335,,255,100,127 M,19,214335,214835,193,178,178,221 S,18,214935,215335,0.1574395,0.05 F,0,215185,215335,1,0
Sprite,Foreground,Centre,"sb\dot.png",350,150 C,0,214569,,255,100,127 F,2,214569,215069,0.2,0 S,19,214569,215069,0.6,1 P,0,214569,215069,A
Sprite,Foreground,Centre,"sb\notes\quaver.png",0,0 R,0,214569,,4.498858 C,0,214569,,255,100,127 C,0,214569,,255,100,127 M,19,214569,215069,350,150,422,225 S,18,215169,215569,0.1867862,0.05 F,0,215419,215569,1,0
Sprite,Foreground,Centre,"sb\dot.png",235,93 C,0,214804,,160,32,240 F,2,214804,215304,0.2,0 S,19,214804,215304,0.6,1 P,0,214804,215304,A
Sprite,Foreground,Centre,"sb\notes\trebleclef.png",0,0 R,0,214804,,0.288931 C,0,214804,,255,100,127 C,0,214804,,255,100,127 M,19,214804,215304,235,93,290,2 S,18,215404,215804,0.1556808,0.05 F,0,215654,215804,1,0
Sprite,Foreground,Centre,"sb\dot.png",184,268 C,0,215038,,255,100,127 F,2,215038,215538,0.2,0 S,19,215038,215538,0.6,1 P,0,215038,215538,A
Sprite,Foreground,Centre,"sb\notes\beamnotes.png",0,0 R,0,215038,,2.52112 C,0,215038,,255,100,127 C,0,215038,,255,100,127 M,19,215038,215538,184,268,85,232 S,18,215638,216038,0.1772367,0.05 F,0,215888,216038,1,0
Sprite,Foreground,Centre,"sb\dot.png",88,116 C,0,215272,,255,100,127 F,2,215272,215772,0.2,0 S,19,215272,215772,0.6,1 P,0,215272,215772,A
Sprite,Foreground,Centre,"sb\notes\bassclef.png",0,0 R,0,215272,,2.983127 C,0,215272,,160,32,240 C,0,215272,,160,32,240 M,19,215272,215772,88,116,48,120 S,18,215872,216272,0.1541902,0.05 F,0,216122,216272,1,0
Sprite,Foreground,Centre,"sb\dot.png",193,178 C,0,215507,,160,32,240 F,2,215507,216007,0.2,0 S,19,215507,216007,0.6,1 P,0,215507,216007,A
Sprite,Foreground,Centre,"sb\notes\beamnotes.png",0,0 R,0,215507,,5.581038 C,0,215507,,255,100,127 C,0,215507,,255,100,127 M,19,215507,216007,193,178,102,110 S,18,216107,216507,0.1927525,0.05 F,0,216357,216507,1,0
Sprite,Foreground,Centre,"sb\dot.png",224,184 C,0,215624,,255,100,127 F,2,215624,216124,0.2,0 S,19,215624,216124,0.6,1 P,0,215624,216124,A
Sprite,Foreground,Centre,"sb\notes\flat.png",0,0 R,0,215624,,0.9169592 C,0,215624,,255,128,0 C,0,215624,,255,128,0 M,19,215624,216124,224,184,306,153 S,18,216224,216624,0.1647353,0.05 F,0,216474,216624,1,0
Sprite,Foreground,Centre,"sb\dot.png",256,190 C,0,215741,,255,100,127 F,2,215741,216241,0.2,0 S,19,215741,216241,0.6,1 P,0,215741,216241,A
Sprite,Foreground,Centre,"sb\notes\minim.png",0,0 R,0,215741,,4.600122 C,0,215741,,160,32,240 C,0,215741,,160,32,240 M,19,215741,216241,256,190,170,91 S,18,216341,216741,0.1611059,0.05 F,0,216591,216741,1,0
Sprite,Foreground,Centre,"sb\dot.png",494,142 C,0,215976,,255,128,0 F,2,215976,216476,0.2,0 S,19,215976,216476,0.6,1 P,0,215976,216476,A
Sprite,Foreground,Centre,"sb\notes\sharpflat.png",0,0 R,0,215976,,2.629844 C,0,215976,,255,128,0 C,0,215976,,255,128,0 M,19,215976,216476,494,142,473,162 S,18,216576,216976,0.1509193,0.05 F,0,216826,216976,1,0
Sprite,Foreground,Centre,"sb\dot.png",494,174 C,0,216093,,160,32,240 F,2,216093,216593,0.2,0 S,19,216093,216593,0.6,1 P,0,216093,216593,A
Sprite,Foreground,Centre,"sb\notes\sharpflat.png",0,0 R,0,216093,,3.533434 C,0,216093,,255,100,127 C,0,216093,,255,100,127 M,19,216093,216593,494,174,464,204 S,18,216693,217093,0.1948542,0.05 F,0,216943,217093,1,0
Sprite,Foreground,Centre,"sb\dot.png",480,204 C,0,216210,,160,32,240 F,2,216210,216710,0.2,0 S,19,216210,216710,0.6,1 P,0,216210,216710,A
Sprite,Foreground,Centre,"sb\notes\sharpflat.png",0,0 R,0,216210,,4.58945 C,0,216210,,255,100,127 C,0,216210,,255,100,127 M,19,216210,216710,480,204,557,155 S,18,216810,217210,0.1594809,0.05 F,0,217060,217210,1,0
Sprite,Foreground,Centre,"sb\dot.png",348,217 C,0,216444,,255,128,0 F,2,216444,216944,0.2,0 S,19,216444,216944,0.6,1 P,0,216444,216944,A
Sprite,Foreground,Centre,"sb\notes\minim.png",0,0 R,0,216444,,0.6092666 C,0,216444,,255,100,127 C,0,216444,,255,100,127 M,19,216444,216944,348,217,442,167 S,18,217044,217444,0.1541759,0.05 F,0,217294,217444,1,0
Sprite,Foreground,Centre,"sb\dot.png",501,59 C,0,216679,,160,32,240 F,2,216679,217179,0.2,0 S,19,216679,217179,0.6,1 P,0,216679,217179,A
Sprite,Foreground,Centre,"sb\notes\sharpflat.png",0,0 R,0,216679,,1.439978 C,0,216679,,255,128,0 C,0,216679,,255,128,0 M,19,216679,217179,501,59,504,131 S,18,217279,217679,0.1837641,0.05 F,0,217529,217679,1,0
Sprite,Foreground,Centre,"sb\dot.png",575,225 C,0,216913,,160,32,240 F,2,216913,217413,0.2,0 S,19,216913,217413,0.6,1 P,0,216913,217413,A
Sprite,Foreground,Centre,"sb\notes\minim.png",0,0 R,0,216913,,4.074843 C,0,216913,,160,32,240 C,0,216913,,160,32,240 M,19,216913,217413,575,225,586,292 S,18,217513,217913,0.1712999,0.05 F,0,217763,217913,1,0
Sprite,Foreground,Centre,"sb\dot.png",403,105 C,0,217147,,160,32,240 F,2,217147,217647,0.2,0 S,19,217147,217647,0.6,1 P,0,217147,217647,A
Sprite,Foreground,Centre,"sb\notes\minim.png",0,0 R,0,217147,,3.491657 C,0,217147,,160,32,240 C,0,217147,,160,32,240 M,19,217147,217647,403,105,442,84 S,18,217747,218147,0.1724716,0.05 F,0,217997,218147,1,0
Sprite,Foreground,Centre,"sb\dot.png",466,266 C,0,217382,,255,128,0 F,2,217382,217882,0.2,0 S,19,217382,217882,0.6,1 P,0,217382,217882,A
Sprite,Foreground,Centre,"sb\notes\flat.png",0,0 R,0,217382,,1.181983 C,0,217382,,255,100,127 C,0,217382,,255,100,127 M,19,217382,217882,466,266,515,172 S,18,217982,218382,0.1987996,0.05 F,0,218232,218382,1,0
Sprite,Foreground,Centre,"sb\dot.png",466,234 C,0,217499,,160,32,240 F,2,217499,217999,0.2,0 S,19,217499,217999,0.6,1 P,0,217499,217999,A
Sprite,Foreground,Centre,"sb\notes\minim.png",0,0 R,0,217499,,2.679797 C,0,217499,,255,100,127 C,0,217499,,255,100,127 M,19,217499,217999,466,234,436,320 S,18,218099,218499,0.1539227,0.05 F,0,218349,218499,1,0
Sprite,Foreground,Centre,"sb\dot.png",480,204 C,0,217616,,255,128,0 F,2,217616,218116,0.2,0 S,19,217616,218116,0.6,1 P,0,217616,218116,A
Sprite,Foreground,Centre,"sb\notes\minim.png",0,0 R,0,217616,,5.26501 C,0,217616,,255,100,127 C,0,217616,,255,100,127 M,19,217616,218116,480,204,538,148 S,18,218216,218616,0.1590309,0.05 F,0,218466,218616,1,0
Sprite,Foreground,Centre,"sb\dot.png",576,415 C,0,217851,,255,100,127 F,2,217851,218351,0.2,0 S,19,217851,218351,0.6,1 P,0,217851,218351,A
Sprite,Foreground,Centre,"sb\notes\quaver.png",0,0 R,0,217851,,2.044383 C,0,217851,,255,100,127 C,0,217851,,255,100,127 M,19,217851,218351,576,415,560,467 S,18,218451,218851,0.1636562,0.05 F,0,218701,218851,1,0
Sprite,Foreground,Centre,"sb\dot.png",540,408 C,0,217968,,255,128,0 F,2,217968,218468,0.2,0 S,19,217968,218468,0.6,1 P,0,217968,218468,A
Sprite,Foreground,Centre,"sb\notes\quaver.png",0,0 R,0,217968,,1.731926 C,0,217968,,160,32,240 C,0,217968,,160,32,240 M,19,217968,218468,540,408,610,434 S,18,218568,218968,0.1912594,0.05 F,0,218818,218968,1,0
Sprite,Foreground,Centre,"sb\dot.png",504,403 C,0,218085,,160,32,240 F,2,218085,218585,0.2,0 S,19,218085,218585,0.6,1 P,0,218085,218585,A
Sprite,Foreground,Centre,"sb\notes\sharpflat.png",0,0 R,0,218085,,4.823082 C,0,218085,,255,100,127 C,0,218085,,255,100,127 M,19,218085,218585,504,403,569,442 S,18,218685,219085,0.1557393,0.05 F,0,218935,219085,1,0
Sprite,Foreground,Centre,"sb\dot.png",358,291 C,0,218319,,255,128,0 F,2,218319,218819,0.2,0 S,19,218319,218819,0.6,1 P,0,218319,218819,A
Sprite,Foreground,Centre,"sb\notes\beamnotes.png",0,0 R,0,218319,,1.293515 C,0,218319,,255,100,127 C,0,218319,,255,100,127 M,19,218319,218819,358,291,438,260 S,18,218919,219319,0.1836422,0.05 F,0,219169,219319,1,0
Sprite,Foreground,Centre,"sb\dot.png",283,440 C,0,218554,,255,100,127 F,2,218554,219054,0.2,0 S,19,218554,219054,0.6,1 P,0,218554,219054,A
Sprite,Foreground,Centre,"sb\notes\beamnotes.png",0,0 R,0,218554,,5.693147 C,0,218554,,255,128,0 C,0,218554,,255,128,0 M,19,218554,219054,283,440,218,393 S,18,219154,219554,0.1709146,0.05 F,0,219404,219554,1,0
Sprite,Foreground,Centre,"sb\dot.png",362,278 C,0,218788,,255,128,0 F,2,218788,219288,0.2,0 S,19,218788,219288,0.6,1 P,0,218788,219288,A
Sprite,Foreground,Centre,"sb\notes\trebleclef.png",0,0 R,0,218788,,2.057335 C,0,218788,,255,128,0 C,0,218788,,255,128,0 M,19,218788,219288,362,278,315,318 S,18,219388,219788,0.1738593,0.05 F,0,219638,219788,1,0
Sprite,Foreground,Centre,"sb\dot.png",402,403 C,0,219022,,255,128,0 F,2,219022,219522,0.2,0 S,19,219022,219522,0.6,1 P,0,219022,219522,A
Sprite,Foreground,Centre,"sb\notes\sharpflat.png",0,0 R,0,219022,,3.151807 C,0,219022,,255,100,127 C,0,219022,,255,100,127 M,19,219022,219522,402,403,362,353 S,18,219622,220022,0.1737277,0.05 F,0,219872,220022,1,0
Sprite,Foreground,Centre,"sb\dot.png",369,193 C,0,219257,,255,128,0 F,2,219257,219757,0.2,0 S,19,219257,219757,0.6,1 P,0,219257,219757,A
Sprite,Foreground,Centre,"sb\notes\flat.png",0,0 R,0,219257,,6.038445 C,0,219257,,255,100,127 C,0,219257,,255,100,127 M,19,219257,219757,369,193,373,106 S,18,219857,220257,0.1681648,0.05 F,0,220107,220257,1,0
Sprite,Foreground,Centre,"sb\dot.png",400,196 C,0,219374,,160,32,240 F,2,219374,219874,0.2,0 S,19,219374,219874,0.6,1 P,0,219374,219874,A
Sprite,Foreground,Centre,"sb\notes\trebleclef.png",0,0 R,0,219374,,3.267939 C,0,219374,,255,100,127 C,0,219374,,255,100,127 M,19,219374,219874,400,196,383,216 S,18,219974,220374,0.1922859,0.05 F,0,220224,220374,1,0
Sprite,Foreground,Centre,"sb\dot.png",428,214 C,0,219491,,160,32,240 F,2,219491,219991,0.2,0 S,19,219491,219991,0.6,1 P,0,219491,219991,A
Sprite,Foreground,Centre,"sb\notes\sharpflat.png",0,0 R,0,219491,,4.251089 C,0,219491,,160,32,240 C,0,219491,,160,32,240 M,19,219491,219991,428,214,401,195 S,18,220091,220491,0.188971,0.05 F,0,220341,220491,1,0
Sprite,Foreground,Centre,"sb\dot.png",235,273 C,0,219726,,255,128,0 F,2,219726,220226,0.2,0 S,19,219726,220226,0.6,1 P,0,219726,220226,A
Sprite,Foreground,Centre,"sb\notes\beamnotes.png",0,0 R,0,219726,,3.520519 C,0,219726,,160,32,240 C,0,219726,,160,32,240 M,19,219726,220226,235,273,334,300 S,18,220326,220726,0.1549613,0.05 F,0,220576,220726,1,0
Sprite,Foreground,Centre,"sb\dot.png",203,273 C,0,219843,,160,32,240 F,2,219843,220343,0.2,0 S,19,219843,220343,0.6,1 P,0,219843,220343,A
Sprite,Foreground,Centre,"sb\notes\bassclef.png",0,0 R,0,219843,,3.776249 C,0,219843,,255,128,0 C,0,219843,,255,128,0 M,19,219843,220343,203,273,121,212 S,18,220443,220843,0.1643067,0.05 F,0,220693,220843,1,0
Sprite,Foreground,Centre,"sb\dot.png",173,259 C,0,219960,,255,128,0 F,2,219960,220460,0.2,0 S,19,219960,220460,0.6,1 P,0,219960,220460,A
Sprite,Foreground,Centre,"sb\notes\quaver.png",0,0 R,0,219960,,4.104866 C,0,219960,,255,128,0 C,0,219960,,255,128,0 M,19,219960,220460,173,259,113,169 S,18,220560,220960,0.156807,0.05 F,0,220810,220960,1,0
Sprite,Foreground,Centre,"sb\dot.png",64,94 C,0,220194,,255,100,127 F,2,220194,220694,0.2,0 S,19,220194,220694,0.6,1 P,0,220194,220694,A
Sprite,Foreground,Centre,"sb\notes\sharpflat.png",0,0 R,0,220194,,5.358298 C,0,220194,,255,128,0 C,0,220194,,255,128,0 M,19,220194,220694,64,94,-16,120 S,18,220794,221194,0.1714586,0.05 F,0,221044,221194,1,0
Sprite,Foreground,Centre,"sb\dot.png",245,163 C,0,220429,,255,128,0 F,2,220429,220929,0.2,0 S,19,220429,220929,0.6,1 P,0,220429,220929,A
Sprite,Foreground,Centre,"sb\notes\sharpflat.png",0,0 R,0,220429,,5.878013 C,0,220429,,255,128,0 C,0,220429,,255,128,0 M,19,220429,220929,245,163,314,202 S,18,221029,221429,0.1968244,0.05 F,0,221279,221429,1,0
Sprite,Foreground,Centre,"sb\dot.png",100,302 C,0,220663,,255,100,127 F,2,220663,221163,0.2,0 S,19,220663,221163,0.6,1 P,0,220663,221163,A
Sprite,Foreground,Centre,"sb\notes\quaver.png",0,0 R,0,220663,,3.305532 C,0,220663,,160,32,240 C,0,220663,,160,32,240 M,19,220663,221163,100,302,85,254 S,18,221263,221663,0.1586073,0.05 F,0,221513,221663,1,0
Sprite,Foreground,Centre,"sb\dot.png",170,57 C,0,220897,,255,128,0 F,2,220897,221397,0.2,0 S,19,220897,221397,0.6,1 P,0,220897,221397,A
Sprite,Foreground,Centre,"sb\notes\flat.png",0,0 R,0,220897,,2.021952 C,0,220897,,255,128,0 C,0,220897,,255,128,0 M,19,220897,221397,170,57,150,68 S,18,221497,221897,0.1731538,0.05 F,0,221747,221897,1,0
Sprite,Foreground,Centre,"sb\dot.png",346,189 C,0,221132,,255,100,127 F,2,221132,221632,0.2,0 S,19,221132,221632,0.6,1 P,0,221132,221632,A
Sprite,Foreground,Centre,"sb\notes\flat.png",0,0 R,0,221132,,1.019689 C,0,221132,,255,100,127 C,0,221132,,255,100,127 M,19,221132,221632,346,189,316,217 S,18,221732,222132,0.1880615,0.05 F,0,221982,222132,1,0
Sprite,Foreground,Centre,"sb\dot.png",339,225 C,0,221249,,160,32,240 F,2,221249,221749,0.2,0 S,19,221249,221749,0.6,1 P,0,221249,221749,A
Sprite,Foreground,Centre,"sb\notes\quaver.png",0,0 R,0,221249,,5.616117 C,0,221249,,255,128,0 C,0,221249,,255,128,0 M,19,221249,221749,339,225,240,259 S,18,221849,222249,0.170547,0.05 F,0,222099,222249,1,0
Sprite,Foreground,Centre,"sb\dot.png",334,261 C,0,221366,,255,100,127 F,2,221366,221866,0.2,0 S,19,221366,221866,0.6,1 P,0,221366,221866,A
Sprite,Foreground,Centre,"sb\notes\trebleclef.png",0,0 R,0,221366,,1.557619 C,0,221366,,160,32,240 C,0,221366,,160,32,240 M,19,221366,221866,334,261,334,230 S,18,221966,222366,0.1922231,0.05 F,0,222216,222366,1,0
Sprite,Foreground,Centre,"sb\dot.png",105,406 C,0,221601,,255,100,127 F,2,221601,222101,0.2,0 S,19,221601,222101,0.6,1 P,0,221601,222101,A
Sprite,Foreground,Centre,"sb\notes\minim.png",0,0 R,0,221601,,4.867896 C,0,221601,,255,100,127 C,0,221601,,255,100,127 M,19,221601,222101,105,406,163,498 S,18,222201,222601,0.163561,0.05 F,0,222451,222601,1,0
Sprite,Foreground,Centre,"sb\dot.png",152,398 C,0,221718,,255,100,127 F,2,221718,222218,0.2,0 S,19,221718,222218,0.6,1 P,0,221718,222218,A
Sprite,Foreground,Centre,"sb\notes\trebleclef.png",0,0 R,0,221718,,4.401977 C,0,221718,,160,32,240 C,0,221718,,160,32,240 M,19,221718,222218,152,398,66,491 S,18,222318,222718,0.1890388,0.05 F,0,222568,222718,1,0
Sprite,Foreground,Centre,"sb\dot.png",198,385 C,0,221835,,160,32,240 F,2,221835,222335,0.2,0 S,19,221835,222335,0.6,1 P,0,221835,222335,A
Sprite,Foreground,Centre,"sb\notes\sharpflat.png",0,0 R,0,221835,,3.106862 C,0,221835,,255,128,0 C,0,221835,,255,128,0 M,19,221835,222335,198,385,108,320 S,18,222435,222835,0.1839365,0.05 F,0,222685,222835,1,0
Sprite,Foreground,Centre,"sb\dot.png",243,371 C,0,221952,,255,128,0 F,2,221952,222452,0.2,0 S,19,221952,222452,0.6,1 P,0,221952,222452,A
Sprite,Foreground,Centre,"sb\notes\quaver.png",0,0 R,0,221952,,2.652129 C,0,221952,,160,32,240 C,0,221952,,160,32,240 M,19,221952,222452,243,371,261,423 S,18,222552,222952,0.174942,0.05 F,0,222802,222952,1,0
Sprite,Foreground,Centre,"sb\dot.png",288,357 C,0,222069,,160,32,240 F,2,222069,222569,0.2,0 S,19,222069,222569,0.6,1 P,0,222069,222569,A
Sprite,Foreground,Centre,"sb\notes\beamnotes.png",0,0 R,0,222069,,5.647546 C,0,222069,,255,100,127 C,0,222069,,255,100,127 M,19,222069,222569,288,357,229,380 S,18,222669,223069,0.1579395,0.05 F,0,222919,223069,1,0
Sprite,Foreground,Centre,"sb\dot.png",254,322 C,0,222186,,255,128,0 F,2,222186,222686,0.2,0 S,19,222186,222686,0.6,1 P,0,222186,222686,A
Sprite,Foreground,Centre,"sb\notes\trebleclef.png",0,0 R,0,222186,,3.524704 C,0,222186,,160,32,240 C,0,222186,,160,32,240 M,19,222186,222686,254,322,289,320 S,18,222786,223186,0.1553548,0.05 F,0,223036,223186,1,0
Sprite,Foreground,Centre,"sb\dot.png",221,286 C,0,222304,,255,128,0 F,2,222304,222804,0.2,0 S,19,222304,222804,0.6,1 P,0,222304,222804,A
Sprite,Foreground,Centre,"sb\notes\beamnotes.png",0,0 R,0,222304,,5.870056 C,0,222304,,255,100,127 C,0,222304,,255,100,127 M,19,222304,222804,221,286,261,312 S,18,222904,223304,0.1966533,0.05 F,0,223154,223304,1,0
Sprite,Foreground,Centre,"sb\dot.png",187,251 C,0,222421,,255,100,127 F,2,222421,222921,0.2,0 S,19,222421,222921,0.6,1 P,0,222421,222921,A
Sprite,Foreground,Centre,"sb\notes\trebleclef.png",0,0 R,0,222421,,2.835631 C,0,222421,,255,128,0 C,0,222421,,255,128,0 M,19,222421,222921,187,251,121,184 S,18,223021,223421,0.1509989,0.05 F,0,223271,223421,1,0
Sprite,Foreground,Centre,"sb\dot.png",149,220 C,0,222538,,255,128,0 F,2,222538,223038,0.2,0 S,19,222538,223038,0.6,1 P,0,222538,223038,A
Sprite,Foreground,Centre,"sb\notes\minim.png",0,0 R,0,222538,,1.237218 C,0,222538,,160,32,240 C,0,222538,,160,32,240 M,19,222538,223038,149,220,89,274 S,18,223138,223538,0.189596,0.05 F,0,223388,223538,1,0
Sprite,Foreground,Centre,"sb\dot.png",207,135 C,0,223007,,160,32,240 F,2,223007,223507,0.2,0 S,19,223007,223507,0.6,1 P,0,223007,223507,A
Sprite,Foreground,Centre,"sb\notes\minim.png",0,0 R,0,223007,,5.415761 C,0,223007,,255,128,0 C,0,223007,,255,128,0 M,19,223007,223507,207,135,176,159 S,18,223607,224007,0.1738297,0.05 F,0,223857,224007,1,0
Sprite,Foreground,Centre,"sb\dot.png",0,0 M,0,22851,,495,441 C,0,22851,,160,32,240 M,0,22851,22909,495,441,484.5328,408.4155 F,2,22851,23351,0.05,0 S,19,22851,23351,1.08,1.8 P,0,22851,23351,A M,0,22909,22968,484.5328,408.4155,467.7852,390.0197 M,0,22968,23026,467.7852,390.0197,446.304,377.4992 M,0,23026,23085,446.304,377.4992,422.0693,371.9991
Sprite,Foreground,Centre,"sb\dot.png",0,0 M,0,23319,,256,250 C,0,23319,,255,128,0 F,2,23319,23819,0.1,0 S,19,23319,23819,1.08,1.8 P,0,23319,23819,A
Sprite,Foreground,Centre,"sb\dot.png",0,0 M,0,23554,,391,301 C,0,23554,,255,100,127 F,2,23554,24054,0.15,0 S,19,23554,24054,1.08,1.8 P,0,23554,24054,A
Sprite,Foreground,Centre,"sb\dot.png",0,0 M,0,23788,,352,450 C,0,23788,,255,100,127 M,0,23788,23846,352,450,344.0943,416.2829 F,2,23788,24288,0.2,0 S,19,23788,24288,1.08,1.8 P,0,23788,24288,A M,0,23846,23905,344.0943,416.2829,336.1886,392.5658 M,0,23905,23963,336.1886,392.5658,328.2829,368.8488 M,0,23963,24022,328.2829,368.8488,320.3772,345.1317
Sprite,Foreground,Centre,"sb\dot.png",0,0 M,0,24140,,312,333 C,0,24140,,160,32,240 F,2,24140,24640,0.25,0 S,19,24140,24640,1.08,1.8 P,0,24140,24640,A
Sprite,Foreground,Centre,"sb\dot.png",0,0 M,0,24257,,312,333 C,0,24257,,255,100,127 F,2,24257,24757,0.3,0 S,19,24257,24757,1.08,1.8 P,0,24257,24757,A
Sprite,Foreground,Centre,"sb\dot.png",0,0 M,0,24491,,382,198 C,0,24491,,255,128,0 F,2,24491,24991,0.35,0 S,19,24491,24991,1.08,1.8 P,0,24491,24991,A
Sprite,Foreground,Centre,"sb\dot.png",0,0 M,0,24726,,218,159 C,0,24726,,160,32,240 F,2,24726,25226,0.4,0 S,19,24726,25226,1.08,1.8 P,0,24726,25226,A
Sprite,Foreground,Centre,"sb\dot.png",0,0 M,0,24960,,150,290 C,0,24960,,255,128,0 F,2,24960,25460,0.45,0 S,19,24960,25460,1.08,1.8 P,0,24960,25460,A
Sprite,Foreground,Centre,"sb\dot.png",0,0 M,0,25194,,160,86 C,0,25194,,255,128,0 F,2,25194,25694,0.5,0 S,19,25194,25694,1.08,1.8 P,0,25194,25694,A
Sprite,Foreground,Centre,"sb\dot.png",0,0 M,0,25429,,292,246 C,0,25429,,255,100,127 F,2,25429,25929,0.55,0 S,19,25429,25929,1.08,1.8 P,0,25429,25929,A
Sprite,Foreground,Centre,"sb\dot.png",0,0 M,0,25663,,80,168 C,0,25663,,160,32,240 F,2,25663,26163,0.6,0 S,19,25663,26163,1.08,1.8 P,0,25663,26163,A
Sprite,Foreground,Centre,"sb\dot.png",0,0 M,0,25897,,300,118 C,0,25897,,255,128,0 F,2,25897,26397,0.65,0 S,19,25897,26397,1.08,1.8 P,0,25897,26397,A
Sprite,Foreground,Centre,"sb\dot.png",0,0 M,0,26015,,300,118 C,0,26015,,160,32,240 F,2,26015,26515,0.7,0 S,19,26015,26515,1.08,1.8 P,0,26015,26515,A
Sprite,Foreground,Centre,"sb\dot.png",0,0 M,0,26132,,300,118 C,0,26132,,255,100,127 M,0,26132,26190,300,118,324.543,112.7583 F,2,26132,26632,0.75,0 S,19,26132,26632,1.08,1.8 P,0,26132,26632,A M,0,26190,26249,324.543,112.7583,349.086,117.5167 M,0,26249,26307,349.086,117.5167,373.629,122.275 M,0,26307,26366,373.629,122.275,398,127
Sprite,Foreground,Centre,"sb\dot.png",0,0 M,0,26601,,297,332 C,0,26601,,160,32,240 F,2,26601,27101,0.8,0 S,19,26601,27101,1.08,1.8 P,0,26601,27101,A
Sprite,Foreground,Centre,"sb\dot.png",0,0 M,0,26718,,297,332 C,0,26718,,255,128,0 F,2,26718,27218,0.85,0 S,19,26718,27218,1.08,1.8 P,0,26718,27218,A
Sprite,Foreground,Centre,"sb\dot.png",0,0 M,0,26835,,297,332 C,0,26835,,255,100,127 M,0,26835,26893,297,332,290.5891,297.836 F,2,26835,27335,0.9,0 S,19,26835,27335,1.08,1.8 P,0,26835,27335,A M,0,26893,26952,290.5891,297.836,284.1783,273.6719
Sprite,Foreground,Centre,"sb\dot.png",0,0 M,0,27069,,402,217 C,0,27069,,160,32,240 F,2,27069,27569,0.95,0 S,19,27069,27569,1.08,1.8 P,0,27069,27569,A
Sprite,Foreground,Centre,"sb\dot.png",0,0 M,0,27186,,402,217 C,0,27186,,160,32,240 F,2,27186,27686,1,0 S,19,27186,27686,1.08,1.8 P,0,27186,27686,A
Sprite,Foreground,Centre,"sb\dot.png",0,0 M,0,27303,,402,217 C,0,27303,,255,100,127 M,0,27303,27361,402,217,395,231 F,2,27303,27803,1,0 S,19,27303,27803,1.08,1.8 P,0,27303,27803,A M,0,27361,27420,395,231,388,255
Sprite,Foreground,Centre,"sb\dot.png",0,0 M,0,27538,,500,245 C,0,27538,,255,128,0 M,0,27538,27596,500,245,484,254 F,2,27538,28038,1,0 S,19,27538,28038,1.08,1.8 P,0,27538,28038,A M,0,27596,27655,484,254,500,235 M,0,27655,27713,500,235,484,254 M,0,27713,27772,484,254,500,235 M,0,27772,27830,500,235,484,254 M,0,27830,27889,484,254,500,235
Sprite,Foreground,Centre,"sb\dot.png",0,0 M,0,28007,,576,307 C,0,28007,,255,100,127 M,0,28007,28065,576,307,552,304 F,2,28007,28507,1,0 S,19,28007,28507,1.08,1.8 P,0,28007,28507,A M,0,28065,28124,552,304,576,297 M,0,28124,28182,576,297,552,304 M,0,28182,28241,552,304,576,297 M,0,28241,28299,576,297,552,304 M,0,28299,28358,552,304,576,297
Sprite,Foreground,Centre,"sb\dot.png",0,0 M,0,28476,,567,391 C,0,28476,,160,32,240 F,2,28476,28976,1,0 S,19,28476,28976,1.08,1.8 P,0,28476,28976,A
Sprite,Foreground,Centre,"sb\dot.png",0,0 M,0,28827,,395,262 C,0,28827,,255,128,0 F,2,28827,29327,1,0 S,19,28827,29327,1.08,1.8 P,0,28827,29327,A
Sprite,Foreground,Centre,"sb\dot.png",0,0 M,0,28944,,395,262 C,0,28944,,255,100,127 F,2,28944,29444,1,0 S,19,28944,29444,1.08,1.8 P,0,28944,29444,A
Sprite,Foreground,Centre,"sb\dot.png",0,0 M,0,29296,,407,410 C,0,29296,,255,128,0 F,2,29296,29796,1,0 S,19,29296,29796,1.08,1.8 P,0,29296,29796,A
Sprite,Foreground,Centre,"sb\dot.png",0,0 M,0,29413,,380,442 C,0,29413,,255,100,127 F,2,29413,29913,1,0 S,19,29413,29913,1.08,1.8 P,0,29413,29913,A
Sprite,Foreground,Centre,"sb\dot.png",0,0 M,0,29531,,337,450 C,0,29531,,160,32,240 F,2,29531,30031,1,0 S,19,29531,30031,1.08,1.8 P,0,29531,30031,A
Sprite,Foreground,Centre,"sb\dot.png",0,0 M,0,29647,,292,438 C,0,29647,,255,100,127 M,0,29647,29705,292,438,288.7914,403.2068 F,2,29647,30147,1,0 S,19,29647,30147,1.08,1.8 P,0,29647,30147,A M,0,29705,29764,288.7914,403.2068,285.5829,378.4135
Sprite,Foreground,Centre,"sb\dot.png",0,0 M,0,29882,,184,405 C,0,29882,,255,100,127 F,2,29882,30382,1,0 S,19,29882,30382,1.08,1.8 P,0,29882,30382,A
Sprite,Foreground,Centre,"sb\dot.png",0,0 M,0,67851,,423,74 C,0,67851,,255,128,0 F,2,67851,68351,0.05,0 S,19,67851,68351,1.08,1.8 P,0,67851,68351,A
Sprite,Foreground,Centre,"sb\dot.png",0,0 M,0,68085,,520,134 C,0,68085,,255,100,127 F,2,68085,68585,0.1,0 S,19,68085,68585,1.08,1.8 P,0,68085,68585,A
Sprite,Foreground,Centre,"sb\dot.png",0,0 M,0,68319,,417,184 C,0,68319,,255,100,127 F,2,68319,68819,0.15,0 S,19,68319,68819,1.08,1.8 P,0,68319,68819,A
Sprite,Foreground,Centre,"sb\dot.png",0,0 M,0,68554,,517,256 C,0,68554,,255,128,0 F,2,68554,69054,0.2,0 S,19,68554,69054,1.08,1.8 P,0,68554,69054,A
Sprite,Foreground,Centre,"sb\dot.png",0,0 M,0,68788,,427,337 C,0,68788,,160,32,240 M,0,68788,68846,427,337,418.5827,345.0708 F,2,68788,69288,0.25,0 S,19,68788,69288,1.08,1.8 P,0,68788,69288,A M,0,68846,68905,418.5827,345.0708,413.8776,364.4194 M,0,68905,68963,413.8776,364.4194,412.9755,384.3036 M,0,68963,69022,412.9755,384.3036,416.3771,403.9259
Sprite,Foreground,Centre,"sb\dot.png",0,0 M,0,69140,,433,444 C,0,69140,,255,100,127 F,2,69140,69640,0.3,0 S,19,69140,69640,1.08,1.8 P,0,69140,69640,A
Sprite,Foreground,Centre,"sb\dot.png",0,0 M,0,69257,,433,444 C,0,69257,,160,32,240 F,2,69257,69757,0.35,0 S,19,69257,69757,1.08,1.8 P,0,69257,69757,A
Sprite,Foreground,Centre,"sb\dot.png",0,0 M,0,69491,,320,338 C,0,69491,,160,32,240 F,2,69491,69991,0.4,0 S,19,69491,69991,1.08,1.8 P,0,69491,69991,A
Sprite,Foreground,Centre,"sb\dot.png",0,0 M,0,69726,,217,442 C,0,69726,,255,100,127 F,2,69726,70226,0.45,0 S,19,69726,70226,1.08,1.8 P,0,69726,70226,A
Sprite,Foreground,Centre,"sb\dot.png",0,0 M,0,69960,,120,382 C,0,69960,,160,32,240 F,2,69960,70460,0.5,0 S,19,69960,70460,1.08,1.8 P,0,69960,70460,A
Sprite,Foreground,Centre,"sb\dot.png",0,0 M,0,70194,,223,332 C,0,70194,,160,32,240 F,2,70194,70694,0.55,0 S,19,70194,70694,1.08,1.8 P,0,70194,70694,A
Sprite,Foreground,Centre,"sb\dot.png",0,0 M,0,70429,,123,260 C,0,70429,,160,32,240 F,2,70429,70929,0.6,0 S,19,70429,70929,1.08,1.8 P,0,70429,70929,A
Sprite,Foreground,Centre,"sb\dot.png",0,0 M,0,70663,,213,179 C,0,70663,,255,100,127 M,0,70663,70721,213,179,221.4173,150.9291 F,2,70663,71163,0.65,0 S,19,70663,71163,1.08,1.8 P,0,70663,71163,A M,0,70721,70780,221.4173,150.9291,226.1224,131.5806 M,0,70780,70838,226.1224,131.5806,227.0245,111.6965 M,0,70838,70897,227.0245,111.6965,223.6229,92.07411
Sprite,Foreground,Centre,"sb\dot.png",0,0 M,0,71015,,207,72 C,0,71015,,255,100,127 F,2,71015,71515,0.7,0 S,19,71015,71515,1.08,1.8 P,0,71015,71515,A
Sprite,Foreground,Centre,"sb\dot.png",0,0 M,0,71132,,207,72 C,0,71132,,255,128,0 F,2,71132,71632,0.75,0 S,19,71132,71632,1.08,1.8 P,0,71132,71632,A
Sprite,Foreground,Centre,"sb\dot.png",0,0 M,0,71366,,320,178 C,0,71366,,160,32,240 F,2,71366,71866,0.8,0 S,19,71366,71866,1.08,1.8 P,0,71366,71866,A
Sprite,Foreground,Centre,"sb\dot.png",0,0 M,0,71601,,423,74 C,0,71601,,255,100,127 F,2,71601,72101,0.85,0 S,19,71601,72101,1.08,1.8 P,0,71601,72101,A
Sprite,Foreground,Centre,"sb\dot.png",0,0 M,0,71718,,448,106 C,0,71718,,255,128,0 F,2,71718,72218,0.9,0 S,19,71718,72218,1.08,1.8 P,0,71718,72218,A
Sprite,Foreground,Centre,"sb\dot.png",0,0 M,0,71836,,460,146 C,0,71836,,255,128,0 F,2,71836,72336,0.95,0 S,19,71836,72336,1.08,1.8 P,0,71836,72336,A
Sprite,Foreground,Centre,"sb\dot.png",0,0 M,0,71953,,460,186 C,0,71953,,160,32,240 F,2,71953,72453,1,0 S,19,71953,72453,1.08,1.8 P,0,71953,72453,A
Sprite,Foreground,Centre,"sb\dot.png",0,0 M,0,72069,,432,214 C,0,72069,,255,128,0 F,2,72069,72569,1,0 S,19,72069,72569,1.08,1.8 P,0,72069,72569,A
Sprite,Foreground,Centre,"sb\dot.png",0,0 M,0,72186,,400,238 C,0,72186,,255,100,127 F,2,72186,72686,1,0 S,19,72186,72686,1.08,1.8 P,0,72186,72686,A
Sprite,Foreground,Centre,"sb\dot.png",0,0 M,0,72304,,376,270 C,0,72304,,160,32,240 F,2,72304,72804,1,0 S,19,72304,72804,1.08,1.8 P,0,72304,72804,A
Sprite,Foreground,Centre,"sb\dot.png",0,0 M,0,72421,,376,310 C,0,72421,,160,32,240 F,2,72421,72921,1,0 S,19,72421,72921,1.08,1.8 P,0,72421,72921,A
Sprite,Foreground,Centre,"sb\dot.png",0,0 M,0,72538,,388,346 C,0,72538,,255,128,0 M,0,72538,72596,388,346,393.6818,355.176 F,2,72538,73038,1,0 S,19,72538,73038,1.08,1.8 P,0,72538,73038,A M,0,72596,72655,393.6818,355.176,388,336 M,0,72655,72713,388,336,393.6818,355.176 M,0,72713,72772,393.6818,355.176,388,336 M,0,72772,72830,388,336,393.6818,355.176 M,0,72830,72889,393.6818,355.176,388,336
Sprite,Foreground,Centre,"sb\dot.png",0,0 M,0,73007,,469,408 C,0,73007,,160,32,240 M,0,73007,73065,469,408,488.5561,402.1906 F,2,73007,73507,1,0 S,19,73007,73507,1.08,1.8 P,0,73007,73507,A M,0,73065,73124,488.5561,402.1906,469,398 M,0,73124,73182,469,398,488.5561,402.1906 M,0,73182,73241,488.5561,402.1906,469,398 M,0,73241,73299,469,398,488.5561,402.1906 M,0,73299,73358,488.5561,402.1906,469,398
Sprite,Foreground,Centre,"sb\dot.png",0,0 M,0,73476,,552,349 C,0,73476,,160,32,240 F,2,73476,73976,1,0 S,19,73476,73976,1.08,1.8 P,0,73476,73976,A
Sprite,Foreground,Centre,"sb\dot.png",0,0 M,0,73827,,531,147 C,0,73827,,255,128,0 F,2,73827,74327,1,0 S,19,73827,74327,1.08,1.8 P,0,73827,74327,A
Sprite,Foreground,Centre,"sb\dot.png",0,0 M,0,73944,,531,147 C,0,73944,,255,128,0 F,2,73944,74444,1,0 S,19,73944,74444,1.08,1.8 P,0,73944,74444,A
Sprite,Foreground,Centre,"sb\dot.png",0,0 M,0,74296,,505,250 C,0,74296,,255,100,127 F,2,74296,74796,1,0 S,19,74296,74796,1.08,1.8 P,0,74296,74796,A
Sprite,Foreground,Centre,"sb\dot.png",0,0 M,0,74413,,464,278 C,0,74413,,255,128,0 F,2,74413,74913,1,0 S,19,74413,74913,1.08,1.8 P,0,74413,74913,A
Sprite,Foreground,Centre,"sb\dot.png",0,0 M,0,74530,,418,274 C,0,74530,,255,128,0 F,2,74530,75030,1,0 S,19,74530,75030,1.08,1.8 P,0,74530,75030,A
Sprite,Foreground,Centre,"sb\dot.png",0,0 M,0,74647,,380,248 C,0,74647,,160,32,240 M,0,74647,74705,380,248,376.9465,213.1873 F,2,74647,75147,1,0 S,19,74647,75147,1.08,1.8 P,0,74647,75147,A M,0,74705,74764,376.9465,213.1873,373.6372,188.4075
Sprite,Foreground,Centre,"sb\dot.png",0,0 M,0,74882,,282,139 C,0,74882,,255,128,0 F,2,74882,75382,1,0 S,19,74882,75382,1.08,1.8 P,0,74882,75382,A
Sprite,Foreground,Centre,"sb\dot.png",0,0 M,0,142851,,551,415 C,0,142851,,160,32,240 F,2,142851,143351,0.05,0 S,19,142851,143351,1.08,1.8 P,0,142851,143351,A
Sprite,Foreground,Centre,"sb\dot.png",0,0 M,0,143085,,438,450 C,0,143085,,255,100,127 F,2,143085,143585,0.1,0 S,19,143085,143585,1.08,1.8 P,0,143085,143585,A
Sprite,Foreground,Centre,"sb\dot.png",0,0 M,0,143319,,325,396 C,0,143319,,255,100,127 F,2,143319,143819,0.15,0 S,19,143319,143819,1.08,1.8 P,0,143319,143819,A
Sprite,Foreground,Centre,"sb\dot.png",0,0 M,0,143554,,219,450 C,0,143554,,255,100,127 F,2,143554,144054,0.2,0 S,19,143554,144054,1.08,1.8 P,0,143554,144054,A
Sprite,Foreground,Centre,"sb\dot.png",0,0 M,0,143788,,85,390 C,0,143788,,255,128,0 M,0,143788,143846,85,390,77.06178,361.6429 F,2,143788,144288,0.25,0 S,19,143788,144288,1.08,1.8 P,0,143788,144288,A M,0,143846,143905,77.06178,361.6429,69.12355,343.2857 M,0,143905,143963,69.12355,343.2857,72.31354,323.5921 M,0,143963,144022,72.31354,323.5921,75.67947,303.8774
Sprite,Foreground,Centre,"sb\dot.png",0,0 M,0,144140,,86,274 C,0,144140,,255,128,0 F,2,144140,144640,0.3,0 S,19,144140,144640,1.08,1.8 P,0,144140,144640,A
Sprite,Foreground,Centre,"sb\dot.png",0,0 M,0,144257,,86,274 C,0,144257,,160,32,240 F,2,144257,144757,0.35,0 S,19,144257,144757,1.08,1.8 P,0,144257,144757,A
Sprite,Foreground,Centre,"sb\dot.png",0,0 M,0,144491,,193,210 C,0,144491,,160,32,240 F,2,144491,144991,0.4,0 S,19,144491,144991,1.08,1.8 P,0,144491,144991,A
Sprite,Foreground,Centre,"sb\dot.png",0,0 M,0,144726,,89,101 C,0,144726,,255,128,0 F,2,144726,145226,0.45,0 S,19,144726,145226,1.08,1.8 P,0,144726,145226,A
Sprite,Foreground,Centre,"sb\dot.png",0,0 M,0,144960,,202,66 C,0,144960,,255,100,127 F,2,144960,145460,0.5,0 S,19,144960,145460,1.08,1.8 P,0,144960,145460,A
Sprite,Foreground,Centre,"sb\dot.png",0,0 M,0,145194,,315,120 C,0,145194,,255,128,0 F,2,145194,145694,0.55,0 S,19,145194,145694,1.08,1.8 P,0,145194,145694,A
Sprite,Foreground,Centre,"sb\dot.png",0,0 M,0,145429,,421,66 C,0,145429,,255,128,0 F,2,145429,145929,0.6,0 S,19,145429,145929,1.08,1.8 P,0,145429,145929,A
Sprite,Foreground,Centre,"sb\dot.png",0,0 M,0,145663,,555,126 C,0,145663,,255,100,127 M,0,145663,145721,555,126,562.9382,134.3571 F,2,145663,146163,0.65,0 S,19,145663,146163,1.08,1.8 P,0,145663,146163,A M,0,145721,145780,562.9382,134.3571,570.8765,152.7143 M,0,145780,145838,570.8765,152.7143,567.1387,172.3064 M,0,145838,145897,567.1387,172.3064,563.2164,191.918
Sprite,Foreground,Centre,"sb\dot.png",0,0 M,0,146015,,554,242 C,0,146015,,160,32,240 F,2,146015,146515,0.7,0 S,19,146015,146515,1.08,1.8 P,0,146015,146515,A
Sprite,Foreground,Centre,"sb\dot.png",0,0 M,0,146132,,554,242 C,0,146132,,255,128,0 F,2,146132,146632,0.75,0 S,19,146132,146632,1.08,1.8 P,0,146132,146632,A
Sprite,Foreground,Centre,"sb\dot.png",0,0 M,0,146366,,472,340 C,0,146366,,255,128,0 F,2,146366,146866,0.8,0 S,19,146366,146866,1.08,1.8 P,0,146366,146866,A
Sprite,Foreground,Centre,"sb\dot.png",0,0 M,0,146601,,314,218 C,0,146601,,255,128,0 F,2,146601,147101,0.85,0 S,19,146601,147101,1.08,1.8 P,0,146601,147101,A
Sprite,Foreground,Centre,"sb\dot.png",0,0 M,0,146718,,351,203 C,0,146718,,255,128,0 F,2,146718,147218,0.9,0 S,19,146718,147218,1.08,1.8 P,0,146718,147218,A
Sprite,Foreground,Centre,"sb\dot.png",0,0 M,0,146836,,388,189 C,0,146836,,160,32,240 F,2,146836,147336,0.95,0 S,19,146836,147336,1.08,1.8 P,0,146836,147336,A
Sprite,Foreground,Centre,"sb\dot.png",0,0 M,0,146953,,426,177 C,0,146953,,160,32,240 F,2,146953,147453,1,0 S,19,146953,147453,1.08,1.8 P,0,146953,147453,A
Sprite,Foreground,Centre,"sb\dot.png",0,0 M,0,147069,,463,165 C,0,147069,,255,128,0 F,2,147069,147569,1,0 S,19,147069,147569,1.08,1.8 P,0,147069,147569,A
Sprite,Foreground,Centre,"sb\dot.png",0,0 M,0,147186,,425,150 C,0,147186,,255,100,127 F,2,147186,147686,1,0 S,19,147186,147686,1.08,1.8 P,0,147186,147686,A
Sprite,Foreground,Centre,"sb\dot.png",0,0 M,0,147304,,385,140 C,0,147304,,255,128,0 F,2,147304,147804,1,0 S,19,147304,147804,1.08,1.8 P,0,147304,147804,A
Sprite,Foreground,Centre,"sb\dot.png",0,0 M,0,147421,,346,131 C,0,147421,,255,100,127 F,2,147421,147921,1,0 S,19,147421,147921,1.08,1.8 P,0,147421,147921,A
Sprite,Foreground,Centre,"sb\dot.png",0,0 M,0,147538,,307,120 C,0,147538,,255,100,127 M,0,147538,147596,307,120,301.3182,90.82404 F,2,147538,148038,1,0 S,19,147538,148038,1.08,1.8 P,0,147538,148038,A M,0,147596,147655,301.3182,90.82404,307,110 M,0,147655,147713,307,110,301.3182,90.82404 M,0,147713,147772,301.3182,90.82404,307,110 M,0,147772,147830,307,110,301.3182,90.82404 M,0,147830,147889,301.3182,90.82404,307,110
Sprite,Foreground,Centre,"sb\dot.png",0,0 M,0,148007,,212,83 C,0,148007,,255,128,0 M,0,148007,148065,212,83,216.8507,92.40285 F,2,148007,148507,1,0 S,19,148007,148507,1.08,1.8 P,0,148007,148507,A M,0,148065,148124,216.8507,92.40285,212,73 M,0,148124,148182,212,73,216.8507,92.40285 M,0,148182,148241,216.8507,92.40285,212,73 M,0,148241,148299,212,73,216.8507,92.40285 M,0,148299,148358,216.8507,92.40285,212,73
Sprite,Foreground,Centre,"sb\dot.png",0,0 M,0,148476,,141,143 C,0,148476,,255,128,0 F,2,148476,148976,1,0 S,19,148476,148976,1.08,1.8 P,0,148476,148976,A
Sprite,Foreground,Centre,"sb\dot.png",0,0 M,0,148827,,178,293 C,0,148827,,255,100,127 F,2,148827,149327,1,0 S,19,148827,149327,1.08,1.8 P,0,148827,149327,A
Sprite,Foreground,Centre,"sb\dot.png",0,0 M,0,148944,,178,293 C,0,148944,,255,100,127 F,2,148944,149444,1,0 S,19,148944,149444,1.08,1.8 P,0,148944,149444,A
Sprite,Foreground,Centre,"sb\dot.png",0,0 M,0,149296,,351,222 C,0,149296,,255,100,127 F,2,149296,149796,1,0 S,19,149296,149796,1.08,1.8 P,0,149296,149796,A
Sprite,Foreground,Centre,"sb\dot.png",0,0 M,0,149413,,366,269 C,0,149413,,255,128,0 F,2,149413,149913,1,0 S,19,149413,149913,1.08,1.8 P,0,149413,149913,A
Sprite,Foreground,Centre,"sb\dot.png",0,0 M,0,149530,,354,317 C,0,149530,,160,32,240 F,2,149530,150030,1,0 S,19,149530,150030,1.08,1.8 P,0,149530,150030,A
Sprite,Foreground,Centre,"sb\dot.png",0,0 M,0,149647,,316,348 C,0,149647,,255,100,127 M,0,149647,149705,316,348,291.8809,331.4221 F,2,149647,150147,1,0 S,19,149647,150147,1.08,1.8 P,0,149647,150147,A M,0,149705,149764,291.8809,331.4221,267.7618,324.8441
Sprite,Foreground,Centre,"sb\dot.png",0,0 M,0,149882,,320,440 C,0,149882,,255,100,127 F,2,149882,150382,1,0 S,19,149882,150382,1.08,1.8 P,0,149882,150382,A
Sprite,Foreground,Centre,"sb\dot.png",0,0 M,0,217851,,576,425 C,0,217851,,160,32,240 F,2,217851,218351,0.05,0 S,19,217851,218351,1.08,1.8 P,0,217851,218351,A
Sprite,Foreground,Centre,"sb\dot.png",0,0 M,0,217968,,540,418 C,0,217968,,255,100,127 F,2,217968,218468,0.1,0 S,19,217968,218468,1.08,1.8 P,0,217968,218468,A
Sprite,Foreground,Centre,"sb\dot.png",0,0 M,0,218085,,504,413 C,0,218085,,255,128,0 F,2,218085,218585,0.15,0 S,19,218085,218585,1.08,1.8 P,0,218085,218585,A
Sprite,Foreground,Centre,"sb\dot.png",0,0 M,0,218319,,358,301 C,0,218319,,160,32,240 F,2,218319,218819,0.2,0 S,19,218319,218819,1.08,1.8 P,0,218319,218819,A
Sprite,Foreground,Centre,"sb\dot.png",0,0 M,0,218554,,283,450 C,0,218554,,160,32,240 F,2,218554,219054,0.25,0 S,19,218554,219054,1.08,1.8 P,0,218554,219054,A
Sprite,Foreground,Centre,"sb\dot.png",0,0 M,0,218788,,362,288 C,0,218788,,255,100,127 F,2,218788,219288,0.3,0 S,19,218788,219288,1.08,1.8 P,0,218788,219288,A
Sprite,Foreground,Centre,"sb\dot.png",0,0 M,0,219022,,402,413 C,0,219022,,255,128,0 M,0,219022,219080,402,413,382.7887,397.4388 F,2,219022,219522,0.35,0 S,19,219022,219522,1.08,1.8 P,0,219022,219522,A M,0,219080,219139,382.7887,397.4388,364,392
Sprite,Foreground,Centre,"sb\dot.png",0,0 M,0,219257,,369,203 C,0,219257,,160,32,240 F,2,219257,219757,0.4,0 S,19,219257,219757,1.08,1.8 P,0,219257,219757,A
Sprite,Foreground,Centre,"sb\dot.png",0,0 M,0,219374,,400,206 C,0,219374,,160,32,240 F,2,219374,219874,0.45,0 S,19,219374,219874,1.08,1.8 P,0,219374,219874,A
Sprite,Foreground,Centre,"sb\dot.png",0,0 M,0,219491,,428,224 C,0,219491,,255,100,127 F,2,219491,219991,0.5,0 S,19,219491,219991,1.08,1.8 P,0,219491,219991,A
Sprite,Foreground,Centre,"sb\dot.png",0,0 M,0,219726,,235,283 C,0,219726,,160,32,240 F,2,219726,220226,0.55,0 S,19,219726,220226,1.08,1.8 P,0,219726,220226,A
Sprite,Foreground,Centre,"sb\dot.png",0,0 M,0,219843,,203,283 C,0,219843,,255,100,127 F,2,219843,220343,0.6,0 S,19,219843,220343,1.08,1.8 P,0,219843,220343,A
Sprite,Foreground,Centre,"sb\dot.png",0,0 M,0,219960,,173,269 C,0,219960,,255,100,127 F,2,219960,220460,0.65,0 S,19,219960,220460,1.08,1.8 P,0,219960,220460,A
Sprite,Foreground,Centre,"sb\dot.png",0,0 M,0,220194,,64,104 C,0,220194,,255,100,127 F,2,220194,220694,0.7,0 S,19,220194,220694,1.08,1.8 P,0,220194,220694,A
Sprite,Foreground,Centre,"sb\dot.png",0,0 M,0,220429,,245,173 C,0,220429,,255,100,127 F,2,220429,220929,0.75,0 S,19,220429,220929,1.08,1.8 P,0,220429,220929,A
Sprite,Foreground,Centre,"sb\dot.png",0,0 M,0,220663,,100,312 C,0,220663,,255,100,127 F,2,220663,221163,0.8,0 S,19,220663,221163,1.08,1.8 P,0,220663,221163,A
Sprite,Foreground,Centre,"sb\dot.png",0,0 M,0,220897,,170,67 C,0,220897,,255,128,0 F,2,220897,221397,0.85,0 S,19,220897,221397,1.08,1.8 P,0,220897,221397,A
Sprite,Foreground,Centre,"sb\dot.png",0,0 M,0,221132,,346,199 C,0,221132,,160,32,240 F,2,221132,221632,0.9,0 S,19,221132,221632,1.08,1.8 P,0,221132,221632,A
Sprite,Foreground,Centre,"sb\dot.png",0,0 M,0,221249,,339,235 C,0,221249,,255,128,0 F,2,221249,221749,0.95,0 S,19,221249,221749,1.08,1.8 P,0,221249,221749,A
Sprite,Foreground,Centre,"sb\dot.png",0,0 M,0,221366,,334,271 C,0,221366,,160,32,240 F,2,221366,221866,1,0 S,19,221366,221866,1.08,1.8 P,0,221366,221866,A
Sprite,Foreground,Centre,"sb\dot.png",0,0 M,0,221601,,105,416 C,0,221601,,255,128,0 F,2,221601,222101,1,0 S,19,221601,222101,1.08,1.8 P,0,221601,222101,A
Sprite,Foreground,Centre,"sb\dot.png",0,0 M,0,221718,,152,408 C,0,221718,,160,32,240 F,2,221718,222218,1,0 S,19,221718,222218,1.08,1.8 P,0,221718,222218,A
Sprite,Foreground,Centre,"sb\dot.png",0,0 M,0,221835,,198,395 C,0,221835,,255,100,127 F,2,221835,222335,1,0 S,19,221835,222335,1.08,1.8 P,0,221835,222335,A
Sprite,Foreground,Centre,"sb\dot.png",0,0 M,0,221952,,243,381 C,0,221952,,255,100,127 F,2,221952,222452,1,0 S,19,221952,222452,1.08,1.8 P,0,221952,222452,A
Sprite,Foreground,Centre,"sb\dot.png",0,0 M,0,222069,,288,367 C,0,222069,,160,32,240 F,2,222069,222569,1,0 S,19,222069,222569,1.08,1.8 P,0,222069,222569,A
Sprite,Foreground,Centre,"sb\dot.png",0,0 M,0,222186,,254,332 C,0,222186,,255,100,127 F,2,222186,222686,1,0 S,19,222186,222686,1.08,1.8 P,0,222186,222686,A
Sprite,Foreground,Centre,"sb\dot.png",0,0 M,0,222304,,221,296 C,0,222304,,255,100,127 F,2,222304,222804,1,0 S,19,222304,222804,1.08,1.8 P,0,222304,222804,A
Sprite,Foreground,Centre,"sb\dot.png",0,0 M,0,222421,,187,261 C,0,222421,,255,100,127 F,2,222421,222921,1,0 S,19,222421,222921,1.08,1.8 P,0,222421,222921,A
Sprite,Foreground,Centre,"sb\dot.png",0,0 M,0,222538,,149,230 C,0,222538,,255,100,127 M,0,222538,222596,149,230,151.9668,200.2213 F,2,222538,223038,1,0 S,19,222538,223038,1.08,1.8 P,0,222538,223038,A M,0,222596,222655,151.9668,200.2213,149,220 M,0,222655,222713,149,220,151.9668,200.2213 M,0,222713,222772,151.9668,200.2213,149,220 M,0,222772,222830,149,220,151.9668,200.2213 M,0,222830,222889,151.9668,200.2213,149,220
Sprite,Foreground,Centre,"sb\dot.png",0,0 M,0,223007,,207,145 C,0,223007,,160,32,240 M,0,223007,223065,207,145,204.0332,115.2213 F,2,223007,223507,1,0 S,19,223007,223507,1.08,1.8 P,0,223007,223507,A M,0,223065,223124,204.0332,115.2213,207,135 M,0,223124,223182,207,135,204.0332,115.2213 M,0,223182,223241,204.0332,115.2213,207,135 M,0,223241,223299,207,135,204.0332,115.2213 M,0,223299,223358,204.0332,115.2213,207,135
Sprite,Foreground,Centre,"sb\dot.png",0,0 M,0,223476,,287,186 C,0,223476,,255,128,0 F,2,223476,223976,1,0 S,19,223476,223976,1.08,1.8 P,0,223476,223976,A
Sprite,Foreground,Centre,"sb\dot.png",0,0 M,0,223827,,504,226 C,0,223827,,255,100,127 F,2,223827,224327,1,0 S,19,223827,224327,1.08,1.8 P,0,223827,224327,A
Sprite,Foreground,Centre,"sb\dot.png",0,0 M,0,223944,,504,226 C,0,223944,,255,128,0 F,2,223944,224444,1,0 S,19,223944,224444,1.08,1.8 P,0,223944,224444,A
Sprite,Foreground,Centre,"sb\dot.png",0,0 M,0,224296,,475,93 C,0,224296,,255,128,0 F,2,224296,224796,1,0 S,19,224296,224796,1.08,1.8 P,0,224296,224796,A
Sprite,Foreground,Centre,"sb\dot.png",0,0 M,0,285351,,215,394 C,0,285351,,255,100,127 M,0,285351,285409,215,394,185.6568,390.2432 F,2,285351,285851,0.05,0 S,19,285351,285851,1.08,1.8 P,0,285351,285851,A M,0,285409,285468,185.6568,390.2432,156.3136,396.4865 M,0,285468,285526,156.3136,396.4865,126.9705,402.7297 M,0,285526,285585,126.9705,402.7297,104.7564,386.474 M,0,285585,285643,104.7564,386.474,84.36348,364.4711 M,0,285643,285702,84.36348,364.4711,63.97054,342.4682
Sprite,Foreground,Centre,"sb\dot.png",0,0 M,0,285819,,64,256 C,0,285819,,255,128,0 F,2,285819,286319,0.1,0 S,19,285819,286319,1.08,1.8 P,0,285819,286319,A
Sprite,Foreground,Centre,"sb\dot.png",0,0 M,0,286054,,182,310 C,0,286054,,255,128,0 F,2,286054,286554,0.15,0 S,19,286054,286554,1.08,1.8 P,0,286054,286554,A
Sprite,Foreground,Centre,"sb\dot.png",0,0 M,0,286288,,79,134 C,0,286288,,160,32,240 M,0,286288,286346,79,134,108.7325,120.0024 F,2,286288,286788,0.2,0 S,19,286288,286788,1.08,1.8 P,0,286288,286788,A M,0,286346,286405,108.7325,120.0024,138.4649,116.0047 M,0,286405,286463,138.4649,116.0047,168.1974,112.0071 M,0,286463,286522,168.1974,112.0071,197.9298,108.0094
Sprite,Foreground,Centre,"sb\dot.png",0,0 M,0,286640,,287,165 C,0,286640,,255,128,0 F,2,286640,287140,0.25,0 S,19,286640,287140,1.08,1.8 P,0,286640,287140,A
Sprite,Foreground,Centre,"sb\dot.png",0,0 M,0,286757,,287,165 C,0,286757,,255,100,127 F,2,286757,287257,0.3,0 S,19,286757,287257,1.08,1.8 P,0,286757,287257,A
Sprite,Foreground,Centre,"sb\dot.png",0,0 M,0,286991,,415,66 C,0,286991,,255,128,0 F,2,286991,287491,0.35,0 S,19,286991,287491,1.08,1.8 P,0,286991,287491,A
Sprite,Foreground,Centre,"sb\dot.png",0,0 M,0,287226,,518,205 C,0,287226,,160,32,240 M,0,287226,287284,518,205,547.3778,188.9218 F,2,287226,287726,0.4,0 S,19,287226,287726,1.08,1.8 P,0,287226,287726,A M,0,287284,287343,547.3778,188.9218,576,183
Sprite,Foreground,Centre,"sb\dot.png",0,0 M,0,287460,,382,205 C,0,287460,,255,128,0 M,0,287460,287518,382,205,389.2761,165.8957 F,2,287460,287960,0.45,0 S,19,287460,287960,1.08,1.8 P,0,287460,287960,A M,0,287518,287577,389.2761,165.8957,396.5521,136.7914
Sprite,Foreground,Centre,"sb\dot.png",0,0 M,0,287694,,493,321 C,0,287694,,160,32,240 F,2,287694,288194,0.5,0 S,19,287694,288194,1.08,1.8 P,0,287694,288194,A
Sprite,Foreground,Centre,"sb\dot.png",0,0 M,0,287811,,457,315 C,0,287811,,255,100,127 F,2,287811,288311,0.55,0 S,19,287811,288311,1.08,1.8 P,0,287811,288311,A
Sprite,Foreground,Centre,"sb\dot.png",0,0 M,0,287929,,421,305 C,0,287929,,160,32,240 F,2,287929,288429,0.6,0 S,19,287929,288429,1.08,1.8 P,0,287929,288429,A
Sprite,Foreground,Centre,"sb\dot.png",0,0 M,0,288046,,386,295 C,0,288046,,255,128,0 F,2,288046,288546,0.65,0 S,19,288046,288546,1.08,1.8 P,0,288046,288546,A
Sprite,Foreground,Centre,"sb\dot.png",0,0 M,0,288163,,351,286 C,0,288163,,255,100,127 M,0,288163,288221,351,286,321.0351,277.4499 F,2,288163,288663,0.7,0 S,19,288163,288663,1.08,1.8 P,0,288163,288663,A M,0,288221,288280,321.0351,277.4499,291.0701,278.8998
Sprite,Foreground,Centre,"sb\dot.png",0,0 M,0,288397,,414,393 C,0,288397,,255,100,127 M,0,288397,288455,414,393,421.933,411.9321 F,2,288397,288897,0.75,0 S,19,288397,288897,1.08,1.8 P,0,288397,288897,A M,0,288455,288514,421.933,411.9321,429.866,440.8642
Sprite,Foreground,Centre,"sb\dot.png",0,0 M,0,288632,,233,384 C,0,288632,,255,100,127 M,0,288632,288690,233,384,206.5161,360.2831 F,2,288632,289132,0.8,0 S,19,288632,289132,1.08,1.8 P,0,288632,289132,A M,0,288690,288749,206.5161,360.2831,185.2896,339.3788 M,0,288749,288807,185.2896,339.3788,171.4646,312.941 M,0,288807,288866,171.4646,312.941,166.8502,283.4849
Sprite,Foreground,Centre,"sb\dot.png",0,0 M,0,289101,,258,99 C,0,289101,,255,100,127 M,0,289101,289159,258,99,277.2666,111.9956 F,2,289101,289601,0.85,0 S,19,289101,289601,1.08,1.8 P,0,289101,289601,A M,0,289159,289218,277.2666,111.9956,277.4468,123.9716 M,0,289218,289276,277.4468,123.9716,247.8987,118.7838 M,0,289276,289335,247.8987,118.7838,218.3507,113.5959 M,0,289335,289393,218.3507,113.5959,188.8027,108.4081 M,0,289393,289452,188.8027,108.4081,159.2546,103.2203
Sprite,Foreground,Centre,"sb\dot.png",0,0 M,0,289569,,64,74 C,0,289569,,255,100,127 M,0,289569,289627,64,74,70.43346,93.3018 F,2,289569,290069,0.9,0 S,19,289569,290069,1.08,1.8 P,0,289569,290069,A M,0,289627,289686,70.43346,93.3018,76.53495,122.6745 M,0,289686,289744,76.53495,122.6745,82.27088,152.1208 M,0,289744,289803,82.27088,152.1208,87.66794,181.631
Sprite,Foreground,Centre,"sb\dot.png",0,0 M,0,290038,,275,231 C,0,290038,,160,32,240 M,0,290038,290096,275,231,267.9012,250.1468 F,2,290038,290538,0.95,0 S,19,290038,290538,1.08,1.8 P,0,290038,290538,A M,0,290096,290155,267.9012,250.1468,261.5053,279.4558 M,0,290155,290213,261.5053,279.4558,255.8868,308.9237 M,0,290213,290272,255.8868,308.9237,250.9893,338.5199
Sprite,Foreground,Centre,"sb\dot.png",0,0 M,0,290390,,230,440 C,0,290390,,255,128,0 F,2,290390,290890,1,0 S,19,290390,290890,1.08,1.8 P,0,290390,290890,A
Sprite,Foreground,Centre,"sb\dot.png",0,0 M,0,290507,,230,440 C,0,290507,,160,32,240 F,2,290507,291007,1,0 S,19,290507,291007,1.08,1.8 P,0,290507,291007,A
Sprite,Foreground,Centre,"sb\dot.png",0,0 M,0,290741,,386,406 C,0,290741,,160,32,240 F,2,290741,291241,1,0 S,19,290741,291241,1.08,1.8 P,0,290741,291241,A
Sprite,Foreground,Centre,"sb\dot.png",0,0 M,0,290976,,511,215 C,0,290976,,255,100,127 M,0,290976,291034,511,215,540.5258,206.6275 F,2,290976,291476,1,0 S,19,290976,291476,1.08,1.8 P,0,290976,291476,A M,0,291034,291093,540.5258,206.6275,566,221
Sprite,Foreground,Centre,"sb\dot.png",0,0 M,0,291210,,518,382 C,0,291210,,255,128,0 M,0,291210,291268,518,382,504.4878,345.4901 F,2,291210,291710,1,0 S,19,291210,291710,1.08,1.8 P,0,291210,291710,A M,0,291268,291327,504.4878,345.4901,500.9678,315.9258
Sprite,Foreground,Centre,"sb\dot.png",0,0 M,0,291444,,410,148 C,0,291444,,160,32,240 F,2,291444,291944,1,0 S,19,291444,291944,1.08,1.8 P,0,291444,291944,A
Sprite,Foreground,Centre,"sb\dot.png",0,0 M,0,291561,,406,183 C,0,291561,,255,100,127 F,2,291561,292061,1,0 S,19,291561,292061,1.08,1.8 P,0,291561,292061,A
Sprite,Foreground,Centre,"sb\dot.png",0,0 M,0,291679,,403,219 C,0,291679,,255,128,0 F,2,291679,292179,1,0 S,19,291679,292179,1.08,1.8 P,0,291679,292179,A
Sprite,Foreground,Centre,"sb\dot.png",0,0 M,0,291796,,400,254 C,0,291796,,160,32,240 F,2,291796,292296,1,0 S,19,291796,292296,1.08,1.8 P,0,291796,292296,A
Sprite,Foreground,Centre,"sb\dot.png",0,0 M,0,291913,,400,295 C,0,291913,,255,100,127 M,0,291913,291971,400,295,370.2632,281.0351 F,2,291913,292413,1,0 S,19,291913,292413,1.08,1.8 P,0,291913,292413,A M,0,291971,292030,370.2632,281.0351,340.5263,277.0702
Sprite,Foreground,Centre,"sb\dot.png",0,0 M,0,292147,,216,407 C,0,292147,,255,128,0 M,0,292147,292205,216,407,219.4764,367.2021 F,2,292147,292647,1,0 S,19,292147,292647,1.08,1.8 P,0,292147,292647,A M,0,292205,292264,219.4764,367.2021,222.9528,337.4042
Sprite,Foreground,Centre,"sb\dot.png",0,0 M,0,292382,,134,158 C,0,292382,,160,32,240 M,0,292382,292440,134,158,163.7034,152.208 F,2,292382,292882,1,0 S,19,292382,292882,1.08,1.8 P,0,292382,292882,A M,0,292440,292499,163.7034,152.208,193.4068,156.416 M,0,292499,292557,193.4068,156.416,223.1103,160.624 M,0,292557,292616,223.1103,160.624,252.8137,164.8319
Sprite,Foreground,Centre,"sb\dot.png",0,0 M,0,292851,,64,258 C,0,292851,,160,32,240 F,2,292851,293351,1,0 S,19,292851,293351,1.08,1.8 P,0,292851,293351,A
Sprite,Foreground,Centre,"sb\dot.png",0,0 M,0,293085,,132,402 C,0,293085,,255,128,0 F,2,293085,293585,1,0 S,19,293085,293585,1.08,1.8 P,0,293085,293585,A
Sprite,Foreground,Centre,"sb\dot.png",0,0 M,0,293319,,304,255 C,0,293319,,255,128,0 F,2,293319,293819,1,0 S,19,293319,293819,1.08,1.8 P,0,293319,293819,A
Sprite,Foreground,Centre,"sb\dot.png",0,0 M,0,293554,,151,298 C,0,293554,,160,32,240 F,2,293554,294054,1,0 S,19,293554,294054,1.08,1.8 P,0,293554,294054,A
Sprite,Foreground,Centre,"sb\dot.png",0,0 M,0,293788,,354,414 C,0,293788,,255,100,127 M,0,293788,293846,354,414,374.0626,381.9842 F,2,293788,294288,1,0 S,19,293788,294288,1.08,1.8 P,0,293788,294288,A M,0,293846,293905,374.0626,381.9842,385.8021,354.6595 M,0,293905,293963,385.8021,354.6595,387.5935,324.9335 M,0,293963,294022,387.5935,324.9335,379.1462,296.3251
Sprite,Foreground,Centre,"sb\dot.png",0,0 M,0,294140,,416,202 C,0,294140,,160,32,240 F,2,294140,294640,1,0 S,19,294140,294640,1.08,1.8 P,0,294140,294640,A
Sprite,Foreground,Centre,"sb\dot.png",0,0 M,0,294257,,416,202 C,0,294257,,255,100,127 F,2,294257,294757,1,0 S,19,294257,294757,1.08,1.8 P,0,294257,294757,A
Sprite,Foreground,Centre,"sb\dot.png",0,0 M,0,294491,,284,343 C,0,294491,,255,128,0 F,2,294491,294991,1,0 S,19,294491,294991,1.08,1.8 P,0,294491,294991,A
Sprite,Foreground,Centre,"sb\dot.png",0,0 M,0,294726,,524,370 C,0,294726,,160,32,240 M,0,294726,294784,524,370,494.8375,367.0392 F,2,294726,295226,1,0 S,19,294726,295226,1.08,1.8 P,0,294726,295226,A M,0,294784,294843,494.8375,367.0392,466,374
Sprite,Foreground,Centre,"sb\dot.png",0,0 M,0,294960,,306,236 C,0,294960,,160,32,240 M,0,294960,295018,306,236,277.2112,234.4381 F,2,294960,295460,1,0 S,19,294960,295460,1.08,1.8 P,0,294960,295460,A M,0,295018,295077,277.2112,234.4381,248.4223,242.8762
Sprite,Foreground,Centre,"sb\dot.png",0,0 M,0,295194,,453,287 C,0,295194,,255,100,127 F,2,295194,295694,1,0 S,19,295194,295694,1.08,1.8 P,0,295194,295694,A
Sprite,Foreground,Centre,"sb\dot.png",0,0 M,0,295311,,494,263 C,0,295311,,160,32,240 F,2,295311,295811,1,0 S,19,295311,295811,1.08,1.8 P,0,295311,295811,A
Sprite,Foreground,Centre,"sb\dot.png",0,0 M,0,295429,,518,221 C,0,295429,,255,100,127 F,2,295429,295929,1,0 S,19,295429,295929,1.08,1.8 P,0,295429,295929,A
Sprite,Foreground,Centre,"sb\dot.png",0,0 M,0,295546,,517,173 C,0,295546,,255,128,0 F,2,295546,296046,1,0 S,19,295546,296046,1.08,1.8 P,0,295546,296046,A
Sprite,Foreground,Centre,"sb\dot.png",0,0 M,0,295663,,494,130 C,0,295663,,255,128,0 M,0,295663,295721,494,130,464.1577,116.928 F,2,295663,296163,1,0 S,19,295663,296163,1.08,1.8 P,0,295663,296163,A M,0,295721,295780,464.1577,116.928,434.3154,113.856
Sprite,Foreground,Centre,"sb\dot.png",0,0 M,0,295897,,208,134 C,0,295897,,255,128,0 M,0,295897,295955,208,134,237.5015,129.4464 F,2,295897,296397,1,0 S,19,295897,296397,1.08,1.8 P,0,295897,296397,A M,0,295955,296014,237.5015,129.4464,267.0029,134.8929
Sprite,Foreground,Centre,"sb\dot.png",0,0 M,0,296132,,377,280 C,0,296132,,255,128,0 F,2,296132,296632,1,0 S,19,296132,296632,1.08,1.8 P,0,296132,296632,A
Sprite,Foreground,Centre,"sb\dot.png",0,0 M,0,296366,,322,66 C,0,296366,,160,32,240 F,2,296366,296866,1,0 S,19,296366,296866,1.08,1.8 P,0,296366,296866,A
Sprite,Foreground,Centre,"sb\dot.png",0,0 M,0,296601,,152,245 C,0,296601,,255,100,127 F,2,296601,297101,1,0 S,19,296601,297101,1.08,1.8 P,0,296601,297101,A
Sprite,Foreground,Centre,"sb\dot.png",0,0 M,0,296718,,197,229 C,0,296718,,255,128,0 F,2,296718,297218,1,0 S,19,296718,297218,1.08,1.8 P,0,296718,297218,A
Sprite,Foreground,Centre,"sb\dot.png",0,0 M,0,296835,,244,237 C,0,296835,,255,128,0 F,2,296835,297335,1,0 S,19,296835,297335,1.08,1.8 P,0,296835,297335,A
Sprite,Foreground,Centre,"sb\dot.png",0,0 M,0,296952,,281,267 C,0,296952,,255,128,0 F,2,296952,297452,1,0 S,19,296952,297452,1.08,1.8 P,0,296952,297452,A
Sprite,Foreground,Centre,"sb\dot.png",0,0 M,0,297069,,297,311 C,0,297069,,160,32,240 F,2,297069,297569,1,0 S,19,297069,297569,1.08,1.8 P,0,297069,297569,A
Sprite,Foreground,Centre,"sb\dot.png",0,0 M,0,297186,,249,301 C,0,297186,,160,32,240 F,2,297186,297686,1,0 S,19,297186,297686,1.08,1.8 P,0,297186,297686,A
Sprite,Foreground,Centre,"sb\dot.png",0,0 M,0,297304,,202,315 C,0,297304,,255,100,127 F,2,297304,297804,1,0 S,19,297304,297804,1.08,1.8 P,0,297304,297804,A
Sprite,Foreground,Centre,"sb\dot.png",0,0 M,0,297421,,181,358 C,0,297421,,255,128,0 F,2,297421,297921,1,0 S,19,297421,297921,1.08,1.8 P,0,297421,297921,A
Sprite,Foreground,Centre,"sb\dot.png",0,0 M,0,297538,,179,408 C,0,297538,,255,128,0 M,0,297538,297596,179,408,181,427 F,2,297538,298038,1,0 S,19,297538,298038,1.08,1.8 P,0,297538,298038,A M,0,297596,297655,181,427,179,398 M,0,297655,297713,179,398,181,427 M,0,297713,297772,181,427,179,398 M,0,297772,297830,179,398,181,427 M,0,297830,297889,181,427,179,398
Sprite,Foreground,Centre,"sb\dot.png",0,0 M,0,298007,,272,437 C,0,298007,,255,128,0 M,0,298007,298065,272,437,298,439 F,2,298007,298507,1,0 S,19,298007,298507,1.08,1.8 P,0,298007,298507,A M,0,298065,298124,298,439,272,427 M,0,298124,298182,272,427,298,439 M,0,298182,298241,298,439,272,427 M,0,298241,298299,272,427,298,439 M,0,298299,298358,298,439,272,427
Sprite,Foreground,Centre,"sb\dot.png",0,0 M,0,298476,,350,378 C,0,298476,,255,100,127 F,2,298476,298976,1,0 S,19,298476,298976,1.08,1.8 P,0,298476,298976,A
Sprite,Foreground,Centre,"sb\dot.png",0,0 M,0,298827,,505,227 C,0,298827,,160,32,240 F,2,298827,299327,1,0 S,19,298827,299327,1.08,1.8 P,0,298827,299327,A
Sprite,Foreground,Centre,"sb\dot.png",0,0 M,0,298944,,505,227 C,0,298944,,255,128,0 F,2,298944,299444,1,0 S,19,298944,299444,1.08,1.8 P,0,298944,299444,A
Sprite,Foreground,Centre,"sb\dot.png",0,0 M,0,299179,,303,124 C,0,299179,,255,128,0 M,0,299179,299237,303,124,309.5613,84.72632 F,2,299179,299679,1,0 S,19,299179,299679,1.08,1.8 P,0,299179,299679,A M,0,299237,299296,309.5613,84.72632,316,56
Sprite,Foreground,Centre,"sb\dot.png",0,0 M,0,299413,,128,80 C,0,299413,,255,128,0 F,2,299413,299913,1,0 S,19,299413,299913,1.08,1.8 P,0,299413,299913,A
Sprite,Foreground,Centre,"sb\dot.png",0,0 M,0,299530,,81,107 C,0,299530,,255,100,127 F,2,299530,300030,1,0 S,19,299530,300030,1.08,1.8 P,0,299530,300030,A
Sprite,Foreground,Centre,"sb\dot.png",0,0 M,0,299647,,64,159 C,0,299647,,255,128,0 F,2,299647,300147,1,0 S,19,299647,300147,1.08,1.8 P,0,299647,300147,A
Sprite,Foreground,Centre,"sb\dot.png",0,0 M,0,299765,,80,210 C,0,299765,,160,32,240 F,2,299765,300265,1,0 S,19,299765,300265,1.08,1.8 P,0,299765,300265,A
Sprite,Foreground,Centre,"sb\dot.png",0,0 M,0,299882,,128,235 C,0,299882,,255,100,127 M,0,299882,299940,128,235,156.035,214.3635 F,2,299882,300382,1,0 S,19,299882,300382,1.08,1.8 P,0,299882,300382,A M,0,299940,299999,156.035,214.3635,184.8943,206.2364 M,0,299999,300057,184.8943,206.2364,214.3781,200.7773 M,0,300057,300116,214.3781,200.7773,244.2463,198.148 M,0,300116,300174,244.2463,198.148,274.2269,198.1946 M,0,300174,300233,274.2269,198.1946,304.08,200.9782
Sprite,Foreground,Centre,"sb\ring.png",0,0 M,0,29882,,184,405 F,2,29882,30482,1,0 S,19,29882,30482,0.03,0.42
Sprite,Foreground,Centre,"sb\ring.png",0,0 M,0,14882,,386,374 F,2,14882,15482,1,0 S,19,14882,15482,0.03,0.42
Sprite,Foreground,Centre,"sb\ring.png",0,0 M,0,45351,,64,206 F,2,45351,45951,1,0 S,19,45351,45951,0.03,0.42
Sprite,Foreground,Centre,"sb\ring.png",0,0 M,0,60351,,100,247 F,2,60351,60951,1,0 S,19,60351,60951,0.03,0.42
Sprite,Foreground,Centre,"sb\ring.png",0,0 M,0,120351,,541,67 F,2,120351,120951,1,0 S,19,120351,120951,0.03,0.42
Sprite,Foreground,Centre,"sb\ring.png",0,0 M,0,135351,,335,150 F,2,135351,135951,1,0 S,19,135351,135951,0.03,0.42
Sprite,Foreground,Centre,"sb\ring.png",0,0 M,0,210351,,496,197 F,2,210351,210951,1,0 S,19,210351,210951,0.03,0.42
Sprite,Foreground,Centre,"sb\ring.png",0,0 M,0,270351,,450,66 F,2,270351,270951,1,0 S,19,270351,270951,0.03,0.42
Sprite,Foreground,Centre,"sb\ring.png",0,0 M,0,30351,,184,405 F,2,30351,30951,1,0 S,7,30351,30951,0.04,0.64
Sprite,Foreground,Centre,"sb\ring.png",0,0 M,0,15351,,320,258 F,2,15351,15951,1,0 S,7,15351,15951,0.04,0.72
Sprite,Foreground,Centre,"sb\ring.png",0,0 M,0,74882,,282,139 F,2,74882,75482,1,0 S,7,74882,75482,0.04,0.64
Sprite,Foreground,Centre,"sb\ring.png",0,0 M,0,75351,,282,139 F,2,75351,75951,1,0 S,7,75351,75951,0.04,0.72
Sprite,Foreground,Centre,"sb\ring.png",0,0 M,0,44882,,264,346 F,2,44882,45482,1,0 S,7,44882,45482,0.04,0.64
Sprite,Foreground,Centre,"sb\ring.png",0,0 M,0,104882,,233,159 F,2,104882,105482,1,0 S,7,104882,105482,0.04,0.64
Sprite,Foreground,Centre,"sb\ring.png",0,0 M,0,105351,,232,159 F,2,105351,105951,1,0 S,7,105351,105951,0.04,0.72
Sprite,Foreground,Centre,"sb\ring.png",0,0 M,0,89882,,111,278 F,2,89882,90482,1,0 S,7,89882,90482,0.04,0.64
Sprite,Foreground,Centre,"sb\ring.png",0,0 M,0,90351,,299,422 F,2,90351,90951,1,0 S,7,90351,90951,0.04,0.72
Sprite,Foreground,Centre,"sb\ring.png",0,0 M,0,164882,,286,203 F,2,164882,165482,1,0 S,7,164882,165482,0.04,0.64
Sprite,Foreground,Centre,"sb\ring.png",0,0 M,0,165351,,77,184 F,2,165351,165951,1,0 S,7,165351,165951,0.04,0.72
Sprite,Foreground,Centre,"sb\ring.png",0,0 M,0,239882,,354,450 F,2,239882,240482,1,0 S,7,239882,240482,0.04,0.64
Sprite,Foreground,Centre,"sb\ring.png",0,0 M,0,240351,,443,213 F,2,240351,240951,1,0 S,7,240351,240951,0.04,0.72
Sprite,Foreground,Centre,"sb\ring.png",0,0 M,0,149882,,320,440 F,2,149882,150482,1,0 S,7,149882,150482,0.04,0.64
Sprite,Foreground,Centre,"sb\ring.png",0,0 M,0,150351,,320,440 F,2,150351,150951,1,0 S,7,150351,150951,0.04,0.72
Sprite,Foreground,Centre,"sb\ring.png",0,0 M,0,179882,,358,275 F,2,179882,180482,1,0 S,7,179882,180482,0.04,0.64
Sprite,Foreground,Centre,"sb\ring.png",0,0 M,0,180351,,358,275 F,2,180351,180951,1,0 S,7,180351,180951,0.04,0.72
Sprite,Foreground,Centre,"sb\ring.png",0,0 M,0,224882,,441,331 F,2,224882,225482,1,0 S,7,224882,225482,0.04,0.64
Sprite,Foreground,Centre,"sb\ring.png",0,0 M,0,225351,,565,412 F,2,225351,225951,1,0 S,7,225351,225951,0.04,0.72
Sprite,Foreground,Centre,"sb\ring.png",0,0 M,0,224882,,441,331 F,2,224882,225482,1,0 S,7,224882,225482,0.04,0.64
Sprite,Foreground,Centre,"sb\ring.png",0,0 M,0,225351,,565,412 F,2,225351,225951,1,0 S,7,225351,225951,0.04,0.72
Sprite,Foreground,Centre,"sb\ring.png",0,0 M,0,254882,,64,185 F,2,254882,255482,1,0 S,7,254882,255482,0.04,0.64
Sprite,Foreground,Centre,"sb\ring.png",0,0 M,0,255351,,64,185 F,2,255351,255951,1,0 S,7,255351,255951,0.04,0.72
Sprite,Foreground,Centre,"sb\ring.png",0,0 M,0,299882,,128,235 F,2,299882,300482,1,0 S,7,299882,300482,0.04,0.64
Sprite,Foreground,Centre,"sb\ring.png",0,0 M,0,300351,,374,259 F,2,300351,300951,1,0 S,7,300351,300951,0.04,0.72
Sprite,Foreground,Centre,"sb\ring.png",0,0 M,0,285351,,215,394 F,2,285351,285951,1,0 S,7,285351,285951,0.04,0.64
//Storyboard Layer 4 (Overlay)
//Storyboard Sound Samples

[TimingPoints]
351,468.75,4,2,1,65,1,0
351,-125,4,2,1,65,0,0
13476,-111.111111111111,4,2,1,65,0,0
14882,-125,4,2,1,65,0,0
15351,-100,4,2,1,75,0,0
30351,-90.9090909090909,4,2,1,90,0,0
45351,-111.111111111111,4,2,1,80,0,0
60351,-125,4,2,1,85,0,0
73476,-100,4,2,1,90,0,0
75351,-83.3333333333333,4,2,1,95,0,1
90351,-83.3333333333333,4,2,1,95,0,1
105351,-90.9090909090909,4,2,1,90,0,0
120351,-142.857142857143,4,2,1,70,0,0
135351,-125,4,2,1,85,0,0
148476,-100,4,2,1,90,0,0
150351,-83.3333333333333,4,2,1,95,0,1
165351,-83.3333333333333,4,2,1,95,0,1
180351,-125,4,2,11,75,0,0
180467,-125,4,2,12,75,0,0
180584,-125,4,2,13,75,0,0
181288,-125,4,2,14,75,0,0
181522,-125,4,2,13,75,0,0
181873,-125,4,2,15,75,0,0
181991,-125,4,2,12,75,0,0
182225,-125,4,2,16,75,0,0
182342,-125,4,2,12,75,0,0
182459,-125,4,2,13,75,0,0
182928,-125,4,2,17,75,0,0
183162,-125,4,2,18,75,0,0
183397,-125,4,2,13,75,0,0
183631,-125,4,2,19,75,0,0
183748,-125,4,2,20,75,0,0
183866,-125,4,2,21,75,0,0
184100,-125,4,2,22,75,0,0
184217,-125,4,2,12,75,0,0
184334,-125,4,2,13,75,0,0
185038,-125,4,2,23,75,0,0
185272,-125,4,2,13,75,0,0
185506,-125,4,2,24,75,0,0
185623,-125,4,2,15,75,0,0
185741,-125,4,2,12,75,0,0
185975,-125,4,2,25,75,0,0
186092,-125,4,2,12,75,0,0
186209,-125,4,2,13,75,0,0
186678,-125,4,2,26,75,0,0
186912,-125,4,2,13,75,0,0
187147,-125,4,2,27,75,0,0
187381,-125,4,2,28,75,0,0
187498,-125,4,2,29,75,0,0
187616,-125,4,2,20,75,0,0
187850,-125,4,2,30,75,0,0
187967,-125,4,2,12,75,0,0
188084,-125,4,2,13,75,0,0
188788,-125,4,2,17,75,0,0
189022,-125,4,2,13,75,0,0
189256,-125,4,2,31,75,0,0
189373,-125,4,2,15,75,0,0
189491,-125,4,2,12,75,0,0
189725,-125,4,2,32,75,0,0
189842,-125,4,2,12,75,0,0
189959,-125,4,2,13,75,0,0
190194,-125,4,2,17,75,0,0
190428,-125,4,2,13,75,0,0
190662,-125,4,2,14,75,0,0
190897,-125,4,2,13,75,0,0
191131,-125,4,2,33,75,0,0
191248,-125,4,2,20,75,0,0
191366,-125,4,2,29,75,0,0
191600,-125,4,2,34,75,0,0
191717,-125,4,2,12,75,0,0
191834,-125,4,2,13,75,0,0
192538,-125,4,2,23,75,0,0
192772,-125,4,2,13,75,0,0
193006,-125,4,2,24,75,0,0
193123,-125,4,2,15,75,0,0
193241,-125,4,2,12,75,0,0
193475,-125,4,2,35,75,0,0
193592,-125,4,2,12,75,0,0
193709,-125,4,2,13,75,0,0
194647,-125,4,2,36,75,0,0
194881,-125,4,2,37,75,0,0
194998,-125,4,2,29,75,0,0
195116,-125,4,2,20,75,0,0
195351,-111.111111111111,4,2,11,75,0,0
195467,-111.111111111111,4,2,12,75,0,0
195584,-111.111111111111,4,2,13,75,0,0
196288,-111.111111111111,4,2,14,75,0,0
196522,-111.111111111111,4,2,13,75,0,0
196873,-111.111111111111,4,2,15,75,0,0
196991,-111.111111111111,4,2,12,75,0,0
197225,-111.111111111111,4,2,16,75,0,0
197342,-111.111111111111,4,2,12,75,0,0
197459,-111.111111111111,4,2,13,75,0,0
197928,-111.111111111111,4,2,17,75,0,0
198162,-111.111111111111,4,2,18,75,0,0
198397,-111.111111111111,4,2,13,75,0,0
198631,-111.111111111111,4,2,19,75,0,0
198748,-111.111111111111,4,2,20,75,0,0
198866,-111.111111111111,4,2,21,75,0,0
199100,-111.111111111111,4,2,22,75,0,0
199217,-111.111111111111,4,2,12,75,0,0
199334,-111.111111111111,4,2,13,75,0,0
200038,-111.111111111111,4,2,23,75,0,0
200272,-111.111111111111,4,2,13,75,0,0
200506,-111.111111111111,4,2,24,75,0,0
200623,-111.111111111111,4,2,15,75,0,0
200741,-111.111111111111,4,2,12,75,0,0
200975,-111.111111111111,4,2,25,75,0,0
201092,-111.111111111111,4,2,12,75,0,0
201209,-111.111111111111,4,2,13,75,0,0
201678,-111.111111111111,4,2,26,75,0,0
201912,-111.111111111111,4,2,13,75,0,0
202147,-111.111111111111,4,2,27,75,0,0
202381,-111.111111111111,4,2,28,75,0,0
202498,-111.111111111111,4,2,29,75,0,0
202616,-111.111111111111,4,2,20,75,0,0
202850,-111.111111111111,4,2,30,75,0,0
202967,-111.111111111111,4,2,12,75,0,0
203084,-111.111111111111,4,2,13,75,0,0
203788,-111.111111111111,4,2,17,75,0,0
204022,-111.111111111111,4,2,13,75,0,0
204256,-111.111111111111,4,2,31,75,0,0
204373,-111.111111111111,4,2,15,75,0,0
204491,-111.111111111111,4,2,12,75,0,0
204725,-111.111111111111,4,2,32,75,0,0
204842,-111.111111111111,4,2,12,75,0,0
204959,-111.111111111111,4,2,13,75,0,0
205194,-111.111111111111,4,2,17,75,0,0
205428,-111.111111111111,4,2,13,75,0,0
205662,-111.111111111111,4,2,14,75,0,0
205897,-111.111111111111,4,2,13,75,0,0
206131,-111.111111111111,4,2,33,75,0,0
206248,-111.111111111111,4,2,20,75,0,0
206366,-111.111111111111,4,2,29,75,0,0
206600,-111.111111111111,4,2,34,75,0,0
206717,-111.111111111111,4,2,12,75,0,0
206834,-111.111111111111,4,2,13,75,0,0
207538,-111.111111111111,4,2,23,75,0,0
207772,-111.111111111111,4,2,13,75,0,0
208006,-111.111111111111,4,2,24,75,0,0
208123,-111.111111111111,4,2,15,75,0,0
208241,-111.111111111111,4,2,12,75,0,0
208476,-125,4,2,35,75,0,0
208592,-125,4,2,12,75,0,0
208709,-125,4,2,13,75,0,0
209647,-125,4,2,36,75,0,0
209881,-125,4,2,37,75,0,0
209998,-125,4,2,29,75,0,0
210116,-125,4,2,20,75,0,0
210350,-125,4,2,11,75,0,0
210467,-125,4,2,12,75,0,0
210584,-125,4,2,13,75,0,0
211288,-125,4,2,14,75,0,0
211522,-125,4,2,13,75,0,0
211873,-125,4,2,15,75,0,0
211991,-125,4,2,12,75,0,0
212225,-125,4,2,16,75,0,0
212342,-125,4,2,12,75,0,0
212459,-125,4,2,13,75,0,0
212928,-125,4,2,17,75,0,0
213162,-125,4,2,18,75,0,0
213397,-125,4,2,13,75,0,0
213631,-125,4,2,19,75,0,0
213748,-125,4,2,20,75,0,0
213866,-125,4,2,21,75,0,0
214100,-125,4,2,22,75,0,0
214217,-125,4,2,12,75,0,0
214334,-125,4,2,13,75,0,0
215038,-125,4,2,23,75,0,0
215272,-125,4,2,13,75,0,0
215506,-125,4,2,24,75,0,0
215623,-125,4,2,15,75,0,0
215741,-125,4,2,12,75,0,0
215975,-125,4,2,25,75,0,0
216092,-125,4,2,12,75,0,0
216209,-125,4,2,13,75,0,0
216678,-125,4,2,26,75,0,0
216912,-125,4,2,13,75,0,0
217147,-125,4,2,27,75,0,0
217381,-125,4,2,28,75,0,0
217498,-125,4,2,29,75,0,0
217616,-125,4,2,20,75,0,0
217850,-125,4,2,30,75,0,0
217967,-125,4,2,12,75,0,0
218084,-125,4,2,13,75,0,0
218788,-125,4,2,17,75,0,0
219022,-125,4,2,13,75,0,0
219256,-125,4,2,31,75,0,0
219373,-125,4,2,15,75,0,0
219491,-125,4,2,12,75,0,0
219725,-125,4,2,32,75,0,0
219842,-125,4,2,12,75,0,0
219959,-125,4,2,13,75,0,0
220194,-125,4,2,17,75,0,0
220428,-125,4,2,13,75,0,0
220662,-125,4,2,14,75,0,0
220897,-125,4,2,13,75,0,0
221131,-125,4,2,33,75,0,0
221248,-125,4,2,20,75,0,0
221366,-125,4,2,29,75,0,0
221600,-125,4,2,34,75,0,0
221717,-125,4,2,12,75,0,0
221834,-125,4,2,13,75,0,0
222538,-125,4,2,23,75,0,0
222772,-125,4,2,13,75,0,0
223006,-125,4,2,24,75,0,0
223123,-125,4,2,15,75,0,0
223241,-125,4,2,12,75,0,0
223476,-100,4,2,1,90,0,0
225351,-83.3333333333333,4,2,1,95,0,1
240351,-83.3333333333333,4,2,1,95,0,1
255351,-90.9090909090909,4,2,1,90,0,0
270351,-90.9090909090909,4,2,1,90,0,0
285351,-83.3333333333333,4,2,1,95,0,0
298476,-83.3333333333333,4,2,1,95,0,0
300351,-100,4,2,1,95,0,0

[Colours]
Combo1 : 212,241,244
Combo2 : 5,72,101
Combo3 : 24,154,180
Combo4 : 117,230,218

[HitObjects]
503,20,351,6,0,P|481:96|465:175,1,160
428,256,1054,1,2,0:2:0:0:
388,120,1288,2,0,P|379:81|367:42,2,80,2|2|2,0:2|0:2|0:2,0:0:0:0:
344,204,1991,1,2,0:2:0:0:
252,100,2226,6,0,P|184:59|106:68,1,160,2|0,0:2|0:0,0:0:0:0:
35,13,2929,1,2,0:2:0:0:
0,133,3163,2,0,P|-1:177|21:225,2,80,2|2|2,0:2|0:2|0:2,0:0:0:0:
104,168,3866,1,2,0:2:0:0:
36,304,4101,6,0,P|110:333|182:368,1,160,2|0,0:2|0:0,0:0:0:0:
306,292,4804,1,2,0:2:0:0:
225,251,5038,2,0,L|237:168,2,80,2|2|2,0:2|0:2|0:2,0:0:0:0:
285,374,5741,1,2,0:2:0:0:
400,278,5976,6,0,P|422:204|376:138,1,160,2|0,0:2|0:0,0:0:0:0:
293,163,6679,1,2,0:2:0:0:
307,51,6913,2,0,L|392:29,1,80,2|2,0:2|0:2,0:0:0:0:
301,151,7382,1,2,0:2:0:0:
216,79,7616,1,2,0:2:0:0:
116,140,7851,6,0,B|120:201|120:201|142:227|142:227|146:291,1,160,2|0,0:2|0:0,0:0:0:0:
316,292,8554,1,2,0:2:0:0:
226,348,8788,2,0,L|235:268,2,80,2|2|2,0:2|0:2|0:2,0:0:0:0:
101,381,9491,1,2,0:2:0:0:
8,272,9726,6,0,P|-7:196|61:128,1,160,2|0,0:2|0:0,0:0:0:0:
141,184,10429,1,2,0:2:0:0:
244,112,10663,2,0,P|224:77|190:56,1,80,2|2,0:2|0:2,0:0:0:0:
153,168,11132,1,2,0:2:0:0:
107,40,11366,1,2,0:2:0:0:
269,11,11601,6,0,P|347:21|427:26,1,160,2|0,0:2|0:0,0:0:0:0:
495,102,12304,1,2,0:2:0:0:
384,155,12538,1,2,0:2:0:0:
488,280,12772,2,0,L|472:201,1,80,2|0,0:2|0:0,0:0:0:0:
412,364,13241,1,2,0:2:0:0:
347,315,13476,6,0,B|387:311|407:325|407:325|384:290|390:241|390:241|343:264|332:296|332:296|317:289|317:289|314:300|314:300|274:285|234:285|234:285|268:325|255:369|255:369|281:333|306:325,1,494.999984893799,2|0,0:2|0:0,0:0:0:0:
322,308,14882,1,10,0:1:0:0:
256,192,15351,5,10,0:2:0:0:
256,192,15819,6,0,P|193:200|131:212,1,100,10|0,0:2|0:0,0:0:0:0:
306,99,16288,2,0,L|440:112,1,100,10|0,0:2|0:0,0:0:0:0:
431,113,16640,1,2,0:2:0:0:
431,113,16757,2,0,P|453:65|438:9,1,100,10|2,0:2|0:2,0:0:0:0:
498,213,17226,6,0,P|490:261|512:305,1,100,10|2,0:2|0:2,0:0:0:0:
388,227,17694,1,10,0:2:0:0:
311,383,17929,1,2,0:2:0:0:
311,383,18046,1,2,0:0:0:0:
311,383,18163,2,0,B|260:390|218:359|218:359|172:327|119:347,1,200,10|8,0:2|0:2,0:0:0:0:
121,346,19101,6,0,P|135:298|147:249,1,100,10|0,0:2|0:0,0:0:0:0:
289,299,19569,2,0,P|270:219|255:140,1,150,10|0,0:2|0:0,0:0:0:0:
259,131,20038,1,10,0:2:0:0:
72,42,20390,1,2,0:2:0:0:
72,42,20507,1,10,0:2:0:0:
185,0,20741,1,2,0:2:0:0:
327,47,20976,6,0,L|476:62,1,150,10|0,0:2|0:0,0:0:0:0:
491,63,21444,1,10,0:2:0:0:
419,239,21679,1,2,0:2:0:0:
497,156,21913,1,10,0:2:0:0:
331,139,22147,1,2,0:0:0:0:
331,139,22265,1,0,0:0:0:0:
331,139,22382,2,0,P|322:201|310:263,1,100,8|0,0:2|0:0,0:0:0:0:
431,375,22851,6,0,P|400:331|344:316,1,100,10|8,0:2|0:2,0:0:0:0:
192,184,23319,1,10,0:2:0:0:
327,235,23554,1,8,0:2:0:0:
288,384,23788,2,0,L|256:288,1,100,10|8,0:2|0:2,0:0:0:0:
248,267,24140,1,2,0:2:0:0:
248,267,24257,1,10,0:2:0:0:
318,132,24491,1,10,0:2:0:0:
154,93,24726,5,10,0:2:0:0:
86,224,24960,1,10,0:2:0:0:
96,20,25194,1,10,0:2:0:0:
228,180,25429,1,10,0:2:0:0:
16,102,25663,1,10,0:2:0:0:
236,52,25897,1,8,0:2:0:0:
236,52,26015,1,8,0:0:0:0:
236,52,26132,2,0,L|334:71,1,100,10|8,0:2|0:2,0:0:0:0:
233,266,26601,5,2,3:2:0:0:
233,266,26718,1,0,3:2:0:0:
233,266,26835,2,0,L|220:217,1,50,0|0,3:2|3:2,0:0:0:0:
338,151,27069,5,0,3:2:0:0:
338,151,27186,1,0,3:2:0:0:
338,151,27303,2,0,L|324:199,1,50,0|0,3:2|3:2,0:0:0:0:
436,179,27538,6,0,L|420:198,6,25,0|0|0|0|0|0|0,3:2|3:2|3:2|3:2|3:2|3:2|3:2,0:0:0:0:
512,241,28007,6,0,L|488:248,6,25,2|0|0|0|0|0|0,3:2|3:2|3:2|3:2|3:2|3:2|3:2,0:0:0:0:
503,325,28476,5,10,3:0:0:0:
331,196,28827,5,0,3:0:0:0:
331,196,28944,1,8,3:0:0:0:
343,344,29296,5,0,3:0:0:0:
316,376,29413,1,10,3:0:0:0:
273,384,29531,1,0,3:0:0:0:
228,372,29647,2,0,L|217:287,1,50,2|0,3:0|3:0,0:0:0:0:
120,339,29882,1,8,0:1:0:0:
120,339,30351,6,0,L|141:175,1,165.000005035401,6|0,1:2|0:0,0:0:0:0:
102,95,30819,2,0,P|53:70|-3:73,1,110.000003356934,2|0,1:2|0:0,0:0:0:0:
236,198,31288,2,0,L|345:184,1,110.000003356934,2|0,1:2|0:0,0:0:0:0:
399,92,31640,1,2,0:0:0:0:
399,92,31757,1,2,1:2:0:0:
512,169,31991,1,2,0:0:0:0:
486,0,32226,6,0,L|472:59,1,55.0000016784668,2|0,1:2|0:0,0:0:0:0:
426,175,32460,2,0,L|439:229,1,55.0000016784668,2|0,0:0|0:0,0:0:0:0:
320,54,32694,1,2,1:2:0:0:
295,65,32811,1,2,0:0:0:0:
270,77,32929,1,2,0:0:0:0:
245,90,33046,1,2,0:0:0:0:
220,102,33163,2,0,L|162:94,1,55.0000016784668,2|0,1:0|0:0,0:0:0:0:
53,39,33397,2,0,L|0:50,1,55.0000016784668,2|0,0:0|0:0,0:0:0:0:
123,173,33632,2,0,P|141:227|118:280,1,110.000003356934,2|0,1:2|0:0,0:0:0:0:
311,383,34101,6,0,B|270:347|270:347|254:216,1,165.000005035401,2|0,1:2|0:0,0:0:0:0:
351,209,34569,2,0,P|407:225|464:239,1,110.000003356934,2|0,1:2|0:0,0:0:0:0:
400,72,35038,2,0,P|341:80|283:87,1,110.000003356934,2|0,1:2|0:0,0:0:0:0:
199,101,35390,1,2,0:0:0:0:
199,101,35507,1,2,1:2:0:0:
9,65,35741,1,2,0:0:0:0:
85,184,35976,6,0,L|67:236,1,55.0000016784668,2|0,1:2|0:0,0:0:0:0:
95,51,36210,2,0,L|77:-1,1,55.0000016784668,2|0,0:0|0:0,0:0:0:0:
207,125,36444,1,2,1:2:0:0:
215,149,36561,1,2,0:0:0:0:
227,173,36679,1,2,0:0:0:0:
238,198,36796,1,2,0:0:0:0:
249,223,36913,2,0,L|303:216,1,55.0000016784668,2|0,1:2|0:0,0:0:0:0:
431,169,37147,2,0,L|485:162,1,55.0000016784668,2|0,0:0|0:0,0:0:0:0:
511,338,37382,2,0,L|395:323,1,110.000003356934,2|0,1:2|0:0,0:0:0:0:
257,208,37851,6,0,B|260:146|260:146|241:118|241:118|245:45,1,165.000005035401,2|0,1:2|0:0,0:0:0:0:
162,15,38319,2,0,L|153:124,1,110.000003356934,2|0,1:2|0:0,0:0:0:0:
2,241,38788,2,0,P|-6:188|24:138,1,110.000003356934,2|0,1:2|0:0,0:0:0:0:
75,72,39140,1,2,0:0:0:0:
75,72,39257,1,2,1:2:0:0:
159,217,39491,1,2,0:0:0:0:
17,325,39726,6,0,L|70:312,1,55.0000016784668,2|0,1:2|0:0,0:0:0:0:
192,370,39960,2,0,L|246:383,1,55.0000016784668,2|0,0:0|0:0,0:0:0:0:
400,262,40194,1,2,1:2:0:0:
375,268,40311,1,2,0:0:0:0:
350,278,40429,1,2,0:0:0:0:
324,288,40546,1,2,0:0:0:0:
298,298,40663,2,0,L|287:243,1,55.0000016784668,2|0,1:2|0:0,0:0:0:0:
224,136,40897,2,0,L|234:81,1,55.0000016784668,2|0,0:0|0:0,0:0:0:0:
384,180,41132,2,0,P|437:166|491:155,1,110.000003356934,2|0,1:2|0:0,0:0:0:0:
368,30,41601,6,0,P|316:101|334:157,1,110.000003356934,2|0,1:2|0:0,0:0:0:0:
119,83,42069,2,0,P|171:66|224:52,1,110.000003356934,2|0,1:2|0:0,0:0:0:0:
274,271,42538,2,0,P|224:248|172:227,1,110.000003356934,2|0,1:2|0:0,0:0:0:0:
95,194,42890,1,2,0:0:0:0:
95,194,43007,1,2,1:2:0:0:
256,156,43241,1,2,0:0:0:0:
392,264,43476,6,0,B|404:320|404:320|378:375,1,110.000003356934,2|2,3:2|0:0,0:0:0:0:
346,178,43944,1,2,3:2:0:0:
488,268,44179,1,2,3:2:0:0:
312,304,44413,1,2,3:2:0:0:
284,300,44530,1,0,3:2:0:0:
256,292,44647,1,2,3:2:0:0:
228,284,44765,1,0,3:2:0:0:
200,280,44882,2,0,P|145:284|90:291,1,110.000003356934,10|0,3:1|0:0,0:0:0:0:
0,140,45351,6,0,B|35:123|79:165|79:165|115:202|164:192,1,179.999994506836,2|0,1:2|1:2,0:0:0:0:
261,150,46054,1,2,0:2:0:0:
156,72,46288,2,0,P|205:28|270:33,1,134.999995880127,2|2,1:2|0:2,0:0:0:0:
280,40,46757,2,0,L|383:27,1,89.9999972534181,0|2,1:2|0:2,0:0:0:0:
512,112,47226,6,0,P|472:84|425:98,1,89.9999972534181,2|2,1:2|0:2,0:0:0:0:
332,200,47694,2,0,P|371:172|418:186,1,89.9999972534181,0|0,1:2|0:0,0:0:0:0:
512,288,48163,2,0,P|472:260|425:274,1,89.9999972534181,0|2,1:2|0:2,0:0:0:0:
331,380,48632,1,2,1:2:0:0:
348,286,48866,1,2,0:2:0:0:
213,384,49101,6,0,P|153:340|163:233,1,179.999994506836,2|0,1:2|1:2,0:0:0:0:
279,208,49804,1,2,0:2:0:0:
279,208,49921,1,0,0:0:0:0:
279,208,50038,2,0,P|316:153|303:89,1,134.999995880127,2|2,1:2|0:2,0:0:0:0:
295,76,50507,2,0,L|197:100,1,89.9999972534181,0|2,1:2|0:2,0:0:0:0:
33,158,50976,6,0,P|15:113|21:62,2,89.9999972534181,2|2|0,1:2|0:2|1:2,0:0:0:0:
149,209,51679,1,0,0:0:0:0:
203,82,51913,2,0,P|191:35|157:-2,1,89.9999972534181,0|0,1:2|0:0,0:0:0:0:
293,54,52382,2,0,L|390:78,1,89.9999972534181,2|0,1:2|0:0,0:0:0:0:
512,0,52851,6,0,B|471:36|471:36|455:167,1,179.999994506836,2|0,1:2|1:2,0:0:0:0:
431,269,53554,1,2,0:2:0:0:
360,160,53788,2,0,P|305:122|241:135,1,134.999995880127,2|2,1:2|0:2,0:0:0:0:
232,144,54257,2,0,L|252:246,1,89.9999972534181,0|2,1:2|0:2,0:0:0:0:
208,372,54726,6,0,B|168:344|168:344|121:358,1,89.9999972534181,2|2,1:2|0:2,0:0:0:0:
0,280,55194,2,0,B|39:252|39:252|79:264,1,89.9999972534181,0|0,1:2|0:0,0:0:0:0:
208,188,55663,2,0,B|168:160|168:160|121:174,1,89.9999972534181,0|2,1:2|0:2,0:0:0:0:
6,120,56132,1,2,1:2:0:0:
144,57,56366,1,2,0:2:0:0:
144,57,56483,1,2,0:0:0:0:
144,57,56601,6,0,B|179:44|223:86|223:86|259:123|308:113,1,179.999994506836,2|0,1:2|1:2,0:0:0:0:
372,45,57304,1,2,0:2:0:0:
512,92,57538,2,0,B|487:132|487:132|471:1,1,179.999994506836,2|0,1:2|1:2,0:0:0:0:
363,58,58241,1,2,0:2:0:0:
402,205,58476,6,0,L|422:307,1,89.9999972534181,2|2,1:2|0:2,0:0:0:0:
297,369,58944,2,0,L|314:280,1,89.9999972534181,0|0,1:2|0:0,0:0:0:0:
196,212,59413,2,0,L|216:314,1,89.9999972534181,0|0,1:2|0:0,0:0:0:0:
92,376,59881,2,0,L|109:287,1,89.9999972534181,0|0,1:2|0:0,0:0:0:0:
36,181,60351,5,8,2:2:0:0:
36,181,60819,1,8,2:2:0:0:
0,78,61054,1,2,0:2:0:0:
128,15,61288,2,0,L|113:93,1,80,10|2,2:2|0:2,0:0:0:0:
109,115,61640,1,2,0:0:0:0:
109,115,61757,1,10,2:2:0:0:
197,202,61991,1,2,0:2:0:0:
225,49,62226,5,10,2:2:0:0:
225,49,62694,1,8,0:2:0:0:
306,0,62929,1,2,0:2:0:0:
419,63,63163,2,0,P|437:103|437:148,1,80,10|2,0:2|0:2,0:0:0:0:
435,160,63515,1,2,0:0:0:0:
435,160,63632,1,10,0:2:0:0:
386,274,63866,1,2,0:2:0:0:
231,196,64101,5,10,0:2:0:0:
231,196,64569,1,8,0:2:0:0:
286,303,64804,1,2,0:2:0:0:
168,381,65038,2,0,L|183:303,1,80,10|2,0:2|0:2,0:0:0:0:
187,281,65390,1,2,0:0:0:0:
187,281,65507,1,10,0:2:0:0:
77,157,65741,1,2,0:2:0:0:
90,322,65976,5,10,0:2:0:0:
90,322,66444,1,8,0:2:0:0:
5,233,66679,1,2,0:2:0:0:
167,201,66913,2,0,L|245:185,1,80,10|2,0:2|0:2,0:0:0:0:
267,182,67265,1,2,0:2:0:0:
267,182,67382,1,10,0:2:0:0:
174,85,67616,1,2,0:2:0:0:
359,8,67851,5,10,0:2:0:0:
456,68,68085,1,8,0:2:0:0:
353,118,68319,1,8,0:2:0:0:
453,190,68554,1,10,0:2:0:0:
363,271,68788,2,0,P|349:313|355:357,1,80,10|10,0:2|0:2,0:0:0:0:
369,378,69140,1,2,0:0:0:0:
369,378,69257,1,10,0:2:0:0:
256,272,69491,1,10,0:2:0:0:
153,376,69726,5,10,0:2:0:0:
56,316,69960,1,8,0:2:0:0:
159,266,70194,1,8,0:2:0:0:
59,194,70429,1,10,0:2:0:0:
149,113,70663,2,0,P|163:71|157:27,1,80,10|10,0:2|0:2,0:0:0:0:
143,6,71015,1,2,0:0:0:0:
143,6,71132,1,10,0:2:0:0:
256,112,71366,1,10,0:2:0:0:
359,8,71601,5,2,3:2:0:0:
384,40,71718,1,0,3:2:0:0:
396,80,71836,1,0,3:2:0:0:
396,120,71953,1,0,3:2:0:0:
368,148,72069,1,0,3:2:0:0:
336,172,72186,1,0,3:2:0:0:
312,204,72304,1,2,3:2:0:0:
312,244,72421,1,0,3:2:0:0:
324,280,72538,6,0,L|332:307,6,20,2|0|0|0|2|0|0,3:2|3:2|3:2|3:2|3:2|3:2|3:2,0:0:0:0:
405,342,73007,6,0,L|433:348,6,20,0|0|0|0|2|0|0,3:2|3:2|3:2|3:2|3:2|3:2|3:2,0:0:0:0:
488,283,73476,5,10,3:0:0:0:
467,81,73827,5,0,3:2:0:0:
467,81,73944,1,8,3:0:0:0:
441,184,74296,5,0,3:2:0:0:
400,212,74413,1,8,3:0:0:0:
354,208,74530,1,0,3:2:0:0:
316,182,74647,2,0,P|310:135|304:94,1,50,0|0,3:2|3:2,0:0:0:0:
218,73,74882,5,10,3:1:0:0:
218,73,75351,6,0,P|200:139|186:198,1,119.999996337891,6|0,1:2|0:0,0:0:0:0:
204,382,75819,2,0,B|161:358|161:358|292:333,1,179.999994506836,2|2,1:2|0:2,0:0:0:0:
373,373,76288,2,0,P|406:324|405:265,1,119.999996337891,2|0,1:2|0:0,0:0:0:0:
342,199,76640,1,2,0:2:0:0:
342,199,76757,1,2,1:2:0:0:
429,99,76991,1,2,0:2:0:0:
280,27,77226,6,0,P|251:31|221:35,1,59.9999981689454,2|0,1:2|0:0,0:0:0:0:
34,90,77460,2,0,P|64:94|94:98,1,59.9999981689454,2|0,0:2|0:0,0:0:0:0:
275,150,77694,2,0,P|246:154|216:158,1,59.9999981689454,2|0,1:2|0:0,0:0:0:0:
53,225,77928,2,0,P|83:229|113:233,1,59.9999981689454,2|0,0:2|0:0,0:0:0:0:
308,251,78163,1,2,1:2:0:0:
181,365,78397,1,0,3:0:0:0:
187,323,78514,1,0,3:0:0:0:
193,281,78632,1,0,1:2:0:0:
85,315,78866,1,0,3:0:0:0:
291,336,79101,6,0,P|356:322|408:311,1,119.999996337891,2|0,1:2|0:0,0:0:0:0:
453,131,79569,2,0,B|506:164|506:164|513:227,1,119.999996337891,2|0,1:2|0:0,0:0:0:0:
294,195,80038,2,0,P|234:186|175:178,1,119.999996337891,2|0,1:2|0:0,0:0:0:0:
88,161,80390,1,2,0:2:0:0:
88,161,80507,1,2,1:2:0:0:
204,275,80741,1,2,0:2:0:0:
238,62,80976,6,0,P|297:53|356:45,1,119.999996337891,2|0,1:2|0:0,0:0:0:0:
498,182,81444,2,0,L|433:166,1,59.9999981689454,2|0,1:2|0:0,0:0:0:0:
290,152,81679,2,0,L|348:137,1,59.9999981689454,2|0,0:2|0:0,0:0:0:0:
512,83,81913,1,2,1:2:0:0:
376,286,82147,1,2,3:2:0:0:
376,286,82264,1,0,3:0:0:0:
376,286,82382,2,0,L|361:227,1,59.9999981689454,0|0,1:2|0:0,0:0:0:0:
488,343,82616,1,0,3:0:0:0:
272,265,82851,6,0,P|239:314|240:373,1,119.999996337891,2|0,1:2|0:0,0:0:0:0:
158,206,83319,2,0,B|129:163|129:163|2:148,1,179.999994506836,2|0,1:2|0:0,0:0:0:0:
0,58,83788,2,0,P|59:53|119:46,1,119.999996337891,2|0,1:2|0:0,0:0:0:0:
210,74,84140,1,2,0:2:0:0:
210,74,84257,1,2,1:2:0:0:
355,3,84491,1,2,0:2:0:0:
300,152,84726,6,0,L|306:92,1,59.9999981689454,2|0,1:2|0:0,0:0:0:0:
206,212,84960,2,0,L|199:152,1,59.9999981689454,2|0,0:2|0:0,0:0:0:0:
336,284,85194,2,0,L|342:224,1,59.9999981689454,2|0,1:2|0:0,0:0:0:0:
180,357,85429,2,0,L|173:297,1,59.9999981689454,2|0,0:2|0:0,0:0:0:0:
378,384,85663,2,0,P|434:369|467:315,1,119.999996337891,2|0,1:2|3:0,0:0:0:0:
417,246,86015,1,0,3:0:0:0:
417,246,86132,1,0,1:2:0:0:
489,122,86366,1,0,3:0:0:0:
316,4,86601,6,0,B|279:54|279:54|296:115,1,119.999996337891,2|0,1:2|0:0,0:0:0:0:
419,232,87069,2,0,B|425:169|425:169|380:125,1,119.999996337891,2|0,1:2|0:0,0:0:0:0:
217,257,87538,2,0,B|282:246|282:246|320:186,1,119.999996337891,2|2,1:2|3:0,0:0:0:0:
371,118,87890,1,0,3:0:0:0:
371,118,88007,1,0,1:2:0:0:
220,169,88241,1,2,3:1:0:0:
393,29,88476,6,0,P|452:23|512:16,1,119.999996337891,2|2,3:2|0:0,0:0:0:0:
277,82,88944,2,0,P|217:76|157:69,1,119.999996337891,0|0,3:2|3:2,0:0:0:0:
10,7,89413,1,2,3:2:0:0:
10,7,89530,1,0,3:2:0:0:
10,7,89647,1,2,3:2:0:0:
47,212,89882,1,10,3:1:0:0:
168,165,90116,1,2,3:1:0:0:
235,356,90351,6,0,B|108:372|108:372|79:320,1,179.999994506836,6|0,1:2|0:0,0:0:0:0:
6,268,90819,2,0,P|54:235|114:236,1,119.999996337891,2|0,1:2|0:0,0:0:0:0:
320,356,91288,2,0,P|377:367|431:343,1,119.999996337891,2|0,1:2|0:0,0:0:0:0:
510,269,91640,1,2,0:2:0:0:
510,269,91757,1,2,1:2:0:0:
365,285,91991,1,2,0:2:0:0:
474,133,92226,6,0,P|490:158|495:187,1,59.9999981689454,2|0,1:2|0:0,0:0:0:0:
383,54,92460,2,0,P|388:24|404:0,1,59.9999981689454,2|0,0:2|0:0,0:0:0:0:
307,152,92694,2,0,P|323:177|328:206,1,59.9999981689454,2|0,1:2|0:0,0:0:0:0:
236,54,92928,2,0,P|241:24|257:-1,1,59.9999981689454,2|0,0:2|0:0,0:0:0:0:
155,166,93163,1,2,1:2:0:0:
56,45,93397,1,0,3:0:0:0:
84,14,93514,1,0,3:0:0:0:
125,6,93632,1,0,1:2:0:0:
0,147,93866,1,0,3:0:0:0:
211,238,94101,6,0,B|251:190|251:190|240:133,1,119.999996337891,2|0,1:2|0:0,0:0:0:0:
90,298,94569,2,0,B|28:283|28:283|3:231,1,119.999996337891,2|0,1:2|0:0,0:0:0:0:
187,384,95038,2,0,B|249:377|249:377|280:329,1,119.999996337891,2|0,1:2|0:0,0:0:0:0:
332,249,95390,1,2,0:2:0:0:
332,249,95507,1,2,1:2:0:0:
424,345,95741,1,2,0:2:0:0:
511,153,95976,6,0,P|452:161|393:171,1,119.999996337891,2|0,1:2|0:0,0:0:0:0:
170,137,96444,2,0,L|227:151,1,59.9999981689454,2|0,1:2|0:0,0:0:0:0:
402,33,96679,2,0,L|342:49,1,59.9999981689454,2|0,0:2|0:0,0:0:0:0:
210,0,96913,1,2,1:2:0:0:
304,217,97147,1,2,3:2:0:0:
304,217,97265,1,0,3:0:0:0:
304,217,97383,2,0,L|311:157,1,59.9999981689454,0|0,1:2|0:0,0:0:0:0:
132,57,97616,1,0,3:0:0:0:
215,260,97851,6,0,B|197:292|197:292|173:141,1,179.999994506836,2|0,1:2|0:0,0:0:0:0:
82,184,98319,2,0,P|73:243|63:302,1,119.999996337891,2|0,1:2|0:0,0:0:0:0:
283,187,98788,2,0,P|342:195|401:205,1,119.999996337891,2|0,1:2|0:0,0:0:0:0:
488,156,99140,1,2,0:2:0:0:
488,156,99257,1,2,1:2:0:0:
378,103,99491,1,2,0:2:0:0:
512,262,99726,6,0,L|506:322,1,59.9999981689454,2|0,1:2|0:0,0:0:0:0:
297,299,99960,2,0,L|303:359,1,59.9999981689454,2|0,0:2|0:0,0:0:0:0:
396,214,100194,2,0,L|402:274,1,59.9999981689454,2|0,1:2|0:0,0:0:0:0:
200,260,100429,2,0,L|194:320,1,59.9999981689454,2|0,0:2|0:0,0:0:0:0:
104,178,100663,1,2,1:2:0:0:
27,326,100897,1,0,3:0:0:0:
13,279,101014,1,0,3:0:0:0:
0,229,101132,1,2,1:2:0:0:
26,67,101366,1,0,3:0:0:0:
186,115,101601,6,0,P|239:108|325:53,1,119.999996337891,2|0,1:2|0:0,0:0:0:0:
228,296,102069,2,0,P|197:251|108:201,1,119.999996337891,0|0,1:2|0:0,0:0:0:0:
378,166,102538,2,0,P|349:211|338:312,1,119.999996337891,0|0,1:2|0:0,0:0:0:0:
298,370,102890,1,0,3:0:0:0:
298,370,103007,1,2,1:2:0:0:
265,202,103241,1,0,3:0:0:0:
438,304,103476,6,0,B|478:256|478:256|467:199,1,119.999996337891,10|0,3:0|0:0,0:0:0:0:
512,128,103827,1,0,3:0:0:0:
512,128,103944,1,8,3:0:0:0:
375,18,104179,5,2,0:0:0:0:
375,18,104296,1,0,3:0:0:0:
375,18,104413,1,10,3:3:0:0:
362,70,104530,1,0,3:0:0:0:
312,91,104647,1,2,3:0:0:0:
239,54,104765,1,0,3:0:0:0:
169,93,104882,1,8,0:1:0:0:
168,93,105351,6,0,B|172:158|172:158|196:186|196:186|200:256,1,165.000005035401,6|0,1:2|0:0,0:0:0:0:
152,335,105819,2,0,P|92:324|33:316,1,110.000003356934,2|0,1:2|0:0,0:0:0:0:
246,384,106288,2,0,P|296:360|324:310,1,110.000003356934,2|0,1:2|0:0,0:0:0:0:
290,223,106640,1,2,0:0:0:0:
290,223,106757,1,2,1:2:0:0:
119,257,106991,1,2,0:0:0:0:
239,115,107226,6,0,L|185:127,1,55.0000016784668,2|0,1:2|0:0,0:0:0:0:
36,217,107460,2,0,L|48:163,1,55.0000016784668,2|0,0:0|0:0,0:0:0:0:
0,31,107694,1,2,1:2:0:0:
18,10,107811,1,2,0:0:0:0:
44,3,107929,1,2,0:0:0:0:
71,0,108046,1,2,0:0:0:0:
98,2,108163,2,0,L|151:14,1,55.0000016784668,2|0,1:0|0:0,0:0:0:0:
303,136,108397,2,0,L|249:123,1,55.0000016784668,2|0,0:0|0:0,0:0:0:0:
376,0,108632,2,0,P|412:39|415:93,1,110.000003356934,2|0,1:2|0:0,0:0:0:0:
272,240,109101,6,0,P|370:209|449:189,1,165.000005035401,2|0,1:2|0:0,0:0:0:0:
512,225,109569,2,0,B|527:176|527:176|495:128,1,110.000003356934,2|0,1:2|0:0,0:0:0:0:
362,0,110038,2,0,P|347:53|330:105,1,110.000003356934,2|0,1:2|0:0,0:0:0:0:
262,37,110390,1,2,0:0:0:0:
262,37,110507,1,2,1:2:0:0:
151,193,110741,1,2,0:0:0:0:
91,3,110976,6,0,L|121:49,1,55.0000016784668,2|0,1:2|0:0,0:0:0:0:
240,200,111210,2,0,L|258:148,1,55.0000016784668,2|0,0:0|0:0,0:0:0:0:
59,135,111444,1,2,1:2:0:0:
42,156,111561,1,2,0:0:0:0:
34,182,111679,1,2,0:0:0:0:
32,209,111796,1,2,0:0:0:0:
39,235,111913,2,0,L|58:285,1,55.0000016784668,2|0,1:2|0:0,0:0:0:0:
221,302,112147,2,0,L|170:280,1,55.0000016784668,2|0,0:0|0:0,0:0:0:0:
0,384,112382,2,0,L|116:369,1,110.000003356934,2|0,1:2|0:0,0:0:0:0:
364,311,112851,6,0,P|314:291|307:174,1,165.000005035401,2|0,1:2|0:0,0:0:0:0:
348,124,113319,2,0,P|308:87|254:84,1,110.000003356934,2|0,1:2|0:0,0:0:0:0:
382,225,113788,2,0,P|429:199|451:145,1,110.000003356934,2|0,1:2|0:0,0:0:0:0:
417,66,114140,1,2,0:0:0:0:
417,66,114257,1,2,1:2:0:0:
512,246,114491,1,2,0:0:0:0:
387,371,114726,6,0,L|367:319,1,55.0000016784668,2|0,1:2|0:0,0:0:0:0:
231,213,114960,2,0,L|282:232,1,55.0000016784668,2|0,0:0|0:0,0:0:0:0:
203,380,115194,1,2,1:2:0:0:
175,382,115311,1,2,0:0:0:0:
148,384,115429,1,2,0:0:0:0:
123,371,115546,1,2,0:0:0:0:
108,347,115663,2,0,L|120:289,1,55.0000016784668,2|0,1:2|0:0,0:0:0:0:
208,122,115897,2,0,L|163:153,1,55.0000016784668,2|0,0:0|0:0,0:0:0:0:
25,277,116132,2,0,P|14:223|-1:169,1,110.000003356934,2|0,1:2|0:0,0:0:0:0:
49,28,116601,6,0,P|108:36|167:46,1,110.000003356934,2|0,1:2|0:0,0:0:0:0:
298,127,117069,1,2,1:2:0:0:
245,0,117304,1,0,0:0:0:0:
468,26,117538,2,0,B|476:77|476:77|438:122,1,110.000003356934,2|0,1:2|0:0,0:0:0:0:
366,181,117890,1,2,0:0:0:0:
366,181,118007,1,2,1:2:0:0:
381,43,118241,1,2,0:0:0:0:
512,192,118476,6,0,L|495:300,1,110.000003356934,10|2,0:0|0:0,0:0:0:0:
306,332,118944,1,10,0:0:0:0:
306,332,119061,1,2,0:0:0:0:
306,332,119179,1,2,0:0:0:0:
260,205,119413,2,0,P|250:179|241:153,1,55.0000016784668,10|0,0:0|0:0,0:0:0:0:
408,319,119647,2,0,P|400:344|393:371,1,55.0000016784668,2|0,0:0|0:0,0:0:0:0:
387,214,119882,2,0,P|406:162|423:109,1,110.000003356934,8|0,0:1|0:0,0:0:0:0:
477,1,120351,6,0,B|497:23|497:23|382:6,1,139.999995727539,6|0,0:2|0:0,0:0:0:0:
307,78,121054,1,2,0:2:0:0:
221,22,121288,2,0,P|175:10|103:20,2,104.999996795654,2|2|2,0:2|0:2|0:2,0:0:0:0:
314,100,122226,6,0,P|331:167|345:236,2,139.999995727539,2|0|0,0:2|0:0|0:0,0:0:0:0:
240,164,123397,1,2,0:2:0:0:
164,108,123632,2,0,L|94:116,1,69.9999978637696,2|2,0:2|0:2,0:0:0:0:
0,167,124101,6,0,B|64:208|41:290,1,139.999995727539,2|0,0:2|0:0,0:0:0:0:
143,325,124804,1,2,0:2:0:0:
143,325,124921,1,0,0:0:0:0:
143,325,125038,2,0,P|203:319|265:312,2,104.999996795654,2|2|2,0:2|0:2|0:2,0:0:0:0:
152,232,125976,6,0,P|186:229|221:225,1,69.9999978637696,2|2,0:2|0:2,0:0:0:0:
300,156,126444,2,0,P|267:141|236:126,1,69.9999978637696
160,4,126913,2,0,P|145:87|128:169,1,139.999995727539,0|2,0:0|0:2,0:0:0:0:
280,32,127851,6,0,P|364:42|400:80,1,139.999995727539,2|0,0:2|0:0,0:0:0:0:
456,152,128554,1,2,0:2:0:0:
412,252,128788,2,0,L|404:356,2,104.999996795654,2|2|2,0:2|0:2|0:2,0:0:0:0:
324,164,129726,6,0,B|266:175|266:175|245:198|245:198|196:207,2,139.999995727539,2|0|0,0:2|0:0|0:0,0:0:0:0:
376,88,130897,1,2,0:2:0:0:
296,24,131132,2,0,P|264:20|226:30,1,69.9999978637696,2|2,0:2|0:2,0:0:0:0:
113,0,131601,6,0,L|95:146,1,139.999995727539,2|0,0:2|0:0,0:0:0:0:
0,226,132304,1,2,0:2:0:0:
0,226,132421,1,2,0:0:0:0:
0,226,132538,2,0,L|18:372,1,139.999995727539,2|0,0:2|0:0,0:0:0:0:
99,302,133241,1,2,0:2:0:0:
190,384,133476,6,0,P|211:351|219:305,1,69.9999978637696,2|2,0:2|0:2,0:0:0:0:
305,312,133944,2,0,P|307:273|291:228,1,69.9999978637696
181,186,134413,2,0,P|178:147|195:102,1,69.9999978637696
114,61,134882,2,0,P|131:26|167:-3,1,69.9999978637696
271,84,135351,5,8,2:2:0:0:
271,84,135819,1,8,2:2:0:0:
451,54,136054,1,2,0:2:0:0:
369,0,136288,2,0,L|358:85,1,80,10|2,2:2|0:2,0:0:0:0:
357,102,136640,1,2,0:0:0:0:
357,102,136757,1,10,2:2:0:0:
423,172,136991,1,2,0:2:0:0:
236,221,137226,5,10,2:2:0:0:
236,221,137694,1,8,0:2:0:0:
401,312,137929,1,2,0:2:0:0:
317,265,138163,2,0,L|327:185,1,80,10|2,0:2|0:2,0:0:0:0:
331,164,138515,1,0,0:0:0:0:
331,164,138632,1,10,0:2:0:0:
283,90,138866,1,2,0:2:0:0:
128,168,139101,5,10,0:2:0:0:
128,168,139569,1,8,0:2:0:0:
47,12,139804,1,2,0:2:0:0:
0,96,140038,2,0,P|37:107|84:102,1,80,10|2,0:2|0:2,0:0:0:0:
94,99,140390,1,2,0:0:0:0:
94,99,140507,1,10,0:2:0:0:
167,40,140741,1,2,0:2:0:0:
222,231,140976,5,10,0:2:0:0:
222,231,141444,1,8,0:2:0:0:
127,208,141679,1,2,0:2:0:0:
312,158,141913,2,0,L|328:236,1,80,10|2,0:2|0:2,0:0:0:0:
333,258,142265,1,2,0:2:0:0:
333,258,142382,1,10,0:2:0:0:
430,191,142616,1,2,0:2:0:0:
487,349,142851,5,10,0:2:0:0:
374,384,143085,1,8,0:2:0:0:
261,330,143319,1,8,0:2:0:0:
155,384,143554,1,10,0:2:0:0:
21,324,143788,2,0,B|5:287|5:287|12:246,1,80,10|10,0:2|0:2,0:0:0:0:
22,208,144140,1,2,0:0:0:0:
22,208,144257,1,10,0:2:0:0:
129,144,144491,1,10,0:2:0:0:
25,35,144726,5,10,0:2:0:0:
138,0,144960,1,8,0:2:0:0:
251,54,145194,1,8,0:2:0:0:
357,0,145429,1,10,0:2:0:0:
491,60,145663,2,0,B|507:97|507:97|499:137,1,80,10|10,0:2|0:2,0:0:0:0:
490,176,146015,1,2,0:0:0:0:
490,176,146132,1,10,0:2:0:0:
408,274,146366,1,10,0:2:0:0:
250,152,146601,5,2,3:2:0:0:
287,137,146718,1,0,3:2:0:0:
324,123,146836,1,0,3:2:0:0:
362,111,146953,1,0,3:2:0:0:
399,99,147069,1,0,3:2:0:0:
361,84,147186,1,0,3:2:0:0:
321,74,147304,1,2,3:2:0:0:
282,65,147421,1,0,3:2:0:0:
243,54,147538,6,0,L|235:27,6,20,2|0|0|0|2|0|0,3:2|3:2|3:2|3:2|3:2|3:2|3:2,0:0:0:0:
148,17,148007,6,0,L|153:37,6,20,0|0|0|0|2|0|0,3:2|3:2|3:2|3:2|3:2|3:2|3:2,0:0:0:0:
77,77,148476,5,10,3:0:0:0:
114,227,148827,5,0,3:2:0:0:
114,227,148944,1,8,3:0:0:0:
287,156,149296,5,0,3:2:0:0:
302,203,149413,1,8,3:0:0:0:
290,251,149530,1,0,3:2:0:0:
252,282,149647,2,0,L|186:264,1,50,0|0,3:2|3:2,0:0:0:0:
256,374,149882,5,10,3:1:0:0:
256,374,150351,6,0,P|380:350|480:338,1,179.999994506836,6|0,1:2|0:0,0:0:0:0:
501,267,150819,2,0,P|472:204|452:153,1,119.999996337891,2|0,1:2|0:0,0:0:0:0:
301,12,151288,2,0,P|354:37|382:89,1,119.999996337891,2|0,1:2|0:0,0:0:0:0:
360,183,151640,1,2,0:2:0:0:
360,183,151757,1,2,1:2:0:0:
474,71,151991,1,2,0:2:0:0:
295,99,152226,6,0,P|265:92|236:86,1,59.9999981689454,2|0,1:2|0:0,0:0:0:0:
118,11,152460,2,0,P|89:20|61:29,1,59.9999981689454,2|0,0:2|0:0,0:0:0:0:
236,184,152694,2,0,P|207:193|179:202,1,59.9999981689454,2|0,1:2|0:0,0:0:0:0:
40,128,152928,2,0,P|20:150|0:172,1,59.9999981689454,2|0,0:2|0:0,0:0:0:0:
194,294,153163,1,2,1:2:0:0:
0,362,153397,1,0,3:0:0:0:
18,324,153514,1,0,3:0:0:0:
11,281,153632,1,0,1:2:0:0:
148,384,153866,1,0,3:0:0:0:
325,290,154101,6,0,L|351:102,1,179.999994506836,2|0,1:2|0:0,0:0:0:0:
266,155,154569,2,0,B|213:188|213:188|153:166,1,119.999996337891,2|0,1:2|0:0,0:0:0:0:
311,26,155038,2,0,B|365:6|365:6|418:39,1,119.999996337891,2|0,1:2|0:0,0:0:0:0:
477,118,155390,1,2,0:2:0:0:
477,118,155507,1,2,1:2:0:0:
365,189,155741,1,2,0:2:0:0:
497,328,155976,5,2,1:2:0:0:
497,328,156093,2,0,L|368:310,1,119.999996337891,2|0,0:0|0:0,0:0:0:0:
117,384,156444,2,0,L|175:370,1,59.9999981689454,2|0,1:2|0:0,0:0:0:0:
239,257,156679,2,0,L|296:274,1,59.9999981689454,2|0,0:2|0:0,0:0:0:0:
86,229,156913,1,2,1:2:0:0:
251,136,157147,1,2,3:2:0:0:
251,136,157265,1,0,3:0:0:0:
251,136,157382,2,0,L|193:118,1,59.9999981689454,0|0,1:2|0:0,0:0:0:0:
76,51,157616,2,0,L|18:68,1,59.9999981689454,0|0,3:0|0:0,0:0:0:0:
230,0,157851,6,0,B|280:-10|280:-10|382:66,1,179.999994506836,2|0,1:2|0:0,0:0:0:0:
463,119,158319,2,0,P|478:58|447:3,1,119.999996337891,2|0,1:2|0:0,0:0:0:0:
328,154,158788,2,0,L|343:272,1,119.999996337891,2|0,1:2|0:0,0:0:0:0:
423,216,159140,1,2,0:2:0:0:
423,216,159257,1,2,1:2:0:0:
270,324,159491,1,2,0:2:0:0:
445,361,159726,6,0,P|441:331|436:301,1,59.9999981689454,2|0,1:2|0:0,0:0:0:0:
512,128,159960,2,0,P|507:157|503:187,1,59.9999981689454,2|0,0:2|0:0,0:0:0:0:
337,261,160194,2,0,P|340:231|345:201,1,59.9999981689454,2|0,1:2|0:0,0:0:0:0:
441,48,160429,2,0,P|417:66|393:84,1,59.9999981689454,2|0,0:2|0:0,0:0:0:0:
231,137,160663,2,0,L|112:121,1,119.999996337891,2|0,1:2|3:0,0:0:0:0:
36,176,161015,1,0,3:0:0:0:
36,176,161132,1,0,1:2:0:0:
167,234,161366,1,0,3:0:0:0:
354,109,161601,6,0,L|471:87,1,119.999996337891,2|0,1:2|0:0,0:0:0:0:
273,212,162069,2,0,L|219:104,1,119.999996337891,2|0,1:2|0:0,0:0:0:0:
393,235,162538,2,0,L|299:375,1,119.999996337891,2|2,1:2|3:0,0:0:0:0:
410,382,162890,1,0,3:0:0:0:
410,382,163007,1,0,1:2:0:0:
249,291,163241,1,2,3:1:0:0:
468,279,163476,6,0,P|483:218|452:163,1,119.999996337891,2|2,3:2|0:2,0:0:0:0:
322,14,163944,2,0,P|297:67|312:124,1,119.999996337891,0|0,3:2|3:2,0:0:0:0:
426,72,164413,1,2,3:2:0:0:
426,72,164530,1,0,3:2:0:0:
426,72,164647,1,2,3:2:0:0:
222,137,164882,1,10,3:1:0:0:
171,9,165116,1,2,3:1:0:0:
13,118,165351,6,0,B|-20:171|-20:171|0:225,1,119.999996337891,6|0,1:2|0:0,0:0:0:0:
37,384,165819,2,0,B|106:378|106:378|135:353|135:353|207:349,1,179.999994506836,2|2,1:2|0:2,0:0:0:0:
314,384,166288,2,0,P|296:326|324:264,1,119.999996337891,2|0,1:2|0:0,0:0:0:0:
335,185,166640,1,2,0:2:0:0:
335,185,166757,1,2,1:2:0:0:
398,331,166991,1,2,0:2:0:0:
205,220,167226,6,0,P|214:191|224:163,1,59.9999981689454,2|0,1:2|0:0,0:0:0:0:
372,46,167460,2,0,P|401:40|430:35,1,59.9999981689454,2|0,0:2|0:0,0:0:0:0:
203,42,167694,2,0,P|232:36|261:31,1,59.9999981689454,2|0,1:2|0:0,0:0:0:0:
429,127,167928,2,0,P|445:151|462:176,1,59.9999981689454,2|0,0:2|0:0,0:0:0:0:
512,364,168163,2,0,P|446:341|393:327,1,119.999996337891,2|0,1:2|3:0,0:0:0:0:
309,369,168515,1,0,3:0:0:0:
309,369,168632,1,0,1:2:0:0:
359,245,168866,1,0,3:0:0:0:
156,358,169101,6,0,L|134:202,1,119.999996337891,2|0,1:2|0:0,0:0:0:0:
10,254,169569,2,0,L|31:98,1,119.999996337891,2|0,1:2|0:0,0:0:0:0:
257,211,170038,2,0,L|237:48,1,119.999996337891,2|0,1:2|0:0,0:0:0:0:
197,7,170390,1,2,0:2:0:0:
197,7,170507,1,2,1:2:0:0:
333,106,170741,1,2,0:2:0:0:
312,307,170976,6,0,B|338:348|338:348|354:215,1,179.999994506836,2|0,1:2|0:0,0:0:0:0:
239,105,171444,2,0,L|226:164,1,59.9999981689454,2|0,1:2|0:0,0:0:0:0:
99,281,171679,2,0,L|86:222,1,59.9999981689454,2|0,0:2|0:0,0:0:0:0:
114,67,171913,1,2,1:2:0:0:
211,313,172147,1,2,3:2:0:0:
211,313,172265,1,0,3:0:0:0:
211,313,172382,2,0,L|223:254,1,59.9999981689454,0|0,1:2|0:0,0:0:0:0:
339,135,172616,2,0,L|352:194,1,59.9999981689454,0|0,3:0|0:0,0:0:0:0:
500,341,172851,6,0,B|457:369|457:369|334:339,1,179.999994506836,2|0,1:2|0:0,0:0:0:0:
404,267,173319,2,0,P|441:216|434:153,1,119.999996337891,2|0,1:2|0:0,0:0:0:0:
259,104,173788,2,0,L|142:133,1,119.999996337891,2|0,1:2|0:0,0:0:0:0:
57,102,174140,1,2,0:2:0:0:
57,102,174257,1,2,1:2:0:0:
0,265,174491,1,2,0:2:0:0:
225,337,174726,6,0,P|253:328|282:320,1,59.9999981689454,2|0,1:2|0:0,0:0:0:0:
87,204,174960,1,2,0:2:0:0:
118,384,175194,2,0,P|121:354|126:324,1,59.9999981689454,2|0,1:2|0:0,0:0:0:0:
248,220,175429,2,0,P|278:223|308:228,1,59.9999981689454,2|0,0:2|0:0,0:0:0:0:
179,60,175663,2,0,L|60:44,1,119.999996337891,2|0,1:2|3:0,0:0:0:0:
0,120,176015,1,0,3:0:0:0:
0,120,176132,1,2,1:2:0:0:
169,166,176366,1,0,3:0:0:0:
292,15,176601,6,0,P|264:67|255:126,1,119.999996337891,2|0,1:2|0:0,0:0:0:0:
467,87,177069,2,0,P|435:36|388:-1,1,119.999996337891,0|0,1:2|0:0,0:0:0:0:
311,207,177538,2,0,P|370:204|426:182,1,119.999996337891,0|0,1:2|0:0,0:0:0:0:
512,203,177890,1,0,3:0:0:0:
512,203,178007,1,2,1:2:0:0:
352,100,178241,1,0,3:0:0:0:
321,309,178476,6,0,L|201:293,1,119.999996337891,10|0,3:0|0:0,0:0:0:0:
130,346,178827,1,0,3:0:0:0:
130,346,178944,1,8,3:0:0:0:
50,203,179179,5,2,0:0:0:0:
50,203,179296,1,0,3:0:0:0:
50,203,179413,1,10,3:3:0:0:
98,226,179530,1,0,3:0:0:0:
151,218,179647,1,2,3:0:0:0:
220,177,179765,1,0,3:0:0:0:
294,209,179882,1,8,0:1:0:0:
294,209,180351,6,0,L|333:213,2,40,2|2|2,0:2|0:2|0:2,0:0:0:0:
354,129,180819,1,2,0:2:0:0:
451,140,181054,1,2,0:2:0:0:
512,215,181288,2,0,L|501:294,1,80,2|2,0:2|0:2,0:0:0:0:
416,335,181757,2,0,L|411:374,2,40,2|2|2,0:2|0:2|0:2,0:0:0:0:
239,287,182226,6,0,L|234:247,2,40,2|2|2,0:2|0:2|0:2,0:0:0:0:
159,356,182694,1,2,0:2:0:0:
78,304,182929,1,2,0:2:0:0:
122,218,183163,2,0,P|135:174|122:129,1,80,2|2,0:2|0:2,0:0:0:0:
76,63,183632,2,0,L|55:28,2,40,2|2|2,0:2|0:2|0:2,0:0:0:0:
261,8,184101,6,0,L|300:-1,2,40,2|2|2,0:2|0:2|0:2,0:0:0:0:
193,71,184569,1,2,0:2:0:0:
272,121,184804,1,2,0:2:0:0:
346,68,185038,2,0,P|390:52|436:54,1,80,2|2,0:2|0:2,0:0:0:0:
505,106,185507,2,0,L|498:164,2,40,2|2|2,0:2|0:2|0:2,0:0:0:0:
339,217,185976,6,0,L|299:221,2,40,2|2|2,0:2|0:2|0:2,0:0:0:0:
437,205,186444,1,2,0:2:0:0:
509,270,186679,1,2,0:2:0:0:
435,220,186913,2,0,L|416:318,1,80,2|2,0:2|0:2,0:0:0:0:
344,350,187382,2,0,L|304:354,2,40,2|2|2,0:2|0:2|0:2,0:0:0:0:
174,291,187851,6,0,L|213:295,2,40,2|2|2,0:2|0:2|0:2,0:0:0:0:
121,214,188319,1,2,0:2:0:0:
196,169,188554,1,2,0:2:0:0:
281,208,188788,2,0,L|292:129,1,80,2|2,0:2|0:2,0:0:0:0:
361,63,189257,2,0,L|400:68,2,40,2|2|2,0:2|0:2|0:2,0:0:0:0:
170,7,189726,6,0,L|131:12,2,40,2|2|2,0:2|0:2|0:2,0:0:0:0:
131,90,190194,1,2,0:2:0:0:
49,34,190429,1,2,0:2:0:0:
0,116,190663,2,0,P|10:160|44:193,1,80,2|2,0:2|0:2,0:0:0:0:
116,233,191132,2,0,L|104:271,2,40,2|2|2,0:2|0:2|0:2,0:0:0:0:
308,125,191601,6,0,L|319:86,2,40,2|2|2,0:2|0:2|0:2,0:0:0:0:
372,187,192069,1,2,0:2:0:0:
296,232,192304,1,2,0:2:0:0:
213,179,192538,2,0,B|197:216|197:216|199:269,1,80,2|2,0:2|0:2,0:0:0:0:
148,335,193007,2,0,L|90:328,2,40,2|2|2,0:2|0:2|0:2,0:0:0:0:
358,366,193476,6,0,L|318:370,2,40,2|2|2,0:2|0:2|0:2,0:0:0:0:
390,278,193944,1,2,0:2:0:0:
357,190,194179,1,2,0:2:0:0:
403,276,194413,2,0,P|445:267|479:251,1,80,2|2,0:2|0:2,0:0:0:0:
512,162,194882,2,0,L|507:122,2,40,2|2|2,0:2|0:2|0:2,0:0:0:0:
433,32,195351,5,2,0:2:0:0:
433,32,195468,1,2,0:2:0:0:
433,32,195585,1,2,0:2:0:0:
271,75,195819,1,2,0:2:0:0:
347,10,196054,1,2,0:2:0:0:
306,171,196288,2,0,L|176:151,1,89.9999972534181,2|2,0:2|0:2,0:0:0:0:
371,245,196757,1,2,0:2:0:0:
371,245,196874,1,2,0:2:0:0:
371,245,196991,1,2,0:2:0:0:
180,335,197226,5,2,0:2:0:0:
180,335,197343,1,2,0:2:0:0:
180,335,197460,1,2,0:2:0:0:
63,230,197694,1,2,0:2:0:0:
95,316,197929,1,2,0:2:0:0:
112,133,198163,2,0,P|101:82|82:41,1,89.9999972534181,2|2,0:2|0:2,0:0:0:0:
205,169,198632,1,2,0:2:0:0:
205,169,198749,1,2,0:2:0:0:
205,169,198866,1,2,0:2:0:0:
19,116,199101,5,2,0:2:0:0:
19,116,199218,1,2,0:2:0:0:
19,116,199335,1,2,0:2:0:0:
160,0,199569,1,2,0:2:0:0:
80,47,199804,1,2,0:2:0:0:
237,89,200038,2,0,L|367:69,1,89.9999972534181,2|2,0:2|0:2,0:0:0:0:
429,0,200507,1,2,0:2:0:0:
429,0,200624,1,2,0:2:0:0:
429,0,200741,1,2,0:2:0:0:
506,177,200976,5,2,0:2:0:0:
506,177,201093,1,2,0:2:0:0:
506,177,201210,1,2,0:2:0:0:
439,99,201444,1,2,0:2:0:0:
377,209,201679,1,2,0:2:0:0:
288,164,201913,2,0,P|245:149|201:151,1,89.9999972534181,2|2,0:2|0:2,0:0:0:0:
102,242,202382,1,2,0:2:0:0:
102,242,202499,1,2,0:2:0:0:
102,242,202616,1,2,0:2:0:0:
33,114,202851,5,2,0:2:0:0:
33,114,202968,1,2,0:2:0:0:
33,114,203085,1,2,0:2:0:0:
112,162,203319,1,2,0:2:0:0:
0,252,203554,1,2,0:2:0:0:
120,322,203788,2,0,L|250:302,1,89.9999972534181,2|2,0:2|0:2,0:0:0:0:
276,241,204257,1,2,0:2:0:0:
276,241,204374,1,2,0:2:0:0:
276,241,204491,1,2,0:2:0:0:
367,365,204726,5,2,0:2:0:0:
367,365,204843,1,2,0:2:0:0:
367,365,204960,1,2,0:2:0:0:
464,265,205194,1,2,0:2:0:0:
505,350,205429,1,2,0:2:0:0:
385,196,205663,2,0,L|349:322,1,89.9999972534181,2|2,0:2|0:2,0:0:0:0:
512,158,206132,1,2,0:2:0:0:
512,158,206249,1,2,0:2:0:0:
512,158,206366,1,2,0:2:0:0:
348,36,206601,5,2,0:2:0:0:
348,36,206718,1,2,0:2:0:0:
348,36,206835,1,2,0:2:0:0:
399,113,207069,1,2,0:2:0:0:
184,147,207304,1,2,0:2:0:0:
262,80,207538,2,0,P|281:120|284:164,1,89.9999972534181,2|2,0:2|0:2,0:0:0:0:
132,228,208007,1,2,0:2:0:0:
132,228,208124,1,2,0:2:0:0:
132,228,208241,1,2,0:2:0:0:
189,0,208476,5,2,0:2:0:0:
189,0,208593,1,2,0:2:0:0:
189,0,208710,1,2,0:2:0:0:
80,145,208944,1,2,0:2:0:0:
12,28,209179,1,2,0:2:0:0:
95,143,209413,2,0,L|174:131,1,80,2|2,0:2|0:2,0:0:0:0:
244,65,209882,1,2,0:2:0:0:
244,65,209999,1,2,0:2:0:0:
244,65,210116,1,2,0:2:0:0:
432,131,210351,5,10,0:2:0:0:
438,99,210468,1,2,0:2:0:0:
444,68,210585,1,2,0:2:0:0:
328,110,210819,1,10,0:2:0:0:
511,181,211054,1,2,0:2:0:0:
338,224,211288,1,10,0:2:0:0:
481,276,211522,2,0,L|443:289,1,40,2|0,0:2|0:0,0:0:0:0:
432,131,211757,1,10,0:2:0:0:
426,163,211874,1,2,0:2:0:0:
420,194,211991,1,2,0:2:0:0:
300,314,212226,5,10,0:2:0:0:
269,303,212343,1,2,0:2:0:0:
247,279,212460,1,2,0:2:0:0:
226,114,212694,2,0,L|216:152,1,40,10|0,0:2|0:0,0:0:0:0:
165,311,212929,1,2,0:2:0:0:
109,233,213163,2,0,L|145:216,1,40,10|0,0:2|0:0,0:0:0:0:
306,158,213398,1,2,0:2:0:0:
320,316,213632,1,10,0:2:0:0:
269,303,213749,1,2,0:2:0:0:
237,264,213866,1,2,0:2:0:0:
66,134,214101,5,10,0:2:0:0:
97,128,214218,1,2,0:2:0:0:
129,122,214335,1,2,0:2:0:0:
286,94,214569,1,10,0:2:0:0:
171,37,214804,1,2,0:2:0:0:
120,212,215038,1,10,0:2:0:0:
24,60,215272,2,0,L|6:23,1,40,2|0,0:2|0:0,0:0:0:0:
129,122,215507,1,10,0:2:0:0:
160,128,215624,1,2,0:2:0:0:
192,134,215741,1,2,0:2:0:0:
430,86,215976,5,10,0:2:0:0:
430,118,216093,1,2,0:2:0:0:
416,148,216210,1,2,0:2:0:0:
284,161,216444,2,0,P|306:141|329:123,1,40,10|0,0:2|0:0,0:0:0:0:
437,3,216679,1,2,0:2:0:0:
511,169,216913,1,10,0:2:0:0:
339,49,217147,1,2,0:2:0:0:
402,210,217382,1,10,0:2:0:0:
402,178,217499,1,2,0:2:0:0:
416,148,217616,1,2,0:2:0:0:
512,359,217851,5,10,0:2:0:0:
476,352,217968,1,2,0:2:0:0:
440,347,218085,1,10,0:2:0:0:
294,235,218319,1,10,0:2:0:0:
219,384,218554,1,10,0:2:0:0:
298,222,218788,1,10,0:2:0:0:
338,347,219022,2,0,L|300:336,1,40,10|0,0:2|0:0,0:0:0:0:
305,137,219257,1,10,0:2:0:0:
336,140,219374,1,2,0:2:0:0:
364,158,219491,1,10,0:2:0:0:
171,217,219726,5,10,0:2:0:0:
139,217,219843,1,2,0:2:0:0:
109,203,219960,1,10,0:2:0:0:
0,38,220194,1,10,0:2:0:0:
181,107,220429,1,10,0:2:0:0:
36,246,220663,1,10,0:2:0:0:
106,1,220897,1,10,0:2:0:0:
282,133,221132,1,10,0:2:0:0:
275,169,221249,1,2,0:2:0:0:
270,205,221366,1,10,0:2:0:0:
41,350,221601,5,2,3:2:0:0:
88,342,221718,1,2,3:2:0:0:
134,329,221835,1,2,3:2:0:0:
179,315,221952,1,0,3:0:0:0:
224,301,222069,1,2,3:2:0:0:
190,266,222186,1,0,3:0:0:0:
157,230,222304,1,2,3:2:0:0:
123,195,222421,1,0,3:0:0:0:
85,164,222538,6,0,L|88:144,6,20,2|0|0|0|2|0|0,3:2|3:2|3:0|3:2|3:2|3:2|3:0,0:0:0:0:
143,79,223007,6,0,L|140:59,6,20,2|0|2|0|2|0|0,3:2|3:2|3:2|3:2|3:2|3:2|3:2,0:0:0:0:
223,120,223476,5,8,3:0:0:0:
440,160,223827,1,0,3:2:0:0:
440,160,223944,1,8,3:0:0:0:
411,27,224296,1,0,3:2:0:0:
411,27,224413,5,2,0:2:0:0:
512,106,224647,1,2,0:1:0:0:
377,265,224882,1,10,0:1:0:0:
429,172,225116,1,2,0:2:0:0:
501,346,225351,6,0,B|426:341|426:341|393:363|393:363|323:359,1,179.999994506836,6|0,1:2|0:0,0:0:0:0:
235,376,225819,1,2,1:2:0:0:
128,239,226054,1,0,0:0:0:0:
350,283,226288,2,0,B|380:228|380:228|361:174,1,119.999996337891,2|0,1:2|0:0,0:0:0:0:
275,109,226640,1,2,0:2:0:0:
275,109,226757,1,2,1:2:0:0:
426,78,226991,1,2,0:2:0:0:
267,229,227226,6,0,L|213:202,1,59.9999981689454,2|0,1:2|0:0,0:0:0:0:
208,17,227460,2,0,L|181:70,1,59.9999981689454,2|0,0:2|0:0,0:0:0:0:
124,258,227694,2,0,L|91:208,1,59.9999981689454,2|0,1:2|0:0,0:0:0:0:
330,72,227929,2,0,L|280:104,1,59.9999981689454,2|0,0:2|0:0,0:0:0:0:
100,28,228163,1,2,1:2:0:0:
217,213,228397,1,0,3:0:0:0:
222,254,228514,1,0,3:0:0:0:
212,295,228632,1,0,1:2:0:0:
366,183,228866,1,0,3:0:0:0:
389,378,229101,6,0,P|334:324|277:273,1,119.999996337891,2|0,1:2|0:0,0:0:0:0:
89,198,229569,2,0,P|154:159|222:123,1,119.999996337891,2|0,1:2|0:0,0:0:0:0:
414,32,230038,2,0,P|340:10|266:-7,1,119.999996337891,2|0,1:2|0:0,0:0:0:0:
324,111,230390,1,2,0:2:0:0:
324,111,230507,1,2,1:2:0:0:
163,6,230741,1,2,0:2:0:0:
255,220,230976,6,0,B|298:248|298:248|421:212,1,179.999994506836,2|0,1:2|0:0,0:0:0:0:
474,7,231444,2,0,P|453:31|445:59,1,59.9999981689454,2|0,1:2|0:0,0:0:0:0:
512,201,231679,2,0,P|501:170|481:150,1,59.9999981689454,2|0,0:2|0:0,0:0:0:0:
362,0,231913,1,2,1:2:0:0:
168,128,232147,1,2,3:2:0:0:
168,128,232265,1,0,3:0:0:0:
168,128,232382,2,0,P|190:146|218:156,1,59.9999981689454,0|0,1:2|0:0,0:0:0:0:
358,81,232616,2,0,P|356:110|342:137,1,59.9999981689454,0|0,3:0|0:0,0:0:0:0:
302,379,232851,6,0,B|330:336|330:336|294:213,1,179.999994506836,2|0,1:2|0:0,0:0:0:0:
390,228,233319,2,0,P|447:214|487:170,1,119.999996337891,2|0,1:2|0:0,0:0:0:0:
396,364,233788,1,2,1:2:0:0:
209,251,234022,1,0,0:0:0:0:
209,251,234140,1,2,0:2:0:0:
209,251,234257,1,2,1:2:0:0:
347,134,234491,1,2,0:2:0:0:
256,351,234726,6,0,L|196:345,1,59.9999981689454,2|0,1:2|0:0,0:0:0:0:
321,222,234960,2,0,L|381:228,1,59.9999981689454,2|0,0:2|0:0,0:0:0:0:
200,126,235194,2,0,L|140:134,1,59.9999981689454,2|0,1:2|0:0,0:0:0:0:
292,14,235428,2,0,L|351:5,1,59.9999981689454,2|0,0:2|0:0,0:0:0:0:
222,213,235663,1,2,1:2:0:0:
94,52,235897,1,0,3:0:0:0:
60,78,236015,1,0,3:0:0:0:
50,118,236132,1,0,1:2:0:0:
199,3,236366,1,0,3:0:0:0:
339,201,236601,5,2,1:2:0:0:
140,134,236835,1,0,0:0:0:0:
326,36,237069,2,0,L|295:87,1,59.9999981689454,2|0,1:2|0:0,0:0:0:0:
342,313,237304,1,0,0:0:0:0:
250,161,237538,1,2,1:2:0:0:
465,75,237772,1,2,3:2:0:0:
465,75,237890,1,0,3:0:0:0:
465,75,238007,1,0,1:2:0:0:
354,187,238241,1,2,3:1:0:0:
168,44,238476,6,0,P|114:19|56:31,1,119.999996337891,2|2,3:2|0:2,0:0:0:0:
93,191,238944,1,0,3:2:0:0:
270,87,239179,1,0,3:2:0:0:
193,280,239413,2,0,L|202:220,1,59.9999981689454,2|0,3:2|3:2,0:0:0:0:
397,256,239647,2,0,L|391:314,1,59.9999981689454,2|0,3:2|3:2,0:0:0:0:
290,384,239882,2,0,L|281:324,1,59.9999981689454,10|0,3:1|0:0,0:0:0:0:
501,289,240116,2,0,L|509:348,1,59.9999981689454,2|0,1:1|0:0,0:0:0:0:
379,147,240351,6,0,P|350:76|317:7,1,119.999996337891,6|0,1:2|0:0,0:0:0:0:
95,69,240819,2,0,P|165:97|234:130,1,119.999996337891,2|0,1:2|0:0,0:0:0:0:
318,267,241288,2,0,P|247:295|178:328,1,119.999996337891,2|0,1:2|0:0,0:0:0:0:
143,382,241640,1,2,0:2:0:0:
143,382,241757,1,2,1:2:0:0:
184,210,241991,1,2,0:2:0:0:
385,343,242226,6,0,P|406:317|413:290,1,59.9999981689454,2|0,1:2|0:0,0:0:0:0:
272,132,242460,2,0,P|281:160|301:182,1,59.9999981689454,2|0,0:2|0:0,0:0:0:0:
451,31,242694,2,0,P|425:9|398:2,1,59.9999981689454,2|0,1:2|0:0,0:0:0:0:
454,203,242929,2,0,B|483:209|486:211|512:202,1,59.9999981689454,2|0,0:2|0:0,0:0:0:0:
335,66,243163,1,2,1:2:0:0:
130,139,243397,1,0,3:0:0:0:
90,124,243515,1,0,3:0:0:0:
72,86,243632,1,0,1:2:0:0:
198,19,243866,1,0,3:0:0:0:
300,185,244101,6,0,P|269:283|241:383,1,179.999994506836,2|0,1:2|0:0,0:0:0:0:
173,300,244569,1,2,1:2:0:0:
0,262,244804,1,0,0:0:0:0:
54,127,245038,2,0,P|78:181|100:237,1,119.999996337891,2|0,1:2|0:0,0:0:0:0:
90,334,245390,1,2,0:2:0:0:
90,334,245507,1,2,1:2:0:0:
249,258,245741,1,2,0:2:0:0:
493,314,245976,6,0,B|475:358|475:358|437:211,1,179.999994506836,2|0,1:2|0:0,0:0:0:0:
484,17,246444,2,0,P|474:41|447:63,1,59.9999981689454,2|0,1:2|0:0,0:0:0:0:
257,116,246679,2,0,P|281:133|310:136,1,59.9999981689454,2|0,0:2|0:0,0:0:0:0:
509,164,246913,1,2,1:2:0:0:
316,40,247147,1,2,3:2:0:0:
316,40,247265,1,0,3:0:0:0:
316,40,247382,2,0,P|327:16|357:-1,1,59.9999981689454,0|0,1:2|0:0,0:0:0:0:
417,205,247616,2,0,P|408:230|381:251,1,59.9999981689454,0|0,3:0|0:0,0:0:0:0:
173,148,247851,6,0,B|101:138|101:138|68:157|68:157|-1:149,1,179.999994506836,2|0,1:2|0:0,0:0:0:0:
43,71,248319,1,2,1:2:0:0:
125,236,248554,1,0,0:0:0:0:
201,21,248788,2,0,P|260:14|319:5,1,119.999996337891,2|0,1:2|0:0,0:0:0:0:
403,55,249140,1,2,0:2:0:0:
403,55,249257,1,2,1:2:0:0:
265,136,249491,1,2,0:2:0:0:
451,228,249726,6,0,L|457:168,1,59.9999981689454,2|0,1:2|0:0,0:0:0:0:
329,363,249960,2,0,L|389:357,1,59.9999981689454,2|0,0:2|0:0,0:0:0:0:
229,222,250194,2,0,L|169:230,1,59.9999981689454,2|0,1:2|0:0,0:0:0:0:
5,334,250429,2,0,L|-1:274,1,59.9999981689454,2|0,0:2|0:0,0:0:0:0:
66,113,250663,1,2,1:2:0:0:
137,322,250897,1,0,3:0:0:0:
171,345,251014,1,0,3:0:0:0:
213,338,251132,1,2,1:2:0:0:
361,260,251366,1,0,3:0:0:0:
450,59,251601,6,0,P|432:125|418:184,1,119.999996337891,10|0,1:2|0:0,0:0:0:0:
180,118,252069,2,0,P|222:160|265:202,1,119.999996337891,8|0,1:2|0:0,0:0:0:0:
301,377,252538,2,0,P|367:359|425:342,1,119.999996337891,8|0,1:2|0:0,0:0:0:0:
512,381,252890,1,0,0:0:0:0:
512,381,253007,1,10,1:2:0:0:
363,267,253241,1,0,0:0:0:0:
166,369,253476,5,10,3:0:0:0:
309,150,253827,5,0,3:0:0:0:
309,150,253944,1,8,3:0:0:0:
76,206,254179,5,2,0:0:0:0:
76,206,254296,1,0,3:0:0:0:
76,206,254413,1,10,3:0:0:0:
122,179,254530,1,0,3:0:0:0:
133,125,254647,1,2,3:0:0:0:
69,77,254765,1,0,3:0:0:0:
0,119,254882,1,8,0:1:0:0:
0,119,255351,6,0,P|86:143|172:171,1,165.000005035401,6|0,1:2|0:0,0:0:0:0:
252,210,255819,2,0,P|304:193|357:178,1,110.000003356934,2|0,1:2|0:0,0:0:0:0:
196,340,256288,2,0,P|157:295|151:236,1,110.000003356934,2|0,1:2|0:0,0:0:0:0:
180,152,256640,1,2,0:0:0:0:
180,152,256757,1,2,1:2:0:0:
298,43,256991,1,2,0:0:0:0:
117,13,257226,6,0,L|127:70,1,55.0000016784668,2|0,1:2|0:0,0:0:0:0:
31,109,257460,2,0,L|19:55,1,55.0000016784668,2|0,0:0|0:0,0:0:0:0:
220,12,257694,1,2,1:2:0:0:
218,39,257811,1,2,0:0:0:0:
214,66,257929,1,2,0:0:0:0:
212,93,258046,1,2,0:0:0:0:
208,120,258163,2,0,L|200:174,1,55.0000016784668,2|0,1:0|0:0,0:0:0:0:
414,112,258397,2,0,L|406:57,1,55.0000016784668,2|0,0:0|0:0,0:0:0:0:
310,97,258632,2,0,L|325:205,1,110.000003356934,2|0,1:2|0:0,0:0:0:0:
473,382,259101,6,0,B|405:380|405:380|379:358|379:358|315:354,1,165.000005035401,2|0,1:2|0:0,0:0:0:0:
238,302,259569,2,0,B|192:325|192:325|182:383,1,110.000003356934,2|0,1:2|0:0,0:0:0:0:
399,271,260038,2,0,B|436:236|436:236|432:178,1,110.000003356934,2|0,1:2|0:0,0:0:0:0:
471,92,260390,1,2,0:0:0:0:
471,92,260507,1,2,1:2:0:0:
347,199,260741,1,2,0:0:0:0:
369,18,260976,6,0,L|379:75,1,55.0000016784668,2|0,1:2|0:0,0:0:0:0:
244,0,261210,2,0,L|254:57,1,55.0000016784668,2|0,0:0|0:0,0:0:0:0:
121,168,261444,1,2,1:2:0:0:
101,141,261561,1,2,0:0:0:0:
71,125,261679,1,2,0:0:0:0:
38,124,261796,1,2,0:0:0:0:
7,137,261913,2,0,L|0:191,1,55.0000016784668,2|0,1:2|0:0,0:0:0:0:
112,319,262147,2,0,L|119:265,1,55.0000016784668,2|0,0:0|0:0,0:0:0:0:
291,279,262382,2,0,L|400:292,1,110.000003356934,2|0,1:2|0:0,0:0:0:0:
270,138,262851,6,0,P|258:79|283:25,1,110.000003356934,2|0,1:2|0:0,0:0:0:0:
459,55,263319,2,0,P|414:94|355:99,1,110.000003356934,2|0,1:2|0:0,0:0:0:0:
172,27,263788,2,0,P|117:3|59:14,1,110.000003356934,2|0,1:2|0:0,0:0:0:0:
1,76,264140,1,2,0:0:0:0:
1,76,264257,1,2,1:2:0:0:
175,114,264491,1,2,0:0:0:0:
54,236,264726,6,0,L|0:227,1,55.0000016784668,2|0,1:2|0:0,0:0:0:0:
173,133,264960,2,0,L|162:186,1,55.0000016784668,2|0,0:0|0:0,0:0:0:0:
163,370,265194,1,2,1:2:0:0:
138,363,265311,1,2,0:0:0:0:
110,356,265429,1,2,0:0:0:0:
85,348,265546,1,2,0:0:0:0:
59,343,265663,2,0,L|5:331,1,55.0000016784668,2|0,1:2|0:0,0:0:0:0:
199,268,265897,2,0,L|251:252,1,55.0000016784668,2|0,0:0|0:0,0:0:0:0:
448,384,266132,2,0,P|401:341|402:279,1,110.000003356934,2|0,1:2|0:0,0:0:0:0:
202,141,266601,6,0,L|310:156,1,110.000003356934,2|0,1:2|0:0,0:0:0:0:
397,16,267069,2,0,L|289:31,1,110.000003356934,2|0,1:2|0:0,0:0:0:0:
480,189,267538,2,0,B|517:154|517:154|513:96,1,110.000003356934,2|0,1:2|0:0,0:0:0:0:
492,10,267890,1,2,0:0:0:0:
492,10,268007,1,2,1:2:0:0:
421,115,268241,1,2,0:0:0:0:
503,290,268476,5,10,0:0:0:0:
365,202,268710,1,2,0:0:0:0:
422,364,268944,1,10,0:0:0:0:
466,199,269179,1,2,0:0:0:0:
318,309,269413,2,0,P|291:304|264:302,1,55.0000016784668,10|0,0:0|0:0,0:0:0:0:
140,257,269647,2,0,P|112:259|85:264,1,55.0000016784668,2|0,0:0|0:0,0:0:0:0:
215,137,269882,2,0,P|242:132|269:130,1,55.0000016784668,10|0,0:1|0:0,0:0:0:0:
373,203,270116,2,0,P|400:205|427:210,1,55.0000016784668,2|0,0:0|0:0,0:0:0:0:
386,0,270351,6,0,P|353:49|354:108,1,110.000003356934,6|0,1:2|0:0,0:0:0:0:
512,211,270819,1,2,1:2:0:0:
512,211,270936,1,2,0:0:0:0:
512,211,271054,2,0,P|504:181|490:160,1,55.0000016784668,2|0,0:0|0:0,0:0:0:0:
280,233,271288,2,0,L|172:218,1,110.000003356934,2|0,1:2|0:0,0:0:0:0:
106,146,271640,1,2,0:0:0:0:
106,146,271757,1,2,1:2:0:0:
22,275,271991,1,2,0:0:0:0:
217,345,272226,6,0,L|271:333,1,55.0000016784668,2|0,1:2|0:0,0:0:0:0:
372,242,272460,2,0,L|360:188,1,55.0000016784668,2|0,0:0|0:0,0:0:0:0:
366,359,272694,1,2,1:2:0:0:
397,369,272811,1,2,0:0:0:0:
430,368,272929,1,2,0:0:0:0:
458,350,273046,1,2,0:0:0:0:
485,331,273163,2,0,L|473:277,1,55.0000016784668,2|0,1:0|0:0,0:0:0:0:
465,107,273397,2,0,L|453:161,1,55.0000016784668,2|0,0:0|0:0,0:0:0:0:
290,256,273632,2,0,P|236:253|196:217,1,110.000003356934,2|0,1:2|0:0,0:0:0:0:
278,0,274101,6,0,B|306:43|306:43|270:166,1,165.000005035401,2|0,1:2|0:0,0:0:0:0:
183,111,274569,2,0,L|75:126,1,110.000003356934,2|0,1:2|0:0,0:0:0:0:
92,317,275038,1,2,1:2:0:0:
0,199,275272,1,0,0:0:0:0:
0,199,275390,1,2,0:0:0:0:
0,199,275507,1,2,1:2:0:0:
163,251,275741,1,2,0:0:0:0:
96,61,275976,6,0,P|78:82|68:107,1,55.0000016784668,2|0,1:2|0:0,0:0:0:0:
252,18,276210,2,0,P|224:13|197:17,1,55.0000016784668,2|0,0:0|0:0,0:0:0:0:
353,101,276444,1,2,1:2:0:0:
382,114,276561,1,2,0:0:0:0:
415,110,276679,1,2,0:0:0:0:
444,95,276796,1,2,0:0:0:0:
467,72,276913,2,0,L|455:18,1,55.0000016784668,2|0,1:2|0:0,0:0:0:0:
373,250,277147,2,0,L|385:196,1,55.0000016784668,2|0,0:0|0:0,0:0:0:0:
508,376,277382,2,0,L|483:267,1,110.000003356934,2|0,1:2|0:0,0:0:0:0:
283,359,277851,6,0,B|236:381|236:381|118:331,1,165.000005035401,2|0,1:2|0:0,0:0:0:0:
56,285,278319,2,0,P|97:250|151:249,1,110.000003356934,2|0,1:2|0:0,0:0:0:0:
372,333,278788,2,0,L|357:225,1,110.000003356934,2|0,1:2|0:0,0:0:0:0:
415,135,279140,1,2,0:0:0:0:
415,135,279257,1,2,1:2:0:0:
263,242,279491,1,2,0:0:0:0:
295,57,279726,6,0,L|307:111,1,55.0000016784668,2|0,1:2|0:0,0:0:0:0:
449,11,279960,2,0,L|395:-1,1,55.0000016784668,2|0,0:0|0:0,0:0:0:0:
205,85,280194,1,2,1:2:0:0:
174,98,280311,1,2,0:0:0:0:
141,104,280429,1,2,0:0:0:0:
108,96,280546,1,2,0:0:0:0:
80,77,280663,2,0,L|92:23,1,55.0000016784668,2|0,1:2|0:0,0:0:0:0:
198,186,280897,2,0,L|250:204,1,55.0000016784668,2|0,0:0|0:0,0:0:0:0:
39,287,281132,2,0,L|11:163,1,110.000003356934,2|0,1:2|0:0,0:0:0:0:
187,383,281601,6,0,B|146:360|146:360|270:336,1,165.000005035401,2|0,1:2|0:0,0:0:0:0:
398,265,282069,2,0,L|386:319,1,55.0000016784668,2|0,1:2|0:0,0:0:0:0:
275,201,282304,1,0,0:0:0:0:
464,96,282538,2,0,P|499:136|501:190,1,110.000003356934,2|0,1:2|0:0,0:0:0:0:
493,286,282890,1,2,0:0:0:0:
493,286,283007,1,2,1:2:0:0:
400,167,283241,1,2,0:0:0:0:
497,0,283476,6,0,L|389:17,1,110.000003356934,10|2,0:0|0:0,0:0:0:0:
225,67,283944,1,10,0:0:0:0:
255,79,284061,1,0,0:0:0:0:
287,87,284179,1,2,0:0:0:0:
137,4,284413,2,0,P|123:28|118:55,1,55.0000016784668,10|0,0:0|0:0,0:0:0:0:
161,181,284647,2,0,P|153:154|153:127,1,55.0000016784668,2|0,0:0|0:0,0:0:0:0:
308,182,284882,2,0,P|307:209|301:236,1,55.0000016784668,10|0,0:1|0:0,0:0:0:0:
291,362,285116,2,0,P|310:342|325:318,1,55.0000016784668,2|0,0:0|0:0,0:0:0:0:
151,328,285351,6,0,B|57:348|57:348|-19:266,1,179.999994506836,12|0,0:2|0:0,0:0:0:0:
0,190,285819,1,10,0:2:0:0:
118,244,286054,1,0,0:0:0:0:
15,68,286288,2,0,L|134:52,1,119.999996337891,10|0,0:2|0:0,0:0:0:0:
223,99,286640,1,2,0:0:0:0:
223,99,286757,1,8,0:2:0:0:
351,0,286991,1,2,0:0:0:0:
454,139,287226,6,0,L|512:127,1,59.9999981689454,8|0,0:2|0:0,0:0:0:0:
318,139,287460,2,0,L|333:79,1,59.9999981689454,2|0,0:0|0:0,0:0:0:0:
429,255,287694,1,8,0:2:0:0:
393,249,287811,1,2,0:0:0:0:
357,239,287929,1,2,0:0:0:0:
322,229,288046,1,2,0:0:0:0:
287,220,288163,2,0,L|225:223,1,59.9999981689454,8|0,0:2|0:0,0:0:0:0:
350,327,288397,2,0,L|367:389,1,59.9999981689454,2|0,0:0|0:0,0:0:0:0:
169,318,288632,2,0,P|123:286|104:210,1,119.999996337891,10|0,0:2|0:0,0:0:0:0:
194,33,289101,6,0,B|225:70|225:70|94:47,1,179.999994506836,10|0,0:2|0:0,0:0:0:0:
0,8,289569,2,0,P|12:64|26:139,1,119.999996337891,10|0,0:2|0:0,0:0:0:0:
211,165,290038,2,0,P|198:221|185:296,1,119.999996337891,10|0,0:2|0:0,0:0:0:0:
166,374,290390,1,2,0:0:0:0:
166,374,290507,1,10,0:2:0:0:
322,340,290741,1,2,0:0:0:0:
447,149,290976,6,0,P|476:150|502:165,1,59.9999981689454,10|0,0:2|0:0,0:0:0:0:
454,316,291210,2,0,P|440:289|437:259,1,59.9999981689454,2|0,0:0|0:0,0:0:0:0:
346,82,291444,1,10,0:2:0:0:
342,117,291561,1,2,0:0:0:0:
339,153,291679,1,2,0:0:0:0:
336,188,291796,1,2,0:0:0:0:
336,229,291913,2,0,L|276:221,1,59.9999981689454,10|0,0:2|0:0,0:0:0:0:
152,341,292147,2,0,L|159:281,1,59.9999981689454,2|0,0:0|0:0,0:0:0:0:
70,92,292382,2,0,L|190:109,1,119.999996337891,10|0,0:2|0:0,0:0:0:0:
0,192,292851,5,10,0:2:0:0:
68,336,293085,1,8,0:2:0:0:
240,189,293319,1,10,0:2:0:0:
87,232,293554,1,8,0:2:0:0:
290,348,293788,2,0,P|322:299|315:240,1,119.999996337891,10|10,0:2|0:2,0:0:0:0:
352,136,294140,1,2,0:0:0:0:
352,136,294257,1,10,0:2:0:0:
220,277,294491,1,10,0:2:0:0:
460,304,294726,6,0,L|402:318,1,59.9999981689454,10|0,0:2|0:0,0:0:0:0:
242,170,294960,2,0,L|184:187,1,59.9999981689454,10|0,0:2|0:0,0:0:0:0:
389,221,295194,1,10,0:2:0:0:
430,197,295311,1,2,0:0:0:0:
454,155,295429,1,10,0:2:0:0:
453,107,295546,1,2,0:0:0:0:
430,64,295663,2,0,L|362:57,1,59.9999981689454,10|0,0:2|0:0,0:0:0:0:
144,68,295897,2,0,L|209:80,1,59.9999981689454,10|0,0:2|0:0,0:0:0:0:
313,214,296132,1,10,0:2:0:0:
258,0,296366,1,10,0:2:0:0:
88,179,296601,5,2,3:2:0:0:
133,163,296718,1,0,3:2:0:0:
180,171,296835,1,0,3:2:0:0:
217,201,296952,1,0,3:2:0:0:
233,245,297069,1,2,3:2:0:0:
185,235,297186,1,0,3:2:0:0:
138,249,297304,1,0,3:2:0:0:
117,292,297421,1,0,3:2:0:0:
115,342,297538,6,0,L|117:371,6,29.9999990844727,2|0|0|0|0|0|2,3:2|3:2|3:2|3:2|3:2|3:2|3:2,0:0:0:0:
208,371,298007,6,0,L|234:383,6,29.9999990844727,0|0|0|0|2|0|0,3:2|3:2|3:2|3:2|3:2|3:2|3:2,0:0:0:0:
286,312,298476,5,10,3:0:0:0:
441,161,298827,5,2,3:0:0:0:
441,161,298944,1,10,3:0:0:0:
239,58,299179,6,0,L|252:0,1,59.9999981689454,2|2,3:0|3:0,0:0:0:0:
64,14,299413,1,10,3:3:0:0:
17,41,299530,1,2,3:0:0:0:
0,93,299647,1,2,3:0:0:0:
16,144,299765,1,2,3:0:0:0:
64,169,299882,2,0,P|142:146|253:147,1,179.999994506836,10|0,0:1|0:0,0:0:0:0:
310,193,300351,5,4,0:0:0:0:
256,192,300409,12,0,307851,0:0:0:0:
