osu file format v14

[General]
AudioFilename: audio.mp3
AudioLeadIn: 0
PreviewTime: 75111
Countdown: 0
SampleSet: Normal
StackLeniency: 0.7
Mode: 3
LetterboxInBreaks: 0
SpecialStyle: 0
WidescreenStoryboard: 0

[Editor]
Bookmarks: 180116
DistanceSpacing: 0.7
BeatDivisor: 4
GridSize: 4
TimelineZoom: 1.4

[Metadata]
Title:Hand in Hand (Magical Mirai Ver.)
TitleUnicode:Hand in Hand (Magical Mirai Ver.)
Artist:livetune feat. Hatsune Miku
ArtistUnicode:livetune feat. 初音ミク
Creator:anicositini
Version:Forever, to the Future
Source:
Tags:Julie マジカルミライ 2015 Magical Mirai Hatsune Miku 初音ミク Vocaloid kz livetune
BeatmapID:1413263
BeatmapSetID:667971

[Difficulty]
HPDrainRate:8.5
CircleSize:4
OverallDifficulty:8.5
ApproachRate:5
SliderMultiplier:1.4
SliderTickRate:1

[Events]
//Background and Video events
0,0,"Hand.in.Hand.(Magical.Mirai).full.1933448.jpg",0,0
//Break Periods
//Storyboard Layer 0 (Background)
//Storyboard Layer 1 (Fail)
//Storyboard Layer 2 (Pass)
//Storyboard Layer 3 (Foreground)
//Storyboard Sound Samples

[TimingPoints]
85,468.75,4,2,1,40,1,0
85,-100,4,2,1,40,0,0
14616,-100,4,2,2,50,0,0
15085,-100,4,2,2,50,0,0
28210,-100,4,3,1,60,0,0
29616,-100,4,2,2,80,0,0
30085,-100,4,1,1,70,0,1
30553,-100,4,2,2,70,0,1
44616,-100,4,2,2,80,0,1
44792,-100,4,1,1,5,0,1
44850,-100,4,1,1,20,0,1
45085,-100,4,1,1,80,0,0
45202,-100,4,2,2,80,0,0
73210,-100,4,3,1,80,0,0
74616,-100,4,1,1,80,0,0
75085,-100,4,2,2,80,0,1
89616,-100,4,2,2,80,0,1
89792,-100,4,1,1,5,0,1
89850,-100,4,1,1,80,0,1
90202,-100,4,2,2,80,0,1
103210,-100,4,3,1,80,0,0
104616,-100,4,2,2,80,0,0
105085,-100,4,1,1,80,0,1
105202,-100,4,2,2,80,0,1
118210,-100,4,2,2,80,0,0
118444,-100,4,2,2,65,0,0
118913,-100,4,2,2,50,0,0
119381,-100,4,2,2,35,0,0
120085,-100,4,2,1,60,0,0
120202,-100,4,2,1,60,0,0
134147,-100,4,2,1,70,0,0
134616,-100,4,2,1,80,0,0
135085,-100,4,2,2,80,0,0
148210,-100,4,3,1,80,0,0
149616,-100,4,2,2,80,0,0
150085,-100,4,1,1,80,0,1
150202,-100,4,2,2,80,0,1
164616,-100,4,2,2,80,0,1
164792,-100,4,1,1,5,0,1
165085,-100,4,1,1,80,0,1
165202,-100,4,2,2,80,0,1
178210,-100,4,3,1,80,0,1
179616,-100,4,2,2,80,0,1
179967,-100,4,1,1,5,0,1
180085,-100,4,1,1,80,0,0
180143,-100,4,2,3,80,0,0
181022,-100,4,2,3,80,0,0
181960,-100,4,2,4,80,0,0
182897,-100,4,2,3,80,0,0
184772,-100,4,2,4,80,0,0
185241,-100,4,2,5,80,0,0
185710,-100,4,2,4,80,0,0
186413,-100,4,2,3,80,0,0
186881,-100,4,2,6,80,0,0
187585,-100,4,2,5,80,0,0
188522,-100,4,2,4,80,0,0
189460,-100,4,2,5,80,0,0
189928,-100,4,2,4,80,0,0
190397,-100,4,2,3,80,0,0
190866,-100,4,2,4,80,0,0
191335,-100,4,2,3,80,0,0
192272,-100,4,2,4,80,0,0
192741,-100,4,2,5,80,0,0
193210,-100,4,2,4,80,0,0
195085,-100,4,2,1,60,0,0
195553,-100,4,2,2,60,0,0
210085,-100,4,2,2,80,0,0
223210,-100,4,3,1,80,0,0
224616,-100,4,2,2,80,0,0
225085,-100,4,2,1,80,0,1
225202,-100,4,2,2,80,0,1
239616,-100,4,2,2,80,0,1
239792,-100,4,1,1,5,0,1
239850,-100,4,2,2,80,0,1
240085,-100,4,2,2,80,0,1
240202,-100,4,2,2,80,0,1
251335,-100,4,2,2,80,0,0
253210,-100,4,3,1,80,0,0
254616,-100,4,2,2,80,0,0
255085,-100,4,2,1,80,0,1
255202,-100,4,2,2,80,0,1
268210,-100,4,2,2,80,0,1
270085,-100,4,1,1,80,0,1
270202,-100,4,2,2,80,0,1
283210,-100,4,2,2,80,0,0
285085,-100,4,2,1,80,0,1
285202,-100,4,2,2,80,0,1
296335,-100,4,3,1,80,0,1
299616,-100,4,2,2,80,0,1
300026,-100,4,1,1,5,0,1
300085,-100,4,1,1,80,0,0
307585,-100,4,1,1,5,0,0

[HitObjects]
64,192,85,5,0,0:0:0:0:
448,192,85,1,4,0:0:0:0:
192,192,85,1,8,0:0:0:0:
320,192,553,1,8,0:0:0:0:
192,192,553,1,0,0:0:0:0:
64,192,788,1,0,0:0:0:0:
448,192,1022,1,8,0:0:0:0:
192,192,1022,1,0,0:0:0:0:
320,192,1256,128,0,1491:0:0:0:0:
192,192,1491,1,0,0:0:0:0:
64,192,1491,1,8,0:0:0:0:
448,192,1725,128,0,2428:0:0:0:0:
320,192,1960,1,8,0:0:0:0:
192,192,1960,1,0,0:0:0:0:
320,192,2428,1,0,0:0:0:0:
64,192,2428,1,8,0:0:0:0:
192,192,2663,1,0,0:0:0:0:
320,192,2897,1,8,0:0:0:0:
448,192,2897,1,0,0:0:0:0:
192,192,3131,1,0,0:0:0:0:
64,192,3366,1,8,0:0:0:0:
320,192,3366,128,0,3600:0:0:0:0:
448,192,3600,128,0,4303:0:0:0:0:
192,192,3835,1,8,0:0:0:0:
320,192,3835,1,0,0:0:0:0:
64,192,4303,1,8,0:0:0:0:
192,192,4303,1,0,0:0:0:0:
320,192,4538,1,0,0:0:0:0:
448,192,4772,1,0,0:0:0:0:
64,192,4772,1,8,0:0:0:0:
192,192,5006,128,0,5241:0:0:0:0:
448,192,5241,1,0,0:0:0:0:
320,192,5241,1,8,0:0:0:0:
320,192,5475,128,0,6178:0:0:0:0:
192,192,5710,1,8,0:0:0:0:
448,192,5710,1,0,0:0:0:0:
448,192,6178,1,8,0:0:0:0:
64,192,6178,1,0,0:0:0:0:
192,192,6413,1,0,0:0:0:0:
448,192,6647,1,8,0:0:0:0:
320,192,6647,1,0,0:0:0:0:
64,192,6881,128,0,7116:0:0:0:0:
448,192,7116,1,8,0:0:0:0:
192,192,7116,128,0,7350:0:0:0:0:
320,192,7350,128,0,8053:0:0:0:0:
192,192,7585,1,8,0:0:0:0:
64,192,7585,1,0,0:0:0:0:
448,192,8053,1,8,0:0:0:0:
192,192,8053,1,0,0:0:0:0:
320,192,8288,1,0,0:0:0:0:
64,192,8522,1,8,0:0:0:0:
192,192,8522,1,0,0:0:0:0:
448,192,8756,1,0,0:0:0:0:
64,192,8991,1,8,0:0:0:0:
192,192,8991,128,0,9225:0:0:0:0:
320,192,9225,128,0,9928:0:0:0:0:
448,192,9460,1,8,0:0:0:0:
64,192,9460,1,0,0:0:0:0:
192,192,9928,1,8,0:0:0:0:
64,192,9928,1,0,0:0:0:0:
448,192,10163,1,0,0:0:0:0:
320,192,10397,1,8,0:0:0:0:
64,192,10397,1,0,0:0:0:0:
192,192,10631,128,0,10866:0:0:0:0:
320,192,10866,128,0,11100:0:0:0:0:
448,192,10866,1,8,0:0:0:0:
64,192,11100,128,0,11803:0:0:0:0:
192,192,11335,1,8,0:0:0:0:
448,192,11335,1,0,0:0:0:0:
320,192,11803,1,8,0:0:0:0:
448,192,11803,1,0,0:0:0:0:
192,192,12038,1,0,0:0:0:0:
320,192,12272,1,8,0:0:0:0:
448,192,12272,1,0,0:0:0:0:
64,192,12506,128,0,12975:0:0:0:0:
320,192,12741,1,8,0:0:0:0:
192,192,12741,1,0,0:0:0:0:
448,192,12975,128,0,14616:0:0:0:0:
192,192,13210,1,8,0:0:0:0:
320,192,13210,1,0,0:0:0:0:
64,192,13678,1,8,0:0:0:0:
320,192,14147,1,8,0:0:0:0:
320,192,14616,1,8,0:0:0:0:
192,192,14616,1,4,0:0:0:0:
64,192,14616,1,0,0:0:0:0:
64,192,15085,1,0,0:0:0:0:
448,192,15085,1,8,0:0:0:0:
192,192,15085,1,4,0:0:0:0:
320,192,15319,1,0,0:0:0:0:
448,192,15553,1,0,0:0:0:0:
64,192,15553,1,4,0:0:0:0:
192,192,15788,1,0,0:0:0:0:
448,192,15905,1,0,0:0:0:0:
320,192,16022,1,0,0:0:0:0:
64,192,16022,1,4,0:0:0:0:
448,192,16256,1,0,0:0:0:0:
320,192,16374,1,0,0:0:0:0:
192,192,16491,1,0,0:0:0:0:
64,192,16491,1,4,0:0:0:0:
448,192,16608,1,0,0:0:0:0:
320,192,16725,1,0,0:0:0:0:
192,192,16842,1,0,0:0:0:0:
64,192,16960,1,4,0:0:0:0:
448,192,16960,1,0,0:0:0:0:
192,192,17194,1,0,0:0:0:0:
448,192,17428,1,0,0:0:0:0:
320,192,17428,1,4,0:0:0:0:
64,192,17663,1,0,0:0:0:0:
448,192,17897,1,0,0:0:0:0:
320,192,17897,1,4,0:0:0:0:
192,192,18014,1,0,0:0:0:0:
64,192,18131,1,0,0:0:0:0:
320,192,18249,1,0,0:0:0:0:
448,192,18366,1,0,0:0:0:0:
64,192,18366,1,4,0:0:0:0:
192,192,18483,1,0,0:0:0:0:
320,192,18600,1,0,0:0:0:0:
448,192,18717,1,0,0:0:0:0:
64,192,18835,1,4,0:0:0:0:
192,192,18835,1,0,0:0:0:0:
320,192,18952,1,0,0:0:0:0:
448,192,19069,1,0,0:0:0:0:
192,192,19186,1,0,0:0:0:0:
320,192,19303,1,4,0:0:0:0:
448,192,19303,1,0,0:0:0:0:
64,192,19538,1,0,0:0:0:0:
192,192,19772,1,4,0:0:0:0:
448,192,19772,1,0,0:0:0:0:
320,192,20006,1,0,0:0:0:0:
192,192,20124,1,0,0:0:0:0:
64,192,20241,1,4,0:0:0:0:
448,192,20241,1,0,0:0:0:0:
320,192,20475,1,0,0:0:0:0:
448,192,20710,1,0,0:0:0:0:
192,192,20710,1,4,0:0:0:0:
64,192,20944,1,0,0:0:0:0:
192,192,21061,1,0,0:0:0:0:
448,192,21178,1,0,0:0:0:0:
320,192,21178,1,4,0:0:0:0:
192,192,21413,1,0,0:0:0:0:
64,192,21647,1,4,0:0:0:0:
448,192,21647,1,0,0:0:0:0:
192,192,21881,1,0,0:0:0:0:
320,192,21999,1,0,0:0:0:0:
448,192,22116,1,0,0:0:0:0:
64,192,22116,1,4,0:0:0:0:
192,192,22233,1,0,0:0:0:0:
320,192,22350,1,0,0:0:0:0:
64,192,22585,1,4,0:0:0:0:
448,192,22585,1,0,0:0:0:0:
320,192,22819,1,0,0:0:0:0:
192,192,22819,1,4,0:0:0:0:
320,192,23053,1,0,0:0:0:0:
64,192,23053,1,4,0:0:0:0:
192,192,23288,1,4,0:0:0:0:
448,192,23288,1,0,0:0:0:0:
448,192,23522,1,0,0:0:0:0:
64,192,23522,1,4,0:0:0:0:
64,192,23756,1,4,0:0:0:0:
320,192,23756,1,0,0:0:0:0:
320,192,23991,1,0,0:0:0:0:
192,192,23991,1,4,0:0:0:0:
448,192,24225,1,0,0:0:0:0:
192,192,24225,1,4,0:0:0:0:
64,192,24460,1,4,0:0:0:0:
320,192,24460,1,0,0:0:0:0:
448,192,24694,1,0,0:0:0:0:
64,192,24694,1,4,0:0:0:0:
192,192,24928,1,4,0:0:0:0:
320,192,24928,1,0,0:0:0:0:
192,192,25163,1,4,0:0:0:0:
448,192,25163,1,0,0:0:0:0:
448,192,25397,1,0,0:0:0:0:
64,192,25397,1,4,0:0:0:0:
192,192,25631,1,4,0:0:0:0:
320,192,25631,1,0,0:0:0:0:
320,192,25866,1,4,0:0:0:0:
448,192,25866,1,0,0:0:0:0:
192,192,26100,1,0,0:0:0:0:
64,192,26100,1,4,0:0:0:0:
64,192,26335,1,4,0:0:0:0:
448,192,26335,1,0,0:0:0:0:
192,192,26452,1,4,0:0:0:0:
320,192,26569,1,4,0:0:0:0:
448,192,26569,1,0,0:0:0:0:
64,192,26686,1,4,0:0:0:0:
192,192,26803,1,4,0:0:0:0:
448,192,26803,1,0,0:0:0:0:
320,192,26920,1,4,0:0:0:0:
192,192,27038,1,4,0:0:0:0:
64,192,27038,1,0,0:0:0:0:
320,192,27155,1,4,0:0:0:0:
448,192,27272,1,0,0:0:0:0:
64,192,27272,1,4,0:0:0:0:
192,192,27331,1,4,0:0:0:0:
320,192,27389,1,4,0:0:0:0:
448,192,27448,1,4,0:0:0:0:
64,192,27506,1,4,0:0:0:0:
192,192,27565,1,4,0:0:0:0:
320,192,27624,1,4,0:0:0:0:
448,192,27682,1,4,0:0:0:0:
64,192,27741,1,4,0:0:0:0:
192,192,27799,1,4,0:0:0:0:
320,192,27858,1,4,0:0:0:0:
448,192,27917,1,4,0:0:0:0:
64,192,27975,1,4,0:0:0:0:
192,192,28034,1,4,0:0:0:0:
320,192,28092,1,4,0:0:0:0:
448,192,28151,1,4,0:0:0:0:
192,192,28210,1,0,0:0:0:0:
64,192,28210,128,8,28678:0:0:0:0:
192,192,28561,1,0,0:0:0:0:
320,192,28678,1,0,0:0:0:0:
448,192,28678,128,8,29147:0:0:0:0:
320,192,29030,1,0,0:0:0:0:
192,192,29147,1,0,0:0:0:0:
64,192,29147,128,8,29499:0:0:0:0:
448,192,29264,1,0,0:0:0:0:
320,192,29381,1,0,0:0:0:0:
192,192,29499,1,0,0:0:0:0:
448,192,29616,1,0,0:0:0:0:
64,192,29616,1,0,0:0:0:0:
320,192,29616,1,4,0:0:0:0:
192,192,30085,1,4,0:0:0:0:
64,192,30085,1,8,0:0:0:0:
448,192,30085,1,0,0:0:0:0:
320,192,30319,1,0,0:0:0:0:
64,192,30553,1,2,0:0:0:0:
448,192,30553,128,0,31022:0:0:0:0:
192,192,30788,1,0,0:0:0:0:
320,192,31022,1,8,0:0:0:0:
64,192,31022,128,0,31256:0:0:0:0:
192,192,31256,1,0,0:0:0:0:
320,192,31374,1,0,0:0:0:0:
448,192,31374,128,0,31608:0:0:0:0:
192,192,31491,1,2,0:0:0:0:
64,192,31491,1,0,0:0:0:0:
320,192,31725,1,0,0:0:0:0:
192,192,31842,1,0,0:0:0:0:
64,192,31960,128,0,32194:0:0:0:0:
320,192,31960,1,8,0:0:0:0:
448,192,32194,128,0,32428:0:0:0:0:
192,192,32194,1,0,0:0:0:0:
64,192,32428,1,2,0:0:0:0:
320,192,32428,1,0,0:0:0:0:
192,192,32545,1,0,0:0:0:0:
320,192,32663,1,0,0:0:0:0:
448,192,32780,1,0,0:0:0:0:
64,192,32897,1,8,0:0:0:0:
192,192,32897,128,0,33131:0:0:0:0:
448,192,33131,128,0,33366:0:0:0:0:
320,192,33131,1,0,0:0:0:0:
192,192,33366,1,2,0:0:0:0:
64,192,33366,128,0,33835:0:0:0:0:
320,192,33600,1,0,0:0:0:0:
192,192,33835,1,0,0:0:0:0:
448,192,33835,1,8,0:0:0:0:
64,192,34069,1,0,0:0:0:0:
448,192,34186,1,0,0:0:0:0:
192,192,34303,1,2,0:0:0:0:
320,192,34303,128,0,34772:0:0:0:0:
64,192,34420,1,0,0:0:0:0:
448,192,34538,1,0,0:0:0:0:
64,192,34772,1,8,0:0:0:0:
192,192,34772,128,0,35006:0:0:0:0:
448,192,35006,1,0,0:0:0:0:
320,192,35124,1,0,0:0:0:0:
64,192,35124,128,0,35358:0:0:0:0:
448,192,35241,1,2,0:0:0:0:
192,192,35241,1,0,0:0:0:0:
320,192,35475,1,0,0:0:0:0:
192,192,35592,1,0,0:0:0:0:
448,192,35710,128,0,35944:0:0:0:0:
64,192,35710,1,8,0:0:0:0:
320,192,35944,1,0,0:0:0:0:
192,192,35944,128,0,36178:0:0:0:0:
64,192,36178,1,2,0:0:0:0:
448,192,36178,1,0,0:0:0:0:
320,192,36295,1,0,0:0:0:0:
192,192,36413,1,0,0:0:0:0:
64,192,36530,1,0,0:0:0:0:
448,192,36647,1,8,0:0:0:0:
320,192,36647,128,0,36881:0:0:0:0:
64,192,36881,128,0,37116:0:0:0:0:
192,192,36881,1,0,0:0:0:0:
192,192,37116,128,0,37585:0:0:0:0:
448,192,37116,1,2,0:0:0:0:
320,192,37350,1,0,0:0:0:0:
64,192,37585,1,8,0:0:0:0:
448,192,37585,1,0,0:0:0:0:
320,192,37819,1,0,0:0:0:0:
192,192,38053,1,2,0:0:0:0:
64,192,38053,128,0,38522:0:0:0:0:
320,192,38170,1,0,0:0:0:0:
448,192,38288,1,0,0:0:0:0:
192,192,38522,1,8,0:0:0:0:
320,192,38522,128,0,38756:0:0:0:0:
448,192,38756,1,0,0:0:0:0:
192,192,38874,1,0,0:0:0:0:
64,192,38874,128,0,39108:0:0:0:0:
448,192,38991,1,2,0:0:0:0:
320,192,38991,1,0,0:0:0:0:
192,192,39225,1,0,0:0:0:0:
448,192,39342,1,0,0:0:0:0:
192,192,39460,128,0,39694:0:0:0:0:
320,192,39460,1,8,0:0:0:0:
64,192,39694,1,0,0:0:0:0:
448,192,39694,128,0,39928:0:0:0:0:
192,192,39928,1,2,0:0:0:0:
320,192,39928,1,0,0:0:0:0:
64,192,40045,1,0,0:0:0:0:
448,192,40163,1,0,0:0:0:0:
320,192,40280,1,0,0:0:0:0:
192,192,40397,128,0,40631:0:0:0:0:
64,192,40397,1,8,0:0:0:0:
448,192,40631,128,0,40866:0:0:0:0:
320,192,40631,1,0,0:0:0:0:
64,192,40866,128,0,41335:0:0:0:0:
192,192,40866,1,2,0:0:0:0:
320,192,41100,1,0,0:0:0:0:
448,192,41335,1,0,0:0:0:0:
192,192,41335,1,8,0:0:0:0:
64,192,41569,1,0,0:0:0:0:
448,192,41803,1,2,0:0:0:0:
320,192,41803,128,0,42272:0:0:0:0:
192,192,42038,1,0,0:0:0:0:
448,192,42272,1,8,0:0:0:0:
64,192,42272,128,0,42506:0:0:0:0:
192,192,42506,1,0,0:0:0:0:
320,192,42624,1,0,0:0:0:0:
448,192,42624,128,0,42858:0:0:0:0:
192,192,42741,1,2,0:0:0:0:
192,192,42975,128,0,43210:0:0:0:0:
64,192,43210,128,0,44616:0:0:0:0:
320,192,43210,1,8,0:0:0:0:
448,192,43444,1,0,0:0:0:0:
192,192,43561,1,0,0:0:0:0:
320,192,43678,1,8,0:0:0:0:
448,192,43678,1,0,0:0:0:0:
192,192,43913,1,0,0:0:0:0:
448,192,44030,1,0,0:0:0:0:
320,192,44147,1,0,0:0:0:0:
192,192,44147,1,0,0:0:0:0:
448,192,44264,1,0,0:0:0:0:
320,192,44381,1,0,0:0:0:0:
192,192,44499,1,0,0:0:0:0:
448,192,44616,128,0,45085:0:0:0:0:
320,192,44616,1,4,0:0:0:0:
64,192,45085,1,4,0:0:0:0:
320,192,45085,1,0,0:0:0:0:
192,192,45085,1,0,0:0:0:0:
192,192,45319,1,0,0:0:0:0:
320,192,45553,1,0,0:0:0:0:
448,192,45553,1,2,0:0:0:0:
64,192,45788,1,0,0:0:0:0:
192,192,46022,1,8,0:0:0:0:
448,192,46022,1,0,0:0:0:0:
320,192,46256,1,0,0:0:0:0:
64,192,46374,1,0,0:0:0:0:
192,192,46491,1,0,0:0:0:0:
448,192,46491,1,2,0:0:0:0:
320,192,46725,1,0,0:0:0:0:
448,192,46960,1,0,0:0:0:0:
64,192,46960,1,8,0:0:0:0:
192,192,47194,1,0,0:0:0:0:
320,192,47428,1,2,0:0:0:0:
64,192,47428,1,0,0:0:0:0:
192,192,47663,1,0,0:0:0:0:
448,192,47897,1,8,0:0:0:0:
320,192,47897,1,0,0:0:0:0:
64,192,48131,1,0,0:0:0:0:
320,192,48249,1,0,0:0:0:0:
64,192,48366,1,0,0:0:0:0:
192,192,48366,1,2,0:0:0:0:
448,192,48600,1,0,0:0:0:0:
64,192,48835,1,8,0:0:0:0:
320,192,48835,1,0,0:0:0:0:
192,192,49069,1,0,0:0:0:0:
320,192,49303,1,2,0:0:0:0:
448,192,49303,1,0,0:0:0:0:
192,192,49538,1,0,0:0:0:0:
320,192,49655,1,0,0:0:0:0:
448,192,49772,1,0,0:0:0:0:
64,192,49772,1,8,0:0:0:0:
320,192,50006,1,0,0:0:0:0:
192,192,50124,1,0,0:0:0:0:
448,192,50241,1,2,0:0:0:0:
64,192,50241,1,0,0:0:0:0:
320,192,50475,1,0,0:0:0:0:
448,192,50710,1,0,0:0:0:0:
192,192,50710,1,8,0:0:0:0:
64,192,50944,1,0,0:0:0:0:
448,192,51178,1,2,0:0:0:0:
320,192,51178,1,0,0:0:0:0:
192,192,51413,1,0,0:0:0:0:
64,192,51647,1,8,0:0:0:0:
448,192,51647,1,0,0:0:0:0:
320,192,51881,1,0,0:0:0:0:
192,192,51999,1,0,0:0:0:0:
448,192,52116,1,2,0:0:0:0:
64,192,52116,1,0,0:0:0:0:
192,192,52350,1,0,0:0:0:0:
320,192,52585,1,8,0:0:0:0:
448,192,52585,1,0,0:0:0:0:
192,192,52819,1,0,0:0:0:0:
448,192,53053,1,2,0:0:0:0:
64,192,53053,1,0,0:0:0:0:
320,192,53288,1,0,0:0:0:0:
192,192,53405,1,0,0:0:0:0:
448,192,53522,1,0,0:0:0:0:
64,192,53522,1,8,0:0:0:0:
192,192,53756,1,0,0:0:0:0:
448,192,53874,1,0,0:0:0:0:
64,192,53991,1,0,0:0:0:0:
320,192,53991,1,2,0:0:0:0:
192,192,54225,1,0,0:0:0:0:
448,192,54460,1,0,0:0:0:0:
64,192,54460,1,8,0:0:0:0:
320,192,54694,1,0,0:0:0:0:
448,192,54928,1,2,0:0:0:0:
192,192,54928,1,0,0:0:0:0:
320,192,55163,1,0,0:0:0:0:
64,192,55397,1,8,0:0:0:0:
192,192,55397,1,0,0:0:0:0:
320,192,55631,1,0,0:0:0:0:
64,192,55749,1,0,0:0:0:0:
448,192,55866,1,2,0:0:0:0:
192,192,55866,1,0,0:0:0:0:
64,192,56100,1,0,0:0:0:0:
448,192,56335,1,0,0:0:0:0:
320,192,56335,1,8,0:0:0:0:
192,192,56569,1,0,0:0:0:0:
320,192,56686,1,0,0:0:0:0:
64,192,56803,1,0,0:0:0:0:
448,192,56803,1,2,0:0:0:0:
192,192,57038,1,0,0:0:0:0:
320,192,57155,1,0,0:0:0:0:
448,192,57272,1,0,0:0:0:0:
64,192,57272,1,8,0:0:0:0:
192,192,57506,1,0,0:0:0:0:
64,192,57624,1,0,0:0:0:0:
448,192,57741,1,2,0:0:0:0:
320,192,57741,1,0,0:0:0:0:
192,192,57975,1,0,0:0:0:0:
64,192,58210,1,8,0:0:0:0:
448,192,58210,1,0,0:0:0:0:
320,192,58444,1,0,0:0:0:0:
448,192,58561,1,0,0:0:0:0:
64,192,58678,1,0,0:0:0:0:
192,192,58678,1,2,0:0:0:0:
448,192,58913,1,0,0:0:0:0:
64,192,59147,1,8,0:0:0:0:
320,192,59147,1,0,0:0:0:0:
192,192,59381,1,0,0:0:0:0:
64,192,59499,1,0,0:0:0:0:
448,192,59616,1,2,0:0:0:0:
320,192,59616,1,0,0:0:0:0:
192,192,59850,1,0,0:0:0:0:
448,192,60085,1,0,0:0:0:0:
64,192,60085,1,8,0:0:0:0:
320,192,60085,1,4,0:0:0:0:
192,192,60319,1,0,0:0:0:0:
64,192,60553,1,0,0:0:0:0:
448,192,60553,1,4,0:0:0:0:
320,192,60788,1,0,0:0:0:0:
192,192,61022,1,4,0:0:0:0:
64,192,61022,1,0,0:0:0:0:
320,192,61256,1,0,0:0:0:0:
192,192,61374,1,0,0:0:0:0:
320,192,61491,1,4,0:0:0:0:
64,192,61491,1,0,0:0:0:0:
448,192,61725,1,0,0:0:0:0:
64,192,61725,1,0,0:0:0:0:
192,192,61960,1,0,0:0:0:0:
448,192,61960,1,4,0:0:0:0:
64,192,62194,1,0,0:0:0:0:
448,192,62428,1,4,0:0:0:0:
320,192,62428,1,0,0:0:0:0:
192,192,62663,1,0,0:0:0:0:
64,192,62897,1,0,0:0:0:0:
448,192,62897,1,4,0:0:0:0:
320,192,63131,1,0,0:0:0:0:
192,192,63249,1,0,0:0:0:0:
448,192,63366,1,4,0:0:0:0:
64,192,63366,1,0,0:0:0:0:
320,192,63483,1,0,0:0:0:0:
192,192,63600,1,0,0:0:0:0:
320,192,63835,1,4,0:0:0:0:
64,192,63835,1,0,0:0:0:0:
448,192,64069,1,0,0:0:0:0:
64,192,64303,1,0,0:0:0:0:
192,192,64303,1,4,0:0:0:0:
320,192,64538,1,0,0:0:0:0:
448,192,64772,1,4,0:0:0:0:
64,192,64772,1,0,0:0:0:0:
320,192,65006,1,0,0:0:0:0:
64,192,65124,1,0,0:0:0:0:
320,192,65241,1,0,0:0:0:0:
448,192,65241,1,4,0:0:0:0:
448,192,65475,1,0,0:0:0:0:
192,192,65475,1,0,0:0:0:0:
320,192,65710,1,4,0:0:0:0:
64,192,65710,1,0,0:0:0:0:
192,192,65944,1,0,0:0:0:0:
320,192,66178,1,0,0:0:0:0:
448,192,66178,1,4,0:0:0:0:
64,192,66413,1,0,0:0:0:0:
192,192,66647,1,0,0:0:0:0:
448,192,66647,1,4,0:0:0:0:
64,192,66881,1,0,0:0:0:0:
320,192,66999,1,0,0:0:0:0:
192,192,67116,1,4,0:0:0:0:
64,192,67116,1,0,0:0:0:0:
448,192,67233,1,0,0:0:0:0:
320,192,67350,1,0,0:0:0:0:
448,192,67585,1,4,0:0:0:0:
64,192,67585,1,0,0:0:0:0:
192,192,67819,1,4,0:0:0:0:
448,192,67819,1,0,0:0:0:0:
320,192,68053,1,4,0:0:0:0:
192,192,68053,1,0,0:0:0:0:
320,192,68288,1,0,0:0:0:0:
64,192,68288,1,4,0:0:0:0:
448,192,68522,1,4,0:0:0:0:
192,192,68522,1,0,0:0:0:0:
192,192,68756,1,4,0:0:0:0:
320,192,68756,1,0,0:0:0:0:
448,192,68991,1,4,0:0:0:0:
320,192,68991,1,0,0:0:0:0:
192,192,69225,1,4,0:0:0:0:
448,192,69225,1,0,0:0:0:0:
64,192,69460,1,0,0:0:0:0:
320,192,69460,1,4,0:0:0:0:
192,192,69694,1,4,0:0:0:0:
320,192,69694,1,0,0:0:0:0:
448,192,69928,1,4,0:0:0:0:
192,192,69928,1,0,0:0:0:0:
64,192,70163,1,4,0:0:0:0:
448,192,70163,1,0,0:0:0:0:
64,192,70397,1,0,0:0:0:0:
192,192,70397,1,4,0:0:0:0:
320,192,70631,1,4,0:0:0:0:
448,192,70631,1,0,0:0:0:0:
448,192,70866,1,4,0:0:0:0:
64,192,70866,1,0,0:0:0:0:
192,192,71100,1,4,0:0:0:0:
320,192,71100,1,0,0:0:0:0:
320,192,71335,1,4,0:0:0:0:
64,192,71335,1,0,0:0:0:0:
448,192,71452,1,4,0:2:0:0:
192,192,71569,1,4,0:2:0:0:
64,192,71569,1,0,0:0:0:0:
320,192,71686,1,4,0:2:0:0:
448,192,71803,1,0,0:0:0:0:
192,192,71803,1,4,0:0:0:0:
64,192,71920,1,4,0:2:0:0:
448,192,72038,1,0,0:0:0:0:
320,192,72038,1,4,0:2:0:0:
192,192,72155,1,4,0:2:0:0:
64,192,72272,1,0,0:0:0:0:
320,192,72272,1,4,0:0:0:0:
192,192,72331,1,4,0:2:0:0:
448,192,72389,1,4,0:2:0:0:
320,192,72448,1,4,0:2:0:0:
64,192,72506,1,4,0:2:0:0:
192,192,72565,1,4,0:2:0:0:
448,192,72624,1,4,0:2:0:0:
320,192,72682,1,4,0:2:0:0:
64,192,72741,1,4,0:0:0:0:
192,192,72799,1,4,0:2:0:0:
448,192,72858,1,4,0:2:0:0:
320,192,72917,1,4,0:2:0:0:
64,192,72975,1,4,0:2:0:0:
192,192,73034,1,4,0:2:0:0:
448,192,73092,1,4,0:2:0:0:
320,192,73151,1,4,0:2:0:0:
64,192,73210,128,8,73678:0:0:0:0:
192,192,73210,1,0,0:0:0:0:
192,192,73561,1,0,0:0:0:0:
320,192,73678,1,0,0:0:0:0:
448,192,73678,128,8,74147:0:0:0:0:
320,192,74030,1,0,0:0:0:0:
192,192,74147,1,0,0:0:0:0:
64,192,74147,128,8,74499:0:0:0:0:
448,192,74264,1,0,0:0:0:0:
320,192,74381,1,0,0:0:0:0:
192,192,74499,1,0,0:0:0:0:
320,192,74616,1,4,0:0:0:0:
448,192,74616,1,0,0:0:0:0:
64,192,74616,1,0,0:0:0:0:
448,192,75085,1,0,0:0:0:0:
64,192,75085,1,0,0:0:0:0:
192,192,75085,1,4,0:0:0:0:
320,192,75319,1,0,0:0:0:0:
192,192,75553,128,0,76022:0:0:0:0:
448,192,75553,1,2,0:0:0:0:
64,192,75788,1,0,0:0:0:0:
320,192,76022,1,8,0:0:0:0:
448,192,76022,128,0,76256:0:0:0:0:
64,192,76256,1,0,0:0:0:0:
320,192,76374,1,0,0:0:0:0:
64,192,76491,1,2,0:0:0:0:
192,192,76491,1,0,0:0:0:0:
448,192,76608,1,0,0:0:0:0:
192,192,76725,128,0,76960:0:0:0:0:
320,192,76960,1,0,0:0:0:0:
448,192,76960,1,8,0:0:0:0:
64,192,77194,128,0,77428:0:0:0:0:
320,192,77428,1,0,0:0:0:0:
192,192,77428,1,2,0:0:0:0:
448,192,77663,1,0,0:0:0:0:
64,192,77897,1,8,0:0:0:0:
320,192,77897,128,0,78366:0:0:0:0:
448,192,78131,1,0,0:0:0:0:
192,192,78249,1,0,0:0:0:0:
448,192,78366,1,2,0:0:0:0:
64,192,78366,1,0,0:0:0:0:
192,192,78483,1,0,0:0:0:0:
448,192,78600,1,0,0:0:0:0:
320,192,78717,1,0,0:0:0:0:
64,192,78835,128,0,79303:0:0:0:0:
192,192,78835,1,8,0:0:0:0:
320,192,79069,1,0,0:0:0:0:
448,192,79303,1,2,0:0:0:0:
192,192,79303,128,0,79772:0:0:0:0:
64,192,79538,1,0,0:0:0:0:
448,192,79772,1,8,0:0:0:0:
320,192,79772,128,0,80006:0:0:0:0:
64,192,80006,1,0,0:0:0:0:
192,192,80124,1,0,0:0:0:0:
448,192,80241,1,0,0:0:0:0:
64,192,80241,1,2,0:0:0:0:
320,192,80358,1,0,0:0:0:0:
192,192,80475,1,0,0:0:0:0:
448,192,80710,128,0,81178:0:0:0:0:
64,192,80710,1,0,0:0:0:0:
192,192,80827,1,0,0:0:0:0:
320,192,80944,1,0,0:0:0:0:
64,192,81061,1,0,0:0:0:0:
320,192,81178,1,0,0:0:0:0:
192,192,81178,1,2,0:0:0:0:
64,192,81413,1,0,0:0:0:0:
448,192,81647,1,8,0:0:0:0:
320,192,81647,128,0,82116:0:0:0:0:
64,192,81881,1,0,0:0:0:0:
192,192,81999,1,0,0:0:0:0:
448,192,82116,1,0,0:0:0:0:
64,192,82116,1,2,0:0:0:0:
192,192,82233,1,0,0:0:0:0:
320,192,82350,1,0,0:0:0:0:
448,192,82585,1,8,0:0:0:0:
64,192,82585,128,0,83053:0:0:0:0:
192,192,82819,1,0,0:0:0:0:
320,192,83053,128,0,83522:0:0:0:0:
448,192,83053,1,2,0:0:0:0:
192,192,83288,1,0,0:0:0:0:
64,192,83522,1,8,0:0:0:0:
192,192,83522,128,0,83874:0:0:0:0:
448,192,83756,1,0,0:0:0:0:
320,192,83874,1,0,0:0:0:0:
448,192,83991,1,2,0:0:0:0:
64,192,83991,1,0,0:0:0:0:
320,192,84225,128,0,84460:0:0:0:0:
448,192,84460,1,0,0:0:0:0:
64,192,84460,1,8,0:0:0:0:
192,192,84694,128,0,84928:0:0:0:0:
320,192,84928,1,0,0:0:0:0:
448,192,84928,1,2,0:0:0:0:
64,192,85163,1,0,0:0:0:0:
320,192,85397,1,8,0:0:0:0:
192,192,85397,128,0,85866:0:0:0:0:
448,192,85631,1,0,0:0:0:0:
320,192,85749,1,0,0:0:0:0:
448,192,85866,1,0,0:0:0:0:
64,192,85866,1,2,0:0:0:0:
192,192,85983,1,0,0:0:0:0:
320,192,86100,1,0,0:0:0:0:
64,192,86335,1,8,0:0:0:0:
448,192,86335,128,0,86803:0:0:0:0:
192,192,86569,1,0,0:0:0:0:
64,192,86803,128,0,87272:0:0:0:0:
320,192,86803,1,2,0:0:0:0:
192,192,87038,1,0,0:0:0:0:
448,192,87272,1,8,0:0:0:0:
320,192,87272,128,0,87741:0:0:0:0:
192,192,87506,1,0,0:0:0:0:
448,192,87624,1,0,0:0:0:0:
192,192,87741,1,0,0:0:0:0:
64,192,87741,1,2,0:0:0:0:
448,192,87975,1,0,0:0:0:0:
64,192,88210,128,0,89147:0:0:0:0:
320,192,88210,1,8,0:0:0:0:
192,192,88444,1,0,0:0:0:0:
448,192,88678,1,0,0:0:0:0:
320,192,88678,1,8,0:0:0:0:
192,192,88795,1,0,0:0:0:0:
448,192,88913,1,0,0:0:0:0:
320,192,89030,1,0,0:0:0:0:
448,192,89147,1,0,0:0:0:0:
192,192,89147,1,0,0:0:0:0:
320,192,89264,1,0,0:0:0:0:
64,192,89381,1,0,0:0:0:0:
192,192,89499,1,0,0:0:0:0:
448,192,89616,1,0,0:0:0:0:
320,192,89616,1,4,0:0:0:0:
64,192,89616,1,0,0:0:0:0:
320,192,89850,1,0,0:0:0:0:
64,192,90085,1,0,0:0:0:0:
448,192,90085,1,0,0:0:0:0:
192,192,90085,1,4,0:0:0:0:
320,192,90319,1,0,0:0:0:0:
64,192,90436,1,0,0:0:0:0:
192,192,90553,128,0,91022:0:0:0:0:
448,192,90553,1,2,0:0:0:0:
320,192,90788,1,0,0:0:0:0:
64,192,91022,1,8,0:0:0:0:
448,192,91022,128,0,91374:0:0:0:0:
192,192,91256,1,0,0:0:0:0:
320,192,91374,1,0,0:0:0:0:
192,192,91491,1,2,0:0:0:0:
64,192,91491,1,0,0:0:0:0:
320,192,91608,1,0,0:0:0:0:
192,192,91725,128,0,91960:0:0:0:0:
448,192,91960,1,8,0:0:0:0:
64,192,91960,1,0,0:0:0:0:
320,192,92194,128,0,92428:0:0:0:0:
192,192,92428,1,2,0:0:0:0:
448,192,92428,1,0,0:0:0:0:
64,192,92663,1,0,0:0:0:0:
448,192,92897,1,8,0:0:0:0:
320,192,92897,128,0,93366:0:0:0:0:
192,192,93131,1,0,0:0:0:0:
64,192,93249,1,0,0:0:0:0:
192,192,93366,1,2,0:0:0:0:
448,192,93366,1,0,0:0:0:0:
320,192,93483,1,0,0:0:0:0:
192,192,93600,1,0,0:0:0:0:
64,192,93717,1,0,0:0:0:0:
448,192,93835,1,8,0:0:0:0:
192,192,93835,128,0,94303:0:0:0:0:
64,192,94069,1,0,0:0:0:0:
448,192,94303,1,2,0:0:0:0:
320,192,94303,128,0,94772:0:0:0:0:
192,192,94538,1,0,0:0:0:0:
64,192,94772,1,8,0:0:0:0:
448,192,94772,128,0,95241:0:0:0:0:
320,192,95006,1,0,0:0:0:0:
192,192,95124,1,0,0:0:0:0:
320,192,95241,1,2,0:0:0:0:
64,192,95241,1,0,0:0:0:0:
192,192,95475,1,0,0:0:0:0:
320,192,95710,1,8,0:0:0:0:
448,192,95710,128,0,96178:0:0:0:0:
64,192,95827,1,0,0:0:0:0:
192,192,95944,1,0,0:0:0:0:
320,192,96061,1,0,0:0:0:0:
64,192,96178,1,2,0:0:0:0:
192,192,96178,1,0,0:0:0:0:
320,192,96295,1,0,0:0:0:0:
448,192,96413,1,0,0:0:0:0:
64,192,96647,1,8,0:0:0:0:
320,192,96647,128,0,97116:0:0:0:0:
192,192,96881,1,0,0:0:0:0:
448,192,96999,1,0,0:0:0:0:
192,192,97116,1,2,0:0:0:0:
64,192,97116,1,0,0:0:0:0:
320,192,97233,1,0,0:0:0:0:
448,192,97350,1,0,0:0:0:0:
192,192,97585,1,8,0:0:0:0:
64,192,97585,128,0,98053:0:0:0:0:
320,192,97819,1,0,0:0:0:0:
448,192,97936,1,0,0:0:0:0:
192,192,98053,1,2,0:0:0:0:
320,192,98053,128,0,98522:0:0:0:0:
64,192,98288,1,0,0:0:0:0:
448,192,98522,1,8,0:0:0:0:
192,192,98522,128,0,98991:0:0:0:0:
64,192,98756,1,0,0:0:0:0:
320,192,98874,1,0,0:0:0:0:
448,192,98991,1,0,0:0:0:0:
64,192,98991,1,2,0:0:0:0:
320,192,99225,128,0,99460:0:0:0:0:
192,192,99460,1,8,0:0:0:0:
64,192,99460,1,0,0:0:0:0:
448,192,99694,128,0,99928:0:0:0:0:
320,192,99928,1,2,0:0:0:0:
64,192,99928,1,0,0:0:0:0:
192,192,100163,1,0,0:0:0:0:
320,192,100397,1,8,0:0:0:0:
448,192,100397,128,0,100866:0:0:0:0:
64,192,100631,1,0,0:0:0:0:
320,192,100749,1,0,0:0:0:0:
192,192,100866,1,2,0:0:0:0:
64,192,100866,1,0,0:0:0:0:
320,192,101100,1,0,0:0:0:0:
64,192,101335,1,0,0:0:0:0:
448,192,101335,1,8,0:0:0:0:
192,192,101569,1,0,0:0:0:0:
320,192,101803,1,2,0:0:0:0:
448,192,101803,1,0,0:0:0:0:
192,192,102038,1,0,0:0:0:0:
448,192,102272,1,0,0:0:0:0:
64,192,102272,1,8,0:0:0:0:
320,192,102389,1,0,0:0:0:0:
192,192,102506,1,0,0:0:0:0:
448,192,102624,1,0,0:0:0:0:
320,192,102741,1,2,0:0:0:0:
64,192,102741,1,0,0:0:0:0:
192,192,102975,1,0,0:0:0:0:
320,192,103210,1,0,0:0:0:0:
448,192,103210,128,8,103561:0:0:0:0:
64,192,103561,1,0,0:0:0:0:
192,192,103678,1,0,0:0:0:0:
320,192,103678,128,8,104030:0:0:0:0:
448,192,104030,1,0,0:0:0:0:
192,192,104147,128,8,104499:0:0:0:0:
64,192,104147,1,0,0:0:0:0:
320,192,104264,1,0,0:0:0:0:
448,192,104381,1,0,0:0:0:0:
64,192,104499,1,0,0:0:0:0:
192,192,104616,1,0,0:0:0:0:
320,192,104616,1,4,0:0:0:0:
448,192,104616,1,0,0:0:0:0:
320,192,104850,1,0,0:0:0:0:
192,192,105085,1,4,0:0:0:0:
64,192,105085,1,0,0:0:0:0:
448,192,105085,1,0,0:0:0:0:
320,192,105319,1,0,0:0:0:0:
192,192,105553,1,2,0:0:0:0:
448,192,105553,128,0,106022:0:0:0:0:
64,192,105788,1,0,0:0:0:0:
320,192,106022,1,8,0:0:0:0:
192,192,106022,128,0,106256:0:0:0:0:
64,192,106256,1,0,0:0:0:0:
448,192,106374,1,0,0:0:0:0:
64,192,106491,1,0,0:0:0:0:
320,192,106491,1,2,0:0:0:0:
448,192,106725,1,0,0:0:0:0:
64,192,106842,1,0,0:0:0:0:
320,192,106960,128,0,107194:0:0:0:0:
192,192,106960,1,8,0:0:0:0:
448,192,107194,128,0,107428:0:0:0:0:
192,192,107428,1,2,0:0:0:0:
64,192,107428,1,0,0:0:0:0:
320,192,107545,1,0,0:0:0:0:
448,192,107663,1,0,0:0:0:0:
192,192,107780,1,0,0:0:0:0:
320,192,107897,1,8,0:0:0:0:
64,192,107897,128,0,108131:0:0:0:0:
448,192,108131,128,0,108366:0:0:0:0:
320,192,108366,1,2,0:0:0:0:
192,192,108366,128,0,108835:0:0:0:0:
64,192,108600,1,0,0:0:0:0:
320,192,108835,1,8,0:0:0:0:
448,192,108835,1,0,0:0:0:0:
192,192,109069,1,0,0:0:0:0:
64,192,109303,1,2,0:0:0:0:
448,192,109303,128,0,109772:0:0:0:0:
320,192,109538,1,0,0:0:0:0:
192,192,109772,1,8,0:0:0:0:
64,192,109772,128,0,110006:0:0:0:0:
320,192,110006,1,0,0:0:0:0:
448,192,110124,128,0,110358:0:0:0:0:
192,192,110124,1,0,0:0:0:0:
64,192,110241,1,0,0:0:0:0:
320,192,110241,1,0,0:0:0:0:
192,192,110475,1,0,0:0:0:0:
320,192,110592,1,0,0:0:0:0:
64,192,110710,128,0,110944:0:0:0:0:
448,192,110710,1,0,0:0:0:0:
448,192,110944,128,0,111178:0:0:0:0:
192,192,111178,1,2,0:0:0:0:
320,192,111178,1,0,0:0:0:0:
64,192,111295,1,0,0:0:0:0:
192,192,111413,1,0,0:0:0:0:
320,192,111530,1,0,0:0:0:0:
64,192,111647,1,8,0:0:0:0:
448,192,111647,128,0,111881:0:0:0:0:
192,192,111881,128,0,112116:0:0:0:0:
64,192,112116,1,2,0:0:0:0:
320,192,112116,128,0,112585:0:0:0:0:
192,192,112350,1,0,0:0:0:0:
448,192,112585,1,8,0:0:0:0:
64,192,112585,1,0,0:0:0:0:
192,192,112819,1,0,0:0:0:0:
320,192,113053,1,2,0:0:0:0:
448,192,113053,128,0,113522:0:0:0:0:
192,192,113288,1,0,0:0:0:0:
64,192,113522,1,8,0:0:0:0:
320,192,113522,128,0,113756:0:0:0:0:
192,192,113756,1,0,0:0:0:0:
448,192,113874,1,0,0:0:0:0:
64,192,113874,128,0,114108:0:0:0:0:
192,192,113991,1,2,0:0:0:0:
320,192,113991,1,0,0:0:0:0:
448,192,114225,1,0,0:0:0:0:
320,192,114342,1,0,0:0:0:0:
64,192,114460,1,8,0:0:0:0:
192,192,114460,128,0,114694:0:0:0:0:
448,192,114694,128,0,114928:0:0:0:0:
64,192,114928,1,0,0:0:0:0:
320,192,114928,1,2,0:0:0:0:
192,192,115045,1,0,0:0:0:0:
320,192,115163,1,0,0:0:0:0:
448,192,115280,1,0,0:0:0:0:
192,192,115397,128,0,115631:0:0:0:0:
64,192,115397,1,8,0:0:0:0:
448,192,115631,128,0,115866:0:0:0:0:
320,192,115866,1,2,0:0:0:0:
64,192,115866,128,0,116335:0:0:0:0:
192,192,116100,1,0,0:0:0:0:
320,192,116335,1,8,0:0:0:0:
448,192,116335,1,0,0:0:0:0:
192,192,116569,1,0,0:0:0:0:
64,192,116803,1,2,0:0:0:0:
448,192,116803,128,0,117272:0:0:0:0:
192,192,117038,1,0,0:0:0:0:
320,192,117272,1,8,0:0:0:0:
64,192,117272,128,0,117624:0:0:0:0:
192,192,117506,1,0,0:0:0:0:
320,192,117624,1,0,0:0:0:0:
448,192,117624,128,0,117858:0:0:0:0:
192,192,117741,1,2,0:0:0:0:
64,192,117975,128,0,118210:0:0:0:0:
192,192,118210,1,0,0:0:0:0:
320,192,118210,1,8,0:0:0:0:
448,192,118444,1,0,0:0:0:0:
192,192,118561,1,0,0:0:0:0:
64,192,118678,1,0,0:0:0:0:
320,192,118678,1,8,0:0:0:0:
448,192,118913,1,0,0:0:0:0:
320,192,119030,1,0,0:0:0:0:
192,192,119147,1,8,0:0:0:0:
64,192,119147,1,0,0:0:0:0:
320,192,119264,1,0,0:0:0:0:
192,192,119381,1,0,0:0:0:0:
448,192,119499,1,0,0:0:0:0:
320,192,119616,1,8,0:0:0:0:
64,192,119616,1,4,0:0:0:0:
192,192,119850,1,0,0:0:0:0:
320,192,120085,1,4,0:0:0:0:
448,192,120085,1,0,0:0:0:0:
64,192,120085,1,0,0:0:0:0:
192,192,120319,128,0,120553:0:0:0:0:
448,192,120553,1,2,0:0:0:0:
320,192,120788,128,0,121022:0:0:0:0:
64,192,121022,1,2,0:0:0:0:
448,192,121256,128,0,121491:0:0:0:0:
192,192,121374,1,0,0:0:0:0:
320,192,121491,1,2,0:0:0:0:
64,192,121725,128,0,121960:0:0:0:0:
448,192,121960,1,2,0:0:0:0:
320,192,122194,128,0,122428:0:0:0:0:
64,192,122428,1,2,0:0:0:0:
192,192,122663,128,0,122897:0:0:0:0:
448,192,122897,1,2,0:0:0:0:
64,192,123131,128,0,123366:0:0:0:0:
320,192,123249,1,0,0:0:0:0:
192,192,123366,1,2,0:0:0:0:
448,192,123600,128,0,123835:0:0:0:0:
64,192,123835,1,2,0:0:0:0:
192,192,124069,128,0,124303:0:0:0:0:
320,192,124303,1,2,0:0:0:0:
448,192,124538,128,0,124772:0:0:0:0:
64,192,124772,1,2,0:0:0:0:
320,192,125006,128,0,125241:0:0:0:0:
192,192,125124,1,0,0:0:0:0:
64,192,125241,1,0,0:0:0:0:
192,192,125475,128,0,125710:0:0:0:0:
320,192,125710,1,2,0:0:0:0:
448,192,125944,128,0,126178:0:0:0:0:
192,192,126178,1,2,0:0:0:0:
320,192,126413,128,0,126647:0:0:0:0:
64,192,126647,1,2,0:0:0:0:
192,192,126881,128,0,127116:0:0:0:0:
448,192,127116,1,2,0:0:0:0:
320,192,127350,128,0,127585:0:0:0:0:
64,192,127585,1,2,0:0:0:0:
192,192,127819,128,0,128053:0:0:0:0:
320,192,128053,1,2,0:0:0:0:
64,192,128288,128,0,128522:0:0:0:0:
448,192,128522,1,2,0:0:0:0:
320,192,128756,128,0,128991:0:0:0:0:
192,192,128874,1,0,0:0:0:0:
64,192,128991,1,2,0:0:0:0:
192,192,129225,128,0,129460:0:0:0:0:
448,192,129460,1,2,0:0:0:0:
320,192,129694,128,0,129928:0:0:0:0:
192,192,129928,1,2,0:0:0:0:
64,192,130163,128,0,130397:0:0:0:0:
448,192,130397,1,2,0:0:0:0:
320,192,130631,128,0,130866:0:0:0:0:
192,192,130749,1,0,0:0:0:0:
64,192,130866,1,2,0:0:0:0:
448,192,131100,128,0,131335:0:0:0:0:
192,192,131335,1,2,0:0:0:0:
64,192,131569,128,0,131803:0:0:0:0:
320,192,131803,1,2,0:0:0:0:
192,192,132038,128,0,132272:0:0:0:0:
448,192,132155,1,0,0:0:0:0:
64,192,132272,1,2,0:0:0:0:
320,192,132506,128,0,132741:0:0:0:0:
192,192,132741,1,2,0:0:0:0:
448,192,132975,128,0,133210:0:0:0:0:
320,192,133210,1,2,0:0:0:0:
192,192,133327,1,0,0:0:0:0:
64,192,133444,128,0,133678:0:0:0:0:
448,192,133444,1,0,0:0:0:0:
320,192,133561,1,0,0:0:0:0:
192,192,133678,1,2,0:0:0:0:
320,192,133795,1,0,0:0:0:0:
448,192,133913,128,0,134147:0:0:0:0:
192,192,133913,1,0,0:0:0:0:
64,192,134030,1,0,0:0:0:0:
192,192,134147,1,8,0:0:0:0:
320,192,134147,1,2,0:0:0:0:
448,192,134264,1,8,0:0:0:0:
64,192,134381,1,0,0:0:0:0:
192,192,134381,1,8,0:0:0:0:
320,192,134499,1,0,0:0:0:0:
448,192,134616,1,8,0:0:0:0:
64,192,134616,1,0,0:0:0:0:
192,192,134733,1,8,0:0:0:0:
320,192,134733,1,0,0:0:0:0:
448,192,134850,1,8,0:0:0:0:
64,192,134850,1,0,0:0:0:0:
192,192,135085,1,4,0:0:0:0:
64,192,135085,1,0,0:0:0:0:
448,192,135085,1,0,0:0:0:0:
64,192,135553,1,4,0:0:0:0:
448,192,135553,1,0,0:0:0:0:
192,192,135788,1,0,0:0:0:0:
64,192,136022,1,0,0:0:0:0:
320,192,136022,1,4,0:0:0:0:
448,192,136256,1,0,0:0:0:0:
64,192,136374,1,0,0:0:0:0:
448,192,136491,1,0,0:0:0:0:
320,192,136491,1,4,0:0:0:0:
192,192,136725,1,0,0:0:0:0:
64,192,136960,1,0,0:0:0:0:
448,192,136960,1,4,0:0:0:0:
320,192,137194,1,0,0:0:0:0:
192,192,137428,1,4,0:0:0:0:
448,192,137428,1,0,0:0:0:0:
64,192,137663,1,0,0:0:0:0:
448,192,137897,1,4,0:0:0:0:
320,192,137897,1,0,0:0:0:0:
64,192,138131,1,0,0:0:0:0:
192,192,138249,1,0,0:0:0:0:
448,192,138366,1,0,0:0:0:0:
320,192,138366,1,4,0:0:0:0:
192,192,138600,1,0,0:0:0:0:
448,192,138835,1,4,0:0:0:0:
64,192,138835,1,0,0:0:0:0:
192,192,139069,1,0,0:0:0:0:
448,192,139303,1,0,0:0:0:0:
64,192,139303,1,4,0:0:0:0:
320,192,139538,1,0,0:0:0:0:
192,192,139772,1,0,0:0:0:0:
448,192,139772,1,4,0:0:0:0:
64,192,140006,1,0,0:0:0:0:
320,192,140124,1,0,0:0:0:0:
192,192,140241,1,4,0:0:0:0:
448,192,140241,1,0,0:0:0:0:
320,192,140475,1,0,0:0:0:0:
192,192,140710,1,4,0:0:0:0:
64,192,140710,1,0,0:0:0:0:
320,192,140944,1,0,0:0:0:0:
448,192,141178,1,0,0:0:0:0:
64,192,141178,1,4,0:0:0:0:
192,192,141413,1,0,0:0:0:0:
320,192,141647,1,4,0:0:0:0:
64,192,141647,1,0,0:0:0:0:
448,192,141881,1,0,0:0:0:0:
64,192,141999,1,0,0:0:0:0:
192,192,142116,1,4,0:0:0:0:
448,192,142116,1,0,0:0:0:0:
320,192,142233,1,0,0:0:0:0:
192,192,142350,1,0,0:0:0:0:
64,192,142585,1,4,0:0:0:0:
448,192,142585,1,0,0:0:0:0:
64,192,142819,1,0,0:0:0:0:
320,192,142819,1,4,0:0:0:0:
192,192,143053,1,4,0:0:0:0:
320,192,143053,1,0,0:0:0:0:
192,192,143288,1,0,0:0:0:0:
448,192,143288,1,4,0:0:0:0:
448,192,143522,1,0,0:0:0:0:
64,192,143522,1,4,0:0:0:0:
64,192,143756,1,0,0:0:0:0:
320,192,143756,1,4,0:0:0:0:
192,192,143991,1,4,0:0:0:0:
320,192,143991,1,0,0:0:0:0:
192,192,144225,1,4,0:0:0:0:
64,192,144225,1,0,0:0:0:0:
448,192,144460,1,0,0:0:0:0:
64,192,144460,1,4,0:0:0:0:
448,192,144694,1,4,0:0:0:0:
192,192,144694,1,0,0:0:0:0:
192,192,144928,1,4,0:0:0:0:
320,192,144928,1,0,0:0:0:0:
64,192,145163,1,0,0:0:0:0:
320,192,145163,1,4,0:0:0:0:
448,192,145397,1,0,0:0:0:0:
64,192,145397,1,4,0:0:0:0:
192,192,145631,1,0,0:0:0:0:
448,192,145631,1,4,0:0:0:0:
320,192,145866,1,0,0:0:0:0:
64,192,145866,1,4,0:0:0:0:
448,192,146100,1,4,0:0:0:0:
192,192,146100,1,0,0:0:0:0:
448,192,146335,1,0,0:0:0:0:
64,192,146335,1,4,0:0:0:0:
320,192,146452,1,4,0:0:0:0:
448,192,146569,1,0,0:0:0:0:
192,192,146569,1,4,0:0:0:0:
320,192,146686,1,4,0:0:0:0:
64,192,146803,1,0,0:0:0:0:
192,192,146803,1,4,0:0:0:0:
448,192,146920,1,4,0:0:0:0:
64,192,147038,1,0,0:0:0:0:
320,192,147038,1,4,0:0:0:0:
192,192,147155,1,4,0:0:0:0:
64,192,147272,1,4,0:0:0:0:
448,192,147272,1,4,0:0:0:0:
320,192,147331,1,4,0:0:0:0:
192,192,147389,1,4,0:0:0:0:
64,192,147448,1,4,0:0:0:0:
448,192,147506,1,4,0:0:0:0:
320,192,147565,1,4,0:0:0:0:
64,192,147624,1,4,0:0:0:0:
192,192,147682,1,4,0:0:0:0:
320,192,147741,1,4,0:0:0:0:
448,192,147799,1,4,0:0:0:0:
64,192,147858,1,4,0:0:0:0:
192,192,147917,1,4,0:0:0:0:
448,192,147975,1,4,0:0:0:0:
320,192,148034,1,4,0:0:0:0:
192,192,148092,1,4,0:0:0:0:
64,192,148151,1,4,0:0:0:0:
320,192,148210,1,0,0:0:0:0:
448,192,148210,128,8,148678:0:0:0:0:
192,192,148561,1,0,0:0:0:0:
64,192,148678,128,8,149147:0:0:0:0:
320,192,148678,1,0,0:0:0:0:
320,192,149030,1,0,0:0:0:0:
192,192,149147,1,0,0:0:0:0:
448,192,149147,128,8,149499:0:0:0:0:
320,192,149264,1,0,0:0:0:0:
64,192,149381,1,0,0:0:0:0:
192,192,149499,1,0,0:0:0:0:
64,192,149616,1,8,0:0:0:0:
320,192,149616,1,4,0:0:0:0:
448,192,149616,1,0,0:0:0:0:
448,192,150085,1,0,0:0:0:0:
64,192,150085,1,0,0:0:0:0:
192,192,150085,1,4,0:0:0:0:
320,192,150319,1,0,0:0:0:0:
448,192,150553,1,2,0:0:0:0:
192,192,150553,128,0,151022:0:0:0:0:
64,192,150788,1,0,0:0:0:0:
320,192,151022,1,8,0:0:0:0:
448,192,151022,128,0,151491:0:0:0:0:
64,192,151256,1,0,0:0:0:0:
320,192,151374,1,0,0:0:0:0:
192,192,151491,1,2,0:0:0:0:
64,192,151491,1,0,0:0:0:0:
320,192,151725,1,0,0:0:0:0:
448,192,151960,1,8,0:0:0:0:
64,192,151960,1,0,0:0:0:0:
192,192,152194,1,0,0:0:0:0:
320,192,152428,1,0,0:0:0:0:
64,192,152428,1,2,0:0:0:0:
448,192,152663,1,0,0:0:0:0:
320,192,152897,1,8,0:0:0:0:
192,192,152897,128,0,153366:0:0:0:0:
448,192,153131,1,0,0:0:0:0:
320,192,153249,1,0,0:0:0:0:
448,192,153366,1,0,0:0:0:0:
64,192,153366,1,2,0:0:0:0:
320,192,153483,1,0,0:0:0:0:
192,192,153600,1,0,0:0:0:0:
320,192,153717,1,0,0:0:0:0:
448,192,153835,1,8,0:0:0:0:
64,192,153835,128,0,154303:0:0:0:0:
320,192,154069,1,0,0:0:0:0:
448,192,154303,1,2,0:0:0:0:
192,192,154303,128,0,154772:0:0:0:0:
64,192,154538,1,0,0:0:0:0:
448,192,154772,1,8,0:0:0:0:
320,192,154772,128,0,155241:0:0:0:0:
64,192,155006,1,0,0:0:0:0:
448,192,155124,1,0,0:0:0:0:
192,192,155241,1,2,0:0:0:0:
64,192,155241,1,0,0:0:0:0:
320,192,155475,1,0,0:0:0:0:
64,192,155710,1,8,0:0:0:0:
448,192,155710,128,0,156178:0:0:0:0:
320,192,155827,1,0,0:0:0:0:
192,192,155944,1,0,0:0:0:0:
64,192,156178,1,0,0:0:0:0:
320,192,156178,1,2,0:0:0:0:
192,192,156413,1,0,0:0:0:0:
448,192,156647,1,8,0:0:0:0:
320,192,156647,128,0,157116:0:0:0:0:
64,192,156881,1,0,0:0:0:0:
448,192,156999,1,0,0:0:0:0:
192,192,157116,1,2,0:0:0:0:
64,192,157116,1,0,0:0:0:0:
448,192,157233,1,0,0:0:0:0:
192,192,157350,1,0,0:0:0:0:
320,192,157467,1,0,0:0:0:0:
448,192,157585,1,8,0:0:0:0:
192,192,157585,128,0,158053:0:0:0:0:
320,192,157819,1,0,0:0:0:0:
64,192,158053,1,2,0:0:0:0:
448,192,158053,128,0,158522:0:0:0:0:
192,192,158288,1,0,0:0:0:0:
320,192,158522,1,8,0:0:0:0:
64,192,158522,128,0,158991:0:0:0:0:
192,192,158756,1,0,0:0:0:0:
320,192,158874,1,0,0:0:0:0:
192,192,158991,1,2,0:0:0:0:
448,192,158991,1,0,0:0:0:0:
320,192,159225,1,0,0:0:0:0:
192,192,159460,1,8,0:0:0:0:
64,192,159460,1,0,0:0:0:0:
448,192,159694,1,0,0:0:0:0:
320,192,159928,1,2,0:0:0:0:
64,192,159928,1,0,0:0:0:0:
192,192,160163,1,0,0:0:0:0:
448,192,160397,1,8,0:0:0:0:
320,192,160397,128,0,160866:0:0:0:0:
64,192,160631,1,0,0:0:0:0:
192,192,160749,1,0,0:0:0:0:
448,192,160866,1,0,0:0:0:0:
64,192,160866,1,2,0:0:0:0:
192,192,160983,1,0,0:0:0:0:
320,192,161100,1,0,0:0:0:0:
192,192,161335,1,8,0:0:0:0:
448,192,161335,128,0,161803:0:0:0:0:
64,192,161569,1,0,0:0:0:0:
320,192,161803,1,2,0:0:0:0:
192,192,161803,128,0,162272:0:0:0:0:
64,192,162038,1,0,0:0:0:0:
448,192,162272,1,8,0:0:0:0:
320,192,162272,128,0,162741:0:0:0:0:
192,192,162506,1,0,0:0:0:0:
64,192,162624,1,0,0:0:0:0:
448,192,162741,1,0,0:0:0:0:
192,192,162741,1,2,0:0:0:0:
320,192,162975,1,0,0:0:0:0:
192,192,163210,1,0,0:0:0:0:
64,192,163210,1,8,0:0:0:0:
320,192,163444,1,0,0:0:0:0:
448,192,163561,1,0,0:0:0:0:
192,192,163678,1,8,0:0:0:0:
64,192,163678,1,0,0:0:0:0:
320,192,163795,1,0,0:0:0:0:
192,192,163913,1,0,0:0:0:0:
448,192,164030,1,0,0:0:0:0:
64,192,164147,1,0,0:0:0:0:
320,192,164147,1,8,0:0:0:0:
192,192,164264,1,0,0:0:0:0:
448,192,164381,1,0,0:0:0:0:
64,192,164381,1,0,0:0:0:0:
320,192,164499,1,0,0:0:0:0:
192,192,164616,1,4,0:0:0:0:
448,192,164616,1,0,0:0:0:0:
64,192,164616,1,0,0:0:0:0:
320,192,164850,1,0,0:0:0:0:
192,192,164850,1,0,0:0:0:0:
192,192,165085,1,4,0:0:0:0:
64,192,165085,1,0,0:0:0:0:
448,192,165085,128,0,165553:0:0:0:0:
320,192,165319,1,0,0:0:0:0:
192,192,165553,128,0,166022:0:0:0:0:
64,192,165553,1,2,0:0:0:0:
320,192,165788,1,0,0:0:0:0:
64,192,166022,1,8,0:0:0:0:
448,192,166022,128,0,166491:0:0:0:0:
192,192,166256,1,0,0:0:0:0:
320,192,166374,1,0,0:0:0:0:
64,192,166491,1,0,0:0:0:0:
192,192,166491,1,2,0:0:0:0:
320,192,166725,1,0,0:0:0:0:
448,192,166960,1,8,0:0:0:0:
192,192,166960,1,0,0:0:0:0:
64,192,167194,1,0,0:0:0:0:
320,192,167428,1,2,0:0:0:0:
448,192,167428,1,0,0:0:0:0:
192,192,167663,1,0,0:0:0:0:
320,192,167897,1,8,0:0:0:0:
64,192,167897,128,0,168366:0:0:0:0:
192,192,168131,1,0,0:0:0:0:
448,192,168249,1,0,0:0:0:0:
320,192,168366,1,2,0:0:0:0:
192,192,168366,1,0,0:0:0:0:
448,192,168483,1,0,0:0:0:0:
192,192,168600,1,0,0:0:0:0:
320,192,168717,1,0,0:0:0:0:
448,192,168835,1,8,0:0:0:0:
64,192,168835,128,0,169303:0:0:0:0:
192,192,169069,1,0,0:0:0:0:
448,192,169303,1,2,0:0:0:0:
320,192,169303,128,0,169772:0:0:0:0:
64,192,169538,1,0,0:0:0:0:
192,192,169772,128,0,170241:0:0:0:0:
448,192,169772,1,8,0:0:0:0:
320,192,170006,1,0,0:0:0:0:
448,192,170124,1,0,0:0:0:0:
320,192,170241,1,2,0:0:0:0:
64,192,170241,1,0,0:0:0:0:
192,192,170475,1,0,0:0:0:0:
448,192,170710,128,0,171178:0:0:0:0:
64,192,170710,1,8,0:0:0:0:
192,192,170827,1,0,0:0:0:0:
320,192,170944,1,0,0:0:0:0:
64,192,171178,1,0,0:0:0:0:
192,192,171178,1,2,0:0:0:0:
320,192,171413,1,0,0:0:0:0:
448,192,171647,1,8,0:0:0:0:
192,192,171647,128,0,172116:0:0:0:0:
64,192,171881,1,0,0:0:0:0:
320,192,171999,1,0,0:0:0:0:
448,192,172116,1,0,0:0:0:0:
64,192,172116,1,2,0:0:0:0:
320,192,172350,1,0,0:0:0:0:
192,192,172585,1,8,0:0:0:0:
448,192,172585,128,0,173053:0:0:0:0:
64,192,172819,1,0,0:0:0:0:
320,192,173053,1,2,0:0:0:0:
192,192,173053,128,0,173522:0:0:0:0:
448,192,173288,1,0,0:0:0:0:
64,192,173522,1,8,0:0:0:0:
320,192,173522,128,0,173991:0:0:0:0:
192,192,173756,1,0,0:0:0:0:
64,192,173874,1,0,0:0:0:0:
192,192,173991,1,0,0:0:0:0:
448,192,173991,1,2,0:0:0:0:
64,192,174225,128,0,174460:0:0:0:0:
192,192,174460,1,8,0:0:0:0:
448,192,174460,1,0,0:0:0:0:
320,192,174694,128,0,174928:0:0:0:0:
64,192,174928,1,0,0:0:0:0:
192,192,174928,1,2,0:0:0:0:
448,192,175163,1,0,0:0:0:0:
64,192,175397,1,8,0:0:0:0:
192,192,175397,128,0,175866:0:0:0:0:
448,192,175631,1,0,0:0:0:0:
320,192,175749,1,0,0:0:0:0:
64,192,175866,1,0,0:0:0:0:
448,192,175866,1,2,0:0:0:0:
320,192,176100,1,0,0:0:0:0:
192,192,176335,1,8,0:0:0:0:
64,192,176335,1,0,0:0:0:0:
448,192,176569,1,0,0:0:0:0:
320,192,176803,1,2,0:0:0:0:
64,192,176803,1,0,0:0:0:0:
192,192,177038,1,0,0:0:0:0:
448,192,177272,1,8,0:0:0:0:
320,192,177272,1,0,0:0:0:0:
64,192,177506,1,0,0:0:0:0:
320,192,177624,1,0,0:0:0:0:
192,192,177741,1,2,0:0:0:0:
448,192,177741,1,0,0:0:0:0:
320,192,177975,1,0,0:0:0:0:
64,192,178210,1,0,0:0:0:0:
448,192,178210,1,8,0:0:0:0:
192,192,178444,1,0,0:0:0:0:
320,192,178561,1,0,0:0:0:0:
448,192,178678,1,0,0:0:0:0:
64,192,178678,1,8,0:0:0:0:
320,192,178913,1,0,0:0:0:0:
192,192,179030,1,0,0:0:0:0:
64,192,179147,1,0,0:0:0:0:
448,192,179147,1,8,0:0:0:0:
320,192,179264,1,0,0:0:0:0:
192,192,179381,1,0,0:0:0:0:
448,192,179499,1,0,0:0:0:0:
320,192,179616,1,0,0:0:0:0:
192,192,179616,1,4,0:0:0:0:
64,192,179616,1,0,0:0:0:0:
320,192,179850,1,0,0:0:0:0:
64,192,180085,1,0,0:0:0:0:
192,192,180085,1,4,0:0:0:0:
448,192,180085,1,0,0:0:0:0:
320,192,180202,1,0,0:0:0:0:
448,192,180319,1,0,0:0:0:0:
448,192,180553,1,0,0:0:0:0:
192,192,180788,1,0,0:0:0:0:
448,192,181022,1,0,0:0:0:0:
192,192,181256,1,0,0:0:0:0:
448,192,181491,1,0,0:0:0:0:
320,192,181608,1,0,0:0:0:0:
192,192,181725,1,0,0:0:0:0:
64,192,181960,1,0,0:0:0:0:
320,192,182077,1,0,0:0:0:0:
448,192,182194,1,0,0:0:0:0:
448,192,182428,1,0,0:0:0:0:
192,192,182663,1,0,0:0:0:0:
448,192,182897,1,0,0:0:0:0:
192,192,183131,1,0,0:0:0:0:
64,192,183366,1,0,0:0:0:0:
192,192,183483,1,0,0:0:0:0:
448,192,183600,1,0,0:0:0:0:
64,192,183835,1,0,0:0:0:0:
320,192,183952,1,0,0:0:0:0:
448,192,184069,1,0,0:0:0:0:
448,192,184303,1,0,0:0:0:0:
192,192,184538,1,0,0:0:0:0:
448,192,184772,1,0,0:0:0:0:
192,192,185006,1,0,0:0:0:0:
448,192,185241,1,0,0:0:0:0:
320,192,185358,1,0,0:0:0:0:
192,192,185475,1,0,0:0:0:0:
64,192,185710,1,0,0:0:0:0:
320,192,185827,1,0,0:0:0:0:
448,192,185944,1,0,0:0:0:0:
448,192,186178,1,0,0:0:0:0:
192,192,186413,1,0,0:0:0:0:
448,192,186647,1,0,0:0:0:0:
64,192,186881,1,0,0:0:0:0:
320,192,187116,1,0,0:0:0:0:
448,192,187233,1,0,0:0:0:0:
192,192,187350,1,0,0:0:0:0:
64,192,187585,1,0,0:0:0:0:
320,192,187702,1,0,0:0:0:0:
448,192,187819,1,0,0:0:0:0:
448,192,188053,1,0,0:0:0:0:
192,192,188288,1,0,0:0:0:0:
448,192,188522,1,0,0:0:0:0:
192,192,188756,1,0,0:0:0:0:
448,192,188991,1,0,0:0:0:0:
320,192,189108,1,0,0:0:0:0:
192,192,189225,1,0,0:0:0:0:
64,192,189460,1,0,0:0:0:0:
320,192,189577,1,0,0:0:0:0:
448,192,189694,1,0,0:0:0:0:
448,192,189928,1,0,0:0:0:0:
192,192,190163,1,0,0:0:0:0:
448,192,190397,1,0,0:0:0:0:
192,192,190631,1,0,0:0:0:0:
64,192,190866,1,0,0:0:0:0:
192,192,190983,1,0,0:0:0:0:
448,192,191100,1,0,0:0:0:0:
64,192,191335,1,0,0:0:0:0:
320,192,191452,1,0,0:0:0:0:
448,192,191569,1,0,0:0:0:0:
448,192,191803,1,0,0:0:0:0:
192,192,192038,1,0,0:0:0:0:
448,192,192272,1,0,0:0:0:0:
192,192,192506,1,0,0:0:0:0:
448,192,192741,1,0,0:0:0:0:
320,192,192858,1,0,0:0:0:0:
192,192,192975,1,0,0:0:0:0:
64,192,193210,1,0,0:0:0:0:
320,192,193327,1,0,0:0:0:0:
448,192,193444,1,0,0:0:0:0:
448,192,193678,1,0,0:0:0:0:
192,192,193913,1,0,0:0:0:0:
64,192,194147,1,0,0:0:0:0:
448,192,194381,1,0,0:0:0:0:
320,192,194616,1,0,0:0:0:0:
448,192,194733,1,0,0:0:0:0:
192,192,194850,1,0,0:0:0:0:
448,192,195085,1,0,0:0:0:0:
64,192,195085,128,4,195553:0:0:0:0:
320,192,195085,1,0,0:0:0:0:
192,192,195202,1,0,0:0:0:0:
320,192,195319,1,0,0:0:0:0:
448,192,195553,1,2,0:0:0:0:
192,192,195788,1,0,0:0:0:0:
448,192,196022,1,2,0:0:0:0:
320,192,196022,1,0,0:0:0:0:
192,192,196256,1,0,0:0:0:0:
448,192,196491,1,2,0:0:0:0:
320,192,196608,1,0,0:0:0:0:
192,192,196725,1,0,0:0:0:0:
64,192,196960,1,0,0:0:0:0:
448,192,196960,1,2,0:0:0:0:
320,192,197077,1,0,0:0:0:0:
448,192,197194,1,0,0:0:0:0:
448,192,197428,1,2,0:0:0:0:
192,192,197663,1,0,0:0:0:0:
64,192,197663,1,0,0:0:0:0:
448,192,197897,1,2,0:0:0:0:
320,192,197897,1,0,0:0:0:0:
192,192,198131,1,0,0:0:0:0:
448,192,198366,1,2,0:0:0:0:
192,192,198483,1,0,0:0:0:0:
320,192,198600,1,0,0:0:0:0:
64,192,198835,1,2,0:0:0:0:
192,192,198835,1,0,0:0:0:0:
320,192,198952,1,0,0:0:0:0:
448,192,199069,1,0,0:0:0:0:
448,192,199303,1,2,0:0:0:0:
192,192,199538,1,0,0:0:0:0:
448,192,199772,1,2,0:0:0:0:
64,192,199772,1,0,0:0:0:0:
192,192,200006,1,0,0:0:0:0:
448,192,200241,1,2,0:0:0:0:
320,192,200241,1,0,0:0:0:0:
192,192,200358,1,0,0:0:0:0:
64,192,200475,1,0,0:0:0:0:
64,192,200710,1,2,0:0:0:0:
192,192,200710,1,0,0:0:0:0:
320,192,200827,1,0,0:0:0:0:
448,192,200944,1,0,0:0:0:0:
448,192,201178,1,2,0:0:0:0:
192,192,201413,1,0,0:0:0:0:
64,192,201413,1,0,0:0:0:0:
448,192,201647,1,2,0:0:0:0:
64,192,201881,1,0,0:0:0:0:
320,192,201881,1,0,0:0:0:0:
448,192,202116,1,2,0:0:0:0:
320,192,202233,1,0,0:0:0:0:
192,192,202350,1,0,0:0:0:0:
64,192,202585,1,0,0:0:0:0:
448,192,202585,1,2,0:0:0:0:
320,192,202702,1,0,0:0:0:0:
448,192,202819,1,0,0:0:0:0:
448,192,203053,1,2,0:0:0:0:
192,192,203288,1,0,0:0:0:0:
448,192,203522,1,2,0:0:0:0:
320,192,203522,1,0,0:0:0:0:
192,192,203756,1,0,0:0:0:0:
64,192,203756,1,0,0:0:0:0:
448,192,203991,1,2,0:0:0:0:
320,192,204108,1,0,0:0:0:0:
192,192,204225,1,0,0:0:0:0:
64,192,204460,1,2,0:0:0:0:
192,192,204460,1,0,0:0:0:0:
320,192,204577,1,0,0:0:0:0:
448,192,204694,1,0,0:0:0:0:
448,192,204928,1,2,0:0:0:0:
64,192,204928,1,0,0:0:0:0:
192,192,205163,1,0,0:0:0:0:
448,192,205397,1,2,0:0:0:0:
320,192,205397,1,0,0:0:0:0:
192,192,205631,1,0,0:0:0:0:
448,192,205866,1,2,0:0:0:0:
64,192,205866,1,0,0:0:0:0:
192,192,205983,1,0,0:0:0:0:
320,192,206100,1,0,0:0:0:0:
192,192,206335,1,0,0:0:0:0:
64,192,206335,1,2,0:0:0:0:
320,192,206452,1,0,0:0:0:0:
448,192,206569,1,0,0:0:0:0:
448,192,206803,1,2,0:0:0:0:
192,192,207038,1,0,0:0:0:0:
448,192,207272,1,2,0:0:0:0:
64,192,207272,1,0,0:0:0:0:
192,192,207506,1,0,0:0:0:0:
448,192,207741,1,2,0:0:0:0:
64,192,207741,1,0,0:0:0:0:
320,192,207858,1,0,0:0:0:0:
192,192,207975,1,0,0:0:0:0:
64,192,208210,1,2,0:0:0:0:
192,192,208210,1,0,0:0:0:0:
320,192,208327,1,0,0:0:0:0:
448,192,208444,1,0,0:0:0:0:
448,192,208678,1,2,0:0:0:0:
192,192,208913,1,0,0:0:0:0:
448,192,209147,1,2,0:0:0:0:
320,192,209381,1,0,0:0:0:0:
192,192,209616,1,2,0:0:0:0:
448,192,209733,1,0,0:0:0:0:
64,192,209850,1,0,0:0:0:0:
192,192,210085,1,0,0:0:0:0:
448,192,210085,1,4,0:0:0:0:
320,192,210085,1,8,0:0:0:0:
64,192,210202,1,0,0:0:0:0:
320,192,210319,1,0,0:0:0:0:
192,192,210553,1,0,0:0:0:0:
448,192,210553,1,8,0:0:0:0:
64,192,210788,1,0,0:0:0:0:
320,192,211022,1,0,0:0:0:0:
448,192,211022,1,8,0:0:0:0:
192,192,211256,1,0,0:0:0:0:
320,192,211491,1,0,0:0:0:0:
64,192,211491,1,8,0:0:0:0:
448,192,211608,1,0,0:0:0:0:
192,192,211725,1,0,0:0:0:0:
64,192,211960,1,8,0:0:0:0:
448,192,211960,1,0,0:0:0:0:
320,192,212077,1,0,0:0:0:0:
192,192,212194,1,0,0:0:0:0:
320,192,212428,1,0,0:0:0:0:
448,192,212428,1,8,0:0:0:0:
192,192,212663,1,0,0:0:0:0:
64,192,212897,1,8,0:0:0:0:
320,192,212897,1,0,0:0:0:0:
448,192,213131,1,0,0:0:0:0:
64,192,213366,1,8,0:0:0:0:
192,192,213366,1,4,0:0:0:0:
320,192,213483,1,0,0:0:0:0:
448,192,213600,1,0,0:0:0:0:
64,192,213835,1,8,0:0:0:0:
320,192,213835,1,0,0:0:0:0:
192,192,213952,1,0,0:0:0:0:
448,192,214069,1,0,0:0:0:0:
64,192,214303,1,8,0:0:0:0:
192,192,214303,1,0,0:0:0:0:
320,192,214420,1,0,0:0:0:0:
448,192,214538,1,0,0:0:0:0:
320,192,214772,1,8,0:0:0:0:
192,192,214772,1,0,0:0:0:0:
64,192,214889,1,0,0:0:0:0:
320,192,215006,1,0,0:0:0:0:
192,192,215241,1,0,0:0:0:0:
448,192,215241,1,8,0:0:0:0:
320,192,215358,1,0,0:0:0:0:
64,192,215475,1,0,0:0:0:0:
320,192,215710,1,0,0:0:0:0:
448,192,215710,1,8,0:0:0:0:
192,192,215827,1,0,0:0:0:0:
64,192,215944,1,0,0:0:0:0:
192,192,216178,1,8,0:0:0:0:
320,192,216178,1,0,0:0:0:0:
448,192,216295,1,0,0:0:0:0:
64,192,216413,1,0,0:0:0:0:
192,192,216647,1,0,0:0:0:0:
448,192,216647,1,8,0:0:0:0:
64,192,216764,1,0,0:0:0:0:
320,192,216881,1,0,0:0:0:0:
448,192,217116,1,0,0:0:0:0:
64,192,217116,1,8,0:0:0:0:
192,192,217233,1,0,0:0:0:0:
320,192,217350,1,0,0:0:0:0:
64,192,217585,1,8,0:0:0:0:
448,192,217585,1,0,0:0:0:0:
320,192,217702,1,0,0:0:0:0:
192,192,217819,1,0,0:0:0:0:
64,192,217819,1,8,0:0:0:0:
64,192,218053,1,8,0:0:0:0:
192,192,218053,1,0,0:0:0:0:
192,192,218288,1,0,0:0:0:0:
64,192,218288,1,8,0:0:0:0:
192,192,218522,1,0,0:0:0:0:
64,192,218522,1,8,0:0:0:0:
192,192,218756,1,0,0:0:0:0:
64,192,218756,1,8,0:0:0:0:
64,192,218991,1,0,0:0:0:0:
448,192,218991,1,8,0:0:0:0:
320,192,219108,1,0,0:0:0:0:
192,192,219225,1,0,0:0:0:0:
448,192,219225,1,8,0:0:0:0:
320,192,219460,1,0,0:0:0:0:
64,192,219460,1,8,0:0:0:0:
192,192,219577,1,0,0:0:0:0:
320,192,219694,1,0,0:0:0:0:
448,192,219694,1,8,0:0:0:0:
320,192,219928,1,0,0:0:0:0:
448,192,219928,1,8,0:0:0:0:
320,192,220163,1,0,0:0:0:0:
448,192,220163,1,8,0:0:0:0:
320,192,220397,1,0,0:0:0:0:
448,192,220397,1,8,0:0:0:0:
320,192,220631,1,0,0:0:0:0:
448,192,220631,1,8,0:0:0:0:
448,192,220866,1,0,0:0:0:0:
64,192,220866,1,8,0:0:0:0:
192,192,220983,1,0,0:0:0:0:
320,192,221100,1,0,0:0:0:0:
64,192,221100,1,8,0:0:0:0:
320,192,221335,1,0,0:0:0:0:
448,192,221335,1,8,0:0:0:0:
192,192,221452,1,0,0:0:0:0:
64,192,221452,1,8,0:0:0:0:
320,192,221569,1,0,0:0:0:0:
448,192,221569,1,8,0:0:0:0:
192,192,221686,1,0,0:0:0:0:
64,192,221686,1,8,0:0:0:0:
320,192,221803,1,0,0:0:0:0:
448,192,221803,1,8,0:0:0:0:
192,192,221920,1,0,0:0:0:0:
64,192,221920,1,8,0:0:0:0:
320,192,222038,1,0,0:0:0:0:
448,192,222038,1,8,0:0:0:0:
192,192,222155,1,0,0:0:0:0:
64,192,222155,1,8,0:0:0:0:
448,192,222272,1,8,0:0:0:0:
320,192,222331,1,8,0:0:0:0:
64,192,222389,1,8,0:0:0:0:
192,192,222448,1,8,0:0:0:0:
448,192,222506,1,8,0:0:0:0:
320,192,222565,1,8,0:0:0:0:
64,192,222624,1,8,0:0:0:0:
192,192,222682,1,8,0:0:0:0:
448,192,222741,1,8,0:0:0:0:
320,192,222799,1,8,0:0:0:0:
64,192,222858,1,8,0:0:0:0:
192,192,222917,1,8,0:0:0:0:
448,192,222975,1,8,0:0:0:0:
320,192,223034,1,8,0:0:0:0:
64,192,223092,1,8,0:0:0:0:
192,192,223151,1,8,0:0:0:0:
320,192,223210,128,0,223561:0:0:0:0:
448,192,223210,128,8,223561:0:0:0:0:
192,192,223561,1,2,0:0:0:0:
448,192,223678,128,8,224147:0:0:0:0:
64,192,223678,128,0,224147:0:0:0:0:
320,192,224030,128,2,224147:0:0:0:0:
192,192,224147,1,2,0:0:0:0:
64,192,224616,1,4,0:0:0:0:
448,192,224616,1,4,0:0:0:0:
320,192,224616,1,0,0:0:0:0:
64,192,225085,1,4,0:0:0:0:
448,192,225085,1,4,0:0:0:0:
320,192,225085,1,0,0:0:0:0:
192,192,225085,128,0,225553:0:0:0:0:
448,192,225319,1,0,0:0:0:0:
320,192,225553,128,0,226022:0:0:0:0:
64,192,225553,1,8,0:0:0:0:
448,192,225670,1,0,0:0:0:0:
64,192,225788,1,0,0:0:0:0:
448,192,226022,128,0,226256:0:0:0:0:
192,192,226022,1,8,0:0:0:0:
64,192,226139,1,0,0:0:0:0:
320,192,226256,1,0,0:0:0:0:
64,192,226374,1,0,0:0:0:0:
320,192,226491,1,8,0:0:0:0:
192,192,226491,128,0,226725:0:0:0:0:
64,192,226725,128,0,226960:0:0:0:0:
320,192,226960,1,0,0:0:0:0:
448,192,226960,1,8,0:0:0:0:
192,192,227194,1,0,0:0:0:0:
64,192,227428,1,8,0:0:0:0:
320,192,227428,128,0,227663:0:0:0:0:
192,192,227663,128,0,227897:0:0:0:0:
64,192,227897,128,0,228366:0:0:0:0:
320,192,227897,1,8,0:0:0:0:
448,192,228014,1,0,0:0:0:0:
192,192,228131,1,0,0:0:0:0:
320,192,228249,1,0,0:0:0:0:
448,192,228366,1,2,0:0:0:0:
192,192,228366,1,0,0:0:0:0:
64,192,228600,1,0,0:0:0:0:
320,192,228717,1,0,0:0:0:0:
192,192,228835,128,0,229303:0:0:0:0:
448,192,228835,1,8,0:0:0:0:
64,192,229069,1,0,0:0:0:0:
320,192,229303,128,0,229772:0:0:0:0:
448,192,229303,1,8,0:0:0:0:
64,192,229420,1,0,0:0:0:0:
192,192,229538,1,0,0:0:0:0:
448,192,229772,128,0,230006:0:0:0:0:
64,192,229772,1,8,0:0:0:0:
192,192,229889,1,0,0:0:0:0:
320,192,230006,1,0,0:0:0:0:
64,192,230124,128,0,230475:0:0:0:0:
192,192,230241,1,0,0:0:0:0:
448,192,230241,1,8,0:0:0:0:
320,192,230475,1,0,0:0:0:0:
448,192,230710,128,0,231178:0:0:0:0:
64,192,230710,1,8,0:0:0:0:
192,192,230827,1,0,0:0:0:0:
320,192,230944,1,0,0:0:0:0:
192,192,231178,1,8,0:0:0:0:
320,192,231178,1,0,0:0:0:0:
64,192,231295,1,0,0:0:0:0:
320,192,231413,128,0,231647:0:0:0:0:
64,192,231647,128,0,232585:0:0:0:0:
192,192,231647,1,8,0:0:0:0:
448,192,231764,1,0,0:0:0:0:
320,192,231881,1,0,0:0:0:0:
192,192,231999,1,0,0:0:0:0:
320,192,232116,1,0,0:0:0:0:
448,192,232116,1,2,0:0:0:0:
192,192,232233,1,0,0:0:0:0:
320,192,232350,1,0,0:0:0:0:
448,192,232467,1,0,0:0:0:0:
192,192,232585,128,0,233053:0:0:0:0:
320,192,232585,1,8,0:0:0:0:
64,192,232819,1,0,0:0:0:0:
320,192,233053,128,0,233522:0:0:0:0:
448,192,233053,1,8,0:0:0:0:
64,192,233170,1,0,0:0:0:0:
448,192,233288,1,0,0:0:0:0:
64,192,233405,1,0,0:0:0:0:
448,192,233522,128,0,233756:0:0:0:0:
192,192,233522,1,8,0:0:0:0:
64,192,233756,1,0,0:0:0:0:
192,192,233874,128,0,234108:0:0:0:0:
320,192,233991,1,0,0:0:0:0:
448,192,233991,1,8,0:0:0:0:
64,192,234225,128,0,234460:0:0:0:0:
192,192,234460,1,0,0:0:0:0:
448,192,234460,1,8,0:0:0:0:
320,192,234694,128,0,234928:0:0:0:0:
64,192,234694,1,0,0:0:0:0:
192,192,234928,1,0,0:0:0:0:
448,192,234928,1,8,0:0:0:0:
64,192,235045,1,0,0:0:0:0:
448,192,235163,128,0,235397:0:0:0:0:
320,192,235397,128,0,235866:0:0:0:0:
192,192,235397,1,8,0:0:0:0:
64,192,235514,1,0,0:0:0:0:
448,192,235631,1,0,0:0:0:0:
192,192,235749,1,0,0:0:0:0:
64,192,235866,1,0,0:0:0:0:
448,192,235866,1,2,0:0:0:0:
192,192,236100,1,0,0:0:0:0:
64,192,236335,1,8,0:0:0:0:
448,192,236335,128,0,236803:0:0:0:0:
192,192,236452,1,0,0:0:0:0:
320,192,236569,1,0,0:0:0:0:
192,192,236803,128,0,237272:0:0:0:0:
64,192,236803,1,8,0:0:0:0:
320,192,236920,1,0,0:0:0:0:
448,192,237038,1,0,0:0:0:0:
320,192,237272,128,0,237975:0:0:0:0:
64,192,237272,1,8,0:0:0:0:
448,192,237389,1,0,0:0:0:0:
192,192,237506,1,0,0:0:0:0:
64,192,237624,1,0,0:0:0:0:
448,192,237741,1,8,0:0:0:0:
192,192,237741,1,0,0:0:0:0:
64,192,237975,128,0,238210:0:0:0:0:
448,192,238210,128,0,238913:0:0:0:0:
192,192,238210,1,2,0:0:0:0:
320,192,238327,1,0,0:0:0:0:
64,192,238444,1,0,0:0:0:0:
192,192,238678,1,2,0:0:0:0:
320,192,238795,1,0,0:0:0:0:
64,192,238913,1,0,0:0:0:0:
192,192,239147,1,8,0:0:0:0:
320,192,239381,128,0,239616:0:0:0:0:
64,192,239616,128,0,239850:0:0:0:0:
448,192,239616,1,2,0:0:0:0:
192,192,239850,128,0,240085:0:0:0:0:
320,192,240085,128,0,240553:0:0:0:0:
64,192,240085,1,4,0:0:0:0:
448,192,240085,1,8,0:0:0:0:
448,192,240319,1,0,0:0:0:0:
192,192,240553,128,0,241022:0:0:0:0:
64,192,240553,1,8,0:0:0:0:
448,192,240670,1,0,0:0:0:0:
320,192,240788,1,0,0:0:0:0:
448,192,241022,128,0,241374:0:0:0:0:
64,192,241022,1,8,0:0:0:0:
320,192,241256,1,0,0:0:0:0:
64,192,241374,128,0,241725:0:0:0:0:
192,192,241491,1,0,0:0:0:0:
320,192,241491,1,8,0:0:0:0:
320,192,241725,128,0,241960:0:0:0:0:
192,192,241960,128,0,242194:0:0:0:0:
448,192,241960,1,8,0:0:0:0:
448,192,242194,128,0,242428:0:0:0:0:
64,192,242428,1,8,0:0:0:0:
192,192,242428,1,0,0:0:0:0:
320,192,242663,128,0,242897:0:0:0:0:
192,192,242897,128,0,243366:0:0:0:0:
448,192,242897,1,8,0:0:0:0:
64,192,243014,1,0,0:0:0:0:
448,192,243131,1,0,0:0:0:0:
320,192,243249,1,0,0:0:0:0:
448,192,243366,1,2,0:0:0:0:
64,192,243366,1,0,0:0:0:0:
320,192,243600,1,0,0:0:0:0:
192,192,243717,1,0,0:0:0:0:
64,192,243835,128,0,244303:0:0:0:0:
448,192,243835,1,8,0:0:0:0:
320,192,244069,1,0,0:0:0:0:
192,192,244303,128,0,244772:0:0:0:0:
448,192,244303,1,8,0:0:0:0:
320,192,244420,1,0,0:0:0:0:
64,192,244538,1,0,0:0:0:0:
320,192,244772,128,0,245124:0:0:0:0:
448,192,244772,1,8,0:0:0:0:
64,192,244889,1,0,0:0:0:0:
448,192,245006,1,0,0:0:0:0:
192,192,245124,128,0,245358:0:0:0:0:
64,192,245241,1,8,0:0:0:0:
448,192,245241,1,0,0:0:0:0:
320,192,245475,1,0,0:0:0:0:
448,192,245710,128,0,246178:0:0:0:0:
192,192,245710,1,8,0:0:0:0:
64,192,245944,1,0,0:0:0:0:
192,192,246178,128,0,246413:0:0:0:0:
320,192,246178,1,8,0:0:0:0:
448,192,246413,1,0,0:0:0:0:
64,192,246647,128,0,247350:0:0:0:0:
192,192,246647,1,8,0:0:0:0:
320,192,246764,1,0,0:0:0:0:
448,192,246881,1,0,0:0:0:0:
192,192,246999,1,0,0:0:0:0:
320,192,247116,1,0,0:0:0:0:
448,192,247116,1,2,0:0:0:0:
192,192,247233,1,0,0:0:0:0:
448,192,247350,1,0,0:0:0:0:
320,192,247467,1,0,0:0:0:0:
192,192,247585,128,0,248053:0:0:0:0:
64,192,247585,1,8,0:0:0:0:
448,192,247819,1,0,0:0:0:0:
320,192,248053,128,0,248522:0:0:0:0:
64,192,248053,1,8,0:0:0:0:
448,192,248170,1,0,0:0:0:0:
192,192,248288,1,0,0:0:0:0:
448,192,248522,128,0,248874:0:0:0:0:
64,192,248522,1,8,0:0:0:0:
192,192,248639,1,0,0:0:0:0:
320,192,248756,1,0,0:0:0:0:
64,192,248874,128,0,249108:0:0:0:0:
192,192,248991,1,0,0:0:0:0:
320,192,248991,1,8,0:0:0:0:
320,192,249225,128,0,249460:0:0:0:0:
192,192,249460,1,0,0:0:0:0:
64,192,249460,1,8,0:0:0:0:
320,192,249694,128,0,249928:0:0:0:0:
64,192,249928,1,0,0:0:0:0:
448,192,249928,1,8,0:0:0:0:
192,192,250163,128,0,250397:0:0:0:0:
64,192,250397,128,0,250866:0:0:0:0:
448,192,250397,1,8,0:0:0:0:
320,192,250514,1,0,0:0:0:0:
192,192,250631,1,0,0:0:0:0:
320,192,250749,1,0,0:0:0:0:
448,192,250866,128,0,251100:0:0:0:0:
192,192,250866,1,8,0:0:0:0:
64,192,251100,1,0,0:0:0:0:
320,192,251335,128,0,252272:0:0:0:0:
192,192,251335,1,2,0:0:0:0:
64,192,251569,1,0,0:0:0:0:
192,192,251803,1,2,0:0:0:0:
64,192,252038,1,0,0:0:0:0:
192,192,252272,1,2,0:0:0:0:
64,192,252506,1,0,0:0:0:0:
448,192,252741,128,0,252975:0:0:0:0:
320,192,252741,1,8,0:0:0:0:
64,192,252975,1,0,0:0:0:0:
320,192,253210,1,8,0:0:0:0:
192,192,253210,1,0,0:0:0:0:
448,192,253561,1,2,0:0:0:0:
192,192,253678,1,0,0:0:0:0:
320,192,253678,1,8,0:0:0:0:
64,192,254030,1,2,0:0:0:0:
192,192,254147,1,0,0:0:0:0:
320,192,254147,1,8,0:0:0:0:
448,192,254264,1,2,0:0:0:0:
64,192,254381,1,2,0:0:0:0:
192,192,254499,1,2,0:0:0:0:
320,192,254616,1,0,0:0:0:0:
448,192,254616,1,4,0:0:0:0:
64,192,254616,1,0,0:0:0:0:
64,192,255085,1,4,0:0:0:0:
192,192,255085,1,8,0:0:0:0:
448,192,255085,1,0,0:0:0:0:
320,192,255085,1,0,0:0:0:0:
192,192,255319,1,0,0:0:0:0:
448,192,255553,1,8,0:0:0:0:
64,192,255553,1,0,0:0:0:0:
320,192,255670,1,0,0:0:0:0:
192,192,255788,128,0,256022:0:0:0:0:
448,192,256022,128,2,256374:0:0:0:0:
64,192,256022,1,8,0:0:0:0:
320,192,256374,1,0,0:0:0:0:
192,192,256491,1,0,0:0:0:0:
64,192,256491,1,8,0:0:0:0:
448,192,256608,1,0,0:0:0:0:
320,192,256725,128,0,256960:0:0:0:0:
192,192,256960,1,2,0:0:0:0:
448,192,256960,1,8,0:0:0:0:
64,192,257077,1,0,0:0:0:0:
192,192,257194,128,0,257428:0:0:0:0:
320,192,257428,1,0,0:0:0:0:
448,192,257428,1,8,0:0:0:0:
64,192,257545,1,0,0:0:0:0:
320,192,257663,1,0,0:0:0:0:
192,192,257780,1,0,0:0:0:0:
448,192,257897,1,8,0:0:0:0:
64,192,257897,128,2,258131:0:0:0:0:
320,192,258131,128,0,258366:0:0:0:0:
192,192,258366,128,0,258835:0:0:0:0:
448,192,258366,1,8,0:0:0:0:
64,192,258835,1,8,0:0:0:0:
320,192,258835,1,2,0:0:0:0:
448,192,258952,1,0,0:0:0:0:
192,192,259069,1,0,0:0:0:0:
320,192,259303,1,0,0:0:0:0:
64,192,259303,1,8,0:0:0:0:
192,192,259420,1,0,0:0:0:0:
448,192,259538,128,0,259772:0:0:0:0:
320,192,259772,1,8,0:0:0:0:
192,192,259772,128,2,260124:0:0:0:0:
320,192,260124,1,0,0:0:0:0:
448,192,260241,1,8,0:0:0:0:
64,192,260241,128,0,260475:0:0:0:0:
320,192,260475,128,0,260710:0:0:0:0:
192,192,260710,1,2,0:0:0:0:
448,192,260710,1,8,0:0:0:0:
64,192,260827,1,0,0:0:0:0:
448,192,260944,128,0,261178:0:0:0:0:
192,192,261178,1,0,0:0:0:0:
64,192,261178,1,8,0:0:0:0:
320,192,261295,1,0,0:0:0:0:
192,192,261413,1,0,0:0:0:0:
64,192,261530,1,0,0:0:0:0:
320,192,261647,1,8,0:0:0:0:
192,192,261647,128,2,261881:0:0:0:0:
448,192,261881,128,0,262116:0:0:0:0:
64,192,262116,128,0,262585:0:0:0:0:
320,192,262116,1,8,0:0:0:0:
192,192,262585,1,2,0:0:0:0:
320,192,262585,1,8,0:0:0:0:
448,192,262819,1,0,0:0:0:0:
192,192,262936,1,0,0:0:0:0:
64,192,263053,1,8,0:0:0:0:
320,192,263053,1,0,0:0:0:0:
448,192,263170,1,0,0:0:0:0:
192,192,263288,128,0,263522:0:0:0:0:
64,192,263522,128,2,263874:0:0:0:0:
320,192,263522,1,8,0:0:0:0:
448,192,263874,1,0,0:0:0:0:
320,192,263991,1,8,0:0:0:0:
192,192,263991,1,0,0:0:0:0:
64,192,264108,1,0,0:0:0:0:
320,192,264225,128,0,264460:0:0:0:0:
448,192,264460,1,8,0:0:0:0:
192,192,264460,128,2,264694:0:0:0:0:
448,192,264694,128,0,264928:0:0:0:0:
64,192,264928,1,8,0:0:0:0:
192,192,264928,1,0,0:0:0:0:
320,192,265045,1,0,0:0:0:0:
448,192,265163,1,0,0:0:0:0:
192,192,265280,1,0,0:0:0:0:
320,192,265397,1,8,0:0:0:0:
64,192,265397,128,2,265631:0:0:0:0:
448,192,265631,128,0,265866:0:0:0:0:
192,192,265866,128,0,266335:0:0:0:0:
320,192,265866,1,8,0:0:0:0:
64,192,266335,1,8,0:0:0:0:
320,192,266335,1,2,0:0:0:0:
448,192,266569,1,0,0:0:0:0:
320,192,266803,1,0,0:0:0:0:
64,192,266803,1,8,0:0:0:0:
192,192,266920,1,0,0:0:0:0:
448,192,267038,128,0,267272:0:0:0:0:
320,192,267272,1,8,0:0:0:0:
192,192,267272,128,2,267624:0:0:0:0:
64,192,267624,1,0,0:0:0:0:
448,192,267741,1,8,0:0:0:0:
320,192,267741,128,0,267975:0:0:0:0:
64,192,267975,128,0,268210:0:0:0:0:
448,192,268210,1,2,0:0:0:0:
192,192,268210,128,0,269147:0:0:0:0:
448,192,268678,1,2,0:0:0:0:
448,192,269147,1,8,0:0:0:0:
64,192,269147,128,0,269381:0:0:0:0:
320,192,269381,128,0,269616:0:0:0:0:
192,192,269616,128,0,269850:0:0:0:0:
448,192,269616,1,2,0:0:0:0:
64,192,269850,128,0,270085:0:0:0:0:
192,192,270085,1,0,0:0:0:0:
448,192,270085,1,4,0:0:0:0:
320,192,270085,128,0,270553:0:0:0:0:
448,192,270553,1,8,0:0:0:0:
64,192,270553,1,0,0:0:0:0:
192,192,270670,1,0,0:0:0:0:
448,192,270788,128,0,271022:0:0:0:0:
64,192,271022,128,2,271374:0:0:0:0:
320,192,271022,1,8,0:0:0:0:
192,192,271374,1,0,0:0:0:0:
320,192,271491,128,0,271725:0:0:0:0:
448,192,271491,1,8,0:0:0:0:
192,192,271725,128,0,271960:0:0:0:0:
64,192,271960,1,8,0:0:0:0:
448,192,271960,1,2,0:0:0:0:
320,192,272077,1,0,0:0:0:0:
448,192,272194,128,0,272428:0:0:0:0:
192,192,272428,1,0,0:0:0:0:
64,192,272428,1,8,0:0:0:0:
320,192,272545,1,0,0:0:0:0:
448,192,272663,1,0,0:0:0:0:
192,192,272780,1,0,0:0:0:0:
64,192,272897,128,2,273131:0:0:0:0:
320,192,272897,1,8,0:0:0:0:
320,192,273131,128,0,273366:0:0:0:0:
192,192,273366,128,0,273835:0:0:0:0:
448,192,273366,1,8,0:0:0:0:
320,192,273835,1,8,0:0:0:0:
64,192,273835,128,2,274303:0:0:0:0:
448,192,273952,1,0,0:0:0:0:
192,192,274069,1,0,0:0:0:0:
320,192,274303,1,0,0:0:0:0:
448,192,274303,1,8,0:0:0:0:
192,192,274420,1,0,0:0:0:0:
448,192,274538,128,0,274772:0:0:0:0:
192,192,274772,128,2,275124:0:0:0:0:
64,192,274772,1,8,0:0:0:0:
320,192,275124,1,0,0:0:0:0:
64,192,275241,128,0,275475:0:0:0:0:
448,192,275241,1,8,0:0:0:0:
320,192,275475,128,0,275710:0:0:0:0:
192,192,275710,128,2,275944:0:0:0:0:
448,192,275710,1,8,0:0:0:0:
448,192,275944,128,0,276178:0:0:0:0:
64,192,276178,1,8,0:0:0:0:
192,192,276178,1,0,0:0:0:0:
320,192,276295,1,0,0:0:0:0:
192,192,276413,1,0,0:0:0:0:
64,192,276530,1,0,0:0:0:0:
448,192,276647,1,8,0:0:0:0:
320,192,276647,128,2,276881:0:0:0:0:
448,192,276881,128,0,277116:0:0:0:0:
64,192,277116,1,8,0:0:0:0:
192,192,277116,128,0,277585:0:0:0:0:
320,192,277585,1,8,0:0:0:0:
64,192,277585,128,2,278053:0:0:0:0:
448,192,277702,1,0,0:0:0:0:
192,192,277819,1,0,0:0:0:0:
320,192,278053,1,0,0:0:0:0:
448,192,278053,1,8,0:0:0:0:
192,192,278170,1,0,0:0:0:0:
448,192,278288,128,0,278522:0:0:0:0:
192,192,278522,128,2,278874:0:0:0:0:
320,192,278522,1,8,0:0:0:0:
320,192,278874,1,0,0:0:0:0:
64,192,278991,128,0,279225:0:0:0:0:
448,192,278991,1,8,0:0:0:0:
320,192,279225,128,0,279460:0:0:0:0:
192,192,279460,1,2,0:0:0:0:
64,192,279460,1,8,0:0:0:0:
448,192,279577,1,0,0:0:0:0:
192,192,279694,128,0,279928:0:0:0:0:
448,192,279928,1,8,0:0:0:0:
320,192,279928,1,0,0:0:0:0:
64,192,280045,1,0,0:0:0:0:
448,192,280163,1,0,0:0:0:0:
320,192,280280,1,0,0:0:0:0:
192,192,280397,1,8,0:0:0:0:
64,192,280397,128,2,280631:0:0:0:0:
448,192,280631,128,0,280866:0:0:0:0:
192,192,280866,1,8,0:0:0:0:
320,192,280866,128,0,281335:0:0:0:0:
64,192,280983,1,0,0:0:0:0:
448,192,281100,1,0,0:0:0:0:
192,192,281217,1,0,0:0:0:0:
448,192,281335,1,8,0:0:0:0:
64,192,281335,128,2,281803:0:0:0:0:
192,192,281569,1,0,0:0:0:0:
320,192,281803,1,0,0:0:0:0:
448,192,281803,1,8,0:0:0:0:
192,192,281920,1,0,0:0:0:0:
320,192,282038,128,0,282272:0:0:0:0:
192,192,282272,1,2,0:0:0:0:
448,192,282272,1,8,0:0:0:0:
64,192,282389,1,0,0:0:0:0:
448,192,282506,1,0,0:0:0:0:
192,192,282624,1,0,0:0:0:0:
64,192,282741,1,8,0:0:0:0:
320,192,282741,128,0,282975:0:0:0:0:
192,192,282975,128,0,283210:0:0:0:0:
64,192,283210,1,2,0:0:0:0:
448,192,283210,128,0,283561:0:0:0:0:
64,192,283678,1,2,0:0:0:0:
448,192,283678,128,0,284147:0:0:0:0:
192,192,284147,1,8,0:0:0:0:
64,192,284147,128,0,284381:0:0:0:0:
320,192,284381,128,0,284616:0:0:0:0:
192,192,284616,128,0,284850:0:0:0:0:
448,192,284616,1,2,0:0:0:0:
64,192,284850,128,0,285085:0:0:0:0:
192,192,285085,1,4,0:0:0:0:
448,192,285085,1,0,0:0:0:0:
320,192,285085,128,0,285553:0:0:0:0:
448,192,285553,128,0,286022:0:0:0:0:
64,192,285553,1,10,0:0:0:0:
192,192,285670,1,0,0:0:0:0:
320,192,285788,1,0,0:0:0:0:
64,192,286022,128,0,286374:0:0:0:0:
192,192,286022,1,10,0:0:0:0:
320,192,286139,1,0,0:0:0:0:
448,192,286256,1,0,0:0:0:0:
192,192,286374,1,0,0:0:0:0:
448,192,286491,1,10,0:0:0:0:
320,192,286491,128,0,286725:0:0:0:0:
64,192,286725,128,0,286960:0:0:0:0:
448,192,286960,1,10,0:0:0:0:
192,192,286960,128,0,287194:0:0:0:0:
320,192,287077,1,0,0:0:0:0:
448,192,287194,128,0,287428:0:0:0:0:
64,192,287428,1,10,0:0:0:0:
192,192,287428,1,0,0:0:0:0:
320,192,287545,1,0,0:0:0:0:
192,192,287663,1,0,0:0:0:0:
64,192,287780,1,0,0:0:0:0:
320,192,287897,1,0,0:0:0:0:
448,192,287897,1,10,0:0:0:0:
192,192,288014,1,0,0:0:0:0:
64,192,288131,128,0,288366:0:0:0:0:
448,192,288366,128,0,288835:0:0:0:0:
320,192,288366,1,10,0:0:0:0:
192,192,288483,1,0,0:0:0:0:
64,192,288600,1,0,0:0:0:0:
192,192,288835,128,0,289303:0:0:0:0:
320,192,288835,1,10,0:0:0:0:
64,192,289069,1,0,0:0:0:0:
448,192,289303,128,0,289772:0:0:0:0:
320,192,289303,1,10,0:0:0:0:
64,192,289420,1,0,0:0:0:0:
192,192,289538,1,0,0:0:0:0:
64,192,289772,128,0,290124:0:0:0:0:
320,192,289772,1,10,0:0:0:0:
192,192,289889,1,0,0:0:0:0:
448,192,290006,1,0,0:0:0:0:
320,192,290124,1,0,0:0:0:0:
192,192,290241,1,10,0:0:0:0:
448,192,290241,128,0,290475:0:0:0:0:
320,192,290475,128,0,290710:0:0:0:0:
192,192,290710,1,0,0:0:0:0:
64,192,290710,1,10,0:0:0:0:
448,192,290827,1,0,0:0:0:0:
192,192,290944,128,0,291178:0:0:0:0:
320,192,291178,1,0,0:0:0:0:
448,192,291178,1,10,0:0:0:0:
64,192,291295,1,0,0:0:0:0:
320,192,291413,1,0,0:0:0:0:
192,192,291530,1,0,0:0:0:0:
64,192,291647,1,10,0:0:0:0:
448,192,291647,1,0,0:0:0:0:
320,192,291764,1,0,0:0:0:0:
448,192,291881,128,0,292116:0:0:0:0:
192,192,292116,1,0,0:0:0:0:
64,192,292116,1,10,0:0:0:0:
320,192,292233,1,0,0:0:0:0:
448,192,292350,1,0,0:0:0:0:
192,192,292467,1,0,0:0:0:0:
64,192,292585,1,10,0:0:0:0:
320,192,292585,128,0,293053:0:0:0:0:
192,192,292819,1,0,0:0:0:0:
448,192,292819,1,10,0:0:0:0:
64,192,293053,128,0,293522:0:0:0:0:
192,192,293053,1,10,0:0:0:0:
320,192,293288,1,0,0:0:0:0:
448,192,293288,1,10,0:0:0:0:
192,192,293522,128,0,293874:0:0:0:0:
448,192,293522,1,10,0:0:0:0:
320,192,293756,1,0,0:0:0:0:
448,192,293756,1,10,0:0:0:0:
64,192,293874,1,0,0:0:0:0:
448,192,293991,1,10,0:0:0:0:
320,192,293991,1,0,0:0:0:0:
64,192,294108,1,0,0:0:0:0:
320,192,294225,1,10,0:0:0:0:
192,192,294225,128,0,294460:0:0:0:0:
64,192,294460,1,10,0:0:0:0:
448,192,294460,1,0,0:0:0:0:
320,192,294577,1,0,0:0:0:0:
448,192,294694,128,0,294928:0:0:0:0:
64,192,294694,1,10,0:0:0:0:
192,192,294928,1,0,0:0:0:0:
64,192,294928,1,10,0:0:0:0:
320,192,295045,1,0,0:0:0:0:
192,192,295163,1,0,0:0:0:0:
448,192,295163,1,10,0:0:0:0:
64,192,295280,1,0,0:0:0:0:
320,192,295397,1,10,0:0:0:0:
448,192,295397,128,0,295631:0:0:0:0:
192,192,295631,1,10,0:0:0:0:
64,192,295631,128,0,295866:0:0:0:0:
320,192,295866,1,10,0:0:0:0:
448,192,295866,128,0,296335:0:0:0:0:
192,192,296100,1,0,0:0:0:0:
320,192,296100,1,10,0:0:0:0:
192,192,296335,1,0,0:0:0:0:
64,192,296335,1,2,0:0:0:0:
320,192,296452,1,0,0:0:0:0:
448,192,296452,1,2,0:0:0:0:
64,192,296569,1,2,0:0:0:0:
192,192,296569,1,0,0:0:0:0:
320,192,296686,1,0,0:0:0:0:
448,192,296686,1,2,0:0:0:0:
192,192,296803,1,0,0:0:0:0:
64,192,296803,1,2,0:0:0:0:
320,192,296920,1,0,0:0:0:0:
448,192,296920,1,2,0:0:0:0:
192,192,297038,1,0,0:0:0:0:
64,192,297038,1,2,0:0:0:0:
320,192,297155,1,0,0:0:0:0:
448,192,297155,1,2,0:0:0:0:
64,192,297272,1,2,0:0:0:0:
192,192,297331,1,2,0:0:0:0:
448,192,297389,1,2,0:0:0:0:
320,192,297448,1,2,0:0:0:0:
64,192,297506,1,2,0:0:0:0:
192,192,297565,1,2,0:0:0:0:
448,192,297624,1,2,0:0:0:0:
320,192,297682,1,2,0:0:0:0:
64,192,297741,1,2,0:0:0:0:
192,192,297799,1,2,0:0:0:0:
320,192,297858,1,2,0:0:0:0:
448,192,297917,1,2,0:0:0:0:
64,192,297975,1,2,0:0:0:0:
192,192,298034,1,2,0:0:0:0:
320,192,298092,1,2,0:0:0:0:
448,192,298151,1,2,0:0:0:0:
192,192,298210,128,8,298561:0:0:0:0:
64,192,298210,128,8,298561:0:0:0:0:
320,192,298327,1,2,0:0:0:0:
448,192,298444,1,2,0:0:0:0:
320,192,298561,1,2,0:0:0:0:
192,192,298678,128,8,299030:0:0:0:0:
64,192,298678,128,8,299030:0:0:0:0:
320,192,298795,1,2,0:0:0:0:
448,192,298913,1,2,0:0:0:0:
320,192,299030,5,2,0:0:0:0:
192,192,299147,128,8,299499:0:0:0:0:
64,192,299147,128,8,299499:0:0:0:0:
320,192,299264,1,2,0:0:0:0:
448,192,299381,1,2,0:0:0:0:
320,192,299499,1,2,0:0:0:0:
448,192,299616,1,4,0:0:0:0:
64,192,299616,1,4,0:0:0:0:
448,192,300085,128,0,307585:0:0:0:0:
192,192,300085,1,0,0:0:0:0:
320,192,300085,1,0,0:0:0:0:
64,192,300085,128,4,307585:0:0:0:0:
