osu file format v14

[General]
AudioFilename: audio.mp3
AudioLeadIn: 0
PreviewTime: 213988
Countdown: 0
SampleSet: Soft
StackLeniency: 0.7
Mode: 0
LetterboxInBreaks: 0
WidescreenStoryboard: 0

[Editor]
Bookmarks: 5753,11400,22694,33988,101400,113047,134223,135635,156811,158223,180811,192458,194576,197400,214694,237282,259870
DistanceSpacing: 1.4
BeatDivisor: 4
GridSize: 4
TimelineZoom: 1

[Metadata]
Title:Fly Out
TitleUnicode:Fly Out
Artist:livetune feat. Hatsune Miku
ArtistUnicode:livetune feat. 初音ミク
Creator:[Hatsune Miku]
Version:Tears Ascend
Source:
Tags:Re:Upload japanese pop jpop electronic vocaloid
BeatmapID:4465208
BeatmapSetID:2124553

[Difficulty]
HPDrainRate:5
CircleSize:4
OverallDifficulty:8
ApproachRate:9
SliderMultiplier:1.4
SliderTickRate:1

[Events]
//Background and Video events
0,0,"bg.jpg",0,0
//Break Periods
2,104576,109623
2,183635,190094
//Storyboard Layer 0 (Background)
//Storyboard Layer 1 (Fail)
//Storyboard Layer 2 (Pass)
//Storyboard Layer 3 (Foreground)
//Storyboard Layer 4 (Overlay)
//Storyboard Sound Samples

[TimingPoints]
106,352.941176470588,4,2,1,40,1,0
15105,-133.333333333333,4,2,1,40,0,0
15811,-100,4,2,1,40,0,0
16517,-100,4,2,1,20,0,0
16694,-100,4,2,1,40,0,0
19694,-100,4,2,1,20,0,0
19870,-100,4,2,1,40,0,0
20753,-133.333333333333,4,2,1,40,0,0
21458,-100,4,2,1,40,0,0
21811,-100,4,2,1,5,0,0
21988,-100,4,2,1,40,0,0
22341,-100,4,2,1,20,0,0
22694,-100,4,2,1,60,0,0
24811,-133.333333333333,4,2,1,60,0,0
25341,-100,4,2,1,60,0,0
26047,-200,4,2,1,60,0,0
26753,-100,4,2,1,40,0,0
26929,-100,4,2,1,60,0,0
28870,-133.333333333333,4,2,1,40,0,0
29400,-100,4,2,1,60,0,0
30282,-100,4,2,1,50,0,0
30811,-100,4,2,1,60,0,0
31694,-80,4,2,1,60,0,0
32223,-100,4,2,1,60,0,0
32576,-100,4,2,1,70,0,0
33988,-100,4,2,1,60,0,0
35929,-133.333333333333,4,2,1,60,0,0
36811,-100,4,2,1,60,0,0
37341,-100,4,2,1,40,0,0
37517,-100,4,2,1,60,0,0
39105,-100,4,2,1,40,0,0
39282,-100,4,2,1,60,0,0
41223,-133.333333333333,4,2,1,60,0,0
41753,-100,4,2,1,60,0,0
46341,-100,4,2,1,40,0,0
46517,-100,4,2,1,60,0,0
47400,-133.333333333333,4,2,1,60,0,0
47753,-133.333333333333,4,2,1,40,0,0
47929,-133.333333333333,4,2,1,60,0,0
48105,-100,4,2,1,60,0,0
50400,-100,4,2,1,40,0,0
50576,-100,4,2,1,60,0,0
52870,-133.333333333333,4,2,1,60,0,0
53400,-100,4,2,1,60,0,0
55164,-100,4,2,1,80,0,0
55429,-80,4,2,1,80,0,0
55694,-66.6666666666667,4,2,1,80,0,0
56576,-125,4,2,1,60,0,0
65047,-133.333333333333,4,2,1,60,0,0
65576,-100,4,2,1,60,0,0
66105,-80,4,2,1,60,0,0
66811,-100,4,2,1,60,0,0
67870,-125,4,2,1,60,0,0
72988,-100,4,2,1,40,0,0
73164,-100,4,2,1,60,0,0
73517,-125,4,2,1,60,0,0
76341,-133.333333333333,4,2,1,60,0,0
77047,-100,4,2,1,70,0,0
77753,-100,4,2,1,40,0,0
78635,-100,4,2,1,50,0,0
78811,-100,4,2,1,60,0,0
78988,-100,4,2,1,70,0,0
79164,-80,4,2,1,100,0,0
80400,-80,4,2,1,60,0,0
80576,-80,4,2,1,100,0,0
81811,-80,4,2,1,60,0,0
81988,-80,4,2,1,100,0,0
84282,-80,4,2,1,60,0,0
84458,-80,4,2,1,100,0,0
86047,-80,4,2,1,60,0,0
86223,-80,4,2,1,100,0,0
87458,-80,4,2,1,60,0,0
87635,-80,4,2,1,100,0,0
88870,-80,4,2,1,60,0,0
89047,-80,4,2,1,100,0,0
89753,-80,4,2,1,60,0,0
90105,-80,4,2,1,100,0,0
90988,-80,4,2,1,60,0,0
91164,-80,4,2,1,100,0,0
93105,-80,4,2,1,60,0,0
93282,-80,4,2,1,100,0,0
96635,-80,4,2,1,60,0,0
96811,-80,4,2,1,100,0,0
98576,-100,4,2,1,100,0,0
98929,-80,4,2,1,100,0,0
100517,-80,4,2,1,60,0,0
100870,-80,4,2,1,100,0,0
101135,-80,4,2,1,60,0,0
101223,-80,4,2,1,100,0,0
101311,-80,4,2,1,60,0,0
101400,-80,4,2,1,100,0,0
101841,-80,4,2,1,40,0,0
113047,-100,4,2,1,60,0,0
114988,-133.333333333333,4,2,1,60,0,0
115694,-100,4,2,1,60,0,0
118164,-100,4,2,1,40,0,0
118341,-100,4,2,1,60,0,0
120811,-133.333333333333,4,2,1,60,0,0
121517,-100,4,2,1,60,0,0
123988,-100,4,2,1,40,0,0
124341,-100,4,2,1,60,0,0
126282,-133.333333333333,4,2,1,60,0,0
126635,-100,4,2,1,40,0,0
126811,-100,4,2,1,60,0,0
129458,-100,4,2,1,40,0,0
129635,-100,4,2,1,60,0,0
134223,-100,4,2,1,80,0,0
135635,-125,4,2,1,60,0,0
136517,-125,4,2,1,40,0,0
136694,-125,4,2,1,60,0,0
140753,-125,4,2,1,40,0,0
140929,-125,4,2,1,60,0,0
142164,-125,4,2,1,40,0,0
142341,-125,4,2,1,60,0,0
143929,-100,4,2,1,40,0,0
144105,-133.333333333333,4,2,1,60,0,0
144635,-100,4,2,1,60,0,0
145164,-80,4,2,1,60,0,0
145870,-100,4,2,1,60,0,0
146576,-100,4,2,1,40,0,0
146929,-125,4,2,1,60,0,0
147811,-125,4,2,1,40,0,0
147988,-125,4,2,1,60,0,0
150282,-133.333333333333,4,2,1,60,0,0
151341,-125,4,2,1,60,0,0
152047,-125,4,2,1,40,0,0
152223,-125,4,2,1,60,0,0
153458,-125,4,2,1,40,0,0
153635,-125,4,2,1,60,0,0
155223,-125,4,2,1,40,0,0
155400,-133.333333333333,4,2,1,60,0,0
156105,-100,4,2,1,70,0,0
156811,-100,4,2,1,40,0,0
157694,-100,4,2,1,60,0,0
157870,-100,4,2,1,70,0,0
158047,-100,4,2,1,80,0,0
158223,-80,4,2,1,100,0,0
163341,-80,4,2,1,60,0,0
163517,-80,4,2,1,100,0,0
166517,-80,4,2,1,60,0,0
166694,-80,4,2,1,100,0,0
167753,-80,4,2,1,60,0,0
168105,-80,4,2,1,100,0,0
168900,-80,4,2,1,60,0,0
169164,-80,4,2,1,100,0,0
169694,-80,4,2,1,60,0,0
169870,-80,4,2,1,100,0,0
172164,-80,4,2,1,60,0,0
172341,-80,4,2,1,100,0,0
175341,-80,4,2,1,60,0,0
175517,-80,4,2,1,100,0,0
177988,-100,4,2,1,100,0,0
178341,-100,4,2,1,60,0,0
178694,-80,4,2,1,100,0,0
179047,-80,4,2,1,60,0,0
179400,-80,4,2,1,100,0,0
180194,-80,4,2,1,60,0,0
180282,-80,4,2,1,100,0,0
180458,-133.333333333333,4,2,1,100,0,0
180811,-200,4,2,1,100,0,0
192105,-200,4,2,1,70,0,0
192458,-100,4,2,1,70,0,0
200929,-200,4,2,1,70,0,0
201635,-80,4,2,1,100,0,0
203753,-100,4,2,1,70,0,0
208694,-66.6666666666667,4,2,1,80,0,0
209400,-100,4,2,1,70,0,0
211870,-100,4,2,1,40,0,0
214694,-80,4,2,1,100,0,0
215223,-80,4,2,1,60,0,0
215400,-80,4,2,1,100,0,0
217341,-80,4,2,1,60,0,0
217517,-80,4,2,1,100,0,0
219811,-80,4,2,1,60,0,0
219988,-80,4,2,1,100,0,0
220870,-80,4,2,1,60,0,0
221047,-80,4,2,1,100,0,0
222988,-80,4,2,1,60,0,0
223164,-100,4,2,1,100,0,0
223870,-80,4,2,1,100,0,0
224400,-80,4,2,1,60,0,0
224576,-80,4,2,1,100,0,0
225282,-80,4,2,1,60,0,0
225635,-80,4,2,1,100,0,0
226164,-80,4,2,1,60,0,0
226341,-80,4,2,1,100,0,0
231105,-80,4,2,1,60,0,0
231282,-80,4,2,1,100,0,0
231811,-80,4,2,1,60,0,0
231988,-80,4,2,1,100,0,0
233929,-80,4,2,1,60,0,0
234105,-80,4,2,1,100,0,0
234370,-80,4,2,1,5,0,0
234458,-80,4,2,1,100,0,0
236929,-80,4,2,1,60,0,0
237282,-80,4,2,1,100,0,0
239576,-80,4,2,1,60,0,0
239753,-80,4,2,1,100,0,0
242311,-80,4,2,1,60,0,0
242576,-80,4,2,1,100,0,0
245135,-80,4,2,1,60,0,0
245400,-80,4,2,1,100,0,0
245576,-80,4,2,1,60,0,0
245753,-100,4,2,1,100,0,0
246458,-80,4,2,1,100,0,0
246900,-80,4,2,1,60,0,0
247164,-80,4,2,1,100,0,0
247870,-133.333333333333,4,2,1,100,0,0
248576,-80,4,2,1,100,0,0
253605,-80,4,2,1,60,0,0
253870,-80,4,2,1,100,0,0
257047,-80,4,2,1,60,0,0
257753,-80,4,2,1,70,0,0
258458,-80,4,2,1,80,0,0
259164,-80,4,2,1,90,0,0
259253,-80,4,2,1,60,0,0
259341,-80,4,2,1,90,0,0
259429,-80,4,2,1,60,0,0
259517,-80,4,2,1,90,0,0
259870,-80,4,2,1,100,0,0
259958,-80,4,2,1,40,0,0
262694,-133.333333333333,4,2,1,40,0,0
264988,-200,4,2,1,40,0,0
265517,-133.333333333333,4,2,1,40,0,0

[Colours]
Combo1 : 255,177,32
Combo2 : 0,128,192
Combo3 : 0,174,174

[HitObjects]
94,127,11400,6,0,L|246:116,1,140,0|0,3:0|0:0,0:0:0:0:
233,116,12105,1,2,0:0:0:0:
164,210,12282,2,0,P|142:275|162:341,1,140,0|2,3:0|0:0,0:0:0:0:
165,210,12988,1,0,3:0:0:0:
338,112,13164,2,0,P|376:109|438:115,1,70,0|0,3:0|0:0,0:0:0:0:
489,130,13517,5,2,0:0:0:0:
429,382,14047,1,2,0:0:0:0:
362,330,14223,6,0,P|301:318|214:319,1,140,0|0,3:0|0:0,0:0:0:0:
278,152,14753,2,0,P|278:196|269:224,1,70,0|2,3:0|0:0,0:0:0:0:
119,334,15105,6,2,L|-5:330,1,105.000004005432,2|0,0:0|0:0,0:0:0:0:
15,332,15811,5,0,3:0:0:0:
73,241,15988,2,0,P|91:173|85:104,1,140,0|2,3:0|0:0,0:0:0:0:
221,5,16517,1,0,3:0:0:0:
221,5,16605,1,0,3:0:0:0:
221,5,16694,2,0,P|221:40|230:74,1,70,0|2,3:0|0:0,0:0:0:0:
326,134,17047,6,0,L|465:127,1,140,0|0,3:0|0:0,0:0:0:0:
465,127,17753,1,2,0:0:0:0:
428,224,17929,2,0,L|524:219,1,70,0|0,3:0|0:0,0:0:0:0:
450,314,18282,1,2,0:0:0:0:
450,314,18635,5,0,3:0:0:0:
314,375,18811,2,0,P|326:306|320:223,1,140,0|2,3:0|0:0,0:0:0:0:
18,150,19694,2,0,L|52:160,1,35,0|0,3:0|3:0,0:0:0:0:
122,185,19870,6,0,L|135:34,1,140,0|0,3:0|0:0,0:0:0:0:
223,103,20400,1,0,3:0:0:0:
233,116,20488,1,0,0:0:0:0:
244,128,20576,5,2,0:0:0:0:
323,59,20753,2,2,L|448:47,1,105.000004005432,2|0,0:0|0:0,0:0:0:0:
303,205,21458,5,0,3:0:0:0:
401,150,21635,2,0,L|502:161,1,70,0|0,3:0|0:0,0:0:0:0:
280,233,21988,5,4,0:0:0:0:
280,233,22341,5,2,0:0:0:0:
283,242,22429,1,0,0:0:0:0:
286,251,22517,1,2,0:0:0:0:
289,260,22605,1,0,0:0:0:0:
275,290,22694,6,0,L|201:298,1,70,0|0,3:0|3:0,0:0:0:0:
128,308,23047,1,0,0:0:0:0:
140,145,23223,2,0,L|-6:137,1,140,2|0,0:3|3:0,0:0:0:0:
1,138,23753,1,2,0:0:0:0:
222,19,23929,5,0,0:0:0:0:
222,19,24105,2,0,P|243:62|242:109,1,70,2|0,0:0|3:0,0:0:0:0:
212,168,24458,1,0,3:0:0:0:
23,141,24635,1,2,0:3:0:0:
23,141,24811,2,0,P|92:135|144:140,1,105.000004005432,2|2,0:0|0:0,0:0:0:0:
127,137,25341,1,0,0:0:0:0:
312,264,25517,5,0,3:0:0:0:
246,328,25694,2,0,L|156:319,1,70,0|0,3:0|0:0,0:0:0:0:
324,247,26047,2,0,L|368:250,2,35,2|2|2,0:3|0:0|0:0,0:0:0:0:
243,191,26753,1,2,0:0:0:0:
261,174,26929,5,0,0:0:0:0:
439,240,27105,2,0,L|369:233,1,70,0|0,3:0|3:0,0:0:0:0:
113,127,27458,2,0,L|183:120,1,70,2|0,3:0|0:0,0:0:0:0:
315,44,27811,1,0,3:0:0:0:
315,44,27900,1,0,3:0:0:0:
315,44,27988,2,0,L|303:155,1,105,2|0,0:3|0:0,0:0:0:0:
187,153,28341,6,0,L|195:77,1,70,0|0,3:0|0:0,0:0:0:0:
290,165,28694,1,2,0:0:0:0:
232,253,28870,2,0,P|215:302|227:353,1,105.000004005432,2|2,0:3|0:3,0:0:0:0:
232,253,29400,1,2,0:0:0:0:
322,311,29576,1,0,0:0:0:0:
406,244,29753,6,0,L|414:168,1,70,0|0,3:0|0:0,0:0:0:0:
322,311,30105,1,0,3:0:0:0:
220,239,30282,2,0,P|193:302|207:369,1,140,2|2,0:3|0:3,0:0:0:0:
220,239,30811,1,2,0:0:0:0:
220,239,30988,1,2,0:0:0:0:
346,310,31164,5,0,3:0:0:0:
440,221,31341,2,0,L|434:291,1,70,0|0,3:0|0:0,0:0:0:0:
253,327,31694,2,0,L|239:153,1,175,2|2,0:3|0:3,0:0:0:0:
224,37,32223,1,2,0:0:0:0:
224,37,32400,1,2,0:0:0:0:
224,37,32576,5,0,3:0:0:0:
95,71,32753,1,0,3:0:0:0:
129,200,32929,1,2,0:0:0:0:
258,166,33105,2,0,L|343:173,1,70,2|4,0:3|3:0,0:0:0:0:
181,330,33988,6,0,P|88:316|34:335,1,140,4|0,3:1|0:0,0:0:0:0:
265,247,34517,2,0,P|283:315|272:384,1,140,2|0,0:0|3:0,0:0:0:0:
174,228,35047,2,0,P|185:194|210:170,1,70,2|0,0:0|0:0,0:0:0:0:
383,304,35400,5,0,0:0:0:0:
481,265,35576,2,0,P|488:301|483:334,1,70,0|0,3:0|3:0,0:0:0:0:
458,247,35929,2,0,P|443:187|456:128,2,105.000004005432,2|2|0,0:0|0:0|3:0,0:0:0:0:
190,125,36811,6,0,L|277:135,1,70,0|0,3:0|0:0,0:0:0:0:
351,81,37164,1,0,0:0:0:0:
354,172,37341,1,0,3:0:0:0:
360,191,37429,1,0,3:0:0:0:
366,210,37517,1,0,3:0:0:0:
176,137,37694,2,0,L|106:130,2,70,0|2|0,0:0|0:0|0:0,0:0:0:0:
108,7,38223,1,0,0:0:0:0:
22,54,38400,2,0,P|5:103|18:198,1,140,0|0,3:0|3:0,0:0:0:0:
14,189,39105,5,0,3:0:0:0:
14,189,39194,1,0,3:0:0:0:
14,189,39282,1,2,0:0:0:0:
106,130,39458,1,2,0:0:0:0:
37,222,39635,6,0,L|29:367,1,140,0|0,3:0|0:0,0:0:0:0:
203,193,40164,2,0,L|198:104,1,70,2|0,0:0|0:0,0:0:0:0:
136,258,40517,1,0,3:0:0:0:
224,279,40694,1,2,0:0:0:0:
293,221,40870,1,0,0:0:0:0:
203,193,41047,1,0,0:0:0:0:
21,240,41223,2,0,P|31:310|67:352,1,105.000004005432,0|0,3:0|3:0,0:0:0:0:
160,352,41753,5,2,0:0:0:0:
176,366,41929,1,0,0:0:0:0:
266,357,42105,1,0,0:0:0:0:
356,348,42282,1,2,0:0:0:0:
203,193,42458,6,0,P|190:135|210:47,1,140,0|0,3:0|0:0,0:0:0:0:
300,163,42988,2,0,P|306:208|294:242,1,70,0|0,3:0|0:0,0:0:0:0:
103,210,43341,1,0,0:0:0:0:
299,231,43517,1,2,0:0:0:0:
299,231,43694,1,2,0:0:0:0:
203,193,43870,5,0,0:0:0:0:
194,95,44047,2,0,L|188:26,1,70,0|0,3:0|3:0,0:0:0:0:
412,182,44400,2,0,L|424:36,1,140,2|2,0:0|0:0,0:0:0:0:
316,105,44929,1,4,0:0:0:0:
316,105,45282,6,0,B|308:202|308:202|329:243,1,140,4|0,3:1|0:0,0:0:0:0:
481,193,45811,2,0,L|396:179,1,70,2|0,0:0|0:0,0:0:0:0:
309,260,46164,2,0,L|224:246,1,70,2|0,0:3|0:0,0:0:0:0:
239,248,46429,1,0,0:0:0:0:
239,248,46517,1,2,0:0:0:0:
256,351,46694,1,0,0:0:0:0:
76,294,46870,2,0,L|-9:280,1,70,0|0,3:0|3:0,0:0:0:0:
158,253,47223,1,0,0:0:0:0:
226,182,47400,6,0,P|253:119|244:71,1,105.000004005432,2|0,0:3|0:0,0:0:0:0:
248,84,47841,1,0,0:0:0:0:
248,84,47929,1,2,0:0:0:0:
158,253,48105,6,0,P|187:276|227:280,1,70,0|0,3:0|0:0,0:0:0:0:
308,240,48458,1,0,0:0:0:0:
135,163,48635,1,0,3:0:0:0:
135,163,48723,2,0,P|87:195|66:247,1,105,0|2,3:0|0:0,0:0:0:0:
86,322,49164,1,2,0:3:0:0:
158,253,49341,1,2,0:0:0:0:
13,139,49517,5,0,0:0:0:0:
78,341,49694,2,0,L|159:347,1,70,0|0,3:0|3:0,0:0:0:0:
158,253,50047,2,0,L|303:263,1,140,2|0,0:3|3:0,0:0:0:0:
366,313,50488,1,0,3:0:0:0:
366,313,50576,2,0,P|379:249|370:218,1,70,2|2,0:3|0:0,0:0:0:0:
139,254,50929,6,0,P|130:142|139:116,1,140,0|2,3:0|0:0,0:0:0:0:
202,37,51458,2,0,P|216:105|202:173,1,140,0|2,0:0|0:3,0:0:0:0:
70,74,51988,1,2,0:0:0:0:
70,74,52164,1,2,0:0:0:0:
222,191,52341,2,0,L|294:182,1,70,0|0,0:0|3:0,0:0:0:0:
373,171,52694,1,0,3:0:0:0:
302,267,52870,2,0,P|352:263|409:302,1,105.000004005432,2|0,0:3|0:0,0:0:0:0:
333,351,53400,1,2,0:3:0:0:
374,40,53753,6,0,B|397:81|397:81|370:181,1,140,0|2,3:0|0:0,0:0:0:0:
155,114,54282,2,0,L|295:96,1,140,2|0,0:3|0:0,0:0:0:0:
66,69,54811,1,2,0:0:0:0:
66,69,54988,1,2,0:0:0:0:
197,235,55164,6,0,P|202:275|182:315,1,70,0|0,1:0|0:0,0:0:0:0:
160,202,55429,2,0,P|127:191|67:206,1,87.5,0|0,1:0|0:0,0:0:0:0:
56,337,55694,2,0,B|90:365|140:360|177:334|177:334|160:369|117:384,1,210.000008010865,0|8,1:0|3:0,0:0:0:0:
26,263,56223,1,4,3:0:0:0:
433,228,56576,6,0,P|406:122|269:176,1,280,4|0,3:2|3:0,0:0:0:0:
355,192,57635,1,0,0:0:0:0:
256,192,57811,2,0,L|76:181,1,168,2|0,0:0|3:0,0:0:0:0:
256,192,58694,1,2,0:0:0:0:
128,244,59047,6,0,P|168:228|207:258,1,84,0|0,3:0|0:0,0:0:0:0:
222,263,59400,2,0,P|240:205|229:153,1,112,0|0,3:0|0:0,0:0:0:0:
180,88,59929,2,0,P|114:67|55:80,1,112,0|2,3:0|0:0,0:0:0:0:
330,294,60635,2,0,P|416:312|488:251,1,168,0|0,3:0|3:0,0:0:0:0:
256,192,61517,1,2,0:0:0:0:
203,340,61694,6,0,L|212:305,1,28,0|0,3:0|3:0,0:0:0:0:
209,312,61870,2,0,L|134:322,1,56,2|2,0:0|0:0,0:0:0:0:
56,226,62223,2,0,L|343:184,1,280,0|0,3:0|3:0,0:0:0:0:
397,101,63282,1,0,0:0:0:0:
357,197,63458,2,0,P|405:274|378:361,1,168,2|0,0:0|3:0,0:0:0:0:
256,192,64341,1,2,0:0:0:0:
239,171,64694,6,0,L|231:65,1,84,0|0,3:0|3:0,0:0:0:0:
140,164,65047,2,0,P|116:200|139:272,1,105.000004005432,0|0,3:0|0:0,0:0:0:0:
378,190,65576,2,0,L|230:170,1,140,0|0,3:0|0:0,0:0:0:0:
297,358,66105,2,0,P|453:296|433:244,1,262.5,0|0,3:0|0:0,0:0:0:0:
419,171,66811,5,0,3:0:0:0:
504,199,66988,1,0,0:0:0:0:
442,256,67164,1,0,0:0:0:0:
334,143,67341,5,2,0:0:0:0:
256,192,67517,2,2,L|197:175,2,35,0|0|0,3:0|0:0|0:0,0:0:0:0:
405,0,67870,6,0,P|482:91|370:136,1,280,4|0,3:2|3:0,0:0:0:0:
410,73,68929,1,0,3:0:0:0:
344,132,69105,2,0,L|358:256,1,112,2|2,0:0|0:0,0:0:0:0:
279,74,69635,2,0,P|244:71|208:83,1,56,0|0,3:0|0:0,0:0:0:0:
256,192,69988,1,2,0:0:0:0:
238,205,70341,6,0,L|135:191,1,84,2|0,0:0|0:0,0:0:0:0:
233,294,70694,2,0,P|262:290|303:264,1,56,0|0,3:0|0:0,0:0:0:0:
339,352,71047,1,0,0:0:0:0:
238,207,71223,2,0,P|228:175|232:144,1,56,0|0,3:0|0:0,0:0:0:0:
363,152,71576,5,2,0:0:0:0:
238,207,71753,1,2,0:0:0:0:
113,262,71929,2,0,L|43:254,1,56,0|0,3:0|0:0,0:0:0:0:
200,288,72282,1,0,3:0:0:0:
72,240,72458,2,0,L|2:232,1,56,0|0,3:0|0:0,0:0:0:0:
256,192,72811,1,2,0:0:0:0:
328,140,72988,5,0,3:0:0:0:
328,140,73076,1,0,3:0:0:0:
327,139,73164,2,0,P|342:171|344:206,1,70,2|2,0:0|0:0,0:0:0:0:
227,187,73517,2,0,P|132:120|242:53,1,280,4|0,3:2|3:0,0:0:0:0:
206,117,74576,1,2,0:0:0:0:
142,189,74753,2,0,L|127:314,1,112,2|2,0:0|0:0,0:0:0:0:
222,135,75282,2,0,L|234:23,1,112,0|2,3:0|0:0,0:0:0:0:
332,18,75811,1,0,0:0:0:0:
116,93,75988,6,0,L|41:82,1,56,2|0,0:0|3:0,0:0:0:0:
61,85,76253,1,0,3:0:0:0:
61,85,76341,6,0,P|38:162|101:232,1,157.500006008148,0|2,3:0|0:0,0:0:0:0:
249,78,77047,6,0,P|195:45|64:123,1,210,0|2,3:0|0:0,0:0:0:0:
179,258,77753,5,0,3:0:0:0:
220,253,77929,1,0,3:0:0:0:
254,229,78105,1,2,0:0:0:0:
266,189,78282,1,0,3:0:0:0:
179,258,78635,5,0,3:0:0:0:
266,189,78811,1,0,1:0:0:0:
382,98,78988,1,0,1:0:0:0:
158,40,79164,6,0,L|57:59,1,87.5,4|0,3:1|0:0,0:0:0:0:
267,191,79517,2,0,L|352:207,1,87.5,0|0,3:0|0:0,0:0:0:0:
221,109,79870,2,0,P|185:143|175:198,1,87.5,8|0,1:2|3:0,0:0:0:0:
210,261,80223,5,2,0:3:0:0:
434,264,80400,1,0,3:0:0:0:
434,264,80488,1,0,3:0:0:0:
434,264,80576,2,0,P|447:222|442:179,1,87.5,0|0,3:0|1:0,0:0:0:0:
266,190,80929,2,0,P|234:270|243:357,1,175,0|8,3:0|1:2,0:0:0:0:
142,332,81458,1,2,3:0:0:0:
352,207,81635,6,0,P|355:171|326:121,1,87.5,0|0,3:0|0:0,0:0:0:0:
262,81,81900,1,0,0:0:0:0:
262,81,81988,2,0,B|217:68|168:81|186:105|141:120|92:106,1,175,4|0,3:2|3:0,0:0:0:0:
124,29,82517,2,0,L|145:218,1,175,0|0,1:0|3:0,0:0:0:0:
247,228,83047,1,0,3:0:0:0:
459,227,83223,6,0,L|448:132,1,87.5,0|0,1:0|0:0,0:0:0:0:
266,207,83576,1,0,1:0:0:0:
332,310,83753,2,0,P|246:329|172:285,1,175,0|8,3:0|1:2,0:0:0:0:
352,207,84282,5,0,3:0:0:0:
352,207,84370,1,0,3:0:0:0:
352,207,84458,1,0,1:0:0:0:
477,260,84635,1,2,3:0:0:0:
462,126,84811,2,0,L|451:31,1,87.5,4|0,3:2|0:0,0:0:0:0:
361,120,85164,2,0,L|351:206,1,87.5,0|0,3:0|0:0,0:0:0:0:
180,76,85517,2,0,L|266:85,1,87.5,8|0,1:2|3:0,0:0:0:0:
98,25,85870,5,2,0:3:0:0:
164,205,86047,1,0,3:0:0:0:
164,205,86135,1,0,3:0:0:0:
164,205,86223,2,0,L|265:216,1,87.5,0|0,3:0|1:0,0:0:0:0:
52,361,86576,2,0,P|23:291|73:202,1,175,0|8,3:0|1:2,0:0:0:0:
8,129,87105,1,2,3:0:0:0:
272,196,87282,6,0,L|373:207,1,87.5,0|0,3:0|1:0,0:0:0:0:
358,205,87547,1,0,3:0:0:0:
358,205,87635,2,0,P|386:162|345:48,1,175,4|0,3:2|3:0,0:0:0:0:
251,15,88164,1,0,3:0:0:0:
188,198,88341,2,0,P|231:225|345:184,1,175,8|0,1:2|3:0,0:0:0:0:
143,119,88870,5,0,3:0:0:0:
143,119,88958,1,0,3:0:0:0:
143,119,89047,1,0,3:0:0:0:
124,320,89223,1,8,1:2:0:0:
188,198,89400,5,0,3:0:0:0:
79,241,89576,1,0,3:0:0:0:
233,277,89753,5,4,1:2:0:0:
263,282,89841,1,0,3:0:0:0:
293,287,89929,1,0,3:0:0:0:
323,292,90017,1,0,3:0:0:0:
353,297,90105,1,0,1:0:0:0:
452,241,90282,1,0,3:0:0:0:
311,98,90458,6,0,P|291:54|302:-7,1,87.5,4|0,3:1|0:0,0:0:0:0:
375,173,90811,2,0,P|331:193|270:182,1,87.5,0|0,3:0|3:0,0:0:0:0:
222,131,91076,1,0,3:0:0:0:
197,118,91164,2,0,L|182:212,1,87.5,8|0,1:2|3:0,0:0:0:0:
407,84,91517,5,0,0:0:0:0:
165,222,91694,2,0,P|159:283|184:331,1,87.5,0|0,1:0|3:0,0:0:0:0:
387,295,92047,1,0,1:0:0:0:
305,339,92223,2,0,L|479:326,1,175,0|8,3:0|1:2,0:0:0:0:
252,260,92753,1,2,3:0:0:0:
96,366,92929,6,0,P|68:319|62:256,1,87.5,0|0,3:0|3:0,0:0:0:0:
61,287,93194,1,0,3:0:0:0:
61,287,93282,2,0,L|71:171,1,87.5,4|0,1:2|0:0,0:0:0:0:
167,306,93635,1,0,3:0:0:0:
58,97,93811,2,0,L|50:184,1,87.5,0|8,3:0|1:2,0:0:0:0:
177,318,94164,2,0,P|225:258|196:190,1,131.25,8|0,1:2|0:0,1:0:0:0:
152,249,94517,2,0,L|101:241,1,43.75,0|0,1:0|0:0,0:0:0:0:
214,209,94694,5,0,3:0:0:0:
109,383,94870,1,0,1:0:0:0:
185,351,95047,2,0,L|367:379,1,175,0|8,3:0|1:2,0:0:0:0:
357,377,95576,1,2,3:0:0:0:
152,249,95753,6,0,L|144:161,1,87.5,0|0,3:0|1:0,0:0:0:0:
240,40,96105,2,0,L|247:127,1,87.5,4|0,3:2|0:0,0:0:0:0:
349,230,96458,2,0,L|356:142,1,87.5,0|0,3:0|3:0,0:0:0:0:
258,222,96723,1,0,3:0:0:0:
239,241,96811,2,0,L|151:248,1,87.5,8|0,1:2|3:0,0:0:0:0:
349,230,97164,5,0,0:0:0:0:
152,33,97341,2,0,L|240:40,1,87.5,0|0,1:0|3:0,0:0:0:0:
254,217,97694,1,0,1:0:0:0:
214,141,97870,2,0,P|296:143|337:227,1,175,0|8,3:0|1:2,0:0:0:0:
326,238,98576,6,0,L|231:247,1,70,0|0,1:0|3:0,0:0:0:0:
151,252,98929,5,0,1:0:0:0:
179,343,99105,1,0,3:0:0:0:
197,356,99458,1,0,1:0:0:0:
326,238,99635,5,8,3:2:0:0:
354,147,99811,1,0,1:0:0:0:
374,137,100164,1,0,3:0:0:0:
151,252,100341,5,0,1:0:0:0:
79,187,100517,1,0,3:0:0:0:
79,187,100605,1,0,3:0:0:0:
79,187,100694,1,0,3:0:0:0:
99,92,100870,1,0,3:0:0:0:
244,223,101047,5,8,1:2:0:0:
238,253,101135,1,0,3:0:0:0:
233,283,101223,1,0,1:0:0:0:
228,313,101311,1,0,3:0:0:0:
223,343,101400,1,4,3:2:0:0:
243,222,101576,1,0,3:0:0:0:
260,136,101753,5,4,3:1:0:0:
256,192,101841,12,2,104223,0:0:0:0:
256,192,110223,12,0,112253,0:0:0:0:
326,174,113047,5,4,3:1:0:0:
326,174,113400,1,0,3:0:0:0:
244,125,113576,2,0,P|204:180|217:247,1,140,0|0,3:0|3:0,0:0:0:0:
185,333,114105,2,0,P|139:299|129:263,1,70,2|0,0:0|0:0,0:0:0:0:
117,192,114458,5,0,0:0:0:0:
275,317,114635,2,0,L|367:326,1,70,0|0,3:0|3:0,0:0:0:0:
248,329,114988,6,0,L|138:318,1,105.000004005432,2|2,0:0|0:0,0:0:0:0:
435,334,115694,1,2,0:0:0:0:
404,255,115870,5,0,3:0:0:0:
404,255,116223,1,0,3:0:0:0:
360,183,116400,2,0,P|352:109|387:41,1,140,0|0,3:0|0:0,0:0:0:0:
457,21,116929,2,0,P|462:65|444:103,1,70,2|0,0:0|0:0,0:0:0:0:
355,98,117282,5,0,0:0:0:0:
388,263,117458,2,0,P|418:247|439:219,1,70,0|0,3:0|3:0,0:0:0:0:
360,183,117811,2,0,L|203:165,1,140,2|0,0:0|3:0,0:0:0:0:
220,167,118253,1,0,3:0:0:0:
220,167,118341,1,2,0:0:0:0:
137,161,118517,1,2,0:0:0:0:
276,90,118694,6,0,L|415:105,1,140,0|0,3:0|0:0,0:0:0:0:
360,183,119223,2,0,P|328:216|326:321,1,140,0|0,3:0|3:0,0:0:0:0:
312,235,119753,2,0,P|303:268|309:307,1,70,2|0,0:0|0:0,0:0:0:0:
407,276,120105,5,0,0:0:0:0:
237,376,120282,2,0,P|197:384|167:379,1,70,0|0,3:0|3:0,0:0:0:0:
307,303,120635,1,0,0:0:0:0:
198,289,120811,6,0,P|174:243|179:191,1,105.000004005432,2|2,0:0|0:0,0:0:0:0:
180,192,121341,1,0,3:0:0:0:
56,17,121517,6,0,P|43:71|82:147,1,140,0|0,3:0|0:0,0:0:0:0:
180,192,122047,2,0,P|233:176|279:104,1,140,0|0,3:0|0:0,0:0:0:0:
184,94,122576,5,0,3:0:0:0:
184,94,122753,1,2,0:0:0:0:
350,154,122929,2,0,P|364:118|362:86,1,70,0|0,3:0|3:0,0:0:0:0:
445,206,123282,1,0,3:0:0:0:
457,98,123458,2,0,P|437:32|375:-5,1,140,2|2,0:0|0:0,0:0:0:0:
283,245,123988,5,2,0:0:0:0:
286,262,124076,1,0,0:0:0:0:
289,279,124164,1,2,0:0:0:0:
292,296,124253,1,0,0:0:0:0:
317,319,124341,6,0,L|468:329,1,140,0|0,3:0|0:0,0:0:0:0:
290,242,124870,2,0,P|245:278|236:330,1,105,2|0,0:3|0:0,0:0:0:0:
317,319,125223,2,0,L|343:150,1,140,0|0,3:0|0:0,0:0:0:0:
412,246,125753,5,0,0:0:0:0:
235,322,125929,2,0,L|137:324,1,70,0|0,3:0|3:0,0:0:0:0:
73,324,126282,2,0,P|45:262|56:214,1,105.000004005432,2|0,0:3|3:0,0:0:0:0:
50,227,126723,1,0,3:0:0:0:
50,227,126811,1,2,0:3:0:0:
108,156,126988,1,0,0:0:0:0:
346,193,127164,6,0,L|189:170,1,140,0|0,3:0|0:0,0:0:0:0:
395,265,127694,1,0,3:0:0:0:
395,265,127782,2,0,P|428:224|426:162,1,105,0|0,3:0|0:0,0:0:0:0:
368,115,128223,1,0,3:0:0:0:
346,193,128400,1,2,0:3:0:0:
451,94,128576,5,0,0:0:0:0:
313,53,128753,2,0,L|223:44,1,70,0|0,3:0|3:0,0:0:0:0:
346,193,129105,2,0,B|299:188|299:188|271:203|271:203|182:193,1,140,2|0,0:3|3:0,0:0:0:0:
210,196,129547,1,0,3:0:0:0:
210,196,129635,1,2,0:3:0:0:
126,189,129811,1,2,0:0:0:0:
351,275,129988,6,0,L|508:290,1,140,0|0,3:0|3:0,0:0:0:0:
267,323,130517,2,0,L|127:309,1,140,0|2,3:0|0:3,0:0:0:0:
43,298,131047,1,0,3:0:0:0:
95,233,131223,1,2,0:0:0:0:
277,342,131400,6,0,L|374:351,1,70,0|0,3:0|3:0,0:0:0:0:
247,239,131753,1,0,3:0:0:0:
217,136,131929,2,0,L|370:151,1,140,2|0,0:3|3:0,0:0:0:0:
452,169,132458,1,2,0:3:0:0:
190,55,132811,6,0,P|140:92|144:182,1,140,0|0,3:0|0:0,0:0:0:0:
273,246,133341,2,0,P|270:179|217:136,1,140,2|0,0:3|0:0,0:0:0:0:
228,320,133870,1,0,3:0:0:0:
324,338,134047,1,0,3:0:0:0:
419,357,134223,5,2,1:2:0:0:
101,194,134488,1,2,1:2:0:0:
419,31,134753,1,2,1:2:0:0:
433,114,135105,5,8,3:0:0:0:
447,197,135282,1,4,3:0:0:0:
214,206,135635,6,0,P|261:187|312:323,1,224,4|0,0:0|0:0,0:0:0:0:
264,264,136517,1,0,3:0:0:0:
249,274,136605,1,0,3:0:0:0:
234,284,136694,2,0,L|163:293,1,56,2|0,0:0|0:0,0:0:0:0:
348,349,137047,5,0,0:0:0:0:
430,303,137223,2,0,L|485:309,1,56,0|0,3:0|3:0,0:0:0:0:
348,349,137576,2,0,L|278:357,1,56,0|2,0:0|3:0,0:0:0:0:
128,56,138105,6,0,P|91:92|82:142,1,84,2|0,0:0|0:0,0:0:0:0:
167,191,138458,2,0,L|176:136,1,56,2|0,3:2|0:0,0:0:0:0:
222,65,138811,1,0,0:0:0:0:
84,231,138988,2,0,L|101:361,2,112,2|2|2,3:2|0:0|0:0,0:0:0:0:
84,231,140047,5,0,3:0:0:0:
286,295,140223,2,0,P|220:304|157:283,1,112,0|2,3:0|0:0,0:0:0:0:
396,267,140753,5,0,3:0:0:0:
396,267,140841,1,0,3:0:0:0:
396,267,140929,1,2,0:0:0:0:
374,343,141105,1,0,3:0:0:0:
452,316,141282,2,0,P|469:259|335:225,1,224,0|0,3:0|0:0,0:0:0:0:
396,267,142164,1,0,3:0:0:0:
386,281,142253,1,0,0:0:0:0:
376,295,142341,2,0,L|317:334,1,56,2|0,0:0|0:0,0:0:0:0:
93,306,142694,5,0,0:0:0:0:
176,340,142870,2,0,L|234:300,1,56,0|0,3:0|3:0,0:0:0:0:
93,306,143223,2,0,L|35:346,1,56,0|2,0:0|3:0,0:0:0:0:
454,309,143753,6,0,P|473:280|479:246,1,56,2|0,0:0|0:0,0:0:0:0:
479,260,144017,1,0,0:0:0:0:
479,260,144105,2,0,P|459:220|472:145,1,105.000004005432,0|0,3:0|0:0,0:0:0:0:
320,66,144635,2,0,P|346:119|328:218,1,140,0|0,3:0|0:0,0:0:0:0:
137,32,145164,2,0,P|227:26|297:78,1,175,0|0,3:0|0:0,0:0:0:0:
293,73,145694,1,0,3:0:0:0:
57,135,145870,6,0,P|30:70|55:2,1,140,2|0,3:2|0:0,0:0:0:0:
122,67,146400,1,2,0:0:0:0:
184,132,146576,2,0,L|227:139,2,35,0|0|0,3:0|3:0|3:0,0:0:0:0:
47,311,146929,6,0,P|86:214|190:262,1,224,0|0,3:0|0:0,0:0:0:0:
118,285,147811,1,0,3:0:0:0:
122,301,147900,1,0,0:0:0:0:
126,317,147988,2,0,L|151:382,1,56,2|0,0:0|0:0,0:0:0:0:
345,307,148341,5,0,0:0:0:0:
241,323,148517,1,0,3:0:0:0:
279,224,148694,1,0,3:0:0:0:
345,307,148870,5,0,0:0:0:0:
228,342,149047,1,2,3:0:0:0:
404,186,149400,6,0,P|413:145|408:103,1,84,2|0,0:0|0:0,0:0:0:0:
324,79,149753,2,0,P|320:107|326:134,1,56,2|0,3:2|0:0,0:0:0:0:
402,25,150105,1,0,3:0:0:0:
305,222,150282,2,0,P|287:272|292:323,2,105.000004005432,2|2|2,3:2|0:0|0:0,0:0:0:0:
305,222,151341,5,0,3:0:0:0:
441,376,151517,2,0,P|373:372|325:324,1,112,0|0,3:0|0:0,0:0:0:0:
317,158,152047,5,0,3:0:0:0:
317,158,152135,1,0,3:0:0:0:
317,158,152223,1,2,0:0:0:0:
309,234,152400,1,0,3:0:0:0:
233,166,152576,2,0,P|290:74|385:118,1,224,0|0,3:0|0:0,0:0:0:0:
312,152,153458,1,0,3:0:0:0:
317,172,153547,1,0,0:0:0:0:
322,192,153635,2,0,L|308:269,1,56,2|0,0:0|0:0,0:0:0:0:
109,250,153988,5,2,0:0:0:0:
207,286,154164,1,0,3:0:0:0:
309,260,154341,1,0,3:0:0:0:
109,250,154517,5,2,0:0:0:0:
202,308,154694,1,2,3:0:0:0:
202,308,155047,6,0,P|209:273|212:239,1,56,2|0,0:0|0:0,0:0:0:0:
211,253,155311,1,0,0:0:0:0:
211,253,155400,6,0,P|182:215|199:99,1,157.500006008148,0|0,3:0|0:0,0:0:0:0:
423,194,156105,6,0,P|370:234|213:211,1,210,0|0,3:0|0:0,0:0:0:0:
282,19,156811,5,0,3:0:0:0:
324,15,156988,1,0,3:0:0:0:
361,33,157164,1,2,0:0:0:0:
385,67,157341,1,0,3:0:0:0:
282,19,157694,5,0,3:0:0:0:
385,67,157870,1,0,1:0:0:0:
263,144,158047,1,0,1:0:0:0:
452,259,158223,6,0,P|457:208|442:171,1,87.5,4|0,3:1|0:0,0:0:0:0:
342,296,158576,2,0,P|328:337|334:380,1,87.5,0|0,3:0|0:0,0:0:0:0:
236,201,158929,1,8,1:2:0:0:
221,98,159105,1,0,3:0:0:0:
326,137,159282,5,2,0:3:0:0:
65,159,159458,2,0,L|153:164,1,87.5,0|0,1:0|3:0,0:0:0:0:
213,356,159811,1,0,1:0:0:0:
174,264,159988,2,0,L|-12:274,1,175,0|8,3:0|1:2,0:0:0:0:
287,294,160517,1,2,3:0:0:0:
488,347,160694,6,0,P|513:298|493:224,1,131.25,0|0,3:0|0:0,0:0:0:0:
378,141,161047,2,0,L|363:258,1,87.5,0|0,3:0|0:0,0:0:0:0:
287,294,161400,1,0,3:0:0:0:
388,346,161576,2,0,L|399:259,1,87.5,0|8,1:0|0:2,0:0:0:0:
277,314,161929,2,0,L|135:323,1,131.25,0|0,3:0|0:0,0:0:0:0:
185,190,162282,5,0,1:0:0:0:
224,113,162458,1,0,3:0:0:0:
367,228,162635,1,0,1:0:0:0:
280,191,162811,2,0,B|319:188|319:188|366:207|366:207|464:199,1,175,0|8,3:0|1:2,0:0:0:0:
314,16,163341,1,0,3:0:0:0:
314,16,163429,1,0,3:0:0:0:
314,16,163517,6,0,P|333:69|324:107,1,87.5,0|0,3:0|1:0,0:0:0:0:
277,222,163870,2,0,L|189:229,1,87.5,4|0,3:2|0:0,0:0:0:0:
127,339,164223,2,0,L|215:332,1,87.5,0|0,3:0|0:0,0:0:0:0:
0,215,164576,1,8,1:2:0:0:
88,208,164753,1,0,3:0:0:0:
159,260,164929,5,2,0:3:0:0:
155,5,165105,2,0,P|128:39|120:82,1,87.5,0|0,1:0|3:0,0:0:0:0:
307,101,165458,1,0,1:0:0:0:
214,78,165635,2,0,L|402:64,1,175,0|8,3:0|1:2,0:0:0:0:
388,65,166164,1,2,3:0:0:0:
478,286,166341,6,0,P|504:251|512:209,1,87.5,0|0,1:0|3:0,0:0:0:0:
419,213,166605,1,0,3:0:0:0:
419,213,166694,2,0,L|231:227,1,175,4|0,1:2|1:0,0:0:0:0:
244,225,167223,1,0,3:0:0:0:
372,93,167400,2,0,L|184:107,1,175,8|0,1:2|3:0,0:0:0:0:
197,105,167841,1,0,3:0:0:0:
197,105,167929,1,0,3:0:0:0:
428,16,168105,5,0,3:0:0:0:
396,200,168282,1,0,1:0:0:0:
352,116,168458,5,0,3:0:0:0:
472,100,168635,1,0,3:0:0:0:
232,132,168811,5,8,1:2:0:0:
201,131,168899,1,0,3:0:0:0:
170,130,168987,1,0,3:0:0:0:
140,130,169075,1,0,3:0:0:0:
109,129,169163,1,0,1:0:0:0:
36,84,169341,1,0,3:0:0:0:
164,304,169517,6,0,P|168:248|148:216,1,87.5,4|0,1:0|3:0,0:0:0:0:
13,239,169782,1,0,3:0:0:0:
13,239,169870,2,0,P|47:267|90:272,1,87.5,0|0,1:0|0:0,0:0:0:0:
144,134,170223,1,8,1:2:0:0:
153,221,170399,1,0,3:0:0:0:
78,184,170576,5,0,3:0:0:0:
311,175,170753,2,0,L|219:171,1,87.5,0|0,1:0|3:0,0:0:0:0:
393,252,171105,1,0,1:0:0:0:
312,332,171282,2,0,P|279:253|310:174,1,175,0|8,3:0|1:2,0:0:0:0:
376,116,171811,1,2,3:0:0:0:
194,281,171988,6,0,L|102:277,1,87.5,0|0,3:0|3:0,0:0:0:0:
113,284,172253,1,0,3:0:0:0:
113,284,172341,2,0,L|97:184,1,87.5,0|0,1:0|0:0,0:0:0:0:
53,340,172694,1,0,1:0:0:0:
131,177,172870,2,0,L|114:76,1,87.5,0|8,3:0|1:2,0:0:0:0:
262,53,173223,2,0,L|247:139,1,87.5,0|0,3:0|0:0,0:0:0:0:
113,275,173576,6,0,P|74:255|45:224,1,87.5,0|0,1:0|0:0,0:0:0:0:
236,223,173929,1,0,1:0:0:0:
236,223,174105,2,0,P|249:181|246:138,1,87.5,0|0,3:0|0:0,0:0:0:0:
140,168,174458,5,8,1:2:0:0:
359,117,174635,1,0,1:0:0:0:
247,139,174811,5,0,3:0:0:0:
441,222,174987,1,0,1:0:0:0:
441,222,175164,2,0,P|449:270|429:322,1,87.5,4|0,3:2|3:0,0:0:0:0:
250,224,175429,1,0,3:0:0:0:
250,224,175517,2,0,P|239:181|247:139,1,87.5,0|0,3:0|0:0,0:0:0:0:
331,275,175870,1,8,1:2:0:0:
247,319,176047,1,0,3:0:0:0:
328,370,176223,5,0,3:0:0:0:
247,139,176400,2,0,P|239:181|250:224,1,87.5,0|0,1:0|0:0,0:0:0:0:
441,222,176753,1,0,1:0:0:0:
432,116,176929,2,0,P|356:88|268:148,1,175,0|8,3:0|1:2,0:0:0:0:
247,139,177635,6,0,P|239:181|250:224,1,87.5,0|0,1:0|0:0,0:0:0:0:
428,248,177988,2,0,P|446:163|420:98,1,140,0|0,1:0|3:0,0:0:0:0:
430,114,178429,1,0,3:0:0:0:
430,114,178517,1,0,3:0:0:0:
249,223,178694,2,0,P|226:121|258:41,1,175,8|0,1:2|3:0,0:0:0:0:
262,71,179135,1,0,3:0:0:0:
262,71,179223,1,0,3:0:0:0:
262,71,179311,1,0,3:0:0:0:
262,71,179400,6,0,L|363:59,1,87.5,0|0,3:0|1:0,0:0:0:0:
229,238,179753,2,0,L|128:226,1,87.5,0|0,3:0|0:0,0:0:0:0:
294,320,180105,5,8,1:2:0:0:
321,286,180193,1,0,3:0:0:0:
332,244,180282,1,0,1:0:0:0:
325,201,180369,1,0,3:0:0:0:
302,164,180458,1,4,0:0:0:0:
294,320,180635,1,0,3:0:0:0:
229,238,180811,5,4,3:1:0:0:
256,192,180900,12,0,183105,0:0:0:0:
256,192,190694,12,4,192105,0:0:0:0:
110,105,192458,5,0,3:0:0:0:
64,183,192635,1,0,0:0:0:0:
154,180,192811,2,0,L|241:172,1,70,8|0,0:2|3:0,0:0:0:0:
154,180,193341,1,0,1:0:0:0:
318,200,193517,6,0,L|405:192,1,70,0|0,3:0|1:0,0:0:0:0:
478,191,193870,2,0,P|501:133|469:49,1,140,0|8,3:0|0:2,0:0:0:0:
318,200,194576,2,0,P|295:258|327:342,2,140,0|0|0,3:0|1:0|3:0,0:0:0:0:
398,195,195458,1,0,3:0:0:0:
300,340,195635,2,0,L|145:334,1,140,8|0,1:2|0:0,0:0:0:0:
76,329,196164,1,0,1:0:0:0:
122,258,196341,1,0,3:0:0:0:
122,258,196694,6,0,P|93:202|91:180,1,70,0|0,1:0|0:0,0:0:0:0:
222,128,197047,2,0,P|198:153|183:184,1,70,8|0,1:2|3:0,0:0:0:0:
276,200,197400,2,0,P|311:198|345:206,1,70,0|0,3:0|1:0,0:0:0:0:
408,260,197753,1,4,0:0:0:0:
122,258,198105,5,0,1:0:0:0:
183,184,198282,1,0,3:0:0:0:
276,200,198458,2,0,P|291:255|267:345,1,140,8|0,1:2|1:0,0:0:0:0:
408,260,198988,1,0,3:0:0:0:
236,184,199164,6,0,P|221:129|245:39,1,140,0|0,1:0|3:0,0:0:0:0:
330,268,199870,2,0,P|274:253|208:187,1,140,8|0,1:2|3:0,0:0:0:0:
408,260,200576,1,0,1:0:0:0:
422,276,200929,2,0,L|427:347,1,70,0|8,1:0|3:2,0:0:0:0:
69,313,201635,6,0,P|178:217|41:168,1,350,4|0,1:0|1:0,0:0:0:0:
96,234,202517,1,0,3:0:0:0:
171,307,202694,2,0,L|274:325,1,87.5,0|0,1:0|1:0,0:0:0:0:
330,139,203047,2,0,L|515:171,1,175,4|4,3:2|3:1,0:0:0:0:
294,232,203753,5,0,1:0:0:0:
375,249,203929,1,0,0:0:0:0:
464,253,204105,5,8,1:2:0:0:
383,236,204281,1,0,3:0:0:0:
214,212,204458,6,0,L|77:186,1,140,0|0,3:0|1:0,0:0:0:0:
228,226,205164,2,0,P|244:177|211:92,1,140,0|8,3:0|1:2,0:0:0:0:
172,328,205870,2,0,P|255:322|316:211,1,210,4|0,3:2|3:0,0:0:0:0:
103,270,206576,6,0,P|79:317|85:349,1,70,0|0,1:0|0:0,0:0:0:0:
210,226,206929,2,0,P|206:191|186:163,1,70,8|0,1:2|0:0,0:0:0:0:
179,339,207282,2,0,P|262:333|323:222,1,210,4|0,3:2|3:0,0:0:0:0:
103,270,207988,5,0,1:0:0:0:
87,363,208164,1,0,3:0:0:0:
210,226,208341,5,8,1:2:0:0:
194,133,208517,1,0,3:0:0:0:
187,350,208694,2,0,P|270:344|331:233,1,210,4|4,3:2|1:0,0:0:0:0:
350,234,209400,6,0,L|210:213,1,140,0|8,1:0|1:2,0:0:0:0:
211,213,209929,1,0,3:0:0:0:
368,208,210105,2,0,L|437:218,1,70,2|0,0:0|3:0,0:0:0:0:
512,230,210458,5,0,1:0:0:0:
292,198,210811,1,0,3:0:0:0:
375,37,211164,5,0,1:0:0:0:
425,382,211517,1,0,3:0:0:0:
399,213,211870,5,2,0:0:0:0:
399,213,212576,1,2,0:0:0:0:
399,213,213282,1,2,0:0:0:0:
113,171,213988,5,0,0:0:0:0:
113,171,214076,1,0,0:0:0:0:
113,171,214164,1,0,0:0:0:0:
113,171,214253,1,0,0:0:0:0:
113,171,214341,1,0,0:0:0:0:
113,171,214429,1,0,0:0:0:0:
113,171,214517,1,0,0:0:0:0:
113,171,214605,1,0,0:0:0:0:
88,200,214694,6,0,P|66:238|69:291,1,87.5,4|0,3:1|0:0,0:0:0:0:
177,132,215047,2,0,P|176:88|154:51,1,87.5,0|0,3:0|3:0,0:0:0:0:
87,115,215311,1,0,3:0:0:0:
87,115,215400,2,0,L|-9:110,1,87.5,8|0,1:2|3:0,0:0:0:0:
61,27,215753,5,2,0:3:0:0:
176,223,215929,2,0,L|263:227,1,87.5,0|0,1:0|3:0,0:0:0:0:
313,40,216282,1,0,1:0:0:0:
278,132,216458,2,0,P|343:133|410:44,1,175,0|8,3:0|1:2,0:0:0:0:
313,40,216988,1,2,3:0:0:0:
297,299,217164,6,0,L|313:385,1,87.5,0|0,3:0|0:0,0:0:0:0:
363,250,217429,1,0,0:0:0:0:
363,250,217517,2,0,P|283:256|191:222,1,175,4|0,3:2|3:0,0:0:0:0:
152,147,218047,2,0,L|187:336,1,175,8|0,1:2|3:0,0:0:0:0:
113,371,218576,1,0,3:0:0:0:
248,158,218753,6,0,L|232:72,1,87.5,0|0,1:0|0:0,0:0:0:0:
278,285,219105,1,0,1:0:0:0:
191,234,219282,2,0,P|289:243|340:175,1,175,0|8,3:0|1:2,0:0:0:0:
152,147,219811,5,0,3:0:0:0:
152,147,219900,1,0,3:0:0:0:
152,147,219988,1,8,1:2:0:0:
177,261,220164,1,0,1:0:0:0:
334,151,220341,2,0,P|372:125|425:126,1,87.5,4|0,3:2|0:0,0:0:0:0:
481,240,220694,2,0,P|437:237|402:212,1,87.5,0|0,3:0|3:0,0:0:0:0:
502,153,220958,1,0,3:0:0:0:
502,153,221047,2,0,L|513:61,1,87.5,8|0,1:2|3:0,0:0:0:0:
431,33,221400,5,2,0:3:0:0:
323,261,221576,2,0,L|312:347,1,87.5,0|0,1:0|3:0,0:0:0:0:
128,217,221929,1,0,1:0:0:0:
227,234,222105,2,0,L|247:60,1,175,0|8,3:0|1:2,0:0:0:0:
247,60,222635,1,2,3:0:0:0:
119,198,222811,6,0,L|14:207,1,87.5,0|0,3:0|3:0,0:0:0:0:
32,206,223076,1,0,3:0:0:0:
32,206,223164,6,0,P|16:263|78:339,1,140,4|0,3:2|3:0,0:0:0:0:
137,349,223694,1,0,3:0:0:0:
210,190,223870,2,0,P|141:169|48:245,1,175,8|0,1:2|0:0,0:0:0:0:
260,266,224400,5,0,3:0:0:0:
260,266,224488,1,0,3:0:0:0:
260,266,224576,1,0,3:0:0:0:
305,133,224753,1,8,1:2:0:0:
316,365,224929,1,0,3:0:0:0:
361,232,225105,1,0,3:0:0:0:
188,284,225282,5,8,1:2:0:0:
157,280,225370,1,0,3:0:0:0:
126,276,225458,1,0,3:0:0:0:
95,272,225547,1,0,3:0:0:0:
64,268,225635,1,0,1:0:0:0:
18,339,225811,1,0,3:0:0:0:
144,190,225988,6,0,L|165:89,1,87.5,4|0,3:1|3:0,0:0:0:0:
269,77,226253,1,0,3:0:0:0:
269,77,226341,2,0,L|251:162,1,87.5,0|0,3:0|0:0,0:0:0:0:
384,99,226694,1,8,1:2:0:0:
362,5,226870,1,0,3:0:0:0:
454,32,227047,5,0,3:0:0:0:
294,268,227223,2,0,L|277:183,1,87.5,0|0,1:0|0:0,0:0:0:0:
229,384,227576,1,0,1:0:0:0:
320,355,227753,2,0,P|260:294|176:304,1,175,0|8,3:0|1:2,0:0:0:0:
176,304,228282,1,0,3:0:0:0:
42,100,228458,6,0,P|35:140|56:185,1,87.5,0|0,3:0|0:0,0:0:0:0:
179,62,228811,2,0,P|118:60|57:127,1,131.25,0|0,3:0|0:0,0:0:0:0:
146,147,229164,1,0,3:0:0:0:
83,211,229341,2,0,L|73:313,1,87.5,0|8,3:0|1:2,0:0:0:0:
164,320,229694,2,0,L|175:203,1,87.5,0|0,3:0|0:0,0:0:0:0:
395,330,230047,6,0,P|368:355|303:363,1,87.5,0|0,1:0|3:0,0:0:0:0:
356,156,230400,1,0,1:0:0:0:
450,183,230576,2,0,P|501:241|490:345,1,175,0|8,3:0|1:2,0:0:0:0:
356,156,231105,5,0,3:0:0:0:
356,156,231194,1,0,3:0:0:0:
356,156,231282,2,0,L|344:56,1,87.5,0|0,3:0|1:0,0:0:0:0:
440,197,231635,2,0,P|412:234|366:250,1,87.5,4|0,3:2|3:0,0:0:0:0:
271,178,231900,1,0,3:0:0:0:
271,178,231988,2,0,L|259:78,1,87.5,0|0,3:0|0:0,0:0:0:0:
440,198,232341,1,8,1:2:0:0:
356,156,232517,1,0,3:0:0:0:
434,104,232694,5,0,3:0:0:0:
229,256,232870,2,0,P|192:225|180:184,1,87.5,0|0,1:0|3:0,0:0:0:0:
395,218,233223,1,0,1:0:0:0:
365,310,233400,2,0,P|319:348|205:336,1,175,0|8,3:0|1:2,0:0:0:0:
395,218,233929,5,0,3:0:0:0:
395,218,234017,1,0,3:0:0:0:
395,218,234105,2,0,P|400:288|361:349,1,131.25,0|0,1:0|0:0,0:0:0:0:
209,339,234458,5,4,1:2:0:0:
109,145,235164,5,4,3:2:0:0:
303,45,235870,5,4,1:2:0:0:
303,45,236223,1,0,3:0:0:0:
403,239,236576,5,4,1:2:0:0:
296,278,236753,1,0,3:0:0:0:
256,192,236929,5,0,1:0:0:0:
256,192,237017,1,0,1:0:0:0:
256,192,237105,1,0,1:0:0:0:
256,192,237194,1,0,1:0:0:0:
228,224,237282,6,0,B|180:216|136:232|152:252|104:264|60:253,2,175,4|0|8,3:1|3:0|1:2,0:0:0:0:
304,268,238164,1,0,3:0:0:0:
312,180,238341,5,0,0:0:0:0:
72,80,238517,2,0,P|72:140|84:168,1,87.5,0|0,1:0|3:0,0:0:0:0:
237,256,238870,1,0,1:0:0:0:
144,228,239047,2,0,L|318:212,1,175,0|8,3:0|1:2,0:0:0:0:
108,312,239576,5,0,3:0:0:0:
108,312,239664,1,0,3:0:0:0:
108,312,239753,2,0,P|72:287|52:249,1,87.5,0|0,1:0|0:0,0:0:0:0:
198,165,240105,2,0,P|163:189|143:227,1,87.5,0|0,3:0|0:0,0:0:0:0:
231,249,240458,1,0,3:0:0:0:
192,146,240635,2,0,L|75:128,1,87.5,0|8,3:0|1:2,0:0:0:0:
173,324,240988,2,0,L|43:304,1,131.25,8|0,1:2|0:0,0:0:0:0:
152,239,241341,5,0,1:0:0:0:
199,165,241517,1,0,3:0:0:0:
173,324,241694,1,0,1:0:0:0:
257,357,241870,2,0,P|334:347|375:326,1,87.5,0|0,3:0|0:0,0:0:0:0:
152,239,242223,5,8,1:2:0:0:
124,251,242311,1,0,3:0:0:0:
102,272,242399,1,0,3:0:0:0:
88,300,242487,1,0,3:0:0:0:
85,330,242575,5,0,1:0:0:0:
173,324,242753,1,0,1:0:0:0:
199,165,242929,6,0,P|191:93|105:36,2,175,4|0|8,3:2|3:0|1:2,0:0:0:0:
156,241,243811,1,0,3:0:0:0:
108,167,243988,5,0,0:0:0:0:
338,228,244164,2,0,L|252:240,1,87.5,0|0,1:0|3:0,0:0:0:0:
133,370,244517,1,0,1:0:0:0:
126,285,244694,2,0,P|177:295|207:328,1,87.5,0|0,3:0|0:0,0:0:0:0:
6,157,245047,5,8,1:2:0:0:
0,187,245135,1,0,3:0:0:0:
4,217,245223,1,0,3:0:0:0:
16,245,245311,1,0,3:0:0:0:
44,275,245400,2,0,L|169:268,1,87.5,0|0,1:0|3:0,0:0:0:0:
131,270,245664,1,0,3:0:0:0:
131,270,245753,6,0,P|170:214|133:140,1,140,4|0,3:2|3:0,0:0:0:0:
65,117,246282,1,0,3:0:0:0:
0,300,246458,2,0,P|89:326|162:269,1,175,8|0,1:2|1:0,0:0:0:0:
176,270,246900,1,0,3:0:0:0:
201,266,246988,1,0,3:0:0:0:
227,267,247076,1,0,3:0:0:0:
251,276,247164,6,0,L|363:284,1,87.5,0|8,3:0|1:2,0:0:0:0:
149,208,247517,2,0,L|61:214,1,87.5,0|0,3:0|0:0,0:0:0:0:
229,247,247870,6,0,B|249:203|234:164|224:172|206:137|216:95,1,157.500006008148,12|0,1:2|0:0,0:0:0:0:
152,314,248576,6,0,P|226:270|306:297,2,175,4|0|8,3:1|3:0|1:2,0:0:0:0:
152,314,249458,1,0,3:0:0:0:
236,366,249635,5,0,3:0:0:0:
92,227,249811,2,0,P|46:298|70:380,1,175,0|0,1:0|1:0,0:0:0:0:
220,271,250341,2,0,P|186:298|145:313,1,87.5,0|0,3:0|0:0,0:0:0:0:
13,62,250694,2,0,P|28:103|56:137,1,87.5,8|0,1:2|0:0,0:0:0:0:
204,45,251047,6,0,L|104:57,1,87.5,2|0,3:2|0:0,0:0:0:0:
229,152,251400,2,0,P|240:60|319:28,1,175,0|0,3:0|3:0,0:0:0:0:
309,116,251929,2,0,L|395:126,1,87.5,0|8,3:0|1:2,0:0:0:0:
228,178,252282,2,0,L|98:194,1,131.25,8|0,1:2|0:0,0:0:0:0:
241,276,252635,5,0,1:0:0:0:
313,344,252811,1,0,3:0:0:0:
228,178,252988,1,0,1:0:0:0:
280,97,253164,2,0,P|330:70|370:70,1,87.5,0|0,3:0|0:0,0:0:0:0:
396,322,253517,5,8,1:2:0:0:
389,292,253605,1,0,3:0:0:0:
382,262,253693,1,0,3:0:0:0:
375,232,253781,1,0,3:0:0:0:
369,203,253869,1,0,1:0:0:0:
482,242,254047,1,0,1:0:0:0:
278,226,254223,6,0,L|262:48,2,175,4|0|8,3:2|3:0|1:2,0:0:0:0:
217,301,255105,1,0,3:0:0:0:
307,316,255282,5,0,0:0:0:0:
262,51,255458,2,0,P|246:90|250:145,1,87.5,0|0,1:0|3:0,0:0:0:0:
455,150,255811,1,0,1:0:0:0:
355,111,255988,2,0,P|423:161|412:244,1,175,0|8,3:0|1:2,0:0:0:0:
435,270,256694,6,0,P|397:300|336:299,1,87.5,0|0,3:0|0:0,0:0:0:0:
217,301,257047,5,0,3:0:0:0:
217,301,257135,1,0,3:0:0:0:
217,301,257223,1,0,3:0:0:0:
217,301,257311,1,0,3:0:0:0:
217,301,257400,1,0,3:0:0:0:
303,314,257576,1,0,3:0:0:0:
261,202,257753,5,8,1:2:0:0:
259,180,257841,1,0,3:0:0:0:
257,158,257929,1,0,3:0:0:0:
255,136,258017,1,0,3:0:0:0:
253,114,258105,1,0,3:0:0:0:
349,130,258282,1,0,3:0:0:0:
169,203,258458,6,0,L|70:218,1,87.5,0|0,3:0|1:0,0:0:0:0:
49,306,258811,1,0,3:0:0:0:
144,298,258987,1,0,0:0:0:0:
253,114,259164,5,8,1:2:0:0:
209,107,259252,1,0,3:0:0:0:
166,100,259340,1,0,1:0:0:0:
123,94,259428,1,0,3:0:0:0:
79,87,259516,1,4,0:2:0:0:
253,114,259694,1,0,3:0:0:0:
347,128,259870,5,4,3:1:0:0:
256,192,259958,12,0,262341,0:0:0:0:
334,248,262694,6,0,P|383:258|449:230,1,105.000004005432,0|0,3:0|0:0,0:0:0:0:
491,112,263400,1,2,3:2:0:0:
440,276,263576,2,2,P|481:248|508:181,1,105.000004005432,0|0,3:0|0:0,0:0:0:0:
334,248,264282,5,0,3:0:0:0:
273,197,264458,1,0,3:0:0:0:
194,190,264635,1,2,0:0:0:0:
194,190,264988,2,0,L|114:181,1,70,0|0,3:0|0:0,0:0:0:0:
286,175,265517,6,0,P|292:79|186:63,1,210.000008010865,0|2,3:0|0:0,0:0:0:0:
230,125,266400,2,0,L|334:136,1,105.000004005432,0|2,3:0|0:0,0:0:0:0:
394,50,267105,1,0,3:0:0:0:
361,153,267282,2,0,L|465:164,1,105.000004005432,0|2,3:0|0:0,0:0:0:0:
422,315,268164,1,2,0:0:0:0:
393,241,268341,6,0,L|216:222,1,157.500006008148,0|0,3:0|3:0,0:0:0:0:
236,224,269047,1,2,0:0:0:0:
313,332,269223,2,2,B|332:320|332:320|391:326|391:326|406:343,1,105.000004005432,2|0,0:0|0:0,0:0:0:0:
256,252,269753,5,2,0:0:0:0:
204,192,269929,1,0,3:0:0:0:
256,132,270105,1,0,3:0:0:0:
360,192,270282,5,4,0:2:0:0:
