osu file format v14

[General]
AudioFilename: audio.mp3
AudioLeadIn: 0
PreviewTime: 113458
Countdown: 0
SampleSet: Normal
StackLeniency: 0.7
Mode: 1
LetterboxInBreaks: 0
WidescreenStoryboard: 0

[Editor]
Bookmarks: 14145,26694,39243,51792,64341,76890,83164,89439,101988,114537,125517
DistanceSpacing: 0.1
BeatDivisor: 4
GridSize: 32
TimelineZoom: 0.5999999

[Metadata]
Title:Catch the Wave (Guiano Remix)
TitleUnicode:Catch the Wave (Guiano Remix)
Artist:livetune feat. Hatsune Miku
ArtistUnicode:livetune feat. 初音ミク
Creator:Nostril
Version:Kantan
Source:初音ミク Project DIVA MEGA39’s
Tags:SN707 -_Ares_- -Ares- Arseniy222 japanese pop j-pop jpop electronic video game music vgm videogame ost original soundtrack vocaloid ボーカロイド kz 16th Anniversary Version Ver. Animation 16周年記念アニメーション おむたつ omutatsu omrice4869 演繹 Eneki Guianodayo びび bibi bibian0115 SEGA Mega Mix Crypton Future Media
BeatmapID:4441627
BeatmapSetID:2114673

[Difficulty]
HPDrainRate:8
CircleSize:3.9
OverallDifficulty:3
ApproachRate:1.6
SliderMultiplier:1.4
SliderTickRate:1

[Events]
//Background and Video events
0,0,"bg.jpg",0,30
Video,-70,"bg.mp4"
//Break Periods
//Storyboard Layer 0 (Background)
//Storyboard Layer 1 (Fail)
//Storyboard Layer 2 (Pass)
//Storyboard Layer 3 (Foreground)
//Storyboard Layer 4 (Overlay)
//Storyboard Sound Samples

[TimingPoints]
28,392.156862745098,4,1,0,65,1,0
28,-100,4,1,0,65,0,0
1596,392.156862745098,4,1,0,65,1,0
1596,-100,4,1,0,65,0,0
7772,-100,4,1,0,80,0,0
12674,-100,4,1,0,30,0,0
13654,-100,4,1,0,80,0,0
26595,-100,4,1,0,85,0,0
26694,-100,4,1,0,85,0,1
36007,-100,4,1,0,75,0,1
36105,-100,4,1,0,75,0,0
39145,-100,4,1,0,70,0,0
51301,-100,4,1,0,75,0,0
62870,-100,4,1,0,50,0,0
70517,-100,4,1,0,70,0,0
76399,-100,4,1,0,75,0,0
83066,-100,4,1,0,80,0,0
87968,-100,4,1,0,75,0,0
101890,-100,4,1,0,85,0,0
101988,-100,4,1,0,85,0,1
111301,-100,4,1,0,80,0,1
111399,-100,4,1,0,80,0,0
114439,-100,4,1,0,90,0,0
114537,-100,4,1,0,90,0,1
123850,-100,4,1,0,80,0,1
125517,-100,4,1,0,80,0,0
127184,-100,4,1,0,60,0,0

[HitObjects]
448,64,1596,5,8,0:0:0:0:
64,64,3164,1,0,0:0:0:0:
448,64,4733,1,8,0:0:0:0:
64,64,6301,1,0,0:0:0:0:
258,192,7086,1,0,0:0:0:0:
448,320,7870,1,12,0:0:0:0:
64,64,8262,1,0,0:0:0:0:
64,64,8654,1,0,0:0:0:0:
448,64,9439,1,8,0:0:0:0:
64,64,9831,1,0,0:0:0:0:
448,64,10223,1,8,0:0:0:0:
256,192,11007,12,0,12184,0:0:0:0:
64,320,12576,5,4,0:0:0:0:
64,64,13752,1,0,0:0:0:0:
448,64,14145,1,8,0:0:0:0:
448,64,14929,1,8,0:0:0:0:
448,64,15321,1,8,0:0:0:0:
64,64,15713,1,0,0:0:0:0:
64,64,16497,1,0,0:0:0:0:
448,64,17282,1,8,0:0:0:0:
64,64,18066,1,0,0:0:0:0:
448,64,18458,1,8,0:0:0:0:
448,64,18850,1,8,0:0:0:0:
448,64,19635,1,8,0:0:0:0:
64,64,20419,1,0,0:0:0:0:
64,64,21203,1,0,0:0:0:0:
64,64,21596,1,0,0:0:0:0:
448,64,21988,1,8,0:0:0:0:
448,64,22772,1,8,0:0:0:0:
64,64,23556,1,0,0:0:0:0:
448,64,24341,1,8,0:0:0:0:
64,64,25125,1,0,0:0:0:0:
448,64,26301,1,8,0:0:0:0:
64,320,26694,1,4,0:0:0:0:
64,64,27478,1,0,0:0:0:0:
448,64,27870,1,8,0:0:0:0:
448,64,28262,1,8,0:0:0:0:
64,64,28654,1,0,0:0:0:0:
448,64,29046,1,8,0:0:0:0:
448,64,29831,1,0,0:0:0:0:
448,64,30615,1,8,0:0:0:0:
64,64,31007,1,0,0:0:0:0:
448,64,31399,1,8,0:0:0:0:
448,64,31792,1,8,0:0:0:0:
64,64,32184,1,0,0:0:0:0:
448,64,32968,1,8,0:0:0:0:
64,64,33752,1,0,0:0:0:0:
64,64,34145,1,0,0:0:0:0:
448,64,34537,1,8,0:0:0:0:
448,64,34929,1,8,0:0:0:0:
64,64,35321,1,0,0:0:0:0:
448,64,36105,1,8,0:0:0:0:
64,64,36890,1,0,0:0:0:0:
448,64,37674,1,8,0:0:0:0:
64,64,39243,5,0,0:0:0:0:
258,194,40027,1,8,0:0:0:0:
258,194,40419,1,0,0:0:0:0:
258,194,40811,1,8,0:0:0:0:
258,194,41596,1,8,0:0:0:0:
258,194,42380,1,0,0:0:0:0:
258,194,43164,1,8,0:0:0:0:
258,194,43556,1,0,0:0:0:0:
258,194,43948,1,8,0:0:0:0:
258,194,44733,1,0,0:0:0:0:
258,194,45517,1,0,0:0:0:0:
258,194,46301,1,8,0:0:0:0:
258,194,46694,1,0,0:0:0:0:
258,194,47086,1,8,0:0:0:0:
258,194,47870,1,0,0:0:0:0:
258,194,48654,1,8,0:0:0:0:
258,194,49046,1,0,0:0:0:0:
258,194,49831,1,8,0:0:0:0:
258,194,50223,1,0,0:0:0:0:
258,194,51399,1,8,0:0:0:0:
258,194,51792,5,4,0:0:0:0:
258,194,52576,1,8,0:0:0:0:
258,194,52968,1,0,0:0:0:0:
258,194,53360,1,8,0:0:0:0:
258,194,54145,1,0,0:0:0:0:
258,194,54929,1,0,0:0:0:0:
258,194,55713,1,8,0:0:0:0:
258,194,56105,1,0,0:0:0:0:
258,194,56497,1,8,0:0:0:0:
258,194,57282,1,0,0:0:0:0:
263,194,57674,1,0,0:0:0:0:
258,194,58066,1,8,0:0:0:0:
258,194,58850,1,8,0:0:0:0:
258,194,59243,1,0,0:0:0:0:
258,194,59635,1,8,0:0:0:0:
258,194,60419,1,0,0:0:0:0:
258,194,61203,1,8,0:0:0:0:
258,194,61595,1,0,0:0:0:0:
258,194,62380,1,8,0:0:0:0:
258,194,62772,1,4,0:0:0:0:
258,194,64341,1,0,0:0:0:0:
258,194,65125,1,8,0:0:0:0:
256,194,66694,1,8,0:0:0:0:
259,190,68262,1,8,0:0:0:0:
259,190,69831,1,8,0:0:0:0:
259,190,70615,1,4,0:0:0:0:
259,190,71399,1,8,0:0:0:0:
259,190,72184,1,4,0:0:0:0:
259,190,72968,1,8,0:0:0:0:
259,190,73752,1,4,0:0:0:0:
259,190,74537,1,8,0:0:0:0:
259,190,75321,5,0,0:0:0:0:
255,194,76497,1,8,0:0:0:0:
255,194,76890,1,4,0:0:0:0:
255,194,77674,1,8,0:0:0:0:
255,194,78458,1,8,0:0:0:0:
255,194,78850,1,8,0:0:0:0:
255,194,79243,1,0,0:0:0:0:
255,194,80027,1,8,0:0:0:0:
255,194,80811,1,8,0:0:0:0:
255,194,81596,1,0,0:0:0:0:
254,188,81988,1,0,0:0:0:0:
252,184,82380,1,8,0:0:0:0:
255,194,83164,1,12,0:0:0:0:
255,194,83556,1,0,0:0:0:0:
255,194,83948,1,0,0:0:0:0:
255,194,84733,1,8,0:0:0:0:
255,194,85125,1,0,0:0:0:0:
255,194,85517,1,8,0:0:0:0:
256,192,86301,12,0,87478,0:0:0:0:
255,194,87870,5,4,0:0:0:0:
64,64,89046,1,8,0:0:0:0:
448,64,89439,1,0,0:0:0:0:
448,64,90223,1,0,0:0:0:0:
448,64,90615,1,0,0:0:0:0:
64,64,91007,1,8,0:0:0:0:
64,64,91792,1,8,0:0:0:0:
448,64,92576,1,0,0:0:0:0:
64,64,93360,1,8,0:0:0:0:
448,64,93752,1,0,0:0:0:0:
448,64,94145,1,8,0:0:0:0:
448,64,94929,1,0,0:0:0:0:
64,64,95713,1,8,0:0:0:0:
64,64,96497,1,8,0:0:0:0:
64,64,96890,1,8,0:0:0:0:
448,64,97282,1,0,0:0:0:0:
448,64,98066,1,8,0:0:0:0:
64,64,98850,1,0,0:0:0:0:
448,64,99635,1,8,0:0:0:0:
64,64,100419,1,0,0:0:0:0:
448,64,101595,1,8,0:0:0:0:
64,320,101988,1,4,0:0:0:0:
64,64,102772,1,0,0:0:0:0:
448,64,103164,1,8,0:0:0:0:
448,64,103556,1,8,0:0:0:0:
64,64,103948,1,0,0:0:0:0:
448,64,104341,1,8,0:0:0:0:
448,64,105125,1,0,0:0:0:0:
448,64,105909,1,8,0:0:0:0:
64,64,106301,1,0,0:0:0:0:
448,64,106694,1,8,0:0:0:0:
448,64,107086,1,8,0:0:0:0:
64,64,107478,1,0,0:0:0:0:
448,64,108262,1,8,0:0:0:0:
64,64,109046,1,0,0:0:0:0:
64,64,109439,1,0,0:0:0:0:
448,64,109831,1,8,0:0:0:0:
448,64,110223,1,8,0:0:0:0:
64,64,110615,1,0,0:0:0:0:
448,64,111399,1,8,0:0:0:0:
64,64,112184,1,0,0:0:0:0:
448,64,112968,1,8,0:0:0:0:
255,193,114145,1,8,0:0:0:0:
64,320,114537,1,12,0:0:0:0:
64,64,115321,1,8,0:0:0:0:
448,64,115713,1,8,0:0:0:0:
448,64,116105,1,0,0:0:0:0:
448,64,116890,1,0,0:0:0:0:
64,64,117282,1,0,0:0:0:0:
448,64,117674,1,8,0:0:0:0:
448,64,118458,1,8,0:0:0:0:
64,64,118850,1,0,0:0:0:0:
448,64,119243,1,8,0:0:0:0:
64,64,120027,1,0,0:0:0:0:
448,64,120419,1,8,0:0:0:0:
448,64,120811,1,8,0:0:0:0:
64,64,121595,1,8,0:0:0:0:
64,64,121988,1,0,0:0:0:0:
448,64,122380,1,8,0:0:0:0:
64,64,123164,1,0,0:0:0:0:
448,64,123556,1,0,0:0:0:0:
448,64,123948,1,8,0:0:0:0:
64,64,124733,1,0,0:0:0:0:
448,64,125517,1,8,0:0:0:0:
251,192,126301,1,8,0:0:0:0:
251,192,127086,1,0,0:0:0:0:
251,192,127870,1,0,0:0:0:0:
