osu file format v14

[General]
AudioFilename: audio.mp3
AudioLeadIn: 0
PreviewTime: 113458
Countdown: 0
SampleSet: Normal
StackLeniency: 0.7
Mode: 1
LetterboxInBreaks: 0
WidescreenStoryboard: 0

[Editor]
Bookmarks: 14145,26694,39243,51792,64341,76890,83164,89439,101988,114537,125517
DistanceSpacing: 0.1
BeatDivisor: 8
GridSize: 32
TimelineZoom: 2

[Metadata]
Title:Catch the Wave (Guiano Remix)
TitleUnicode:Catch the Wave (Guiano Remix)
Artist:livetune feat. Hatsune Miku
ArtistUnicode:livetune feat. 初音ミク
Creator:Nostril
Version:Inner Oni
Source:初音ミク Project DIVA MEGA39’s
Tags:SN707 -_Ares_- -Ares- Arseniy222 japanese pop j-pop jpop electronic video game music vgm videogame ost original soundtrack vocaloid ボーカロイド kz 16th Anniversary Version Ver. Animation 16周年記念アニメーション おむたつ omutatsu omrice4869 演繹 Eneki Guianodayo びび bibi bibian0115 SEGA Mega Mix Crypton Future Media
BeatmapID:4440503
BeatmapSetID:2114673

[Difficulty]
HPDrainRate:6.5
CircleSize:3.9
OverallDifficulty:6
ApproachRate:1.6
SliderMultiplier:1.4
SliderTickRate:1

[Events]
//Background and Video events
0,0,"bg.jpg",0,30
Video,-70,"bg.mp4"
//Break Periods
//Storyboard Layer 0 (Background)
//Storyboard Layer 1 (Fail)
//Storyboard Layer 2 (Pass)
//Storyboard Layer 3 (Foreground)
//Storyboard Layer 4 (Overlay)
//Storyboard Sound Samples

[TimingPoints]
28,392.156862745098,4,1,0,65,1,0
28,-166.666666666667,4,1,0,65,0,0
1596,392.156862745098,4,1,0,65,1,0
1596,-165.97510373444,4,1,0,65,0,0
2331,-171.770075737112,4,1,0,65,0,0
2625,-174.048900580262,4,1,0,65,0,0
2919,-176.389003426121,4,1,0,65,0,0
3115,-177.984346939362,4,1,0,65,0,0
3703,-182.948354879996,4,1,0,65,0,0
3801,-183.802735479678,4,1,0,65,0,0
3899,-184.665133546296,4,1,0,65,0,0
4194,-187.310673157683,4,1,0,65,0,0
4488,-190.023752969121,4,1,0,65,0,0
4684,-191.876562238777,4,1,0,65,0,0
5468,-199.663775977379,4,1,0,65,0,0
6056,-205.932011276896,4,1,0,65,0,0
6252,-208.109807820393,4,1,0,65,0,0
6645,-212.618291968798,4,1,0,65,0,0
7037,-217.314200422658,4,1,0,65,0,0
7478,-222.222222222222,4,1,0,65,0,0
7821,-222.222222222222,4,1,0,80,0,0
7870,-111.42061281337,4,1,0,80,0,0
8066,-117.994100294985,4,1,0,80,0,0
8114,-117.508977490099,4,1,0,80,0,0
8212,-117.027827434689,4,1,0,80,0,0
8408,-116.077251956904,4,1,0,80,0,0
8604,-115.141994430823,4,1,0,80,0,0
8702,-114.679994657885,4,1,0,80,0,0
8898,-113.767029030708,4,1,0,80,0,0
8996,-113.315975683879,4,1,0,80,0,0
9193,-112.420002045042,4,1,0,80,0,0
9389,-111.542527722073,4,1,0,80,0,0
9585,-110.678645249728,4,1,0,80,0,0
9683,-110.251702650296,4,1,0,80,0,0
9781,-109.828041253668,4,1,0,80,0,0
9977,-108.990411919645,4,1,0,80,0,0
10173,-108.165462631701,4,1,0,80,0,0
10271,-107.757653367335,4,1,0,80,0,0
10369,-107.352907626674,4,1,0,80,0,0
10467,-106.951191018427,4,1,0,80,0,0
10565,-106.552469664157,4,1,0,80,0,0
10762,-105.759886220918,4,1,0,80,0,0
10860,-105.369981736706,4,1,0,80,0,0
11003,-104.97616458978,4,1,0,80,0,0
11007,-104.98687664042,4,1,0,80,0,0
11154,-102.928273294574,4,1,0,80,0,0
11350,-100.948848401402,4,1,0,80,0,0
11546,-99.044120083894,4,1,0,80,0,0
11742,-97.2099384615861,4,1,0,80,0,0
11841,-96.3090729407721,4,1,0,80,0,0
11939,-95.4336024816386,4,1,0,80,0,0
12036,-94.5825992732994,4,1,0,80,0,0
12134,-93.7380979052313,4,1,0,80,0,0
12233,-92.900154537542,4,1,0,80,0,0
12347,-92.0853006857978,4,1,0,80,0,0
12412,-91.5526756108982,4,1,0,80,0,0
12478,-91.0181238606419,4,1,0,80,0,0
12576,-90.4977375565611,4,1,0,80,0,0
12625,-90.4977375565611,4,1,0,30,0,0
13164,-90.4977375565611,4,1,0,80,0,0
13213,-117.647058823529,4,1,0,80,0,0
13238,-117.320510319044,4,1,0,80,0,0
13287,-116.995769573568,4,1,0,80,0,0
13336,-116.67282161702,4,1,0,80,0,0
13507,-115.398664000446,4,1,0,80,0,0
13703,-114.152035323441,4,1,0,80,0,0
13801,-113.538767032338,4,1,0,80,0,0
13899,-112.932052952046,4,1,0,80,0,0
13997,-112.331788570361,4,1,0,80,0,0
14145,-111.731843575419,4,1,0,80,0,0
19733,-111.731843575419,4,1,0,80,0,0
19880,-109.803921568628,4,1,0,80,0,0
19978,-108.864696734059,4,1,0,80,0,0
20076,-107.941403238242,4,1,0,80,0,0
20174,-107.033639143731,4,1,0,80,0,0
20272,-106.141015921152,4,1,0,80,0,0
20419,-105.263157894737,4,1,0,80,0,0
25125,-105.263157894737,4,1,0,80,0,0
25860,-109.89010989011,4,1,0,80,0,0
26056,-111.111111111111,4,1,0,80,0,0
26252,-112.359550561798,4,1,0,80,0,0
26350,-112.994350282486,4,1,0,80,0,0
26497,-113.636363636364,4,1,0,80,0,0
26645,-113.636363636364,4,1,0,85,0,0
26694,-95.2380952380952,4,1,0,85,0,1
36056,-95.2380952380952,4,1,0,75,0,1
36105,-95.2380952380952,4,1,0,75,0,0
36252,-96.3657064224692,4,1,0,75,0,0
36350,-96.9395847623992,4,1,0,75,0,0
36448,-97.5203391867641,4,1,0,75,0,0
36546,-98.108094021994,4,1,0,75,0,0
36644,-98.7029766099534,4,1,0,75,0,0
36841,-99.9146500439489,4,1,0,75,0,0
37037,-101.162856937104,4,1,0,75,0,0
37134,-101.788985765548,4,1,0,75,0,0
37232,-102.436067247341,4,1,0,75,0,0
37331,-103.084766739501,4,1,0,75,0,0
37428,-103.734988625743,4,1,0,75,0,0
37625,-105.081116324974,4,1,0,75,0,0
37919,-107.156315926694,4,1,0,75,0,0
38213,-109.315131179319,4,1,0,75,0,0
38458,-110.803324099723,4,1,0,75,0,0
39194,-110.803324099723,4,1,0,70,0,0
39243,-111.111111111111,4,1,0,70,0,0
39537,-111.731843575419,4,1,0,70,0,0
45517,-105.263157894737,4,1,0,70,0,0
50223,-105.263157894737,4,1,0,70,0,0
50811,-105.263157894737,4,1,0,75,0,0
50860,-110.533878633801,4,1,0,75,0,0
50885,-110.961518545369,4,1,0,75,0,0
50934,-111.392480264966,4,1,0,75,0,0
50983,-111.826802648058,4,1,0,75,0,0
51154,-113.59849747054,4,1,0,75,0,0
51350,-115.427234671264,4,1,0,75,0,0
51546,-117.325608253465,4,1,0,75,0,0
51792,-100.250626566416,4,1,0,75,0,0
62821,-100.250626566416,4,1,0,50,0,0
64341,-166.666666666667,4,1,0,50,0,0
70566,-166.666666666667,4,1,0,70,0,0
70615,-117.994100294985,4,1,0,70,0,0
71399,-166.666666666667,4,1,0,70,0,0
72184,-117.994100294985,4,1,0,70,0,0
72968,-166.666666666667,4,1,0,70,0,0
73752,-117.994100294985,4,1,0,70,0,0
74537,-166.666666666667,4,1,0,70,0,0
75272,-166.666666666667,4,1,0,30,0,0
75321,-166.666666666667,4,1,0,30,0,0
75370,-166.666666666667,4,1,0,32,0,0
75419,-166.666666666667,4,1,0,33,0,0
75468,-166.666666666667,4,1,0,35,0,0
75517,-166.666666666667,4,1,0,36,0,0
75566,-166.666666666667,4,1,0,38,0,0
75615,-166.666666666667,4,1,0,39,0,0
75664,-166.666666666667,4,1,0,41,0,0
75713,-166.666666666667,4,1,0,42,0,0
75762,-166.666666666667,4,1,0,44,0,0
75811,-166.666666666667,4,1,0,45,0,0
75860,-166.666666666667,4,1,0,47,0,0
75909,-166.666666666667,4,1,0,48,0,0
75958,-166.666666666667,4,1,0,50,0,0
76007,-166.666666666667,4,1,0,51,0,0
76056,-166.666666666667,4,1,0,53,0,0
76105,-166.666666666667,4,1,0,54,0,0
76154,-166.666666666667,4,1,0,56,0,0
76203,-166.666666666667,4,1,0,57,0,0
76252,-166.666666666667,4,1,0,59,0,0
76301,-166.666666666667,4,1,0,60,0,0
76350,-166.666666666667,4,1,0,60,0,0
76448,-166.666666666667,4,1,0,75,0,0
76497,-133.673366326634,4,1,0,75,0,0
76694,-131.065557536146,4,1,0,75,0,0
76890,-117.647058823529,4,1,0,75,0,0
77184,-125,4,1,0,75,0,0
82184,-125,4,1,0,75,0,0
82331,-121.951219512195,4,1,0,75,0,0
82429,-120.481927710843,4,1,0,75,0,0
82625,-117.647058823529,4,1,0,75,0,0
82723,-116.279069767442,4,1,0,75,0,0
82919,-113.636363636364,4,1,0,75,0,0
83164,-111.111111111111,4,1,0,80,0,0
83311,-110.345070174822,4,1,0,80,0,0
83409,-109.96599712553,4,1,0,80,0,0
83507,-109.589519650655,4,1,0,80,0,0
83703,-108.844245515423,4,1,0,80,0,0
83899,-108.109039528552,4,1,0,80,0,0
83997,-107.745148548858,4,1,0,80,0,0
84194,-107.021015283843,4,1,0,80,0,0
84292,-106.664399863992,4,1,0,80,0,0
84488,-105.958251705735,4,1,0,80,0,0
84684,-105.261391852896,4,1,0,80,0,0
84880,-104.57363824255,4,1,0,80,0,0
84978,-104.233120680489,4,1,0,80,0,0
85076,-103.894813539114,4,1,0,80,0,0
85272,-103.224744981902,4,1,0,80,0,0
85468,-102.56326423854,4,1,0,80,0,0
85566,-102.235692869248,4,1,0,80,0,0
85664,-101.910207263985,4,1,0,80,0,0
85762,-101.586787564767,4,1,0,80,0,0
85860,-101.265414164891,4,1,0,80,0,0
86056,-100.628729069096,4,1,0,80,0,0
86301,-100,4,1,0,80,0,0
86448,-98.1606606606607,4,1,0,80,0,0
86644,-96.387762624401,4,1,0,80,0,0
86840,-94.6777697320782,4,1,0,80,0,0
87036,-93.0273923870509,4,1,0,80,0,0
87135,-92.2154632813189,4,1,0,80,0,0
87233,-91.4255746875273,4,1,0,80,0,0
87331,-90.6491030418581,4,1,0,80,0,0
87428,-89.8934341698178,4,1,0,80,0,0
87527,-89.1350660417554,4,1,0,80,0,0
87640,-88.4043272481406,4,1,0,80,0,0
87706,-87.9139351151454,4,1,0,80,0,0
87772,-87.4289535272484,4,1,0,80,0,0
87870,-86.9565217391304,4,1,0,80,0,0
87919,-86.9565217391304,4,1,0,75,0,0
88507,-117.647058823529,4,1,0,75,0,0
88532,-117.320510319044,4,1,0,75,0,0
88581,-116.995769573568,4,1,0,75,0,0
88630,-116.67282161702,4,1,0,75,0,0
88802,-115.398664000446,4,1,0,75,0,0
88998,-114.152035323441,4,1,0,75,0,0
89096,-113.538767032338,4,1,0,75,0,0
89194,-112.932052952046,4,1,0,75,0,0
89292,-112.331788570361,4,1,0,75,0,0
89439,-111.731843575419,4,1,0,75,0,0
95027,-111.731843575419,4,1,0,75,0,0
95174,-109.803921568628,4,1,0,75,0,0
95272,-108.864696734059,4,1,0,75,0,0
95370,-107.941403238242,4,1,0,75,0,0
95468,-107.033639143731,4,1,0,75,0,0
95566,-106.141015921152,4,1,0,75,0,0
95713,-105.263157894737,4,1,0,75,0,0
100419,-105.263157894737,4,1,0,75,0,0
101154,-109.886591914972,4,1,0,75,0,0
101350,-111.106615415739,4,1,0,75,0,0
101546,-112.354033861689,4,1,0,75,0,0
101645,-112.994815241544,4,1,0,75,0,0
101792,-113.636363636364,4,1,0,75,0,0
101939,-113.636363636364,4,1,0,85,0,0
101988,-95.2380952380952,4,1,0,85,0,1
111350,-95.2380952380952,4,1,0,80,0,1
111399,-95.2380952380952,4,1,0,80,0,0
111546,-96.4949991453744,4,1,0,80,0,0
111644,-97.1425591823965,4,1,0,80,0,0
111742,-97.7855227037723,4,1,0,80,0,0
111840,-98.4438162170731,4,1,0,80,0,0
111938,-99.1110330848907,4,1,0,80,0,0
112134,-100.472972608576,4,1,0,80,0,0
112331,-101.880106309676,4,1,0,80,0,0
112428,-102.587540817506,4,1,0,80,0,0
112526,-103.31231595934,4,1,0,80,0,0
112625,-104.054959785523,4,1,0,80,0,0
112722,-104.793029547922,4,1,0,80,0,0
112919,-106.324692668561,4,1,0,80,0,0
113262,-108.695652173913,4,1,0,80,0,0
113556,-100,4,1,0,80,0,0
113605,-100.62812459941,4,1,0,80,0,0
113752,-101.264189886481,4,1,0,80,0,0
113899,-102.560752547688,4,1,0,80,0,0
114095,-103.890947591318,4,1,0,80,0,0
114194,-104.569068869056,4,1,0,80,0,0
114341,-105.263157894737,4,1,0,80,0,0
114488,-105.263157894737,4,1,0,90,0,0
114537,-80,4,1,0,90,0,1
114684,-80.5193084718818,4,1,0,90,0,1
114782,-80.7814992025518,4,1,0,90,0,1
114880,-81.0454030268685,4,1,0,90,0,1
114978,-81.3110367892977,4,1,0,90,0,1
115076,-81.5784175558687,4,1,0,90,0,1
115272,-82.1184894953726,4,1,0,90,0,1
115370,-82.3912159414396,4,1,0,90,0,1
115468,-82.6657599455967,4,1,0,90,0,1
115566,-82.9421397379913,4,1,0,90,0,1
115664,-83.2203737933867,4,1,0,90,0,1
115860,-83.7824798400992,4,1,0,90,0,1
115958,-84.0663900414938,4,1,0,90,0,1
116056,-84.3522309347027,4,1,0,90,0,1
116154,-84.6400222810194,4,1,0,90,0,1
116252,-84.9297841123454,4,1,0,90,0,1
116350,-85.2215367358385,4,1,0,90,0,1
116448,-85.5153007386564,4,1,0,90,0,1
116644,-86.1089466600553,4,1,0,90,0,1
116840,-86.7108923603681,4,1,0,90,0,1
116939,-87.0181466766885,4,1,0,90,0,1
117135,-87.632916411347,4,1,0,90,0,1
117233,-87.9435702658709,4,1,0,90,0,1
117331,-88.2564344574727,4,1,0,90,0,1
117429,-88.5715326605705,4,1,0,90,0,1
117527,-88.8888888888889,4,1,0,90,0,1
117625,-89.2085275015595,4,1,0,90,0,1
117919,-90.1813865499462,4,1,0,90,0,1
118017,-90.5104054204981,4,1,0,90,0,1
118213,-91.1756984811551,4,1,0,90,0,1
118409,-91.8508443839964,4,1,0,90,0,1
118507,-92.1921808046718,4,1,0,90,0,1
118703,-92.8825214899714,4,1,0,90,0,1
118801,-93.2315833876596,4,1,0,90,0,1
118997,-93.9376376492408,4,1,0,90,0,1
119194,-94.6581529356798,4,1,0,90,0,1
119291,-95.0170008207293,4,1,0,90,0,1
119390,-95.3860640301318,4,1,0,90,0,1
119487,-95.7504627623961,4,1,0,90,0,1
119585,-96.1214565294746,4,1,0,90,0,1
119782,-96.8759961746892,4,1,0,90,0,1
119977,-97.6346331472632,4,1,0,90,0,1
120076,-98.0243528747682,4,1,0,90,0,1
120272,-98.8051694708608,4,1,0,90,0,1
120370,-99.2002611392198,4,1,0,90,0,1
120468,-99.5985251945924,4,1,0,90,0,1
120615,-100,4,1,0,90,0,1
120811,-80,4,1,0,90,0,1
120860,-80.3491893817923,4,1,0,90,0,1
120958,-80.7014404580836,4,1,0,90,0,1
121056,-81.0567936736161,4,1,0,90,0,1
121154,-81.4152901886452,4,1,0,90,0,1
121252,-81.7769718948323,4,1,0,90,0,1
121350,-82.1418814315636,4,1,0,90,0,1
121546,-82.8815583938252,4,1,0,90,0,1
121644,-83.2564149898468,4,1,0,90,0,1
121743,-83.6385553340442,4,1,0,90,0,1
121840,-84.016393442623,4,1,0,90,0,1
121938,-84.4016094320202,4,1,0,90,0,1
122134,-85.1867592199084,4,1,0,90,0,1
122233,-85.5828075335642,4,1,0,90,0,1
122331,-85.9825556455841,4,1,0,90,0,1
122428,-86.3819191725723,4,1,0,90,0,1
122527,-86.7933605965841,4,1,0,90,0,1
122624,-87.200309358082,4,1,0,90,0,1
122722,-87.6196027004711,4,1,0,90,0,1
122918,-88.4573894282632,4,1,0,90,0,1
123114,-89.315773838994,4,1,0,90,0,1
123311,-90.1954902254887,4,1,0,90,0,1
123409,-90.6396020700397,4,1,0,90,0,1
123507,-91.0881090633678,4,1,0,90,0,1
123605,-91.5410767747501,4,1,0,90,0,1
123703,-91.998572084247,4,1,0,90,0,1
123899,-92.927419770257,4,1,0,90,0,1
124095,-93.8800999167361,4,1,0,90,0,1
124193,-94.3563993932737,4,1,0,90,0,1
124291,-94.8425424530782,4,1,0,90,0,1
124389,-95.333720868784,4,1,0,90,0,1
124487,-95.8300132802125,4,1,0,90,0,1
124683,-96.838262923399,4,1,0,90,0,1
124880,-97.8732638888889,4,1,0,90,0,1
124977,-98.3910553586038,4,1,0,90,0,1
125075,-98.9197784723364,4,1,0,90,0,1
125174,-99.4596978718712,4,1,0,90,0,1
125321,-100,4,1,0,80,0,1
125517,-100,4,1,0,80,0,0
125762,-102.56298491849,4,1,0,80,0,0
125860,-103.446759869867,4,1,0,80,0,0
126056,-105.260803435627,4,1,0,80,0,0
126252,-107.139604771879,4,1,0,80,0,0
126546,-110.087021615046,4,1,0,80,0,0
126645,-111.116358141292,4,1,0,80,0,0
126841,-113.212086220169,4,1,0,80,0,0
127037,-115.388387602982,4,1,0,80,0,0
127331,-118.814380933145,4,1,0,60,0,0
127625,-122.450041631973,4,1,0,60,0,0
127870,-125,4,1,0,60,0,0

[HitObjects]
255,196,1596,5,8,0:0:0:0:
255,196,2380,1,8,0:0:0:0:
261,196,2674,1,8,0:0:0:0:
255,196,2968,1,8,0:0:0:0:
255,196,3164,1,0,0:0:0:0:
255,196,3752,1,0,0:0:0:0:
260,194,3850,1,0,0:0:0:0:
255,196,3948,1,8,0:0:0:0:
261,196,4243,1,0,0:0:0:0:
255,196,4537,1,0,0:0:0:0:
255,196,4733,1,8,0:0:0:0:
255,196,5517,1,8,0:0:0:0:
255,196,6105,1,0,0:0:0:0:
255,196,6301,1,8,0:0:0:0:
255,196,6694,1,8,0:0:0:0:
255,196,7086,1,0,0:0:0:0:
255,196,7478,1,8,0:0:0:0:
255,196,7870,5,4,0:0:0:0:
4,303,8066,1,8,0:0:0:0:
260,190,8164,1,8,0:0:0:0:
255,196,8262,1,0,0:0:0:0:
261,192,8458,1,8,0:0:0:0:
260,191,8654,1,0,0:0:0:0:
259,190,8752,1,8,0:0:0:0:
259,188,8948,1,8,0:0:0:0:
260,190,9046,1,0,0:0:0:0:
271,189,9243,1,8,0:0:0:0:
266,189,9439,1,0,0:0:0:0:
0,295,9635,1,8,0:0:0:0:
260,190,9733,1,0,0:0:0:0:
255,196,9831,1,8,0:0:0:0:
261,192,10027,1,8,0:0:0:0:
260,191,10223,1,0,0:0:0:0:
259,190,10321,1,8,0:0:0:0:
5,312,10419,1,8,0:0:0:0:
259,188,10517,1,8,0:0:0:0:
260,190,10615,1,0,0:0:0:0:
266,190,10811,1,8,0:0:0:0:
262,188,10909,1,8,0:0:0:0:
266,189,11007,1,0,0:0:0:0:
260,191,11203,1,8,0:0:0:0:
255,196,11399,1,8,0:0:0:0:
261,192,11596,1,8,0:0:0:0:
260,191,11792,1,0,0:0:0:0:
259,190,11890,1,0,0:0:0:0:
64,64,11988,1,8,0:0:0:0:
64,64,12086,1,8,0:0:0:0:
448,64,12184,1,0,0:0:0:0:
448,64,12282,1,0,0:0:0:0:
266,190,12380,1,8,0:0:0:0:
262,188,12445,1,8,0:0:0:0:
261,192,12511,1,8,0:0:0:0:
64,64,12576,1,0,0:0:0:0:
255,196,13262,1,8,0:0:0:0:
255,196,13311,1,8,0:0:0:0:
255,196,13360,1,0,0:0:0:0:
255,196,13556,1,0,0:0:0:0:
255,196,13752,1,8,0:0:0:0:
255,196,13850,1,0,0:0:0:0:
255,196,13948,1,8,0:0:0:0:
255,196,14046,1,8,0:0:0:0:
255,196,14145,5,0,0:0:0:0:
255,196,14439,1,8,0:0:0:0:
255,196,14537,1,0,0:0:0:0:
255,196,14733,1,8,0:0:0:0:
255,196,14929,1,0,0:0:0:0:
255,196,15223,1,8,0:0:0:0:
255,196,15321,1,0,0:0:0:0:
255,196,15517,1,8,0:0:0:0:
255,196,15713,1,0,0:0:0:0:
255,196,15811,1,8,0:0:0:0:
255,196,16007,1,8,0:0:0:0:
255,196,16105,1,0,0:0:0:0:
255,196,16301,1,8,0:0:0:0:
255,196,16497,1,0,0:0:0:0:
255,196,16792,1,8,0:0:0:0:
255,196,16890,1,0,0:0:0:0:
255,196,16988,1,8,0:0:0:0:
255,196,17086,1,8,0:0:0:0:
255,196,17184,1,8,0:0:0:0:
255,196,17282,1,0,0:0:0:0:
255,196,17576,1,8,0:0:0:0:
255,196,17674,1,0,0:0:0:0:
255,196,17870,1,8,0:0:0:0:
255,196,18066,1,0,0:0:0:0:
255,196,18360,1,8,0:0:0:0:
255,196,18458,1,0,0:0:0:0:
255,196,18654,1,8,0:0:0:0:
255,196,18850,1,0,0:0:0:0:
255,196,18948,1,8,0:0:0:0:
255,196,19145,1,8,0:0:0:0:
255,196,19243,1,0,0:0:0:0:
255,196,19439,1,8,0:0:0:0:
255,196,19635,1,0,0:0:0:0:
255,196,19733,1,8,0:0:0:0:
255,196,19929,1,8,0:0:0:0:
255,196,20027,1,0,0:0:0:0:
448,64,20125,1,8,0:0:0:0:
64,64,20223,1,0,0:0:0:0:
64,64,20321,1,0,0:0:0:0:
448,64,20419,5,8,0:0:0:0:
64,64,20615,1,0,0:0:0:0:
64,64,20713,1,0,0:0:0:0:
448,64,20811,1,8,0:0:0:0:
64,64,21007,1,0,0:0:0:0:
448,64,21203,1,8,0:0:0:0:
64,64,21399,1,0,0:0:0:0:
64,64,21497,1,0,0:0:0:0:
448,64,21596,1,8,0:0:0:0:
64,64,21792,1,0,0:0:0:0:
448,64,21988,1,8,0:0:0:0:
64,64,22086,1,0,0:0:0:0:
64,64,22184,1,0,0:0:0:0:
64,64,22282,1,0,0:0:0:0:
448,64,22380,1,8,0:0:0:0:
64,64,22576,1,0,0:0:0:0:
448,64,22772,1,8,0:0:0:0:
64,64,22968,1,0,0:0:0:0:
64,64,23066,1,0,0:0:0:0:
448,64,23164,1,8,0:0:0:0:
64,64,23262,1,0,0:0:0:0:
64,64,23360,1,0,0:0:0:0:
448,64,23556,1,8,0:0:0:0:
64,64,23752,1,0,0:0:0:0:
64,64,23850,1,0,0:0:0:0:
448,64,23948,1,8,0:0:0:0:
448,64,24046,1,8,0:0:0:0:
64,64,24145,1,0,0:0:0:0:
448,64,24341,1,8,0:0:0:0:
64,64,24537,1,0,0:0:0:0:
448,64,24635,1,8,0:0:0:0:
448,64,24733,1,8,0:0:0:0:
448,64,24831,1,8,0:0:0:0:
64,64,24929,1,0,0:0:0:0:
255,196,25125,1,8,0:0:0:0:
255,196,25909,1,8,0:0:0:0:
255,196,26105,1,0,0:0:0:0:
255,196,26301,1,8,0:0:0:0:
255,196,26399,1,8,0:0:0:0:
255,196,26497,1,8,0:0:0:0:
255,196,26694,5,4,0:0:0:0:
255,196,26988,1,8,0:0:0:0:
255,196,27086,1,0,0:0:0:0:
255,196,27282,1,8,0:0:0:0:
255,196,27478,1,0,0:0:0:0:
53,336,27576,1,8,0:0:0:0:
255,196,27772,1,8,0:0:0:0:
255,196,27870,1,0,0:0:0:0:
255,196,28066,1,8,0:0:0:0:
255,196,28262,1,0,0:0:0:0:
255,196,28360,1,8,0:0:0:0:
419,335,28458,1,0,0:0:0:0:
255,196,28556,1,8,0:0:0:0:
255,196,28654,1,0,0:0:0:0:
255,196,28850,1,8,0:0:0:0:
255,196,29046,1,0,0:0:0:0:
255,196,29341,1,8,0:0:0:0:
255,196,29439,1,0,0:0:0:0:
255,196,29537,1,0,0:0:0:0:
255,196,29635,1,8,0:0:0:0:
255,196,29733,1,8,0:0:0:0:
255,196,29831,1,0,0:0:0:0:
255,196,30125,1,8,0:0:0:0:
255,196,30223,1,0,0:0:0:0:
255,196,30419,1,8,0:0:0:0:
255,196,30615,1,0,0:0:0:0:
50,330,30713,1,8,0:0:0:0:
255,196,30909,1,8,0:0:0:0:
255,196,31007,1,0,0:0:0:0:
255,196,31203,1,8,0:0:0:0:
255,196,31399,1,0,0:0:0:0:
255,196,31497,1,8,0:0:0:0:
388,320,31595,1,8,0:0:0:0:
255,196,31694,1,8,0:0:0:0:
255,196,31792,1,0,0:0:0:0:
255,196,31988,1,8,0:0:0:0:
255,196,32184,1,0,0:0:0:0:
255,196,32478,1,8,0:0:0:0:
255,196,32576,1,0,0:0:0:0:
255,196,32674,1,0,0:0:0:0:
255,196,32772,1,8,0:0:0:0:
255,196,32870,1,8,0:0:0:0:
255,196,32968,5,0,0:0:0:0:
255,196,33262,1,8,0:0:0:0:
255,196,33360,1,0,0:0:0:0:
255,196,33556,1,8,0:0:0:0:
255,196,33752,1,0,0:0:0:0:
54,338,33850,1,8,0:0:0:0:
255,196,34046,1,8,0:0:0:0:
255,196,34145,1,0,0:0:0:0:
255,196,34341,1,8,0:0:0:0:
255,196,34537,1,0,0:0:0:0:
255,196,34635,1,8,0:0:0:0:
47,332,34733,1,0,0:0:0:0:
255,196,34831,1,8,0:0:0:0:
255,196,34929,1,0,0:0:0:0:
255,196,35125,1,8,0:0:0:0:
255,196,35321,1,0,0:0:0:0:
40,340,35517,1,8,0:0:0:0:
255,196,35615,1,8,0:0:0:0:
255,196,35713,1,0,0:0:0:0:
255,196,35811,1,8,0:0:0:0:
255,196,35909,1,8,0:0:0:0:
255,196,36105,1,8,0:0:0:0:
47,336,36301,1,8,0:0:0:0:
64,64,36399,1,8,0:0:0:0:
448,64,36497,1,0,0:0:0:0:
64,64,36596,1,0,0:0:0:0:
64,64,36694,1,8,0:0:0:0:
448,64,36890,1,8,0:0:0:0:
64,64,37086,1,8,0:0:0:0:
255,196,37184,1,0,0:0:0:0:
255,196,37282,1,0,0:0:0:0:
255,196,37380,1,0,0:0:0:0:
255,196,37478,1,8,0:0:0:0:
255,196,37674,1,8,0:0:0:0:
255,196,37968,1,8,0:0:0:0:
255,196,38262,1,0,0:0:0:0:
255,196,38458,1,8,0:0:0:0:
64,64,39243,5,0,0:0:0:0:
255,196,39537,1,8,0:0:0:0:
255,196,39635,1,0,0:0:0:0:
255,196,39831,1,8,0:0:0:0:
255,196,40027,1,0,0:0:0:0:
255,196,40419,1,0,0:0:0:0:
448,64,40615,1,8,0:0:0:0:
64,64,40811,1,0,0:0:0:0:
448,64,41105,1,8,0:0:0:0:
64,64,41203,1,0,0:0:0:0:
448,64,41399,1,8,0:0:0:0:
64,64,41596,1,0,0:0:0:0:
64,64,41988,1,0,0:0:0:0:
448,64,42184,1,8,0:0:0:0:
64,64,42380,1,0,0:0:0:0:
448,64,42674,1,8,0:0:0:0:
64,64,42772,1,0,0:0:0:0:
448,64,42968,1,8,0:0:0:0:
64,64,43164,1,0,0:0:0:0:
64,64,43556,1,0,0:0:0:0:
64,64,43948,1,0,0:0:0:0:
255,196,44243,1,8,0:0:0:0:
255,196,44341,1,0,0:0:0:0:
255,196,44537,1,8,0:0:0:0:
64,64,44733,1,0,0:0:0:0:
255,196,44929,1,8,0:0:0:0:
255,196,45125,1,0,0:0:0:0:
448,64,45517,5,8,0:0:0:0:
64,64,45811,1,0,0:0:0:0:
448,64,45909,1,8,0:0:0:0:
64,64,46105,1,0,0:0:0:0:
255,196,46301,1,8,0:0:0:0:
448,64,46694,1,0,0:0:0:0:
255,196,46890,1,0,0:0:0:0:
255,196,47086,1,8,0:0:0:0:
255,196,47380,1,0,0:0:0:0:
255,196,47478,1,8,0:0:0:0:
255,196,47674,1,0,0:0:0:0:
255,196,47870,1,0,0:0:0:0:
448,64,48262,1,8,0:0:0:0:
64,64,48458,1,0,0:0:0:0:
448,64,48654,1,8,0:0:0:0:
64,64,48948,1,0,0:0:0:0:
448,64,49046,1,8,0:0:0:0:
64,64,49243,1,0,0:0:0:0:
448,64,49439,1,8,0:0:0:0:
255,196,49831,1,8,0:0:0:0:
255,196,50027,1,8,0:0:0:0:
255,196,50223,1,0,0:0:0:0:
261,194,50909,1,8,0:0:0:0:
255,196,50958,1,8,0:0:0:0:
255,196,51007,1,0,0:0:0:0:
255,196,51203,1,0,0:0:0:0:
255,196,51399,1,8,0:0:0:0:
255,196,51595,1,8,0:0:0:0:
255,196,51792,5,4,0:0:0:0:
255,191,51988,1,8,0:0:0:0:
255,196,52086,1,8,0:0:0:0:
255,196,52184,1,0,0:0:0:0:
255,196,52380,1,8,0:0:0:0:
255,196,52576,1,0,0:0:0:0:
255,196,52674,1,8,0:0:0:0:
253,196,52870,1,8,0:0:0:0:
255,196,52968,1,0,0:0:0:0:
255,196,53164,1,0,0:0:0:0:
448,64,53262,1,8,0:0:0:0:
64,64,53360,1,0,0:0:0:0:
255,196,53556,1,0,0:0:0:0:
255,196,53654,1,0,0:0:0:0:
255,196,53752,1,8,0:0:0:0:
255,196,53948,1,8,0:0:0:0:
255,196,54046,1,8,0:0:0:0:
255,196,54145,1,0,0:0:0:0:
255,196,54243,1,8,0:0:0:0:
255,196,54439,1,0,0:0:0:0:
255,196,54537,1,8,0:0:0:0:
255,196,54733,1,0,0:0:0:0:
255,196,54831,1,0,0:0:0:0:
255,196,54929,1,8,0:0:0:0:
250,190,55125,1,8,0:0:0:0:
255,196,55223,1,0,0:0:0:0:
255,196,55321,1,8,0:0:0:0:
255,196,55517,1,0,0:0:0:0:
255,196,55713,1,8,0:0:0:0:
255,196,55909,1,8,0:0:0:0:
258,193,56007,1,8,0:0:0:0:
255,196,56105,1,0,0:0:0:0:
255,196,56301,1,8,0:0:0:0:
255,196,56497,1,0,0:0:0:0:
255,196,56595,1,0,0:0:0:0:
255,196,56694,1,8,0:0:0:0:
255,196,56792,1,8,0:0:0:0:
255,196,56890,1,0,0:0:0:0:
255,196,57086,1,8,0:0:0:0:
255,196,57282,1,0,0:0:0:0:
255,196,57380,1,8,0:0:0:0:
255,196,57478,1,0,0:0:0:0:
255,196,57576,1,0,0:0:0:0:
255,196,57674,1,8,0:0:0:0:
255,196,57870,1,0,0:0:0:0:
255,196,57968,1,0,0:0:0:0:
448,64,58066,5,8,0:0:0:0:
448,64,58262,1,8,0:0:0:0:
448,64,58360,1,8,0:0:0:0:
64,64,58458,1,0,0:0:0:0:
255,196,58654,1,8,0:0:0:0:
255,196,58850,1,0,0:0:0:0:
255,196,58948,1,8,0:0:0:0:
253,196,59145,1,8,0:0:0:0:
255,196,59243,1,0,0:0:0:0:
255,196,59439,1,8,0:0:0:0:
64,64,59537,1,8,0:0:0:0:
255,196,59635,1,0,0:0:0:0:
64,64,59831,1,8,0:0:0:0:
448,64,59929,1,0,0:0:0:0:
255,196,60027,1,8,0:0:0:0:
255,196,60223,1,0,0:0:0:0:
255,196,60321,1,8,0:0:0:0:
255,196,60419,1,0,0:0:0:0:
402,335,60517,1,8,0:0:0:0:
255,196,60713,1,8,0:0:0:0:
255,196,60811,1,0,0:0:0:0:
64,64,61007,1,0,0:0:0:0:
64,64,61105,1,0,0:0:0:0:
448,64,61203,1,8,0:0:0:0:
64,64,61399,1,8,0:0:0:0:
448,64,61497,1,8,0:0:0:0:
64,64,61595,1,0,0:0:0:0:
448,64,61792,1,8,0:0:0:0:
64,64,61988,1,0,0:0:0:0:
448,64,62086,1,8,0:0:0:0:
448,64,62184,1,8,0:0:0:0:
448,64,62282,1,8,0:0:0:0:
255,196,62380,1,0,0:0:0:0:
255,196,62576,1,8,0:0:0:0:
64,320,62772,1,4,0:0:0:0:
64,64,64341,5,0,0:0:0:0:
448,64,65125,1,8,0:0:0:0:
64,64,65909,1,0,0:0:0:0:
448,64,66694,1,8,0:0:0:0:
64,64,67478,1,0,0:0:0:0:
448,64,68262,1,8,0:0:0:0:
64,64,69046,1,0,0:0:0:0:
448,64,69831,1,8,0:0:0:0:
64,320,70615,1,4,0:0:0:0:
448,64,71399,1,8,0:0:0:0:
64,320,72184,1,4,0:0:0:0:
448,64,72968,1,8,0:0:0:0:
64,320,73752,1,4,0:0:0:0:
448,64,74537,1,8,0:0:0:0:
256,192,75321,12,0,76301,0:0:0:0:
448,64,76497,5,8,0:0:0:0:
448,64,76694,1,8,0:0:0:0:
64,64,76890,5,4,0:0:0:0:
255,196,77184,1,8,0:0:0:0:
255,196,77282,1,0,0:0:0:0:
255,196,77478,1,8,0:0:0:0:
255,196,77674,1,0,0:0:0:0:
255,196,77968,1,8,0:0:0:0:
255,196,78066,1,0,0:0:0:0:
255,196,78262,1,8,0:0:0:0:
255,196,78458,1,0,0:0:0:0:
255,196,78752,1,8,0:0:0:0:
255,196,78850,1,0,0:0:0:0:
255,196,79046,1,8,0:0:0:0:
255,196,79243,1,0,0:0:0:0:
255,196,79537,1,8,0:0:0:0:
255,196,79635,1,0,0:0:0:0:
255,196,79831,1,8,0:0:0:0:
255,196,79929,1,8,0:0:0:0:
255,196,80027,1,0,0:0:0:0:
255,196,80125,1,8,0:0:0:0:
255,196,80321,1,8,0:0:0:0:
255,196,80419,1,0,0:0:0:0:
255,196,80615,1,8,0:0:0:0:
255,196,80713,1,8,0:0:0:0:
255,196,80811,1,0,0:0:0:0:
255,196,80909,1,8,0:0:0:0:
255,196,81105,1,8,0:0:0:0:
255,196,81203,1,0,0:0:0:0:
255,196,81399,1,8,0:0:0:0:
255,196,81596,1,0,0:0:0:0:
255,196,81694,1,0,0:0:0:0:
255,196,81792,1,8,0:0:0:0:
255,196,81890,1,8,0:0:0:0:
255,196,81988,1,0,0:0:0:0:
255,196,82184,1,8,0:0:0:0:
255,196,82380,1,0,0:0:0:0:
255,196,82478,1,0,0:0:0:0:
255,196,82674,1,8,0:0:0:0:
255,196,82772,1,0,0:0:0:0:
255,196,82968,1,8,0:0:0:0:
64,320,83164,5,4,0:0:0:0:
64,64,83360,1,0,0:0:0:0:
64,64,83458,1,0,0:0:0:0:
448,64,83556,1,8,0:0:0:0:
64,64,83752,1,0,0:0:0:0:
448,64,83948,1,8,0:0:0:0:
64,64,84046,1,0,0:0:0:0:
64,64,84243,1,0,0:0:0:0:
448,64,84341,1,8,0:0:0:0:
64,64,84537,1,0,0:0:0:0:
448,64,84733,1,8,0:0:0:0:
64,64,84929,1,0,0:0:0:0:
64,64,85027,1,0,0:0:0:0:
448,64,85125,1,8,0:0:0:0:
64,64,85321,1,0,0:0:0:0:
448,64,85517,1,8,0:0:0:0:
64,64,85615,1,0,0:0:0:0:
64,64,85713,1,0,0:0:0:0:
64,64,85811,1,0,0:0:0:0:
448,64,85909,1,8,0:0:0:0:
255,196,86105,1,0,0:0:0:0:
64,64,86301,1,8,0:0:0:0:
62,329,86497,1,0,0:0:0:0:
448,64,86694,1,0,0:0:0:0:
64,64,86890,1,0,0:0:0:0:
448,64,87086,1,8,0:0:0:0:
448,64,87184,1,8,0:0:0:0:
448,64,87282,1,0,0:0:0:0:
448,64,87380,1,0,0:0:0:0:
448,64,87478,1,8,0:0:0:0:
448,64,87576,1,8,0:0:0:0:
64,64,87674,1,0,0:0:0:0:
64,64,87739,1,0,0:0:0:0:
64,64,87805,1,0,0:0:0:0:
448,64,87870,1,8,0:0:0:0:
255,196,88556,1,8,0:0:0:0:
255,196,88605,1,8,0:0:0:0:
255,196,88654,1,0,0:0:0:0:
255,196,88850,1,0,0:0:0:0:
255,196,89046,1,8,0:0:0:0:
255,196,89145,1,0,0:0:0:0:
255,196,89243,1,8,0:0:0:0:
255,196,89341,1,8,0:0:0:0:
255,196,89439,5,0,0:0:0:0:
255,196,89733,1,8,0:0:0:0:
255,196,89831,1,0,0:0:0:0:
255,196,90027,1,8,0:0:0:0:
255,196,90223,1,0,0:0:0:0:
255,196,90517,1,8,0:0:0:0:
255,196,90615,1,0,0:0:0:0:
255,196,90811,1,8,0:0:0:0:
255,196,91007,1,0,0:0:0:0:
255,196,91105,1,8,0:0:0:0:
255,196,91301,1,8,0:0:0:0:
255,196,91399,1,0,0:0:0:0:
255,196,91596,1,8,0:0:0:0:
255,196,91792,1,0,0:0:0:0:
255,196,92086,1,8,0:0:0:0:
255,196,92184,1,0,0:0:0:0:
255,196,92282,1,8,0:0:0:0:
255,196,92380,1,8,0:0:0:0:
255,196,92478,1,8,0:0:0:0:
255,196,92576,1,0,0:0:0:0:
255,196,92870,1,8,0:0:0:0:
255,196,92968,1,0,0:0:0:0:
255,196,93164,1,8,0:0:0:0:
255,196,93360,1,0,0:0:0:0:
255,196,93654,1,8,0:0:0:0:
255,196,93752,1,0,0:0:0:0:
255,196,93948,1,8,0:0:0:0:
255,196,94145,1,0,0:0:0:0:
255,196,94243,1,8,0:0:0:0:
255,196,94439,1,8,0:0:0:0:
255,196,94537,1,0,0:0:0:0:
255,196,94733,1,8,0:0:0:0:
255,196,94929,1,0,0:0:0:0:
255,196,95027,1,8,0:0:0:0:
255,196,95223,1,8,0:0:0:0:
255,196,95321,1,0,0:0:0:0:
255,196,95419,1,8,0:0:0:0:
64,64,95517,1,0,0:0:0:0:
64,64,95615,1,0,0:0:0:0:
448,64,95713,5,8,0:0:0:0:
64,64,95909,1,0,0:0:0:0:
64,64,96007,1,0,0:0:0:0:
448,64,96105,1,8,0:0:0:0:
64,64,96301,1,0,0:0:0:0:
448,64,96497,1,8,0:0:0:0:
40,342,96694,1,0,0:0:0:0:
64,64,96792,1,0,0:0:0:0:
448,64,96890,1,8,0:0:0:0:
64,64,97086,1,0,0:0:0:0:
448,64,97282,1,8,0:0:0:0:
64,64,97380,1,0,0:0:0:0:
64,64,97478,1,0,0:0:0:0:
64,64,97576,1,0,0:0:0:0:
448,64,97674,1,8,0:0:0:0:
64,64,97870,1,0,0:0:0:0:
448,64,98066,1,8,0:0:0:0:
64,64,98262,1,0,0:0:0:0:
64,64,98360,1,0,0:0:0:0:
448,64,98458,1,8,0:0:0:0:
64,64,98556,1,0,0:0:0:0:
64,64,98654,1,0,0:0:0:0:
448,64,98850,1,8,0:0:0:0:
64,64,99046,1,0,0:0:0:0:
64,64,99145,1,0,0:0:0:0:
448,64,99243,1,8,0:0:0:0:
448,64,99341,1,8,0:0:0:0:
64,64,99439,1,0,0:0:0:0:
448,64,99635,1,8,0:0:0:0:
64,64,99831,1,0,0:0:0:0:
448,64,99929,1,8,0:0:0:0:
448,64,100027,1,8,0:0:0:0:
448,64,100125,1,8,0:0:0:0:
64,64,100223,1,0,0:0:0:0:
255,196,100419,1,8,0:0:0:0:
255,196,101203,1,8,0:0:0:0:
255,196,101399,1,0,0:0:0:0:
255,196,101595,1,8,0:0:0:0:
255,196,101694,1,8,0:0:0:0:
255,196,101792,1,8,0:0:0:0:
255,196,101988,5,4,0:0:0:0:
255,196,102282,1,8,0:0:0:0:
255,196,102380,1,0,0:0:0:0:
255,196,102576,1,8,0:0:0:0:
255,196,102772,1,0,0:0:0:0:
53,336,102870,1,8,0:0:0:0:
236,180,102968,1,8,0:0:0:0:
255,196,103066,1,8,0:0:0:0:
255,196,103164,1,0,0:0:0:0:
255,196,103360,1,8,0:0:0:0:
255,196,103556,1,0,0:0:0:0:
255,196,103654,1,0,0:0:0:0:
419,335,103752,1,8,0:0:0:0:
255,196,103850,1,0,0:0:0:0:
255,196,103948,1,8,0:0:0:0:
255,196,104145,1,8,0:0:0:0:
255,196,104341,1,0,0:0:0:0:
255,196,104635,1,8,0:0:0:0:
255,196,104733,1,0,0:0:0:0:
255,196,104831,1,0,0:0:0:0:
255,196,104929,1,8,0:0:0:0:
255,196,105027,1,8,0:0:0:0:
255,196,105125,1,0,0:0:0:0:
255,196,105419,1,8,0:0:0:0:
255,196,105517,1,0,0:0:0:0:
255,196,105713,1,8,0:0:0:0:
255,196,105909,1,0,0:0:0:0:
50,330,106007,1,8,0:0:0:0:
388,320,106105,1,0,0:0:0:0:
255,196,106203,1,8,0:0:0:0:
255,196,106301,1,0,0:0:0:0:
255,196,106497,1,8,0:0:0:0:
255,196,106694,1,0,0:0:0:0:
255,196,106792,1,8,0:0:0:0:
388,320,106890,1,8,0:0:0:0:
255,196,106988,1,8,0:0:0:0:
255,196,107086,1,0,0:0:0:0:
255,196,107282,1,8,0:0:0:0:
255,196,107478,1,0,0:0:0:0:
255,196,107772,1,8,0:0:0:0:
255,196,107870,1,0,0:0:0:0:
255,196,107968,1,0,0:0:0:0:
255,196,108066,1,8,0:0:0:0:
255,196,108164,1,8,0:0:0:0:
255,196,108262,5,0,0:0:0:0:
255,196,108556,1,8,0:0:0:0:
255,196,108654,1,0,0:0:0:0:
255,196,108850,1,8,0:0:0:0:
255,196,109046,1,0,0:0:0:0:
54,338,109145,1,8,0:0:0:0:
255,196,109243,1,8,0:0:0:0:
255,196,109341,1,8,0:0:0:0:
255,196,109439,1,0,0:0:0:0:
255,196,109635,1,8,0:0:0:0:
255,196,109831,1,0,0:0:0:0:
255,196,109929,1,0,0:0:0:0:
47,332,110027,1,8,0:0:0:0:
255,196,110125,1,8,0:0:0:0:
255,196,110223,1,0,0:0:0:0:
255,196,110419,1,8,0:0:0:0:
255,196,110615,1,0,0:0:0:0:
40,340,110811,1,8,0:0:0:0:
255,196,110909,1,8,0:0:0:0:
255,196,111007,1,0,0:0:0:0:
255,196,111105,1,8,0:0:0:0:
255,196,111203,1,8,0:0:0:0:
255,196,111399,1,8,0:0:0:0:
47,336,111595,1,8,0:0:0:0:
64,64,111694,1,8,0:0:0:0:
448,64,111792,1,0,0:0:0:0:
64,64,111890,1,0,0:0:0:0:
64,64,111988,1,8,0:0:0:0:
448,64,112184,1,8,0:0:0:0:
64,64,112380,1,8,0:0:0:0:
255,196,112478,1,0,0:0:0:0:
255,196,112576,1,0,0:0:0:0:
255,196,112674,1,0,0:0:0:0:
255,196,112772,1,8,0:0:0:0:
255,196,112968,1,8,0:0:0:0:
255,196,113262,1,8,0:0:0:0:
255,196,113556,1,0,0:0:0:0:
255,196,113654,1,0,0:0:0:0:
255,196,113752,1,8,0:0:0:0:
255,196,113948,1,0,0:0:0:0:
255,196,114145,1,8,0:0:0:0:
255,196,114243,1,8,0:0:0:0:
255,196,114341,1,8,0:0:0:0:
255,196,114537,5,4,0:0:0:0:
255,196,114733,1,8,0:0:0:0:
255,196,114831,1,0,0:0:0:0:
255,196,114929,1,0,0:0:0:0:
255,196,115027,1,0,0:0:0:0:
255,196,115125,1,8,0:0:0:0:
255,196,115321,1,0,0:0:0:0:
53,336,115419,1,8,0:0:0:0:
255,196,115517,1,8,0:0:0:0:
255,196,115615,1,8,0:0:0:0:
255,196,115713,1,0,0:0:0:0:
255,196,115909,1,8,0:0:0:0:
249,197,116007,1,0,0:0:0:0:
255,196,116105,1,8,0:0:0:0:
255,196,116203,1,8,0:0:0:0:
419,335,116301,1,8,0:0:0:0:
255,196,116399,1,8,0:0:0:0:
255,196,116497,1,0,0:0:0:0:
255,196,116694,1,8,0:0:0:0:
255,196,116890,1,0,0:0:0:0:
255,196,117184,1,8,0:0:0:0:
255,196,117282,1,0,0:0:0:0:
255,196,117380,1,8,0:0:0:0:
255,196,117478,1,8,0:0:0:0:
255,196,117576,1,8,0:0:0:0:
255,196,117674,1,0,0:0:0:0:
255,196,117968,1,8,0:0:0:0:
255,196,118066,1,0,0:0:0:0:
255,196,118262,1,8,0:0:0:0:
255,196,118458,1,0,0:0:0:0:
50,330,118556,1,8,0:0:0:0:
255,196,118752,1,8,0:0:0:0:
255,196,118850,1,0,0:0:0:0:
255,196,119046,1,8,0:0:0:0:
255,196,119243,1,0,0:0:0:0:
255,196,119341,1,8,0:0:0:0:
388,320,119439,1,8,0:0:0:0:
255,196,119537,1,8,0:0:0:0:
255,196,119635,1,0,0:0:0:0:
255,196,119831,1,8,0:0:0:0:
255,196,120027,1,0,0:0:0:0:
255,196,120321,1,8,0:0:0:0:
255,196,120419,1,0,0:0:0:0:
255,196,120517,1,0,0:0:0:0:
255,196,120615,1,8,0:0:0:0:
64,320,120811,5,8,0:0:0:0:
255,196,120909,1,8,0:0:0:0:
255,196,121007,1,0,0:0:0:0:
255,196,121105,1,8,0:0:0:0:
255,196,121203,1,0,0:0:0:0:
255,196,121301,1,0,0:0:0:0:
255,196,121399,1,8,0:0:0:0:
255,196,121595,1,0,0:0:0:0:
54,338,121694,1,8,0:0:0:0:
255,196,121792,1,8,0:0:0:0:
255,196,121890,1,8,0:0:0:0:
255,196,121988,1,0,0:0:0:0:
255,196,122184,1,8,0:0:0:0:
255,196,122282,1,0,0:0:0:0:
255,196,122380,1,8,0:0:0:0:
255,196,122478,1,8,0:0:0:0:
47,332,122576,1,0,0:0:0:0:
255,196,122674,1,8,0:0:0:0:
255,196,122772,1,0,0:0:0:0:
255,196,122968,1,8,0:0:0:0:
255,196,123164,1,0,0:0:0:0:
448,64,123360,1,8,0:0:0:0:
255,196,123458,1,8,0:0:0:0:
255,196,123556,1,0,0:0:0:0:
255,196,123654,1,8,0:0:0:0:
255,196,123752,1,8,0:0:0:0:
255,196,123948,1,0,0:0:0:0:
47,336,124145,1,8,0:0:0:0:
448,64,124243,1,8,0:0:0:0:
64,64,124341,1,0,0:0:0:0:
448,64,124439,1,0,0:0:0:0:
64,64,124537,1,8,0:0:0:0:
448,64,124733,1,0,0:0:0:0:
64,64,124929,1,8,0:0:0:0:
64,64,125027,1,0,0:0:0:0:
448,64,125125,1,0,0:0:0:0:
255,196,125223,1,0,0:0:0:0:
64,64,125321,1,8,0:0:0:0:
448,64,125517,1,8,0:0:0:0:
255,196,125811,1,0,0:0:0:0:
255,196,125909,1,8,0:0:0:0:
255,196,126105,1,0,0:0:0:0:
448,64,126301,1,8,0:0:0:0:
255,196,126595,1,0,0:0:0:0:
255,196,126694,1,8,0:0:0:0:
255,196,126890,1,0,0:0:0:0:
448,64,127086,1,8,0:0:0:0:
255,196,127380,1,0,0:0:0:0:
255,196,127674,1,0,0:0:0:0:
448,64,127870,1,8,0:0:0:0:
