osu file format v14

[General]
AudioFilename: audio.mp3
AudioLeadIn: 0
PreviewTime: 113458
Countdown: 0
SampleSet: Normal
StackLeniency: 0.7
Mode: 1
LetterboxInBreaks: 0
WidescreenStoryboard: 1

[Editor]
Bookmarks: 14145,26694,39243,51792,64341,76890,83164,89439,101988,114537,125517
DistanceSpacing: 0.1
BeatDivisor: 4
GridSize: 32
TimelineZoom: 2.2

[Metadata]
Title:Catch the Wave (Guiano Remix)
TitleUnicode:Catch the Wave (Guiano Remix)
Artist:livetune feat. Hatsune Miku
ArtistUnicode:livetune feat. 初音ミク
Creator:Nostril
Version:Inner Oni (SN707 Remix)
Source:初音ミク Project DIVA MEGA39’s
Tags:SN707 -_Ares_- -Ares- Arseniy222 japanese pop j-pop jpop electronic video game music vgm videogame ost original soundtrack vocaloid ボーカロイド kz 16th Anniversary Version Ver. Animation 16周年記念アニメーション おむたつ omutatsu omrice4869 演繹 Eneki Guianodayo びび bibi bibian0115 SEGA Mega Mix Crypton Future Media
BeatmapID:4452650
BeatmapSetID:2114673

[Difficulty]
HPDrainRate:6.5
CircleSize:3.9
OverallDifficulty:6
ApproachRate:1.6
SliderMultiplier:1.4
SliderTickRate:1

[Events]
//Background and Video events
0,0,"bg.jpg",0,30
Video,-70,"bg.mp4"
//Break Periods
//Storyboard Layer 0 (Background)
//Storyboard Layer 1 (Fail)
//Storyboard Layer 2 (Pass)
//Storyboard Layer 3 (Foreground)
//Storyboard Layer 4 (Overlay)
//Storyboard Sound Samples

[TimingPoints]
28,392.156862745098,4,1,0,65,1,0
28,-142.857142857143,4,1,0,65,0,0
1596,392.156862745098,4,1,0,65,1,0
1596,-142.857142857143,4,1,0,65,0,0
7053,-142.857142857143,4,1,0,65,0,0
7347,-136.587550380654,4,1,0,65,0,0
7445,-134.618213917905,4,1,0,65,0,0
7548,-132.608695652174,4,1,0,65,0,0
7641,-130.845130845131,4,1,0,65,0,0
7837,-127.277785505634,4,1,0,80,0,0
8131,-122.277161566217,4,1,0,80,0,0
8229,-120.696478037198,4,1,0,80,0,0
8425,-117.654622605118,4,1,0,80,0,0
8622,-114.757860913473,4,1,0,80,0,0
8720,-113.365831538374,4,1,0,80,0,0
8818,-112.007168458781,4,1,0,80,0,0
8915,-110.681020926575,4,1,0,80,0,0
9013,-109.384339509863,4,1,0,80,0,0
9112,-108.104914933837,4,1,0,80,0,0
9210,-106.867554309741,4,1,0,80,0,0
9406,-104.475907741494,4,1,0,80,0,0
9504,-103.319783197832,4,1,0,80,0,0
9700,-101.082633672117,4,1,0,80,0,0
9798,-100,4,1,0,80,0,0
9994,-97.902846137385,4,1,0,80,0,0
10190,-95.8956655159187,4,1,0,80,0,0
10288,-94.9171847563001,4,1,0,80,0,0
10386,-93.9584703561026,4,1,0,80,0,0
10484,-93.0256201708011,4,1,0,80,0,0
10582,-92.1079122206563,4,1,0,80,0,0
10778,-90.3257650542942,4,1,0,80,0,0
10877,-89.4515592922084,4,1,0,80,0,0
10974,-88.6112725159791,4,1,0,80,0,0
11072,-87.7782041442824,4,1,0,80,0,0
11170,-86.9606538680859,4,1,0,80,0,0
11268,-86.1581920903955,4,1,0,80,0,0
11366,-85.3704049262922,4,1,0,80,0,0
11464,-84.5968934911243,4,1,0,80,0,0
11563,-83.8295923041686,4,1,0,80,0,0
11661,-83.0836284391174,4,1,0,80,0,0
11759,-82.3508235082351,4,1,0,80,0,0
11857,-81.6308323668481,4,1,0,80,0,0
11955,-80.9233218360308,4,1,0,80,0,0
12053,-80.2279701885138,4,1,0,80,0,0
12151,-79.5444666608711,4,1,0,80,0,0
12249,-78.8725109904319,4,1,0,80,0,0
12347,-78.211812975468,4,1,0,80,0,0
12412,-77.7796667800068,4,1,0,80,0,0
12478,-77.345731191885,4,1,0,80,0,0
12543,-76.9230769230769,4,1,0,80,0,0
13229,-111.111111111111,4,1,0,80,0,0
13687,-100,4,1,0,80,0,0
14095,-90.9090909090909,4,1,0,80,0,0
25904,-100,4,1,0,80,0,0
26100,-97.5640069599801,4,1,0,80,0,0
26296,-95.2438728463965,4,1,0,80,0,0
26362,-94.4872412132884,4,1,0,80,0,0
26427,-93.7537322345635,4,1,0,80,0,0
26492,-93.0315240578336,4,1,0,80,0,0
26661,-90.9090909090909,4,1,0,80,0,0
26694,-90.9090909090909,4,1,0,85,0,1
26857,-89.6114889518083,4,1,0,85,0,1
26955,-88.8490145573467,4,1,0,85,0,1
27053,-88.0994059746893,4,1,0,85,0,1
27249,-86.6375052913786,4,1,0,85,0,1
27445,-85.2233295394609,4,1,0,85,0,1
27543,-84.5334141035878,4,1,0,85,0,1
27641,-83.8545792248231,4,1,0,85,0,1
27739,-83.1865600867091,4,1,0,85,0,1
27837,-82.5291002446302,4,1,0,85,0,1
28033,-81.2448725752243,4,1,0,85,0,1
28229,-80,4,1,0,85,0,1
28328,-80.6103575832306,4,1,0,85,0,1
28426,-81.2237925143656,4,1,0,85,0,1
28524,-81.8466353677621,4,1,0,85,0,1
28622,-82.4791042422331,4,1,0,85,0,1
28720,-83.1214240305149,4,1,0,85,0,1
28818,-83.7738266858882,4,1,0,85,0,1
29014,-85.1098454027665,4,1,0,85,0,1
29211,-86.4963201852311,4,1,0,85,0,1
29407,-87.9213247037068,4,1,0,85,0,1
29505,-88.6515806424273,4,1,0,85,0,1
29603,-89.3940688830014,4,1,0,85,0,1
29701,-90.1490993708524,4,1,0,85,0,1
29798,-90.9090909090909,4,1,0,85,0,1
29994,-88.8477556686719,4,1,0,85,0,1
30092,-87.8517501715854,4,1,0,85,0,1
30190,-86.8778280542986,4,1,0,85,0,1
30386,-84.9933598937583,4,1,0,85,0,1
30582,-83.1889081455806,4,1,0,85,0,1
30681,-82.3062908584289,4,1,0,85,0,1
30779,-81.4508431434935,4,1,0,85,0,1
30877,-80.6129946467933,4,1,0,85,0,1
30975,-79.7922077922078,4,1,0,85,0,1
31171,-78.199775990225,4,1,0,85,0,1
31334,-76.9230769230769,4,1,0,85,0,1
31465,-77.9037516422559,4,1,0,85,0,1
31564,-78.6616223652533,4,1,0,85,0,1
31662,-79.426501959617,4,1,0,85,0,1
31760,-80.2064024848455,4,1,0,85,0,1
31858,-81.001770806982,4,1,0,85,0,1
31956,-81.8130716950278,4,1,0,85,0,1
32152,-83.4854252489962,4,1,0,85,0,1
32250,-84.347505400137,4,1,0,85,0,1
32446,-86.1262036688364,4,1,0,85,0,1
32544,-87.0439841243951,4,1,0,85,0,1
32642,-87.981535417926,4,1,0,85,0,1
32740,-88.9395033609244,4,1,0,85,0,1
32838,-89.9185622016288,4,1,0,85,0,1
32935,-90.9090909090909,4,1,0,85,0,1
33131,-89.3552945688037,4,1,0,85,0,1
33229,-88.5981454608505,4,1,0,85,0,1
33328,-87.8461881874672,4,1,0,85,0,1
33523,-86.4017777165765,4,1,0,85,0,1
33719,-84.9970472379944,4,1,0,85,0,1
33818,-84.3047359338015,4,1,0,85,0,1
33916,-83.6304364479736,4,1,0,85,0,1
34014,-82.966837949615,4,1,0,85,0,1
34112,-82.3136877105504,4,1,0,85,0,1
34308,-81.0377602724726,4,1,0,85,0,1
34470,-80.0126478326131,4,1,0,85,0,1
34471,-80.0128020483277,4,1,0,85,0,1
34537,-80.4020535688277,4,1,0,85,0,1
34602,-80.7891268317105,4,1,0,85,0,1
34701,-81.3858830457964,4,1,0,85,0,1
34799,-81.9853582378828,4,1,0,85,0,1
34897,-82.5937302361392,4,1,0,85,0,1
34995,-83.2111985773635,4,1,0,85,0,1
35093,-83.8379688102233,4,1,0,85,0,1
35289,-85.1202685841405,4,1,0,85,0,1
35484,-86.4355533023301,4,1,0,85,0,1
35681,-87.8062579100864,4,1,0,85,0,1
35779,-88.504452413095,4,1,0,85,0,1
35877,-89.2138393486975,4,1,0,85,0,1
36073,-90.6672845803026,4,1,0,75,0,1
36105,-90.9090909090909,4,1,0,75,0,0
36465,-86.9565217391304,4,1,0,75,0,0
37249,-83.3333333333333,4,1,0,75,0,0
39210,-100,4,1,0,70,0,0
50877,-100,4,1,0,75,0,0
51334,-83.3333333333333,4,1,0,75,0,0
52053,-90.9090909090909,4,1,0,75,0,0
64308,-125,4,1,0,70,0,0
70582,-111.111111111111,4,1,0,70,0,0
75060,-100,4,1,0,75,0,0
76465,-83.3333333333333,4,1,0,75,0,0
77151,-100,4,1,0,75,0,0
83131,-100,4,1,0,80,0,0
83426,-98.9241141613786,4,1,0,80,0,0
83524,-98.4437741176327,4,1,0,80,0,0
83720,-97.3918905549425,4,1,0,80,0,0
83916,-96.2556550197324,4,1,0,80,0,0
84014,-95.6320080330887,4,1,0,80,0,0
84113,-95.0101493622565,4,1,0,80,0,0
84210,-94.4086478321414,4,1,0,80,0,0
84308,-93.8086303939962,4,1,0,80,0,0
84407,-93.1754029887796,4,1,0,80,0,0
84505,-92.5372200099296,4,1,0,80,0,0
84603,-91.8941796998279,4,1,0,80,0,0
84700,-91.8948722661275,4,1,0,80,0,0
84798,-91.678635821899,4,1,0,80,0,0
84995,-89.292145500695,4,1,0,80,0,0
85093,-88.6380341655861,4,1,0,80,0,0
85289,-87.3298847002744,4,1,0,80,0,0
85485,-86.02516991751,4,1,0,80,0,0
85583,-85.3751829026962,4,1,0,80,0,0
85680,-84.7242226552572,4,1,0,80,0,0
85779,-84.0727395635643,4,1,0,80,0,0
85877,-83.4376303712975,4,1,0,80,0,0
86073,-82.162517459535,4,1,0,80,0,0
86171,-81.5295510192529,4,1,0,80,0,0
86269,-80.9001238047651,4,1,0,80,0,0
86367,-80.2745491902626,4,1,0,80,0,0
86465,-79.652994337132,4,1,0,80,0,0
86563,-79.0356098329708,4,1,0,80,0,0
86662,-78.4162976866146,4,1,0,80,0,0
86760,-77.8076913870414,4,1,0,80,0,0
86858,-77.203621051394,4,1,0,80,0,0
86956,-76.6041825988053,4,1,0,80,0,0
87054,-76.0094607826008,4,1,0,80,0,0
87152,-75.4195300185476,4,1,0,80,0,0
87250,-74.8344551483019,4,1,0,80,0,0
87348,-74.2542921441371,4,1,0,80,0,0
87446,-73.6790887603275,4,1,0,80,0,0
87544,-73.1088851359435,4,1,0,80,0,0
87642,-72.5437143532915,4,1,0,80,0,0
87707,-72.1716455143912,4,1,0,80,0,0
87773,-71.7961364519273,4,1,0,80,0,0
87838,-71.4285714285714,4,1,0,80,0,0
88524,-111.111111111111,4,1,0,75,0,0
89014,-100,4,1,0,75,0,0
89406,-90.9090909090909,4,1,0,75,0,0
101171,-100,4,1,0,80,0,0
101922,-90.9090909090909,4,1,0,80,0,0
101988,-90.9090909090909,4,1,0,85,0,1
102151,-88.8888888888889,4,1,0,85,0,1
102249,-87.9120879120879,4,1,0,85,0,1
102347,-86.9565217391304,4,1,0,85,0,1
102543,-85.1063829787234,4,1,0,85,0,1
102739,-83.3333333333333,4,1,0,85,0,1
102837,-82.4742268041237,4,1,0,85,0,1
102935,-81.6326530612245,4,1,0,85,0,1
103033,-80.8080808080808,4,1,0,85,0,1
103131,-80,4,1,0,85,0,1
103327,-78.4313725490196,4,1,0,85,0,1
103523,-76.9230769230769,4,1,0,85,0,1
103622,-77.6694223058264,4,1,0,85,0,1
103720,-78.4303924018995,4,1,0,85,0,1
103818,-79.2064213236408,4,1,0,85,0,1
103916,-79.9979605363789,4,1,0,85,0,1
104014,-80.8054797342535,4,1,0,85,0,1
104113,-81.637962433009,4,1,0,85,0,1
104309,-83.3377596005736,4,1,0,85,0,1
104505,-85.1098454027665,4,1,0,85,0,1
104701,-86.9589314415563,4,1,0,85,0,1
104799,-87.9139351151454,4,1,0,85,0,1
104897,-88.8901478669764,4,1,0,85,0,1
104995,-89.8882841592667,4,1,0,85,0,1
105093,-90.9090909090909,4,1,0,85,0,1
105288,-88.8901478669764,4,1,0,85,0,1
105386,-87.9139351151454,4,1,0,85,0,1
105484,-86.9589314415563,4,1,0,85,0,1
105680,-85.1098454027665,4,1,0,85,0,1
105876,-83.3377596005736,4,1,0,85,0,1
105974,-82.4791042422331,4,1,0,85,0,1
106072,-81.637962433009,4,1,0,85,0,1
106170,-80.8138037599794,4,1,0,85,0,1
106268,-80.0061190148386,4,1,0,85,0,1
106464,-78.4382342648603,4,1,0,85,0,1
106661,-76.9230769230769,4,1,0,85,0,1
106759,-77.6699029126214,4,1,0,85,0,1
106857,-78.4313725490196,4,1,0,85,0,1
106955,-79.2079207920792,4,1,0,85,0,1
107053,-80,4,1,0,85,0,1
107151,-80.8080808080808,4,1,0,85,0,1
107249,-81.6326530612245,4,1,0,85,0,1
107347,-82.4742268041237,4,1,0,85,0,1
107445,-83.3333333333333,4,1,0,85,0,1
107543,-84.2105263157895,4,1,0,85,0,1
107739,-86.0215053763441,4,1,0,85,0,1
107837,-86.9565217391304,4,1,0,85,0,1
107935,-87.9120879120879,4,1,0,85,0,1
108033,-88.8888888888889,4,1,0,85,0,1
108131,-89.8876404494382,4,1,0,85,0,1
108229,-90.9090909090909,4,1,0,85,0,1
108425,-88.8901478669764,4,1,0,85,0,1
108523,-87.9139351151454,4,1,0,85,0,1
108621,-86.9589314415563,4,1,0,85,0,1
108817,-85.1098454027665,4,1,0,85,0,1
109013,-83.3377596005736,4,1,0,85,0,1
109112,-82.4704336399474,4,1,0,85,0,1
109210,-81.629467769627,4,1,0,85,0,1
109308,-80.8054797342535,4,1,0,85,0,1
109406,-79.9979605363789,4,1,0,85,0,1
109602,-78.4303924018995,4,1,0,85,0,1
109798,-76.9230769230769,4,1,0,85,0,1
109897,-77.6699029126214,4,1,0,85,0,1
109995,-78.4313725490196,4,1,0,85,0,1
110093,-79.2079207920792,4,1,0,85,0,1
110191,-80,4,1,0,85,0,1
110289,-80.8080808080808,4,1,0,85,0,1
110387,-81.6326530612245,4,1,0,85,0,1
110583,-83.3333333333333,4,1,0,85,0,1
110779,-85.1063829787234,4,1,0,85,0,1
110877,-86.0215053763441,4,1,0,85,0,1
110975,-86.9565217391304,4,1,0,85,0,1
111073,-87.9120879120879,4,1,0,85,0,1
111171,-88.8888888888889,4,1,0,85,0,1
111367,-90.9090909090909,4,1,0,80,0,1
111399,-90.9090909090909,4,1,0,80,0,0
111759,-86.9565217391304,4,1,0,80,0,0
112543,-83.3333333333333,4,1,0,80,0,0
113622,-111.111111111111,4,1,0,80,0,0
114504,-90.9090909090909,4,1,0,90,0,0
114537,-90.9090909090909,4,1,0,90,0,1
114700,-88.3977900552486,4,1,0,90,0,1
114798,-87.1934604904632,4,1,0,90,0,1
114994,-84.8806366047745,4,1,0,90,0,1
115092,-83.7696335078534,4,1,0,90,0,1
115288,-81.6326530612245,4,1,0,90,0,1
115386,-80.6045340050378,4,1,0,90,0,1
115484,-79.6019900497512,4,1,0,90,0,1
115582,-78.6240786240786,4,1,0,90,0,1
115778,-76.7386091127098,4,1,0,90,0,1
115876,-75.8293838862559,4,1,0,90,0,1
116072,-74.0740740740741,4,1,0,90,0,1
116170,-74.9408926993528,4,1,0,90,0,1
116268,-75.8282386487205,4,1,0,90,0,1
116366,-76.7368498275988,4,1,0,90,0,1
116464,-77.6674999381234,4,1,0,90,0,1
116562,-78.6210006764713,4,1,0,90,0,1
116661,-79.6083007762951,4,1,0,90,0,1
116759,-80.6103575832306,4,1,0,90,0,1
116857,-81.637962433009,4,1,0,90,0,1
117053,-83.7738266858882,4,1,0,90,0,1
117249,-86.0244530950162,4,1,0,90,0,1
117347,-87.1957319106369,4,1,0,90,0,1
117445,-88.3993464420531,4,1,0,90,0,1
117543,-89.6366544789762,4,1,0,90,0,1
117641,-90.9090909090909,4,1,0,90,0,1
117837,-88.3993464420531,4,1,0,90,0,1
117935,-87.1957319106369,4,1,0,90,0,1
118131,-84.8842241938974,4,1,0,90,0,1
118229,-83.7738266858882,4,1,0,90,0,1
118425,-81.637962433009,4,1,0,90,0,1
118523,-80.6103575832306,4,1,0,90,0,1
118621,-79.6083007762951,4,1,0,90,0,1
118719,-78.6308509572016,4,1,0,90,0,1
118915,-76.7462336137742,4,1,0,90,0,1
119013,-75.8374015177147,4,1,0,90,0,1
119210,-74.0740740740741,4,1,0,90,0,1
119308,-74.9414519906323,4,1,0,90,0,1
119406,-75.8293838862559,4,1,0,90,0,1
119504,-76.7386091127098,4,1,0,90,0,1
119602,-77.6699029126214,4,1,0,90,0,1
119700,-78.6240786240786,4,1,0,90,0,1
119798,-79.6019900497512,4,1,0,90,0,1
119896,-80.6045340050378,4,1,0,90,0,1
119994,-81.6326530612245,4,1,0,90,0,1
120092,-82.687338501292,4,1,0,90,0,1
120190,-83.7696335078534,4,1,0,90,0,1
120288,-84.8806366047745,4,1,0,90,0,1
120386,-86.0215053763441,4,1,0,90,0,1
120484,-87.1934604904632,4,1,0,90,0,1
120582,-88.3977900552486,4,1,0,90,0,1
120680,-89.6358543417367,4,1,0,90,0,1
120778,-90.9090909090909,4,1,0,90,0,1
120975,-88.3993464420531,4,1,0,90,0,1
121073,-87.1957319106369,4,1,0,90,0,1
121269,-84.8842241938974,4,1,0,90,0,1
121367,-83.7738266858882,4,1,0,90,0,1
121563,-81.637962433009,4,1,0,90,0,1
121662,-80.6000051370303,4,1,0,90,0,1
121760,-79.5982040940568,4,1,0,90,0,1
121858,-78.6210006764713,4,1,0,90,0,1
122054,-76.7368498275988,4,1,0,90,0,1
122152,-75.8282386487205,4,1,0,90,0,1
122348,-74.0740740740741,4,1,0,90,0,1
122445,-74.9414519906323,4,1,0,90,0,1
122543,-75.8293838862559,4,1,0,90,0,1
122641,-76.7386091127098,4,1,0,90,0,1
122739,-77.6699029126214,4,1,0,90,0,1
122837,-78.6240786240786,4,1,0,90,0,1
122935,-79.6019900497512,4,1,0,90,0,1
123131,-81.6326530612245,4,1,0,90,0,1
123229,-82.687338501292,4,1,0,90,0,1
123327,-83.7696335078534,4,1,0,90,0,1
123523,-86.0215053763441,4,1,0,90,0,1
123621,-87.1934604904632,4,1,0,90,0,1
123719,-88.3977900552486,4,1,0,90,0,1
123915,-90.9090909090909,4,1,0,80,0,1
124112,-88.8888888888889,4,1,0,80,0,1
124308,-86.9565217391304,4,1,0,80,0,1
124896,-85.1063829787234,4,1,0,80,0,1
125092,-83.3333333333333,4,1,0,80,0,1
125517,-83.3333333333333,4,1,0,80,0,0
127086,-83.3333333333333,4,1,0,80,0,0

[HitObjects]
256,192,812,5,0,0:0:0:0:
256,192,1204,5,8,0:0:0:0:
256,192,1596,5,0,0:0:0:0:
256,192,1890,1,8,0:0:0:0:
256,192,2184,1,8,0:0:0:0:
256,192,2380,1,0,0:0:0:0:
256,192,2674,1,0,0:0:0:0:
256,192,2772,1,8,0:0:0:0:
256,192,2968,1,8,0:0:0:0:
256,192,3164,5,8,0:0:0:0:
256,192,3458,1,0,0:0:0:0:
256,192,3752,1,0,0:0:0:0:
256,192,3850,1,0,0:0:0:0:
256,192,3948,1,8,0:0:0:0:
256,192,4243,1,0,0:0:0:0:
256,192,4537,5,0,0:0:0:0:
256,192,4733,1,8,0:0:0:0:
256,192,5321,5,0,0:0:0:0:
256,192,5517,1,8,0:0:0:0:
256,192,6105,5,0,0:0:0:0:
256,192,6301,1,8,0:0:0:0:
256,192,6497,1,8,0:0:0:0:
256,192,6694,1,0,0:0:0:0:
256,192,7086,5,0,0:0:0:0:
256,192,7478,5,8,0:0:0:0:
256,192,7870,5,12,0:0:0:0:
256,192,8164,1,0,0:0:0:0:
256,192,8262,1,8,0:0:0:0:
256,192,8458,1,8,0:0:0:0:
256,192,8654,1,0,0:0:0:0:
256,192,8752,1,0,0:0:0:0:
256,192,8850,1,0,0:0:0:0:
256,192,8948,1,8,0:0:0:0:
256,192,9046,1,0,0:0:0:0:
256,192,9243,1,8,0:0:0:0:
256,192,9439,5,0,0:0:0:0:
256,192,9537,1,8,0:0:0:0:
256,192,9733,1,8,0:0:0:0:
256,192,9831,1,8,0:0:0:0:
256,192,10027,1,0,0:0:0:0:
256,192,10223,1,8,0:0:0:0:
256,192,10321,1,8,0:0:0:0:
256,224,10419,1,0,0:0:0:0:
256,224,10517,1,8,0:0:0:0:
256,224,10615,1,0,0:0:0:0:
256,224,10811,5,0,0:0:0:0:
256,224,10909,1,8,0:0:0:0:
256,192,11007,1,0,0:0:0:0:
256,224,11105,1,0,0:0:0:0:
256,192,11203,1,8,0:0:0:0:
256,224,11301,1,0,0:0:0:0:
256,192,11399,1,8,0:0:0:0:
256,192,11497,1,8,0:0:0:0:
256,192,11596,1,0,0:0:0:0:
256,192,11694,1,8,0:0:0:0:
256,192,11792,1,0,0:0:0:0:
256,192,11890,1,0,0:0:0:0:
256,192,11988,1,8,0:0:0:0:
256,192,12086,1,0,0:0:0:0:
256,192,12184,1,8,0:0:0:0:
256,192,12282,1,8,0:0:0:0:
384,32,12380,1,0,0:0:0:0:
256,192,12445,1,8,0:0:0:0:
256,192,12511,1,0,0:0:0:0:
256,192,12576,1,0,0:0:0:0:
256,192,13262,5,8,0:0:0:0:
256,192,13311,1,8,0:0:0:0:
256,192,13360,1,8,0:0:0:0:
256,192,13556,1,0,0:0:0:0:
256,192,13752,1,8,0:0:0:0:
256,192,13850,1,0,0:0:0:0:
256,192,13948,1,8,0:0:0:0:
256,192,14145,5,4,0:0:0:0:
256,192,14439,1,8,0:0:0:0:
256,192,14537,1,0,0:0:0:0:
256,192,14733,1,8,0:0:0:0:
256,192,14929,1,0,0:0:0:0:
256,192,15223,1,8,0:0:0:0:
256,192,15321,1,0,0:0:0:0:
256,192,15517,1,8,0:0:0:0:
256,192,15713,1,0,0:0:0:0:
256,192,15811,1,8,0:0:0:0:
256,192,16007,1,8,0:0:0:0:
256,192,16105,1,0,0:0:0:0:
288,192,16301,1,8,0:0:0:0:
320,192,16497,1,0,0:0:0:0:
288,192,16694,1,8,0:0:0:0:
288,192,16890,1,0,0:0:0:0:
288,192,16988,1,0,0:0:0:0:
288,192,17086,1,8,0:0:0:0:
256,192,17184,1,8,0:0:0:0:
288,192,17282,5,0,0:0:0:0:
288,192,17576,1,8,0:0:0:0:
288,192,17674,1,0,0:0:0:0:
288,192,17870,1,8,0:0:0:0:
288,192,18066,1,0,0:0:0:0:
288,192,18164,1,8,0:0:0:0:
288,192,18360,1,8,0:0:0:0:
288,192,18458,1,0,0:0:0:0:
288,192,18654,1,0,0:0:0:0:
288,192,18850,1,8,0:0:0:0:
288,192,18948,1,8,0:0:0:0:
288,192,19046,1,0,0:0:0:0:
288,192,19145,1,8,0:0:0:0:
288,192,19243,1,8,0:0:0:0:
288,192,19439,1,0,0:0:0:0:
288,192,19635,1,0,0:0:0:0:
288,192,19733,1,8,0:0:0:0:
288,192,19929,1,8,0:0:0:0:
288,192,20027,1,0,0:0:0:0:
288,192,20125,1,8,0:0:0:0:
288,192,20223,1,8,0:0:0:0:
288,192,20321,1,8,0:0:0:0:
288,192,20419,5,0,0:0:0:0:
288,192,20713,1,8,0:0:0:0:
288,192,20811,1,0,0:0:0:0:
281,195,20909,1,0,0:0:0:0:
288,192,21007,1,8,0:0:0:0:
288,192,21203,1,0,0:0:0:0:
288,192,21301,1,0,0:0:0:0:
288,192,21497,1,8,0:0:0:0:
288,192,21596,1,0,0:0:0:0:
288,192,21792,1,8,0:0:0:0:
288,192,21988,1,0,0:0:0:0:
288,192,22086,1,8,0:0:0:0:
302,191,22184,1,0,0:0:0:0:
320,192,22282,1,8,0:0:0:0:
320,192,22380,1,0,0:0:0:0:
288,192,22576,1,8,0:0:0:0:
288,192,22772,1,0,0:0:0:0:
288,192,22968,1,8,0:0:0:0:
320,192,23164,5,0,0:0:0:0:
320,192,23262,1,8,0:0:0:0:
320,192,23360,1,8,0:0:0:0:
320,192,23556,1,0,0:0:0:0:
320,192,23752,1,8,0:0:0:0:
288,192,23948,5,0,0:0:0:0:
288,192,24046,1,0,0:0:0:0:
288,192,24145,1,8,0:0:0:0:
320,192,24341,1,0,0:0:0:0:
320,160,24537,1,8,0:0:0:0:
320,192,24733,5,8,0:0:0:0:
320,192,24831,1,0,0:0:0:0:
320,192,24929,1,8,0:0:0:0:
320,192,25125,1,0,0:0:0:0:
320,192,25909,5,8,0:0:0:0:
320,192,26105,1,0,0:0:0:0:
352,192,26301,1,8,0:0:0:0:
320,192,26367,1,8,0:0:0:0:
320,192,26432,1,0,0:0:0:0:
352,192,26497,1,0,0:0:0:0:
320,192,26694,5,12,0:0:0:0:
320,192,26890,1,0,0:0:0:0:
320,192,26988,1,8,0:0:0:0:
320,192,27086,1,8,0:0:0:0:
320,192,27282,1,0,0:0:0:0:
315,186,27478,1,8,0:0:0:0:
318,185,27576,1,8,0:0:0:0:
320,192,27674,1,0,0:0:0:0:
352,192,27772,1,8,0:0:0:0:
352,192,27870,1,8,0:0:0:0:
320,192,28066,1,0,0:0:0:0:
320,192,28262,5,8,0:0:0:0:
320,192,28360,1,8,0:0:0:0:
320,192,28458,1,0,0:0:0:0:
320,192,28556,1,8,0:0:0:0:
320,192,28654,1,8,0:0:0:0:
320,192,28752,1,8,0:0:0:0:
320,192,28850,1,0,0:0:0:0:
320,192,29046,1,8,0:0:0:0:
320,192,29243,1,0,0:0:0:0:
320,192,29439,1,8,0:0:0:0:
320,192,29537,1,8,0:0:0:0:
320,192,29635,1,0,0:0:0:0:
320,192,29733,1,0,0:0:0:0:
320,192,29831,5,8,0:0:0:0:
320,192,30027,1,0,0:0:0:0:
320,192,30125,1,8,0:0:0:0:
320,192,30223,1,8,0:0:0:0:
320,192,30419,1,0,0:0:0:0:
320,192,30615,1,8,0:0:0:0:
312,180,30713,1,8,0:0:0:0:
320,192,30811,1,0,0:0:0:0:
320,192,30909,1,8,0:0:0:0:
320,192,31007,1,8,0:0:0:0:
320,192,31203,1,0,0:0:0:0:
320,192,31399,5,8,0:0:0:0:
320,192,31497,1,8,0:0:0:0:
320,192,31595,1,0,0:0:0:0:
320,192,31694,1,8,0:0:0:0:
320,192,31792,1,0,0:0:0:0:
320,192,31890,1,0,0:0:0:0:
320,192,31988,1,8,0:0:0:0:
320,192,32184,1,0,0:0:0:0:
320,192,32282,1,8,0:0:0:0:
320,192,32478,1,8,0:0:0:0:
320,192,32576,1,0,0:0:0:0:
320,192,32674,1,8,0:0:0:0:
320,192,32772,1,0,0:0:0:0:
320,192,32870,1,0,0:0:0:0:
320,192,32968,5,8,0:0:0:0:
320,192,33164,1,0,0:0:0:0:
320,192,33262,1,8,0:0:0:0:
300,181,33360,1,8,0:0:0:0:
320,192,33556,1,0,0:0:0:0:
320,192,33752,1,8,0:0:0:0:
298,181,33850,1,8,0:0:0:0:
320,192,33948,1,0,0:0:0:0:
298,181,34046,1,8,0:0:0:0:
352,192,34145,1,8,0:0:0:0:
320,192,34341,1,8,0:0:0:0:
320,192,34537,5,8,0:0:0:0:
320,192,34635,1,8,0:0:0:0:
320,192,34733,1,0,0:0:0:0:
320,192,34831,1,8,0:0:0:0:
320,192,34929,1,0,0:0:0:0:
320,192,35027,1,0,0:0:0:0:
320,192,35125,1,8,0:0:0:0:
320,192,35321,1,8,0:0:0:0:
288,160,35517,1,0,0:0:0:0:
288,192,35713,5,0,0:0:0:0:
288,192,35811,1,0,0:0:0:0:
288,192,35909,1,8,0:0:0:0:
288,192,36105,1,0,0:0:0:0:
288,192,36497,5,0,0:0:0:0:
288,192,36596,1,8,0:0:0:0:
288,192,36694,1,8,0:0:0:0:
288,192,36890,1,0,0:0:0:0:
288,192,37282,5,8,0:0:0:0:
288,192,37380,1,8,0:0:0:0:
288,192,37478,1,8,0:0:0:0:
288,192,37674,1,0,0:0:0:0:
288,192,37968,1,8,0:0:0:0:
288,192,38262,1,0,0:0:0:0:
288,192,38458,1,8,0:0:0:0:
288,192,39243,5,0,0:0:0:0:
288,192,39537,1,8,0:0:0:0:
288,192,39635,1,0,0:0:0:0:
288,192,39831,1,8,0:0:0:0:
295,192,39929,1,8,0:0:0:0:
288,192,40027,1,0,0:0:0:0:
288,192,40419,1,0,0:0:0:0:
288,192,40615,1,0,0:0:0:0:
288,192,40811,5,8,0:0:0:0:
288,192,41105,1,0,0:0:0:0:
288,192,41203,1,8,0:0:0:0:
288,192,41399,1,0,0:0:0:0:
292,191,41497,1,0,0:0:0:0:
288,192,41596,1,8,0:0:0:0:
256,192,41988,1,0,0:0:0:0:
256,192,42184,1,8,0:0:0:0:
256,192,42282,1,8,0:0:0:0:
256,192,42380,5,0,0:0:0:0:
256,192,42674,1,8,0:0:0:0:
256,192,42772,1,0,0:0:0:0:
288,224,42968,1,8,0:0:0:0:
286,190,43066,1,8,0:0:0:0:
288,224,43164,1,0,0:0:0:0:
288,224,43360,1,8,0:0:0:0:
288,224,43556,1,0,0:0:0:0:
288,224,43948,5,8,0:0:0:0:
256,192,44046,1,0,0:0:0:0:
288,224,44145,1,0,0:0:0:0:
256,192,44243,1,0,0:0:0:0:
256,192,44341,1,8,0:0:0:0:
288,224,44733,5,0,0:0:0:0:
256,192,44831,1,8,0:0:0:0:
256,192,44929,1,8,0:0:0:0:
288,224,45027,1,8,0:0:0:0:
288,224,45125,1,0,0:0:0:0:
256,192,45517,5,0,0:0:0:0:
288,224,45615,1,8,0:0:0:0:
256,192,45811,1,8,0:0:0:0:
256,192,45909,1,0,0:0:0:0:
256,192,46105,1,8,0:0:0:0:
270,188,46203,1,8,0:0:0:0:
288,224,46301,1,0,0:0:0:0:
288,192,46497,1,0,0:0:0:0:
288,224,46694,1,0,0:0:0:0:
288,224,46890,1,8,0:0:0:0:
288,224,47086,5,0,0:0:0:0:
288,192,47184,1,8,0:0:0:0:
288,192,47380,1,8,0:0:0:0:
288,192,47478,1,0,0:0:0:0:
288,192,47674,1,8,0:0:0:0:
274,217,47772,1,8,0:0:0:0:
288,192,47870,1,0,0:0:0:0:
288,192,48066,1,8,0:0:0:0:
288,192,48262,1,0,0:0:0:0:
288,192,48458,1,0,0:0:0:0:
274,212,48556,1,0,0:0:0:0:
288,192,48654,5,8,0:0:0:0:
288,192,48850,1,0,0:0:0:0:
288,192,49046,1,0,0:0:0:0:
287,180,49145,1,8,0:0:0:0:
288,192,49243,1,8,0:0:0:0:
288,192,49439,1,0,0:0:0:0:
288,160,49635,1,8,0:0:0:0:
288,160,49831,1,8,0:0:0:0:
288,180,49929,1,8,0:0:0:0:
288,160,50027,1,0,0:0:0:0:
288,156,50125,1,0,0:0:0:0:
288,160,50223,1,8,0:0:0:0:
288,156,50909,5,8,0:0:0:0:
288,160,50958,1,8,0:0:0:0:
288,160,51007,1,8,0:0:0:0:
288,160,51203,1,0,0:0:0:0:
288,160,51399,5,12,0:0:0:0:
288,160,51595,5,12,0:0:0:0:
288,160,51792,5,4,0:0:0:0:
288,160,52086,1,0,0:0:0:0:
288,160,52184,1,0,0:0:0:0:
288,160,52380,1,8,0:0:0:0:
280,165,52478,1,8,0:0:0:0:
288,160,52576,1,0,0:0:0:0:
289,144,52772,1,0,0:0:0:0:
288,160,52968,1,8,0:0:0:0:
288,160,53164,1,8,0:0:0:0:
288,160,53360,5,8,0:0:0:0:
320,160,53654,1,0,0:0:0:0:
320,160,53752,1,8,0:0:0:0:
288,160,53948,1,0,0:0:0:0:
295,151,54046,1,8,0:0:0:0:
288,160,54145,1,8,0:0:0:0:
288,160,54243,1,8,0:0:0:0:
288,160,54341,1,0,0:0:0:0:
288,160,54537,1,8,0:0:0:0:
288,160,54733,1,0,0:0:0:0:
288,160,54929,5,0,0:0:0:0:
288,160,55223,1,8,0:0:0:0:
288,160,55321,1,0,0:0:0:0:
288,160,55517,1,8,0:0:0:0:
284,149,55615,1,8,0:0:0:0:
288,160,55713,1,0,0:0:0:0:
282,156,55811,1,0,0:0:0:0:
288,160,55909,1,8,0:0:0:0:
288,160,56105,1,0,0:0:0:0:
288,160,56203,1,0,0:0:0:0:
288,160,56301,1,8,0:0:0:0:
288,160,56497,5,0,0:0:0:0:
288,160,56694,1,8,0:0:0:0:
256,160,56792,1,8,0:0:0:0:
288,160,56890,1,8,0:0:0:0:
256,160,57086,1,0,0:0:0:0:
288,160,57282,5,8,0:0:0:0:
288,160,57478,1,0,0:0:0:0:
256,160,57576,1,0,0:0:0:0:
288,160,57674,1,0,0:0:0:0:
256,160,57870,1,8,0:0:0:0:
288,160,58066,5,0,0:0:0:0:
288,160,58164,1,8,0:0:0:0:
288,160,58360,1,8,0:0:0:0:
288,160,58458,1,0,0:0:0:0:
256,160,58654,1,0,0:0:0:0:
282,156,58752,1,8,0:0:0:0:
256,160,58850,1,0,0:0:0:0:
256,160,58948,1,8,0:0:0:0:
288,128,59046,1,8,0:0:0:0:
288,192,59243,1,8,0:0:0:0:
288,192,59439,1,8,0:0:0:0:
288,192,59635,5,0,0:0:0:0:
288,192,59733,1,8,0:0:0:0:
256,160,59929,1,8,0:0:0:0:
256,160,60027,1,0,0:0:0:0:
288,160,60223,1,8,0:0:0:0:
261,144,60321,1,0,0:0:0:0:
288,160,60419,1,8,0:0:0:0:
288,160,60517,1,0,0:0:0:0:
256,160,60615,1,0,0:0:0:0:
256,160,60811,1,8,0:0:0:0:
288,160,61007,1,0,0:0:0:0:
288,160,61203,5,8,0:0:0:0:
298,177,61301,1,8,0:0:0:0:
298,177,61399,1,8,0:0:0:0:
288,160,61595,1,8,0:0:0:0:
288,160,61792,1,0,0:0:0:0:
289,174,61890,1,8,0:0:0:0:
288,160,61988,1,8,0:0:0:0:
288,160,62086,1,8,0:0:0:0:
288,160,62184,1,0,0:0:0:0:
288,160,62380,1,8,0:0:0:0:
278,157,62478,1,8,0:0:0:0:
288,160,62576,1,8,0:0:0:0:
288,160,62772,1,4,0:0:0:0:
288,160,64341,5,8,0:0:0:0:
288,160,64635,1,0,0:0:0:0:
288,160,64929,1,0,0:0:0:0:
288,160,65125,1,8,0:0:0:0:
288,160,65517,1,0,0:0:0:0:
288,160,65713,1,0,0:0:0:0:
288,160,65909,5,8,0:0:0:0:
288,160,66203,1,0,0:0:0:0:
288,160,66497,1,0,0:0:0:0:
288,160,66694,1,8,0:0:0:0:
288,160,67282,5,0,0:0:0:0:
288,160,67478,1,8,0:0:0:0:
288,160,68066,5,0,0:0:0:0:
288,160,68262,1,8,0:0:0:0:
288,160,68850,5,0,0:0:0:0:
288,160,69046,1,8,0:0:0:0:
288,160,69243,1,8,0:0:0:0:
288,160,69439,1,0,0:0:0:0:
288,160,69831,1,8,0:0:0:0:
288,160,70223,1,8,0:0:0:0:
64,320,70615,5,4,0:0:0:0:
256,160,70909,1,0,0:0:0:0:
288,160,71007,1,8,0:0:0:0:
288,160,71203,1,0,0:0:0:0:
288,160,71399,1,8,0:0:0:0:
288,160,71792,1,8,0:0:0:0:
288,160,71988,1,8,0:0:0:0:
288,160,72184,5,0,0:0:0:0:
256,160,72478,1,8,0:0:0:0:
256,160,72576,1,8,0:0:0:0:
256,160,72772,1,0,0:0:0:0:
288,160,72968,1,8,0:0:0:0:
224,160,73556,5,8,0:0:0:0:
256,160,73752,1,0,0:0:0:0:
256,160,74341,5,0,0:0:0:0:
256,160,74537,1,8,0:0:0:0:
256,160,75125,5,8,0:0:0:0:
256,160,75321,1,0,0:0:0:0:
256,160,75419,1,0,0:0:0:0:
256,160,75517,1,0,0:0:0:0:
256,160,75615,1,0,0:0:0:0:
256,160,75713,1,8,0:0:0:0:
256,160,75811,1,8,0:0:0:0:
256,160,75909,1,8,0:0:0:0:
256,160,76007,1,8,0:0:0:0:
256,160,76105,1,0,0:0:0:0:
256,160,76497,5,12,0:0:0:0:
256,160,76694,5,12,0:0:0:0:
256,160,76890,5,4,0:0:0:0:
448,64,77184,1,8,0:0:0:0:
64,64,77282,1,0,0:0:0:0:
448,64,77478,1,8,0:0:0:0:
256,160,77576,1,8,0:0:0:0:
256,160,77674,1,0,0:0:0:0:
256,160,77968,1,0,0:0:0:0:
256,160,78066,1,8,0:0:0:0:
256,160,78262,1,8,0:0:0:0:
256,160,78458,5,8,0:0:0:0:
256,128,78752,1,0,0:0:0:0:
256,128,78850,1,8,0:0:0:0:
256,160,79046,1,0,0:0:0:0:
256,160,79145,1,8,0:0:0:0:
256,160,79243,1,8,0:0:0:0:
256,160,79439,1,0,0:0:0:0:
448,64,79537,1,0,0:0:0:0:
64,64,79635,1,8,0:0:0:0:
256,160,79831,5,0,0:0:0:0:
64,64,79929,1,8,0:0:0:0:
448,64,80027,1,8,0:0:0:0:
256,160,80223,1,0,0:0:0:0:
448,64,80419,1,8,0:0:0:0:
64,64,80615,5,0,0:0:0:0:
448,64,80713,1,8,0:0:0:0:
256,160,80811,1,8,0:0:0:0:
256,160,81007,1,0,0:0:0:0:
256,128,81203,1,8,0:0:0:0:
256,128,81399,5,8,0:0:0:0:
256,128,81596,1,8,0:0:0:0:
256,128,81694,1,0,0:0:0:0:
256,128,81792,1,0,0:0:0:0:
256,128,81890,1,0,0:0:0:0:
256,128,81988,1,8,0:0:0:0:
256,160,82184,1,8,0:0:0:0:
224,128,82380,5,0,0:0:0:0:
224,128,82674,1,8,0:0:0:0:
256,128,82772,1,0,0:0:0:0:
256,128,82968,1,0,0:0:0:0:
256,128,83164,5,12,0:0:0:0:
256,160,83458,1,8,0:0:0:0:
256,160,83556,1,8,0:0:0:0:
256,160,83752,1,0,0:0:0:0:
256,160,83948,1,8,0:0:0:0:
256,160,84046,1,8,0:0:0:0:
256,160,84145,1,0,0:0:0:0:
256,160,84243,1,8,0:0:0:0:
256,160,84341,1,8,0:0:0:0:
256,160,84537,1,0,0:0:0:0:
256,160,84733,5,8,0:0:0:0:
256,160,84831,1,0,0:0:0:0:
256,160,85027,1,0,0:0:0:0:
256,160,85125,1,8,0:0:0:0:
256,160,85321,1,0,0:0:0:0:
256,160,85517,1,0,0:0:0:0:
260,158,85615,1,0,0:0:0:0:
256,192,85713,1,8,0:0:0:0:
256,160,85811,1,0,0:0:0:0:
256,160,85909,1,0,0:0:0:0:
256,160,86105,5,0,0:0:0:0:
256,160,86203,1,0,0:0:0:0:
256,160,86301,1,8,0:0:0:0:
224,192,86399,1,0,0:0:0:0:
256,160,86497,1,8,0:0:0:0:
224,192,86596,1,8,0:0:0:0:
224,192,86694,1,0,0:0:0:0:
256,160,86792,1,8,0:0:0:0:
224,192,86890,1,0,0:0:0:0:
256,160,86988,1,0,0:0:0:0:
224,192,87086,1,8,0:0:0:0:
224,192,87184,1,0,0:0:0:0:
256,160,87282,1,8,0:0:0:0:
224,192,87380,1,8,0:0:0:0:
224,192,87478,1,0,0:0:0:0:
224,192,87576,1,8,0:0:0:0:
224,192,87674,1,0,0:0:0:0:
224,192,87739,1,0,0:0:0:0:
256,192,87805,1,8,0:0:0:0:
224,192,87870,1,0,0:0:0:0:
256,192,88556,5,8,0:0:0:0:
256,192,88605,1,8,0:0:0:0:
224,192,88654,1,0,0:0:0:0:
224,192,88850,1,0,0:0:0:0:
224,192,89046,1,8,0:0:0:0:
224,192,89145,1,8,0:0:0:0:
224,192,89243,1,8,0:0:0:0:
256,192,89439,5,4,0:0:0:0:
256,192,89733,1,8,0:0:0:0:
256,192,89831,1,0,0:0:0:0:
256,192,90027,1,8,0:0:0:0:
256,160,90125,1,8,0:0:0:0:
256,192,90223,1,0,0:0:0:0:
256,192,90517,1,8,0:0:0:0:
256,192,90615,1,0,0:0:0:0:
256,192,90811,1,8,0:0:0:0:
256,192,90909,1,8,0:0:0:0:
256,192,91007,1,0,0:0:0:0:
256,192,91105,1,8,0:0:0:0:
256,192,91301,1,8,0:0:0:0:
256,192,91399,1,0,0:0:0:0:
288,192,91596,1,8,0:0:0:0:
288,192,91694,1,8,0:0:0:0:
320,192,91792,1,0,0:0:0:0:
288,192,91988,1,8,0:0:0:0:
288,192,92184,1,0,0:0:0:0:
288,192,92282,1,0,0:0:0:0:
288,192,92380,1,8,0:0:0:0:
256,192,92478,1,8,0:0:0:0:
288,192,92576,5,0,0:0:0:0:
288,192,92870,1,8,0:0:0:0:
288,192,92968,1,0,0:0:0:0:
288,192,93164,1,8,0:0:0:0:
288,192,93262,1,8,0:0:0:0:
288,192,93360,1,0,0:0:0:0:
288,192,93654,1,8,0:0:0:0:
288,192,93752,1,0,0:0:0:0:
288,192,93948,1,8,0:0:0:0:
288,192,94145,1,0,0:0:0:0:
288,192,94243,1,8,0:0:0:0:
288,192,94341,1,8,0:0:0:0:
288,192,94439,1,8,0:0:0:0:
288,192,94537,1,0,0:0:0:0:
288,192,94733,1,8,0:0:0:0:
288,192,94929,1,0,0:0:0:0:
288,192,95027,1,8,0:0:0:0:
256,192,95223,1,8,0:0:0:0:
288,192,95321,1,0,0:0:0:0:
288,192,95419,1,0,0:0:0:0:
288,192,95517,1,8,0:0:0:0:
288,192,95615,1,8,0:0:0:0:
288,192,95713,5,0,0:0:0:0:
288,192,96007,1,8,0:0:0:0:
288,192,96105,1,0,0:0:0:0:
288,192,96301,1,8,0:0:0:0:
288,192,96399,1,8,0:0:0:0:
288,192,96497,1,0,0:0:0:0:
288,192,96596,1,0,0:0:0:0:
288,192,96792,1,8,0:0:0:0:
288,192,96890,1,0,0:0:0:0:
288,192,97086,1,8,0:0:0:0:
288,192,97282,1,0,0:0:0:0:
288,192,97380,1,8,0:0:0:0:
288,192,97478,1,8,0:0:0:0:
320,192,97576,1,8,0:0:0:0:
320,192,97674,1,0,0:0:0:0:
288,192,97870,1,8,0:0:0:0:
320,192,97968,1,8,0:0:0:0:
288,192,98066,1,0,0:0:0:0:
288,192,98262,1,8,0:0:0:0:
320,192,98458,5,0,0:0:0:0:
320,192,98556,1,0,0:0:0:0:
320,192,98654,1,8,0:0:0:0:
320,192,98850,1,0,0:0:0:0:
320,192,99046,1,0,0:0:0:0:
288,192,99243,5,0,0:0:0:0:
288,192,99341,1,8,0:0:0:0:
288,192,99439,1,8,0:0:0:0:
320,192,99635,1,8,0:0:0:0:
320,160,99831,1,0,0:0:0:0:
320,192,100027,5,8,0:0:0:0:
320,192,100125,1,8,0:0:0:0:
320,192,100223,1,8,0:0:0:0:
320,192,100419,1,0,0:0:0:0:
160,160,101203,5,8,0:0:0:0:
160,160,101399,1,8,0:0:0:0:
160,160,101595,1,0,0:0:0:0:
160,160,101661,1,8,0:0:0:0:
160,160,101726,1,8,0:0:0:0:
160,160,101792,1,0,0:0:0:0:
160,160,101988,5,12,0:0:0:0:
192,160,102184,1,0,0:0:0:0:
192,160,102282,1,8,0:0:0:0:
192,160,102380,1,0,0:0:0:0:
192,160,102576,1,8,0:0:0:0:
192,160,102772,1,8,0:0:0:0:
160,160,102870,1,8,0:0:0:0:
192,128,102968,1,0,0:0:0:0:
192,160,103066,1,8,0:0:0:0:
160,160,103164,1,0,0:0:0:0:
192,160,103360,1,8,0:0:0:0:
192,160,103556,1,0,0:0:0:0:
192,160,103654,1,0,0:0:0:0:
192,160,103752,1,8,0:0:0:0:
192,160,103850,1,0,0:0:0:0:
192,160,103948,1,8,0:0:0:0:
192,192,104046,1,8,0:0:0:0:
160,160,104145,1,0,0:0:0:0:
160,160,104341,1,0,0:0:0:0:
160,160,104537,1,8,0:0:0:0:
160,160,104733,1,0,0:0:0:0:
128,160,104831,1,0,0:0:0:0:
160,160,104929,1,8,0:0:0:0:
160,128,105027,1,8,0:0:0:0:
160,160,105125,5,0,0:0:0:0:
160,160,105321,1,8,0:0:0:0:
160,160,105419,1,0,0:0:0:0:
160,160,105517,1,8,0:0:0:0:
160,192,105713,1,0,0:0:0:0:
160,160,105909,1,0,0:0:0:0:
160,160,106007,1,0,0:0:0:0:
160,160,106105,1,8,0:0:0:0:
160,160,106203,1,0,0:0:0:0:
160,160,106301,1,8,0:0:0:0:
160,160,106497,1,0,0:0:0:0:
128,160,106694,1,8,0:0:0:0:
128,160,106792,1,8,0:0:0:0:
128,160,106890,1,0,0:0:0:0:
128,160,106988,1,8,0:0:0:0:
128,160,107086,1,0,0:0:0:0:
128,160,107184,1,0,0:0:0:0:
128,160,107282,1,8,0:0:0:0:
128,160,107380,1,8,0:0:0:0:
128,160,107478,1,0,0:0:0:0:
128,160,107576,1,8,0:0:0:0:
160,160,107772,1,8,0:0:0:0:
128,160,107870,1,0,0:0:0:0:
160,128,107968,1,0,0:0:0:0:
128,160,108066,1,8,0:0:0:0:
128,160,108164,1,8,0:0:0:0:
128,160,108262,5,0,0:0:0:0:
128,160,108458,1,0,0:0:0:0:
160,128,108556,1,8,0:0:0:0:
128,128,108654,1,0,0:0:0:0:
128,128,108850,1,8,0:0:0:0:
128,160,109046,1,8,0:0:0:0:
128,160,109145,1,8,0:0:0:0:
128,160,109243,1,0,0:0:0:0:
128,160,109341,1,8,0:0:0:0:
128,160,109439,1,0,0:0:0:0:
128,160,109635,1,8,0:0:0:0:
128,160,109831,1,0,0:0:0:0:
160,160,109929,1,0,0:0:0:0:
160,160,110027,1,8,0:0:0:0:
160,160,110125,1,0,0:0:0:0:
160,160,110223,1,8,0:0:0:0:
128,160,110321,1,8,0:0:0:0:
192,160,110419,1,0,0:0:0:0:
128,160,110615,1,8,0:0:0:0:
160,128,110811,1,0,0:0:0:0:
160,128,111007,5,8,0:0:0:0:
128,160,111105,1,8,0:0:0:0:
128,160,111203,1,0,0:0:0:0:
128,160,111399,1,8,0:0:0:0:
128,160,111792,5,8,0:0:0:0:
128,160,111890,1,0,0:0:0:0:
128,160,111988,1,0,0:0:0:0:
128,160,112184,1,8,0:0:0:0:
128,160,112576,5,0,0:0:0:0:
256,160,112674,1,0,0:0:0:0:
128,160,112772,1,0,0:0:0:0:
128,160,112968,1,8,0:0:0:0:
256,192,113654,5,0,0:0:0:0:
256,192,113703,1,0,0:0:0:0:
224,160,113752,1,8,0:0:0:0:
256,160,113948,1,0,0:0:0:0:
224,160,114145,1,8,0:0:0:0:
192,160,114210,1,0,0:0:0:0:
192,192,114275,1,0,0:0:0:0:
256,160,114341,1,8,0:0:0:0:
192,192,114537,5,4,0:0:0:0:
192,128,114733,1,8,0:0:0:0:
192,128,114831,1,0,0:0:0:0:
192,128,115027,1,0,0:0:0:0:
192,160,115125,1,8,0:0:0:0:
192,160,115321,1,8,0:0:0:0:
192,128,115419,1,8,0:0:0:0:
192,160,115517,1,0,0:0:0:0:
192,128,115615,1,8,0:0:0:0:
192,128,115811,1,0,0:0:0:0:
192,128,115909,1,8,0:0:0:0:
192,128,116105,1,8,0:0:0:0:
192,128,116203,1,8,0:0:0:0:
192,128,116301,1,0,0:0:0:0:
192,128,116399,1,8,0:0:0:0:
192,128,116497,1,0,0:0:0:0:
192,128,116595,1,0,0:0:0:0:
192,128,116694,1,8,0:0:0:0:
192,128,116890,1,0,0:0:0:0:
192,128,117086,1,0,0:0:0:0:
160,160,117282,1,8,0:0:0:0:
192,128,117380,1,8,0:0:0:0:
160,128,117478,1,0,0:0:0:0:
160,128,117576,1,0,0:0:0:0:
160,128,117674,1,8,0:0:0:0:
160,128,117870,1,0,0:0:0:0:
160,128,117968,1,8,0:0:0:0:
160,128,118164,1,8,0:0:0:0:
160,128,118262,1,0,0:0:0:0:
160,128,118458,1,8,0:0:0:0:
160,128,118556,1,8,0:0:0:0:
160,128,118654,1,0,0:0:0:0:
160,128,118752,1,0,0:0:0:0:
160,128,118948,1,8,0:0:0:0:
160,128,119046,1,0,0:0:0:0:
160,128,119243,1,8,0:0:0:0:
160,160,119341,1,8,0:0:0:0:
160,160,119439,1,0,0:0:0:0:
160,160,119537,1,8,0:0:0:0:
160,160,119635,1,0,0:0:0:0:
160,160,119733,1,0,0:0:0:0:
160,160,119831,1,8,0:0:0:0:
160,160,120027,1,0,0:0:0:0:
160,160,120125,1,8,0:0:0:0:
160,160,120223,1,8,0:0:0:0:
160,160,120321,1,8,0:0:0:0:
160,160,120419,1,0,0:0:0:0:
160,160,120517,1,0,0:0:0:0:
160,160,120615,1,8,0:0:0:0:
160,160,120713,1,0,0:0:0:0:
160,160,120811,5,8,0:0:0:0:
160,160,121007,1,0,0:0:0:0:
160,160,121105,1,8,0:0:0:0:
160,160,121301,1,8,0:0:0:0:
160,160,121399,1,0,0:0:0:0:
128,192,121595,1,8,0:0:0:0:
160,160,121694,1,8,0:0:0:0:
160,160,121792,1,0,0:0:0:0:
160,160,121890,1,8,0:0:0:0:
160,160,122086,1,8,0:0:0:0:
160,160,122184,1,0,0:0:0:0:
160,160,122380,1,0,0:0:0:0:
160,160,122478,1,8,0:0:0:0:
160,160,122576,1,8,0:0:0:0:
160,160,122674,1,0,0:0:0:0:
160,160,122772,1,8,0:0:0:0:
160,160,122870,1,8,0:0:0:0:
160,160,122968,1,0,0:0:0:0:
160,160,123164,1,8,0:0:0:0:
160,160,123360,1,0,0:0:0:0:
160,160,123556,5,0,0:0:0:0:
160,160,123654,1,0,0:0:0:0:
160,160,123752,1,8,0:0:0:0:
160,160,123948,1,0,0:0:0:0:
150,163,124145,1,8,0:0:0:0:
128,160,124341,5,0,0:0:0:0:
160,160,124439,1,8,0:0:0:0:
160,160,124537,1,8,0:0:0:0:
160,160,124733,1,0,0:0:0:0:
153,154,124929,1,0,0:0:0:0:
160,160,125125,5,8,0:0:0:0:
160,160,125223,1,8,0:0:0:0:
160,160,125321,1,8,0:0:0:0:
160,160,125517,1,0,0:0:0:0:
160,160,125811,1,0,0:0:0:0:
160,160,125909,1,8,0:0:0:0:
160,160,126105,1,0,0:0:0:0:
160,160,126301,5,0,0:0:0:0:
160,160,126595,1,0,0:0:0:0:
160,160,126694,1,8,0:0:0:0:
160,160,126890,1,0,0:0:0:0:
160,160,127086,5,0,0:0:0:0:
160,160,127380,5,0,0:0:0:0:
160,160,127674,5,0,0:0:0:0:
160,160,127870,5,0,0:0:0:0:
