osu file format v14

[General]
AudioFilename: audio.mp3
AudioLeadIn: 0
PreviewTime: 49287
Countdown: 0
SampleSet: Soft
StackLeniency: 0.4
Mode: 0
LetterboxInBreaks: 0
WidescreenStoryboard: 0

[Editor]
Bookmarks: 153037,166871,179704,189704,206037,232704
DistanceSpacing: 0.4
BeatDivisor: 4
GridSize: 8
TimelineZoom: 2.5

[Metadata]
Title:FLAT
TitleUnicode:FLAT
Artist:livetune adding Yuuki Ozaki (from Galileo Galilei)
ArtistUnicode:livetune adding Yuuki Ozaki (from Galileo Galilei)
Creator:Bellicose
Version:Sanbelia's Insane
Source:ハマトラ THE ANIMATION
Tags:hamatora ガリレオ ガリレイ 尾崎雄貴 japanese anime opening full version male vocals sandrew lobelia [ Abhor ] [_Abhor_] door weapon xIced
BeatmapID:2205688
BeatmapSetID:1044760

[Difficulty]
HPDrainRate:5
CircleSize:4
OverallDifficulty:8
ApproachRate:9
SliderMultiplier:1.7
SliderTickRate:1

[Events]
//Background and Video events
0,0,"w.jpg",0,0
//Break Periods
2,77570,85771
2,147904,152437
//Storyboard Layer 0 (Background)
//Storyboard Layer 1 (Fail)
//Storyboard Layer 2 (Pass)
//Storyboard Layer 3 (Foreground)
//Storyboard Layer 4 (Overlay)
//Storyboard Sound Samples

[TimingPoints]
1038,333.333333333333,4,2,1,50,1,0
1038,-133.333333333333,4,2,1,50,0,0
3704,-133.333333333333,4,2,1,60,0,0
5037,-100,4,2,1,70,0,0
6371,-100,4,2,1,80,0,0
15704,-133.333333333333,4,2,1,70,0,0
16204,-133.333333333333,4,2,1,75,0,0
16704,-83.3333333333333,4,2,1,75,0,0
17037,-111.111111111111,4,2,1,70,0,0
38371,-133.333333333333,4,2,1,70,0,0
46371,-133.333333333333,4,2,1,80,0,0
47537,-400,4,2,1,70,0,0
49037,-100,4,2,1,70,0,0
50037,-111.111111111111,4,2,1,100,0,0
50371,-100,4,2,1,85,0,1
75704,-100,4,2,1,70,0,0
77037,-100,4,2,1,80,0,0
86371,-100,4,2,1,70,0,0
86871,-100,4,2,1,80,0,0
87371,-83.3333333333333,4,2,1,80,0,0
87704,-111.111111111111,4,2,1,70,0,0
109037,-133.333333333333,4,2,1,70,0,0
117037,-133.333333333333,4,2,1,80,0,0
119704,-100,4,2,1,70,0,0
120704,-111.111111111111,4,2,1,100,0,0
121037,-100,4,2,1,85,0,1
146371,-100,4,2,1,70,0,0
153037,-100,4,2,1,70,0,0
158037,-66.6666666666667,4,2,1,80,0,0
158371,-100,4,2,1,70,0,0
179037,-76.9230769230769,4,2,1,70,0,0
179704,-100,4,2,1,70,0,0
195037,-100,4,2,1,80,0,0
195787,-100,4,2,1,70,0,0
198371,-83.3333333333333,4,2,1,80,0,0
199704,-83.3333333333333,4,2,1,90,0,0
200371,-71.4285714285714,4,2,1,80,0,0
205371,-100,4,2,1,70,0,0
206037,-111.111111111111,4,2,1,100,0,0
206371,-100,4,2,1,88,0,1
231537,-100,4,2,1,88,0,0
233037,-100,4,2,1,80,0,0
246371,-100,4,2,1,5,0,0

[Colours]
Combo1 : 253,255,179
Combo2 : 183,194,251
Combo3 : 150,225,254
Combo4 : 154,254,206

[HitObjects]
74,102,1038,5,2,0:3:0:0:
74,102,1204,2,0,P|66:65|75:30,1,63.7500024318696,2|0,0:3|0:0,0:0:0:0:
109,175,1537,1,2,0:3:0:0:
109,175,1704,2,0,P|72:183|37:174,1,63.7500024318696,0|0,0:0|0:0,0:0:0:0:
182,140,2037,1,2,0:3:0:0:
182,140,2204,2,0,P|190:177|181:212,1,63.7500024318696,0|0,0:0|0:0,0:0:0:0:
147,67,2537,1,2,0:3:0:0:
147,67,2704,2,0,P|184:59|219:68,1,63.7500024318696,0|0,0:0|0:0,0:0:0:0:
74,102,3037,5,2,0:3:0:0:
109,175,3204,1,2,0:3:0:0:
182,140,3371,1,2,0:3:0:0:
147,67,3537,1,2,0:3:0:0:
262,130,3704,5,2,0:3:0:0:
262,130,3871,2,0,P|258:166|231:205,1,63.7500024318696,2|0,0:3|0:0,0:0:0:0:
320,314,4204,1,2,0:3:0:0:
320,314,4371,2,0,P|290:292|270:249,1,63.7500024318696,0|0,0:0|0:0,0:0:0:0:
133,277,4704,2,0,P|166:262|213:266,1,63.7500024318696,2|0,0:3|0:0,0:0:0:0:
361,227,5037,5,8,0:0:0:0:
165,180,5204,1,8,0:3:0:0:
165,180,5287,1,8,0:0:0:0:
165,180,5371,1,8,0:3:0:0:
320,314,5537,1,8,0:0:0:0:
133,277,5704,1,8,0:3:0:0:
214,335,5871,1,0,3:0:0:0:
52,330,6037,1,10,0:0:0:0:
42,310,6120,1,2,0:0:0:0:
38,290,6203,1,2,0:0:0:0:
37,269,6286,1,2,0:0:0:0:
43,247,6371,6,0,P|51:184|34:105,1,127.5,6|0,3:2|0:0,0:0:0:0:
59,83,6704,2,0,P|100:69|154:79,1,85,8|8,0:0|0:0,0:0:0:0:
304,119,7037,2,0,P|263:133|209:123,1,85,2|0,0:0|3:0,0:0:0:0:
359,208,7371,1,8,0:0:0:0:
361,47,7537,6,0,P|337:115|373:227,1,170,0|0,3:0|3:0,0:0:0:0:
439,86,8037,2,0,P|428:126|443:177,1,85,8|0,0:0|3:0,0:0:0:0:
437,167,8287,1,8,0:0:0:0:
437,167,8371,1,2,0:0:0:0:
358,207,8537,1,0,3:0:0:0:
460,344,8704,1,10,0:0:0:0:
438,341,8787,1,2,0:0:0:0:
417,339,8870,1,2,0:0:0:0:
396,337,8954,1,2,0:0:0:0:
371,334,9037,6,0,L|218:346,1,127.5,2|0,3:2|0:0,0:0:0:0:
203,330,9371,2,0,P|205:284|189:238,1,85,8|8,0:0|0:0,0:0:0:0:
110,104,9704,2,0,P|108:150|124:196,1,85,2|0,0:0|3:0,0:0:0:0:
216,45,10037,1,10,0:0:0:0:
47,52,10204,6,0,L|227:45,1,170,2|0,3:2|3:0,0:0:0:0:
376,113,10704,2,0,L|282:112,1,85,8|0,0:0|3:0,0:0:0:0:
255,135,10954,1,8,0:0:0:0:
255,135,11037,2,0,P|243:180|252:228,1,85,2|0,0:0|3:0,0:0:0:0:
463,332,11371,2,0,P|475:287|466:239,1,85,8|0,0:0|0:0,0:0:0:0:
474,85,11704,6,0,P|453:164|478:266,1,170,2|10,3:2|0:0,0:0:0:0:
383,289,12204,1,2,0:3:0:0:
383,289,12287,1,8,0:0:0:0:
383,289,12371,2,0,L|289:295,1,85,2|2,0:0|3:3,0:0:0:0:
463,332,12704,1,10,0:0:0:0:
298,294,12871,1,2,3:3:0:0:
298,294,12954,1,8,0:0:0:0:
298,294,13038,6,0,L|204:300,1,85,2|2,0:0|3:3,0:0:0:0:
273,130,13371,2,0,L|367:136,1,85,10|2,0:0|3:3,0:0:0:0:
214,54,13704,2,0,P|239:114|160:113,1,170,2|8,0:0|0:0,0:0:0:0:
357,135,14204,1,2,0:0:0:0:
357,135,14287,1,2,0:0:0:0:
357,135,14371,6,0,L|451:141,1,85,2|2,3:2|0:0,0:0:0:0:
298,294,14704,2,0,L|204:288,1,85,8|2,0:0|0:3,0:0:0:0:
172,275,14954,1,8,0:0:0:0:
172,275,15037,2,0,P|164:228|183:175,1,85,2|0,0:3|3:0,0:0:0:0:
357,135,15371,2,0,P|365:182|346:235,1,85,10|2,0:0|3:3,0:0:0:0:
467,106,15704,6,0,L|472:42,1,63.7500024318696,2|2,0:0|0:3,0:0:0:0:
472,42,16204,5,8,0:0:0:0:
472,42,16287,1,8,0:0:0:0:
472,42,16371,2,0,L|467:106,1,63.7500024318696,0|0,3:0|3:0,0:0:0:0:
471,357,16704,6,0,B|462:305|462:305|474:266|474:266|464:201,1,152.999995330811,8|0,0:0|0:0,0:0:0:0:
397,155,17037,6,0,L|240:149,1,152.999995330811,4|8,3:0|0:0,0:0:0:0:
244,149,17537,1,2,0:3:0:0:
364,240,17704,2,0,L|262:242,1,76.4999976654053,2|0,0:0|3:0,0:0:0:0:
143,301,18037,2,0,L|245:303,1,76.4999976654053,8|0,0:0|3:0,0:0:0:0:
62,343,18371,6,0,P|93:291|73:218,1,114.749996498108,2|0,0:0|0:0,0:0:0:0:
91,200,18704,2,0,P|129:186|180:191,1,76.4999976654053,10|2,0:0|3:2,0:0:0:0:
249,48,19037,2,0,P|242:87|212:129,1,76.4999976654053,2|2,0:3|3:2,0:0:0:0:
223,118,19371,1,8,0:0:0:0:
244,247,19537,1,2,0:0:0:0:
244,247,19621,1,2,0:0:0:0:
244,247,19704,6,0,P|316:223|405:250,1,152.999995330811,0|8,3:0|0:0,0:0:0:0:
282,325,20204,2,0,P|319:314|373:325,1,76.4999976654053,2|2,0:3|0:3,0:0:0:0:
356,318,20537,1,0,3:0:0:0:
471,156,20704,2,0,P|466:110|478:76,1,76.4999976654053,10|0,0:0|3:0,0:0:0:0:
448,53,20954,1,2,0:0:0:0:
448,53,21037,6,0,L|288:48,1,152.999995330811,2|10,0:0|0:0,0:0:0:0:
212,124,21537,1,0,3:0:0:0:
394,158,21704,2,0,L|478:155,1,76.4999976654053,2|0,0:0|3:0,0:0:0:0:
203,246,22037,2,0,L|119:243,1,76.4999976654053,10|0,0:0|0:0,0:0:0:0:
273,268,22371,6,0,B|240:268|240:268|204:246|204:246|126:243,1,152.999995330811,0|8,3:0|0:0,0:0:0:0:
326,211,22871,2,0,B|304:287|304:287|274:316|274:316|267:348,1,152.999995330811,2|0,0:3|3:0,0:0:0:0:
320,131,23371,6,0,B|353:131|353:131|389:109|389:109|467:106,1,152.999995330811,10|2,0:0|0:3,0:0:0:0:
303,53,23871,2,0,B|332:53|332:53|365:33|365:33|435:30,1,114.749996498108,2|0,3:2|0:0,0:0:0:0:
441,31,24204,1,2,3:2:0:0:
424,179,24371,1,2,0:0:0:0:
466,106,24537,1,0,3:0:0:0:
433,269,24704,2,0,P|397:259|361:268,1,76.4999976654053,10|0,0:0|0:0,0:0:0:0:
150,337,25037,6,0,P|228:352|306:326,2,152.999995330811,2|8|2,3:2|0:0|0:0,0:0:0:0:
53,266,25871,2,0,L|46:358,1,76.4999976654053,0|8,3:0|0:0,0:0:0:0:
47,342,26204,1,0,3:0:0:0:
31,334,26537,6,0,B|37:259|37:259|31:222|31:222|35:165,1,152.999995330811,0|0,3:0|3:0,0:0:0:0:
149,336,27037,2,0,L|155:260,1,76.4999976654053,2|0,0:3|3:0,0:0:0:0:
141,166,27371,1,10,0:0:0:0:
53,266,27537,1,2,0:3:0:0:
62,112,27704,6,0,L|226:103,1,152.999995330811,0|8,3:0|0:0,0:0:0:0:
214,103,28204,1,2,0:3:0:0:
96,31,28371,2,0,L|182:22,1,76.4999976654053,2|0,0:0|3:0,0:0:0:0:
384,93,28704,2,0,L|298:84,1,76.4999976654053,10|0,0:0|3:0,0:0:0:0:
461,42,29037,6,0,P|432:108|462:171,1,114.749996498108,2|0,0:0|0:0,0:0:0:0:
438,184,29371,2,0,P|400:199|347:184,1,76.4999976654053,10|2,0:0|3:2,0:0:0:0:
274,322,29704,2,0,P|280:281|319:243,1,76.4999976654053,0|2,0:0|3:2,0:0:0:0:
301,254,30037,1,8,0:0:0:0:
241,108,30204,1,2,0:0:0:0:
241,108,30287,1,2,0:0:0:0:
241,108,30371,6,0,L|83:102,1,152.999995330811,0|8,3:0|0:0,0:0:0:0:
214,26,30871,2,0,L|115:21,1,76.4999976654053,2|2,0:3|0:3,0:0:0:0:
137,22,31204,1,0,3:0:0:0:
31,175,31371,2,0,L|21:272,1,76.4999976654053,10|2,0:0|3:2,0:0:0:0:
50,280,31621,1,2,0:0:0:0:
50,280,31704,6,0,P|124:258|202:280,1,152.999995330811,2|10,0:0|0:0,0:0:0:0:
306,336,32204,1,0,3:0:0:0:
160,349,32371,2,0,P|122:340|74:368,1,76.4999976654053,2|0,0:0|3:0,0:0:0:0:
361,229,32704,2,0,P|399:236|457:218,1,76.4999976654053,10|0,0:0|0:0,0:0:0:0:
309,173,33037,6,0,P|360:227|434:229,1,152.999995330811,2|8,3:2|0:0,0:0:0:0:
311,100,33537,2,0,P|309:175|360:228,1,152.999995330811,2|0,0:3|3:0,0:0:0:0:
191,284,34037,6,0,P|139:337|65:339,1,152.999995330811,10|2,0:0|0:0,0:0:0:0:
188,212,34537,2,0,P|189:286|138:340,1,152.999995330811,2|0,3:2|3:0,0:0:0:0:
265,334,35037,1,2,0:0:0:0:
102,252,35204,1,0,3:0:0:0:
346,190,35371,2,0,L|455:186,1,76.4999976654053,10|0,0:0|0:0,0:0:0:0:
267,127,35704,6,0,L|85:122,2,152.999995330811,2|8|2,3:2|0:0|0:3,0:0:0:0:
346,190,36537,1,0,3:0:0:0:
475,337,36704,2,0,L|470:242,1,76.4999976654053,10|10,0:0|0:0,0:0:0:0:
486,247,37204,5,0,3:0:0:0:
486,247,37371,2,0,L|490:323,1,76.4999976654053,8|0,0:0|3:0,0:0:0:0:
422,187,37704,5,2,0:3:0:0:
380,268,37871,1,2,3:2:0:0:
399,102,38037,5,10,0:0:0:0:
422,187,38204,1,2,0:3:0:0:
462,42,38371,6,0,L|312:46,1,127.500004863739,6|0,3:2|0:0,0:0:0:0:
232,93,38871,2,0,P|274:59|292:111,1,127.500004863739,2|0,3:2|0:0,0:0:0:0:
291,237,39371,2,0,B|273:172|311:173|286:90,1,127.500004863739,2|0,3:2|0:0,0:0:0:0:
15,138,40037,5,10,0:0:0:0:
112,25,40204,1,10,0:0:0:0:
99,173,40371,1,2,3:2:0:0:
22,44,40537,1,2,3:2:0:0:
159,104,40704,1,2,3:2:0:0:
36,350,41037,6,0,B|98:317|100:367|188:341,1,127.500004863739,2|0,3:2|0:0,0:0:0:0:
215,254,41537,2,0,P|192:303|249:303,1,127.500004863739,2|0,3:2|0:0,0:0:0:0:
366,310,42037,2,0,P|308:290|236:312,1,127.500004863739,2|0,3:2|0:0,0:0:0:0:
442,354,42537,5,8,0:0:0:0:
442,354,42704,2,0,P|450:316|442:280,1,63.7500024318696,8|0,0:0|3:0,0:0:0:0:
468,185,43037,1,10,0:0:0:0:
452,189,43120,1,2,0:0:0:0:
436,190,43203,1,0,3:0:0:0:
420,190,43287,1,0,3:0:0:0:
404,200,43371,2,0,L|394:245,3,31.8750012159348,10|2|2|2,0:0|0:0|0:0|0:0,0:0:0:0:
366,310,43704,5,2,3:2:0:0:
138,302,44037,1,0,3:0:0:0:
146,74,44371,1,2,3:2:0:0:
374,82,44704,1,0,3:0:0:0:
138,302,45037,5,2,3:2:0:0:
146,74,45371,1,0,3:0:0:0:
374,82,45704,1,2,3:2:0:0:
366,310,46037,1,0,3:0:0:0:
146,74,46371,6,0,L|69:68,1,63.7500024318696,8|0,0:0|3:0,0:0:0:0:
210,134,46704,1,0,3:0:0:0:
82,69,46871,2,0,L|5:63,1,63.7500024318696,10|0,0:0|3:0,0:0:0:0:
210,134,47204,1,2,3:2:0:0:
18,64,47371,1,8,0:0:0:0:
256,60,47537,5,6,3:2:0:0:
256,192,47621,12,0,48871,0:0:0:0:
304,315,49037,6,0,L|396:310,1,85,8|0,0:0|3:0,0:0:0:0:
388,310,49287,1,8,0:0:0:0:
388,310,49371,1,0,3:0:0:0:
219,356,49537,1,8,0:0:0:0:
211,326,49620,1,8,0:0:0:0:
213,294,49704,1,8,0:3:0:0:
226,265,49787,1,8,0:3:0:0:
247,241,49870,1,0,3:0:0:0:
197,45,50037,6,0,L|82:48,1,114.749996498108,2|0,1:2|0:0,0:0:0:0:
62,86,50371,6,0,L|189:83,1,127.5,6|0,3:2|0:0,0:0:0:0:
231,85,50704,1,10,0:0:0:0:
406,143,50871,1,2,0:0:0:0:
406,143,50954,1,8,0:0:0:0:
406,143,51037,2,0,L|305:139,1,85,2|2,0:0|3:2,0:0:0:0:
459,226,51371,1,10,0:0:0:0:
475,68,51537,6,0,P|442:145|460:227,1,170,2|0,3:2|3:0,0:0:0:0:
367,308,52037,2,0,P|324:275|268:272,1,85,8|0,0:0|3:0,0:0:0:0:
251,267,52287,1,8,0:0:0:0:
251,267,52371,2,0,P|198:271|151:304,1,85,2|0,0:0|3:0,0:0:0:0:
65,359,52704,2,0,P|93:311|39:302,1,127.5,10|0,0:0|0:0,0:0:0:0:
24,261,53037,6,0,P|30:212|70:168,1,85,2|0,3:2|0:0,0:0:0:0:
195,106,53371,1,10,0:0:0:0:
123,34,53537,1,2,0:0:0:0:
123,34,53621,1,8,0:0:0:0:
123,34,53704,1,2,0:0:0:0:
152,198,53871,1,2,3:2:0:0:
32,83,54037,1,10,0:0:0:0:
195,106,54204,6,0,B|379:95,1,170,2|0,3:2|3:0,0:0:0:0:
478,225,54704,1,8,0:0:0:0:
355,180,54871,1,0,3:0:0:0:
355,180,54954,1,8,0:0:0:0:
355,180,55037,2,0,L|365:89,1,85,2|2,0:0|3:2,0:0:0:0:
385,255,55371,2,0,P|339:260|288:224,1,85,10|2,0:0|0:0,0:0:0:0:
467,55,55704,6,0,L|476:218,1,127.5,2|0,3:2|0:0,0:0:0:0:
478,225,56037,1,10,0:0:0:0:
355,180,56204,1,2,0:0:0:0:
372,347,56371,2,0,P|333:330|291:335,1,85,2|0,0:0|3:0,0:0:0:0:
219,271,56704,1,8,0:0:0:0:
456,352,56871,6,0,B|375:349|375:349|338:320|292:336,1,170,2|2,3:2|3:2,0:0:0:0:
126,293,57371,1,8,0:0:0:0:
311,257,57537,1,0,3:0:0:0:
311,257,57621,1,8,0:0:0:0:
311,257,57704,2,0,P|309:299|291:337,1,85,2|2,0:0|3:2,0:0:0:0:
126,293,58037,2,0,P|127:250|146:213,1,85,10|2,0:0|0:0,0:0:0:0:
42,348,58371,6,0,P|33:267|60:186,1,127.5,2|0,3:2|0:0,0:0:0:0:
57,182,58704,1,10,0:0:0:0:
145,213,58871,1,2,0:3:0:0:
145,213,58954,1,8,0:0:0:0:
145,213,59037,1,2,0:3:0:0:
65,95,59204,1,2,3:2:0:0:
202,139,59371,1,8,0:0:0:0:
2,45,59537,6,0,L|176:34,1,170,2|0,3:2|3:0,0:0:0:0:
286,143,60037,2,0,L|179:137,1,85,10|0,0:0|3:0,0:0:0:0:
178,174,60287,1,8,0:0:0:0:
178,174,60371,6,0,L|167:228,3,42.5,2|0|0|0,0:0|0:0|3:0|0:0,0:0:0:0:
120,279,60704,1,10,0:0:0:0:
138,289,60787,1,2,0:0:0:0:
158,294,60870,1,2,0:3:0:0:
180,294,60954,1,2,0:3:0:0:
205,294,61037,6,0,P|268:287|341:331,1,127.5,2|0,3:2|0:0,0:0:0:0:
352,347,61371,1,10,0:0:0:0:
459,245,61537,1,2,0:0:0:0:
459,245,61621,1,8,0:0:0:0:
459,245,61704,2,0,P|443:284|467:351,1,85,2|2,0:0|3:2,0:0:0:0:
505,171,62037,1,10,0:0:0:0:
345,195,62204,6,0,P|446:202|514:162,1,170,2|0,3:2|3:0,0:0:0:0:
451,82,62704,2,0,P|412:99|371:94,1,85,10|0,0:0|3:0,0:0:0:0:
328,87,62954,1,8,0:0:0:0:
328,87,63037,2,0,P|286:81|248:99,1,85,2|0,0:0|3:0,0:0:0:0:
345,195,63371,2,0,P|301:166|324:220,1,127.5,10|0,0:0|0:0,0:0:0:0:
286,257,63704,6,0,P|246:277|181:264,1,85,2|0,3:2|0:0,0:0:0:0:
49,326,64037,1,10,0:0:0:0:
49,224,64204,1,2,0:0:0:0:
49,224,64287,1,8,0:0:0:0:
49,224,64371,1,2,0:0:0:0:
147,358,64537,1,2,3:2:0:0:
147,192,64704,1,8,0:0:0:0:
49,326,64871,6,0,B|47:221|47:221|34:133,1,170,2|0,3:2|3:0,0:0:0:0:
171,42,65371,1,8,0:0:0:0:
79,159,65537,1,0,3:0:0:0:
79,159,65621,1,8,0:0:0:0:
79,159,65704,2,0,L|25:156,1,42.5,2|0,0:0|0:0,0:0:0:0:
147,192,65871,2,0,L|189:189,1,42.5,2|0,3:2|0:0,0:0:0:0:
215,271,66037,2,0,L|112:270,1,85,10|0,0:0|0:0,0:0:0:0:
328,351,66371,6,0,P|393:339|463:354,1,127.5,2|0,3:2|0:0,0:0:0:0:
491,281,66704,2,0,P|499:236|492:178,1,85,10|2,0:0|0:3,0:0:0:0:
433,149,66954,1,8,0:0:0:0:
433,149,67037,2,0,P|388:141|333:153,1,85,2|0,0:0|3:0,0:0:0:0:
496,196,67371,1,10,0:0:0:0:
265,155,67537,6,0,B|348:150|348:150|385:132|433:149,1,170,2|2,3:2|3:2,0:0:0:0:
491,281,68037,1,8,0:0:0:0:
265,155,68204,1,0,3:0:0:0:
265,155,68287,1,8,0:0:0:0:
265,155,68371,2,0,L|272:49,1,85,2|0,0:0|3:0,0:0:0:0:
226,242,68704,2,0,P|267:249|309:240,1,85,10|2,0:0|0:0,0:0:0:0:
137,161,69037,6,0,P|143:97|127:36,1,127.5,2|0,3:2|0:0,0:0:0:0:
46,62,69371,2,0,P|58:99|42:161,1,85,10|2,0:0|0:3,0:0:0:0:
79,219,69621,1,8,0:0:0:0:
79,219,69704,2,0,P|72:260|84:300,1,85,2|0,0:0|3:0,0:0:0:0:
51,143,70037,1,10,0:0:0:0:
75,385,70204,6,0,B|84:304|84:304|63:253|79:219,1,170,2|2,3:2|3:2,0:0:0:0:
315,146,70704,1,8,0:0:0:0:
163,213,70871,1,0,3:0:0:0:
163,213,70954,1,8,0:0:0:0:
163,213,71037,2,0,L|57:220,1,85,2|2,0:0|3:2,0:0:0:0:
231,169,71371,2,0,P|242:209|233:251,1,85,10|2,0:0|0:0,0:0:0:0:
291,51,71704,6,0,P|341:53|394:28,1,85,2|0,3:2|0:0,0:0:0:0:
481,85,72037,2,0,P|472:126|475:170,1,85,10|2,0:0|0:3,0:0:0:0:
474,168,72287,1,8,0:0:0:0:
474,168,72371,1,2,0:3:0:0:
331,151,72537,1,2,3:2:0:0:
481,264,72704,1,8,0:0:0:0:
320,320,72871,6,0,L|332:130,1,170,2|0,3:2|3:0,0:0:0:0:
481,85,73371,1,8,0:0:0:0:
331,151,73537,1,0,3:0:0:0:
331,151,73621,1,8,0:0:0:0:
331,151,73704,2,0,L|217:148,1,85,2|0,0:0|3:0,0:0:0:0:
320,320,74037,2,0,L|404:312,1,85,10|2,0:0|0:0,0:0:0:0:
227,342,74371,6,0,P|179:333|125:349,1,85,2|0,3:2|0:0,0:0:0:0:
65,261,74704,2,0,P|84:224|89:182,1,85,10|2,0:0|0:0,0:0:0:0:
89,182,74954,1,8,0:0:0:0:
89,182,75037,1,2,0:3:0:0:
246,148,75204,1,2,3:2:0:0:
46,98,75371,1,8,0:0:0:0:
242,52,75537,1,2,3:2:0:0:
187,228,75704,5,10,0:0:0:0:
158,8,75871,1,8,0:3:0:0:
158,8,75954,1,8,0:0:0:0:
158,8,76037,1,8,0:3:0:0:
96,188,76204,1,8,0:0:0:0:
246,148,76371,1,8,0:3:0:0:
159,120,76537,1,0,3:0:0:0:
335,117,76704,1,10,0:0:0:0:
339,142,76787,1,2,0:0:0:0:
337,167,76870,1,2,0:0:0:0:
329,191,76953,1,2,0:0:0:0:
309,214,77037,6,0,P|296:258|388:244,1,170,6|8,3:2|0:0,0:0:0:0:
47,207,86371,5,2,0:0:0:0:
43,126,86537,1,2,3:3:0:0:
122,233,86704,1,10,0:0:0:0:
40,42,86871,1,8,0:0:0:0:
40,42,86954,1,8,0:0:0:0:
40,42,87038,2,0,L|44:130,1,85,0|0,3:0|0:0,0:0:0:0:
41,357,87371,6,0,B|50:305|50:305|38:266|38:266|48:201,1,152.999995330811,8|0,0:0|0:0,0:0:0:0:
115,155,87704,6,0,L|272:149,1,152.999995330811,4|8,3:0|0:0,0:0:0:0:
267,149,88204,1,2,0:3:0:0:
152,64,88371,2,0,L|244:66,1,76.4999976654053,2|0,0:0|3:0,0:0:0:0:
394,67,88704,2,0,L|302:69,1,76.4999976654053,10|0,0:0|0:0,0:0:0:0:
471,38,89037,6,0,P|436:83|424:154,1,114.749996498108,2|0,0:0|0:0,0:0:0:0:
413,176,89371,2,0,P|378:176|331:201,1,76.4999976654053,8|2,0:0|3:2,0:0:0:0:
454,320,89704,2,0,P|422:298|403:265,1,76.4999976654053,2|2,0:3|3:2,0:0:0:0:
403,265,90037,1,8,0:0:0:0:
268,241,90204,1,2,0:0:0:0:
268,241,90287,1,2,0:0:0:0:
268,241,90371,6,0,P|195:228|91:254,1,152.999995330811,0|8,3:0|0:0,0:0:0:0:
232,322,90871,2,0,P|195:315|143:328,1,76.4999976654053,2|2,0:3|0:3,0:0:0:0:
157,322,91204,1,0,3:0:0:0:
47,179,91371,2,0,P|58:135|41:86,1,76.4999976654053,10|0,0:0|3:0,0:0:0:0:
70,71,91621,1,0,0:0:0:0:
70,71,91704,6,0,L|232:61,1,152.999995330811,2|10,0:0|0:0,0:0:0:0:
323,138,92204,1,0,3:0:0:0:
123,180,92371,2,0,L|24:178,1,76.4999976654053,2|0,0:0|3:0,0:0:0:0:
297,258,92704,2,0,L|373:259,1,76.4999976654053,10|2,0:0|0:0,0:0:0:0:
222,271,93037,6,0,B|251:272|251:272|296:259|296:259|373:259,1,152.999995330811,2|8,3:2|0:0,0:0:0:0:
145,269,93537,2,0,B|221:272|221:272|256:270|256:270|297:259,1,152.999995330811,2|0,0:3|3:0,0:0:0:0:
403,104,94037,6,0,B|374:103|374:103|329:116|329:116|251:115,1,152.999995330811,10|2,0:0|0:3,0:0:0:0:
479,106,94537,2,0,B|403:103|403:103|372:105|372:105|327:116,1,152.999995330811,2|0,3:2|3:0,0:0:0:0:
381,184,95037,1,2,0:0:0:0:
251,115,95204,1,0,3:0:0:0:
454,261,95371,2,0,L|462:359,1,76.4999976654053,10|0,0:0|0:0,0:0:0:0:
381,184,95704,6,0,L|351:350,2,152.999995330811,2|8|2,3:2|0:0|0:0,0:0:0:0:
465,120,96537,2,0,P|475:75|462:18,1,76.4999976654053,0|8,3:0|0:0,0:0:0:0:
471,45,96871,1,2,3:2:0:0:
491,34,97204,6,0,B|512:105|458:106|491:216,1,152.999995330811,0|0,3:0|3:0,0:0:0:0:
383,38,97704,2,0,P|385:76|376:112,1,76.4999976654053,2|0,0:3|3:0,0:0:0:0:
415,273,98037,1,8,0:0:0:0:
304,171,98204,1,2,0:3:0:0:
488,329,98371,6,0,P|420:313|313:353,1,152.999995330811,0|8,3:0|0:0,0:0:0:0:
340,333,98871,1,2,0:3:0:0:
304,171,99037,2,0,P|304:209|266:253,1,76.4999976654053,2|0,0:0|3:0,0:0:0:0:
174,334,99371,2,0,L|264:325,1,76.4999976654053,10|0,0:0|3:0,0:0:0:0:
69,302,99704,5,2,0:0:0:0:
69,302,99787,1,2,0:0:0:0:
69,302,99871,1,0,3:0:0:0:
89,204,100037,2,0,P|124:204|171:179,1,76.4999976654053,10|2,0:0|3:2,0:0:0:0:
48,60,100370,2,0,P|79:81|98:114,1,76.4999976654053,2|2,0:3|3:2,0:0:0:0:
99,115,100703,1,8,0:0:0:0:
239,136,100870,1,2,0:0:0:0:
239,136,100953,1,2,0:0:0:0:
239,136,101037,6,0,L|412:127,1,152.999995330811,0|8,3:0|0:0,0:0:0:0:
391,128,101537,1,2,0:3:0:0:
279,43,101704,2,0,L|375:49,1,76.4999976654053,2|0,0:3|3:0,0:0:0:0:
474,196,102037,2,0,L|479:287,1,76.4999976654053,10|0,0:0|3:0,0:0:0:0:
473,310,102287,1,2,0:0:0:0:
473,310,102371,6,0,P|397:301|315:323,1,152.999995330811,2|10,0:0|0:0,0:0:0:0:
216,280,102871,1,0,3:0:0:0:
351,106,103037,2,0,P|389:99|447:117,1,76.4999976654053,2|0,0:0|3:0,0:0:0:0:
222,189,103371,2,0,P|184:196|126:178,1,76.4999976654053,10|0,0:0|0:0,0:0:0:0:
299,162,103704,6,0,P|350:108|424:106,1,152.999995330811,2|8,3:2|0:0,0:0:0:0:
221,188,104204,2,0,P|296:186|350:238,1,152.999995330811,2|0,0:3|3:0,0:0:0:0:
170,263,104704,6,0,L|178:104,1,152.999995330811,10|0,0:0|0:0,0:0:0:0:
39,33,105204,2,0,L|47:192,1,152.999995330811,2|0,3:2|3:0,0:0:0:0:
174,188,105704,1,2,0:0:0:0:
43,109,105871,1,0,3:0:0:0:
269,206,106037,2,0,L|367:199,1,76.4999976654053,10|0,0:0|0:0,0:0:0:0:
201,281,106371,6,0,L|36:278,2,152.999995330811,2|8|2,3:2|0:0|0:3,0:0:0:0:
80,364,107204,2,0,L|172:359,1,76.4999976654053,0|10,3:0|0:0,0:0:0:0:
156,359,107537,1,10,0:0:0:0:
185,374,107871,5,0,3:0:0:0:
185,374,108038,2,0,L|109:379,1,76.4999976654053,8|0,0:0|3:0,0:0:0:0:
286,316,108371,5,2,0:3:0:0:
202,282,108537,1,2,3:2:0:0:
370,286,108704,5,10,0:0:0:0:
286,316,108871,1,2,0:3:0:0:
476,304,109037,6,0,P|422:298|436:351,1,127.500004863739,6|0,3:2|0:0,0:0:0:0:
488,218,109537,2,0,P|422:210|356:254,1,127.500004863739,2|0,3:2|0:0,0:0:0:0:
242,245,110037,2,0,L|381:236,1,127.500004863739,2|0,3:2|0:0,0:0:0:0:
489,41,110704,5,10,0:0:0:0:
357,112,110871,1,10,0:0:0:0:
504,134,111037,1,2,3:2:0:0:
397,29,111204,1,2,3:2:0:0:
423,176,111371,1,2,3:2:0:0:
146,235,111704,6,0,P|139:289|192:275,1,127.500004863739,2|0,3:2|0:0,0:0:0:0:
309,314,112204,2,0,P|257:281|193:275,1,127.500004863739,2|0,3:2|0:0,0:0:0:0:
59,223,112704,2,0,P|51:289|95:355,1,127.500004863739,2|0,3:2|0:0,0:0:0:0:
80,144,113204,5,8,0:0:0:0:
80,144,113371,2,0,P|49:142|19:152,1,63.7500024318696,8|0,0:0|3:0,0:0:0:0:
153,121,113704,1,10,0:0:0:0:
160,139,113788,1,2,0:0:0:0:
160,155,113871,1,0,3:0:0:0:
156,170,113954,1,0,3:0:0:0:
149,186,114037,2,0,L|154:225,3,31.8750012159348,10|0|0|0,0:0|0:0|0:0|0:0,0:0:0:0:
133,298,114371,5,2,3:2:0:0:
150,69,114704,1,0,3:0:0:0:
379,86,115037,1,2,3:2:0:0:
362,315,115370,1,0,3:0:0:0:
150,69,115704,5,2,3:2:0:0:
379,86,116037,1,0,3:0:0:0:
362,315,116371,1,2,3:2:0:0:
133,298,116704,1,0,3:0:0:0:
379,86,117037,6,0,L|456:80,1,63.7500024318696,8|0,0:0|3:0,0:0:0:0:
315,146,117370,1,0,3:0:0:0:
443,81,117537,2,0,L|520:75,1,63.7500024318696,10|0,0:0|0:0,0:0:0:0:
315,146,117870,1,2,3:2:0:0:
507,76,118037,1,8,0:0:0:0:
269,72,118203,5,6,3:2:0:0:
256,192,118287,12,0,119537,0:0:0:0:
133,144,119704,6,0,L|138:52,1,85,8|0,0:0|3:0,0:0:0:0:
138,60,119954,1,8,0:0:0:0:
138,60,120038,1,0,3:0:0:0:
92,229,120204,1,8,0:0:0:0:
122,237,120287,1,8,0:0:0:0:
154,235,120371,1,8,0:3:0:0:
183,222,120454,1,8,0:3:0:0:
207,201,120537,1,0,3:0:0:0:
403,251,120704,6,0,L|400:366,1,114.749996498108,2|0,1:2|0:0,0:0:0:0:
362,386,121038,6,0,L|365:259,1,127.5,6|0,3:2|0:0,0:0:0:0:
363,217,121371,1,10,0:0:0:0:
460,114,121537,1,2,0:0:0:0:
460,114,121621,1,8,0:0:0:0:
460,114,121704,2,0,L|468:219,1,85,2|2,0:0|3:2,0:0:0:0:
335,79,122037,1,10,0:0:0:0:
490,40,122204,6,0,B|465:72|465:72|333:80,1,170,2|0,3:2|3:0,0:0:0:0:
235,40,122704,2,0,P|227:80|242:131,1,85,8|0,0:0|3:0,0:0:0:0:
257,160,122954,1,8,0:0:0:0:
257,160,123037,2,0,P|267:200|259:242,1,85,2|0,0:0|3:0,0:0:0:0:
369,352,123371,2,0,P|363:299|322:332,1,127.5,10|0,0:0|0:0,0:0:0:0:
283,347,123704,6,0,P|234:348|194:361,1,85,2|0,3:2|0:0,0:0:0:0:
49,284,124037,1,10,0:0:0:0:
96,375,124204,1,2,0:0:0:0:
96,375,124287,1,8,0:0:0:0:
96,375,124371,1,2,0:0:0:0:
120,210,124537,1,2,3:2:0:0:
199,358,124704,1,10,0:0:0:0:
31,166,124871,6,0,L|205:159,1,170,2|0,3:2|3:0,0:0:0:0:
304,46,125371,1,8,0:0:0:0:
200,159,125537,1,0,3:0:0:0:
200,159,125621,1,8,0:0:0:0:
200,159,125704,2,0,L|198:262,1,85,2|2,0:0|3:2,0:0:0:0:
152,87,126037,2,0,P|197:73|245:93,1,85,10|2,0:0|0:0,0:0:0:0:
43,26,126371,6,0,P|29:89|50:154,1,127.5,2|2,3:2|0:0,0:0:0:0:
65,186,126704,1,10,0:0:0:0:
152,87,126871,1,2,0:3:0:0:
134,261,127037,2,0,P|192:247|234:261,1,85,2|0,0:0|3:0,0:0:0:0:
306,299,127371,1,8,0:0:0:0:
52,277,127537,6,0,B|133:261|133:261|173:235|216:251,1,170,2|2,3:2|3:2,0:0:0:0:
392,344,128037,1,8,0:0:0:0:
216,251,128204,1,0,3:0:0:0:
216,251,128287,1,8,0:0:0:0:
216,250,128371,2,0,P|204:291|210:333,1,85,2|2,0:0|3:2,0:0:0:0:
392,344,128704,2,0,P|404:303|399:262,1,85,10|2,0:0|0:0,0:0:0:0:
484,382,129037,6,0,P|496:323|485:245,1,127.5,2|0,3:2|0:0,0:0:0:0:
482,213,129371,1,10,0:0:0:0:
399,262,129537,1,2,0:3:0:0:
399,262,129621,1,8,0:0:0:0:
399,262,129704,1,2,0:3:0:0:
471,123,129871,1,2,3:2:0:0:
334,194,130037,1,8,0:0:0:0:
497,40,130204,6,0,P|439:76|334:57,1,170,2|0,3:2|3:0,0:0:0:0:
180,122,130704,2,0,P|221:108|285:133,1,85,10|0,0:0|3:0,0:0:0:0:
285,150,130954,1,8,0:0:0:0:
285,150,131038,6,0,L|292:204,3,42.5,2|0|0|0,0:0|0:0|3:0|0:0,0:0:0:0:
336,258,131371,1,10,0:0:0:0:
317,267,131454,1,2,0:0:0:0:
297,271,131537,1,2,0:3:0:0:
275,269,131621,1,2,0:3:0:0:
248,268,131704,6,0,P|176:292|138:346,1,127.5,2|0,3:2|0:0,0:0:0:0:
119,365,132037,1,10,0:0:0:0:
54,215,132204,1,2,0:0:0:0:
54,215,132287,1,8,0:0:0:0:
54,215,132371,2,0,P|60:264|36:322,1,85,2|2,0:0|3:2,0:0:0:0:
169,155,132704,1,10,0:0:0:0:
13,143,132871,6,0,B|46:174|46:174|178:154,1,170,2|0,3:2|3:0,0:0:0:0:
72,69,133371,2,0,L|155:55,1,85,10|0,0:0|3:0,0:0:0:0:
198,54,133621,1,8,0:0:0:0:
198,54,133704,2,0,L|301:57,1,85,2|0,0:0|3:0,0:0:0:0:
423,42,134037,2,0,P|375:58|431:93,1,127.5,10|0,0:0|0:0,0:0:0:0:
441,133,134371,6,0,P|458:168|460:233,1,85,2|0,3:2|0:0,0:0:0:0:
334,316,134704,1,10,0:0:0:0:
420,373,134871,1,2,0:0:0:0:
420,373,134954,1,8,0:0:0:0:
420,373,135037,1,2,0:0:0:0:
361,216,135204,1,2,3:2:0:0:
498,307,135371,1,8,0:0:0:0:
334,316,135537,6,0,L|163:324,1,170,2|0,3:2|3:0,0:0:0:0:
40,165,136037,1,8,0:0:0:0:
234,241,136204,1,0,3:0:0:0:
234,241,136287,1,8,0:0:0:0:
234,241,136371,2,0,L|236:199,1,42.5,2|0,0:0|0:0,0:0:0:0:
162,281,136537,2,0,L|164:323,1,42.5,2|0,3:2|0:0,0:0:0:0:
84,348,136704,2,0,L|80:256,1,85,10|0,0:0|0:0,0:0:0:0:
46,40,137037,6,0,P|31:101|41:170,1,127.5,2|0,3:2|0:0,0:0:0:0:
118,150,137371,2,0,P|116:104|131:53,1,85,10|2,0:0|0:3,0:0:0:0:
197,34,137621,1,8,0:0:0:0:
197,34,137704,2,0,L|288:29,1,85,2|0,0:0|3:0,0:0:0:0:
125,66,138037,1,8,0:0:0:0:
356,56,138204,6,0,B|319:59|319:59|282:30|282:30|197:34,1,170,2|2,3:2|3:2,0:0:0:0:
118,150,138704,1,8,0:0:0:0:
310,145,138871,1,0,3:0:0:0:
310,145,138954,1,8,0:0:0:0:
310,145,139037,2,0,L|419:135,1,85,2|0,0:0|3:0,0:0:0:0:
240,187,139371,2,0,P|231:127|251:90,1,85,10|2,0:0|0:0,0:0:0:0:
478,225,139704,6,0,P|484:285|472:362,1,127.5,2|0,3:2|0:0,0:0:0:0:
401,356,140037,2,0,P|357:354|304:368,1,85,10|2,0:0|0:3,0:0:0:0:
241,356,140287,1,8,0:0:0:0:
241,356,140371,2,0,L|247:250,1,85,2|2,0:0|3:2,0:0:0:0:
317,362,140704,1,10,0:0:0:0:
239,187,140871,6,0,B|236:225|236:225|247:261|247:261|241:356,1,170,2|2,3:2|3:2,0:0:0:0:
401,356,141371,1,8,0:0:0:0:
328,202,141537,1,0,3:0:0:0:
328,202,141621,1,8,0:0:0:0:
328,202,141704,2,0,L|332:95,1,85,2|2,0:0|3:2,0:0:0:0:
291,272,142037,2,0,P|329:277|392:246,1,85,10|2,0:0|0:0,0:0:0:0:
225,339,142371,6,0,P|187:334|124:365,1,85,2|0,3:2|0:0,0:0:0:0:
59,279,142704,2,0,P|73:243|60:174,1,85,10|2,0:0|0:3,0:0:0:0:
70,197,142954,1,8,0:0:0:0:
70,197,143037,1,2,0:3:0:0:
199,106,143204,1,2,3:2:0:0:
47,78,143371,1,8,0:0:0:0:
254,34,143537,6,0,L|242:221,1,170,2|0,3:2|3:0,0:0:0:0:
70,197,144037,1,8,0:0:0:0:
174,326,144204,1,0,3:0:0:0:
174,326,144287,1,8,0:0:0:0:
174,326,144371,2,0,L|56:330,1,85,2|0,0:0|3:0,0:0:0:0:
243,203,144704,2,0,L|327:200,1,85,10|2,0:0|0:0,0:0:0:0:
451,330,145037,6,0,L|406:257,1,85,2|0,3:2|0:0,0:0:0:0:
454,91,145371,2,0,L|414:166,1,85,10|2,0:0|0:0,0:0:0:0:
414,166,145621,1,8,0:0:0:0:
414,166,145704,1,2,0:3:0:0:
320,289,145871,1,2,3:2:0:0:
491,227,146037,1,8,0:0:0:0:
327,200,146204,1,2,3:2:0:0:
451,330,146371,5,8,0:0:0:0:
343,111,146537,1,8,0:3:0:0:
343,111,146621,1,8,0:0:0:0:
343,111,146704,1,8,0:3:0:0:
320,289,146871,1,8,0:0:0:0:
421,174,147037,1,8,0:3:0:0:
406,257,147204,1,0,3:0:0:0:
264,161,147371,2,0,L|155:157,1,85,8|2,0:0|0:0,0:0:0:0:
179,157,147704,5,6,0:0:0:0:
256,282,153037,5,6,3:3:0:0:
165,191,153371,1,0,3:0:0:0:
256,101,153704,1,0,3:0:0:0:
346,192,154037,1,2,3:3:0:0:
256,282,154371,5,0,3:0:0:0:
264,306,154537,2,0,B|173:294|185:332|93:321,1,170,2|0,0:3|0:0,0:0:0:0:
85,205,155037,2,0,P|114:197|124:247,3,85,2|2|2|2,3:3|0:3|3:3|0:3,0:0:0:0:
81,343,155704,5,2,3:3:0:0:
96,321,155871,2,0,B|185:332|173:294|264:306,1,170,2|2,0:3|0:3,0:0:0:0:
429,337,156371,2,0,P|387:345|344:333,1,85,0|0,3:0|0:0,0:0:0:0:
330,246,156704,5,2,3:2:0:0:
325,220,156871,1,2,0:0:0:0:
235,225,157037,5,0,3:0:0:0:
237,191,157204,1,2,0:0:0:0:
146,223,157371,5,2,3:2:0:0:
140,181,157537,1,2,0:0:0:0:
74,95,157704,5,0,3:0:0:0:
49,87,157787,1,2,0:3:0:0:
49,61,157871,1,8,0:0:0:0:
74,53,157954,1,2,0:0:0:0:
90,74,158037,6,0,B|185:60|159:110|234:90|234:90|224:68|182:67,1,191.250007295609,6|0,3:2|0:0,0:0:0:0:
299,34,158371,6,0,B|337:92|302:150|302:150|359:104|442:139|462:231|389:301|319:269,1,425,2|0,3:2|0:0,0:0:0:0:
347,205,159371,2,0,B|349:239|322:269|322:269|319:279|319:279|300:310|310:366|310:366|273:323|232:325|232:325|221:321|221:321|180:337|99:320|58:197|189:123|263:211|263:211|265:122|340:80|468:104|459:244|391:330|391:330|429:290|491:313,1,1105,2|2,3:2|0:0,0:0:0:0:
449,380,161704,1,0,3:0:0:0:
449,380,162037,5,2,3:2:0:0:
477,308,162204,1,2,0:0:0:0:
471,341,162371,2,0,P|429:337|379:346,1,85,0|0,3:0|0:0,0:0:0:0:
304,238,162704,2,0,P|264:255|233:305,1,85,2|0,3:2|0:0,0:0:0:0:
172,242,163037,2,0,B|150:285|166:324|166:324|129:301|79:318,1,170,2|2,3:2|3:2,0:0:0:0:
90,235,163537,1,2,0:0:0:0:
90,235,163621,1,2,0:0:0:0:
90,235,163704,6,0,B|24:195|-20:17|127:-73|268:75|111:146,1,425,2|0,3:2|0:0,0:0:0:0:
127,137,164704,2,0,B|198:109|279:153|279:153|275:143|275:143|303:156|356:171|531:284|543:-14|268:-18|363:272|363:272|516:266|556:207|598:3|403:-11,1,1105,2|2,3:2|0:0,0:0:0:0:
351,7,167037,1,0,3:0:0:0:
234,106,167371,6,0,P|192:114|145:109,1,85,2|0,3:2|0:0,0:0:0:0:
104,39,167704,2,0,P|131:71|149:109,1,85,2|0,3:2|0:0,0:0:0:0:
111,184,168037,2,0,P|124:143|149:109,1,85,2|0,3:2|0:0,0:0:0:0:
202,22,168371,5,0,3:0:0:0:
206,193,168537,1,8,0:0:0:0:
48,116,168704,1,0,3:0:0:0:
149,109,168871,1,2,0:3:0:0:
149,109,169037,6,0,B|194:192|127:304|127:304|20:229|48:114,1,425,2|0,3:2|0:0,0:0:0:0:
95,55,170037,2,0,B|192:93|173:22|257:61|257:61|284:107|334:115|334:115|430:-6|596:137|416:234|413:152|413:152|357:219|277:184|277:184|241:232|252:272|252:272|344:299|409:262|409:262|395:286|405:311,1,1020,2|0,3:2|3:0,0:0:0:0:
183,335,172371,1,0,3:0:0:0:
183,335,172704,5,2,3:2:0:0:
121,289,172871,1,2,0:0:0:0:
51,320,173037,2,0,P|44:279|63:237,1,85,0|0,3:0|0:0,0:0:0:0:
189,254,173371,2,0,P|197:295|182:334,1,85,2|0,3:2|0:0,0:0:0:0:
60,240,173704,2,0,P|53:199|72:157,1,85,2|2,3:2|0:0,0:0:0:0:
198,174,174038,2,0,P|206:215|191:254,1,85,2|2,3:2|0:0,0:0:0:0:
141,113,174371,6,0,P|192:133|144:37,1,255,0|2,3:0|0:0,0:0:0:0:
89,57,175037,1,0,3:0:0:0:
264,83,175371,2,0,P|293:82|350:62,1,85,2|0,3:2|0:0,0:0:0:0:
379,45,175621,1,0,0:0:0:0:
379,45,175704,6,0,P|387:84|391:142,1,85,2|0,3:2|0:0,0:0:0:0:
435,235,176037,2,0,P|426:193|423:151,1,85,2|0,3:2|0:0,0:0:0:0:
499,114,176371,2,0,P|457:123|415:126,1,85,2|2,3:2|0:0,0:0:0:0:
317,171,176704,2,0,P|356:163|414:159,1,85,2|0,3:2|0:0,0:0:0:0:
195,171,177037,6,0,P|153:162|111:159,1,85,2|0,3:2|0:0,0:0:0:0:
12,114,177370,2,0,P|54:123|96:126,1,85,2|0,3:2|0:0,0:0:0:0:
133,44,177704,2,0,P|124:86|121:128,1,85,2|0,3:2|0:0,0:0:0:0:
76,235,178037,2,0,P|85:193|88:151,1,85,2|0,3:2|0:0,0:0:0:0:
12,114,178371,5,0,3:0:0:0:
256,48,178704,1,2,3:2:0:0:
340,90,178871,2,0,P|358:95|387:89,1,42.5,2|0,0:3|0:0,0:0:0:0:
480,28,179037,6,0,P|474:56|474:89,1,55.2499974708558,0|0,3:0|0:0,0:0:0:0:
459,106,179204,2,0,P|456:143|458:179,1,55.2499974708558,8|0,0:0|0:0,0:0:0:0:
440,184,179371,2,0,P|439:213|443:246,1,55.2499974708558,0|0,3:0|0:0,0:0:0:0:
418,254,179537,2,0,P|417:286|421:318,1,55.2499974708558,2|0,0:3|0:0,0:0:0:0:
408,334,179704,6,0,B|458:375|530:274|315:186|296:373|197:394|86:307|198:212|242:292,1,425,6|0,3:2|0:0,0:0:0:0:
103,334,180704,2,0,B|79:270|125:210|125:210|101:205|101:205|124:141|87:65|87:65|132:136|207:153|207:153|192:172|192:172|275:152|333:229|333:229|368:157|451:146|451:146|337:60|240:83|240:83|291:72|321:23,1,1105,2|2,3:2|0:0,0:0:0:0:
234,0,183037,1,0,3:0:0:0:
428,31,183371,1,2,3:2:0:0:
483,92,183537,1,2,0:0:0:0:
407,109,183704,6,0,P|398:151|400:197,1,85,0|0,3:0|0:0,0:0:0:0:
468,241,184037,2,0,P|436:212|395:190,1,85,2|0,3:2|0:0,0:0:0:0:
273,262,184371,2,0,P|296:243|316:233,2,42.5,2|0|0,3:2|0:0|0:0,0:0:0:0:
188,298,184704,2,0,P|161:292|112:246,1,85,2|0,3:2|0:0,0:0:0:0:
22,200,185037,6,0,B|82:195|106:137|106:137|91:340|91:340|134:291|201:298,1,425,2|0,3:2|0:0,0:0:0:0:
266,338,186037,2,0,B|135:228|303:45|470:211|355:351|355:351|235:277|362:38|362:38|525:118|469:317,1,1105,2|2,3:2|0:0,0:0:0:0:
452,356,188371,1,0,3:0:0:0:
266,338,188704,2,0,P|229:333|182:336,1,85,2|0,3:2|0:0,0:0:0:0:
143,344,188954,1,0,0:0:0:0:
143,344,189037,6,0,P|134:300|134:249,1,85,2|0,3:2|0:0,0:0:0:0:
145,150,189371,2,0,P|154:194|154:245,1,85,2|0,3:2|0:0,0:0:0:0:
42,248,189704,5,0,3:0:0:0:
145,150,189871,1,8,0:0:0:0:
246,248,190037,1,0,3:0:0:0:
143,344,190204,1,2,0:3:0:0:
143,344,190371,6,0,B|205:317|269:345|269:345|312:293|381:289,1,255,2|2,3:2|0:0,0:0:0:0:
464,305,191037,1,0,3:0:0:0:
464,305,191371,1,2,3:2:0:0:
480,192,191537,1,2,0:0:0:0:
464,79,191704,6,0,P|421:93|386:119,1,85,0|2,3:0|0:0,0:0:0:0:
324,52,192037,2,0,P|308:99|304:149,1,85,2|0,3:2|0:0,0:0:0:0:
187,51,192371,2,0,P|202:91|208:133,1,85,2|0,3:2|0:0,0:0:0:0:
123,116,192704,2,0,P|88:91|48:79,1,85,2|0,3:2|0:0,0:0:0:0:
256,208,193037,5,0,3:0:0:0:
256,208,193371,1,2,3:2:0:0:
210,312,193537,1,0,0:0:0:0:
302,312,193704,2,0,P|334:309|392:288,1,85,2|0,3:2|0:0,0:0:0:0:
210,312,194037,2,0,P|189:268|108:286,1,127.5,2|0,3:2|0:0,0:0:0:0:
95,303,194371,6,0,B|114:217|64:223|85:130,1,170,0|2,3:0|3:2,0:0:0:0:
129,43,194871,1,0,0:0:0:0:
247,118,195037,2,0,B|268:134|291:132|291:132|267:161|158:180,1,170,2|0,3:2|3:0,0:0:0:0:
83,136,195537,1,2,0:0:0:0:
292,50,195704,5,2,3:2:0:0:
304,38,195787,1,2,0:0:0:0:
318,28,195870,1,2,0:0:0:0:
334,22,195954,1,2,0:0:0:0:
350,19,196037,1,2,3:2:0:0:
367,19,196120,1,2,0:0:0:0:
384,23,196204,1,2,0:0:0:0:
400,29,196287,1,2,0:0:0:0:
414,39,196370,1,2,3:2:0:0:
426,51,196454,1,2,0:0:0:0:
435,65,196537,1,2,0:0:0:0:
442,80,196620,1,2,0:0:0:0:
448,96,196704,2,0,P|406:107|357:104,1,85,2|2,3:2|0:0,0:0:0:0:
185,87,197037,5,2,3:2:0:0:
185,87,197371,2,0,P|180:131|196:174,1,85,2|2,3:2|0:0,0:0:0:0:
401,166,197704,1,2,3:2:0:0:
387,175,197787,1,2,0:0:0:0:
370,178,197871,1,2,0:0:0:0:
353,178,197954,1,2,0:0:0:0:
336,176,198037,1,2,3:2:0:0:
263,121,198204,1,2,0:0:0:0:
356,45,198371,6,0,P|360:70|362:95,7,50.9999984436036,2|2|2|2|2|2|2|2,3:2|0:0|0:0|0:0|3:2|0:0|0:0|0:0,0:0:0:0:
496,91,199037,2,0,P|494:118|485:151,7,50.9999984436036,2|2|2|2|2|2|2|2,3:2|0:0|0:0|0:0|3:2|0:0|0:0|0:0,0:0:0:0:
388,171,199704,5,2,3:2:0:0:
368,178,199787,1,2,0:0:0:0:
347,179,199871,1,2,0:0:0:0:
327,173,199954,1,2,0:0:0:0:
310,162,200037,1,2,3:2:0:0:
290,157,200121,1,2,0:0:0:0:
269,160,200204,1,2,0:0:0:0:
249,167,200287,1,2,0:0:0:0:
226,175,200371,6,0,P|218:209|216:242,1,59.4999981842042,0|0,3:2|0:0,0:0:0:0:
321,290,200537,2,0,P|291:284|261:281,1,59.4999981842042,8|0,0:0|0:0,0:0:0:0:
205,382,200704,2,0,P|211:354|214:324,1,59.4999981842042,8|0,3:2|0:0,0:0:0:0:
113,269,200871,2,0,P|142:276|172:279,1,59.4999981842042,8|0,0:0|0:0,0:0:0:0:
217,278,201037,5,6,0:0:0:0:
256,192,201204,12,0,205037,0:0:0:0:
137,51,205371,6,0,P|153:84|161:183,1,127.5,2|0,0:0|0:0,0:0:0:0:
153,192,205704,2,0,P|132:140|129:58,1,127.5,2|0,0:0|0:0,0:0:0:0:
137,51,206037,6,0,L|261:56,1,114.749996498108,2|0,1:2|0:0,0:0:0:0:
319,111,206371,6,0,B|265:126|265:126|285:0,1,170,6|10,3:2|0:0,0:0:0:0:
414,33,206871,1,2,0:0:0:0:
417,55,206954,1,8,0:0:0:0:
420,76,207037,1,2,0:0:0:0:
442,188,207204,1,2,3:2:0:0:
299,234,207371,1,10,0:0:0:0:
321,218,207537,6,0,B|244:211|244:211|227:221|227:221|140:216,1,170,2|0,3:2|3:0,0:0:0:0:
168,98,208037,1,8,0:0:0:0:
189,96,208121,1,2,0:0:0:0:
210,94,208204,2,0,L|200:149,1,42.5,0|8,3:0|0:0,0:0:0:0:
81,252,208371,2,0,B|39:269|39:269|61:171,1,127.5,2|0,0:0|0:0,0:0:0:0:
126,79,208704,2,0,L|210:94,1,85,10|0,0:0|0:0,0:0:0:0:
358,66,209037,6,0,B|337:53|324:32|324:32|336:168,1,170,2|10,3:2|0:0,0:0:0:0:
465,183,209537,2,0,P|438:180|420:183,1,42.5,2|8,0:0|0:0,0:0:0:0:
308,240,209704,1,2,0:0:0:0:
395,351,209871,1,2,3:2:0:0:
422,182,210037,1,10,0:0:0:0:
442,164,210204,6,0,B|447:228|447:228|407:257|334:243,1,170,2|0,3:2|3:0,0:0:0:0:
191,204,210704,1,8,0:0:0:0:
284,98,210871,1,0,3:0:0:0:
288,118,210954,1,8,0:0:0:0:
291,138,211037,1,2,0:0:0:0:
134,125,211204,1,2,3:2:0:0:
307,55,211371,2,0,P|305:95|287:145,1,85,10|0,0:0|0:0,0:0:0:0:
174,286,211704,6,0,P|176:246|194:196,1,85,2|0,3:2|0:0,0:0:0:0:
423,228,212037,2,0,P|385:241|288:231,1,127.5,10|0,0:0|0:0,0:0:0:0:
280,224,212371,1,2,0:0:0:0:
207,119,212537,1,0,3:0:0:0:
363,87,212704,1,8,0:0:0:0:
374,110,212871,6,0,B|279:94|285:137|202:118,1,170,2|2,3:2|3:2,0:0:0:0:
98,28,213371,1,8,0:0:0:0:
65,176,213537,1,0,3:0:0:0:
206,118,213704,1,2,0:0:0:0:
218,100,213787,1,2,0:0:0:0:
206,83,213870,1,2,3:2:0:0:
185,90,213953,1,2,0:0:0:0:
183,111,214037,2,0,P|180:140|180:167,1,42.5,10|2,0:0|0:0,0:0:0:0:
203,294,214204,1,2,0:0:0:0:
216,319,214371,6,0,B|170:294|127:302|127:302|101:332|44:327,1,170,2|10,3:2|0:0,0:0:0:0:
284,260,214871,1,2,0:3:0:0:
297,276,214954,1,8,0:0:0:0:
305,295,215037,1,2,0:3:0:0:
158,383,215204,1,2,3:2:0:0:
66,244,215371,1,8,0:0:0:0:
78,223,215537,6,0,B|44:234|23:232|23:232|41:165|37:116,1,170,2|0,3:2|3:0,0:0:0:0:
128,25,216037,1,10,0:0:0:0:
191,146,216204,1,0,3:0:0:0:
321,146,216371,1,2,0:0:0:0:
384,25,216538,1,0,3:0:0:0:
384,25,216621,1,2,0:0:0:0:
384,25,216704,2,0,P|398:55|410:116,1,85,10|2,0:0|0:3,0:0:0:0:
413,272,217037,6,0,B|433:254|455:254|455:254|399:225|308:255,1,170,2|10,3:2|0:0,0:0:0:0:
203,277,217537,1,2,0:0:0:0:
206,299,217620,1,8,0:0:0:0:
214,319,217704,1,2,0:0:0:0:
320,344,217871,1,2,3:2:0:0:
347,162,218037,1,10,0:0:0:0:
367,149,218204,6,0,B|301:157|241:118|241:118|305:96,1,170,2|0,3:2|3:0,0:0:0:0:
464,38,218704,2,0,P|472:71|474:129,1,85,10|0,0:0|3:0,0:0:0:0:
469,142,218954,1,8,0:0:0:0:
457,159,219037,2,0,P|452:182|451:206,1,42.5,2|0,0:0|0:0,0:0:0:0:
476,330,219204,1,0,3:0:0:0:
312,297,219371,2,0,P|343:292|406:296,1,85,10|2,0:0|0:3,0:0:0:0:
230,332,219704,6,0,B|201:338|180:352|180:352|191:298|181:226,1,170,2|10,3:2|0:0,0:0:0:0:
159,100,220204,1,2,0:0:0:0:
179,96,220287,1,8,0:0:0:0:
200,96,220371,1,2,0:0:0:0:
331,102,220537,1,2,3:2:0:0:
312,297,220704,1,8,0:0:0:0:
336,312,220871,6,0,P|333:268|323:223,1,85,2|0,3:2|0:0,0:0:0:0:
308,90,221204,1,0,3:0:0:0:
231,235,221371,1,8,0:0:0:0:
450,182,221537,2,0,P|425:176|395:176,1,42.5,0|8,3:0|0:0,0:0:0:0:
231,235,221704,1,2,0:0:0:0:
336,312,221871,1,2,3:2:0:0:
489,155,222037,2,0,P|459:156|392:186,1,85,10|0,0:0|0:0,0:0:0:0:
231,235,222371,6,0,P|261:234|328:204,1,85,2|0,3:2|0:0,0:0:0:0:
217,10,222704,2,0,P|241:53|252:133,1,127.5,10|8,0:0|0:0,0:0:0:0:
255,150,223037,1,2,0:0:0:0:
138,218,223204,1,0,3:0:0:0:
84,32,223371,1,10,0:0:0:0:
106,23,223537,6,0,B|86:72|87:147|87:147|112:134|146:132,1,170,2|2,3:2|3:2,0:0:0:0:
165,320,224037,2,0,P|152:254|140:229,1,85,8|0,0:0|3:0,0:0:0:0:
138,218,224287,1,8,0:0:0:0:
138,218,224371,2,0,P|186:235|268:220,1,127.5,2|0,0:0|0:0,0:0:0:0:
367,178,224704,2,0,P|361:203|355:235,1,42.5,10|0,0:0|0:0,0:0:0:0:
439,306,224871,1,2,0:0:0:0:
460,317,225037,6,0,P|468:249|449:142,1,170,2|10,3:2|0:0,0:0:0:0:
313,74,225537,1,2,0:3:0:0:
309,95,225621,1,8,0:0:0:0:
307,116,225704,1,2,0:0:0:0:
357,219,225871,1,2,3:2:0:0:
200,167,226037,1,10,0:0:0:0:
181,152,226204,6,0,B|112:152|112:152|101:164|101:164|11:163,1,170,2|2,3:2|3:2,0:0:0:0:
217,70,226704,1,8,0:0:0:0:
364,30,226871,2,0,P|374:52|379:73,1,42.5,0|8,3:0|0:0,0:0:0:0:
357,219,227037,2,0,P|363:285|318:256,1,127.5,2|0,0:0|0:0,0:0:0:0:
231,225,227371,2,0,P|251:219|278:217,1,42.5,10|0,0:0|0:0,0:0:0:0:
181,301,227537,1,2,0:0:0:0:
189,322,227704,6,0,P|141:321|30:254,1,170,2|10,3:2|0:0,0:0:0:0:
111,154,228204,1,2,0:3:0:0:
117,174,228287,1,8,0:0:0:0:
119,195,228371,1,2,0:3:0:0:
21,116,228537,1,2,3:2:0:0:
207,39,228704,1,8,0:0:0:0:
227,31,228871,6,0,P|232:72|220:206,1,170,2|0,3:2|3:0,0:0:0:0:
163,336,229371,1,8,0:0:0:0:
321,268,229537,1,0,3:0:0:0:
342,269,229621,1,8,0:0:0:0:
362,275,229704,1,2,0:0:0:0:
450,342,229871,1,0,3:0:0:0:
268,357,230037,1,10,0:0:0:0:
225,221,230204,1,2,0:0:0:0:
429,147,230371,6,0,B|448:138|465:123|465:123|451:258,1,170,2|10,3:2|0:0,0:0:0:0:
337,139,230871,2,0,P|311:135|290:136,1,42.5,2|8,0:0|0:0,0:0:0:0:
274,140,231037,1,2,0:3:0:0:
140,188,231204,1,2,3:2:0:0:
247,356,231371,1,8,0:0:0:0:
268,357,231537,5,2,3:2:0:0:
424,277,232704,1,2,0:0:0:0:
451,239,232787,1,2,0:0:0:0:
424,201,232870,1,2,0:0:0:0:
379,215,232953,1,2,0:0:0:0:
379,262,233037,6,0,B|293:287|311:234|206:256,1,170,6|8,3:2|0:0,0:0:0:0:
127,338,233537,2,0,P|129:312|129:289,1,42.5,8|8,0:0|0:0,0:0:0:0:
129,274,233704,1,2,0:0:0:0:
41,185,233871,1,0,3:0:0:0:
176,107,234037,1,10,0:0:0:0:
188,88,234204,6,0,P|209:115|231:165,1,85,2|0,3:2|0:0,0:0:0:0:
254,337,234537,1,0,3:0:0:0:
51,313,234704,1,8,0:0:0:0:
212,254,234871,1,0,3:0:0:0:
305,263,235037,1,0,0:0:0:0:
305,263,235371,1,10,0:0:0:0:
349,287,235454,1,2,0:0:0:0:
399,284,235537,1,2,0:0:0:0:
438,250,235621,1,2,0:0:0:0:
451,201,235704,6,0,P|457:243|458:294,1,85,2|0,3:2|0:0,0:0:0:0:
370,123,236037,1,8,0:0:0:0:
428,31,236204,2,0,P|452:31|474:34,1,42.5,8|8,0:0|0:0,0:0:0:0:
491,37,236371,1,2,0:0:0:0:
451,201,236537,1,0,3:0:0:0:
260,120,236704,1,10,0:0:0:0:
239,101,236871,6,0,P|201:92|142:200,1,170,2|0,3:2|3:0,0:0:0:0:
183,324,237371,1,8,0:0:0:0:
277,236,237537,1,0,3:0:0:0:
256,231,237621,1,2,0:0:0:0:
234,231,237704,1,2,0:0:0:0:
85,276,237871,1,0,3:0:0:0:
196,340,238037,1,8,0:0:0:0:
366,277,238204,1,2,0:0:0:0:
387,292,238371,6,0,B|394:242|380:168|380:168|401:188|444:202,1,170,2|10,3:2|0:0,0:0:0:0:
467,52,238871,2,0,P|457:72|448:97,1,42.5,2|8,0:3|0:0,0:0:0:0:
446,111,239037,1,2,0:0:0:0:
494,248,239204,1,2,3:3:0:0:
292,197,239371,1,10,0:0:0:0:
336,339,239537,1,2,3:3:0:0:
494,248,239704,6,0,P|442:239|400:245,1,85,2|2,0:0|3:3,0:0:0:0:
153,316,240037,2,0,P|184:312|239:286,1,85,10|2,0:0|3:3,0:0:0:0:
292,197,240287,1,8,0:0:0:0:
303,178,240371,2,0,P|301:132|296:79,1,85,2|2,0:0|3:3,0:0:0:0:
178,118,240704,2,0,P|179:158|186:209,1,85,10|2,0:0|0:0,0:0:0:0:
292,197,240954,1,2,0:0:0:0:
313,198,241037,6,0,P|355:200|422:98,1,170,2|10,3:2|0:0,0:0:0:0:
340,49,241537,2,0,P|336:77|335:98,1,42.5,2|8,0:3|0:0,0:0:0:0:
336,112,241704,1,2,0:0:0:0:
443,246,241871,1,2,3:3:0:0:
502,75,242037,1,10,0:0:0:0:
221,50,242204,1,2,3:3:0:0:
265,189,242371,5,2,3:2:0:0:
244,192,242454,1,2,0:0:0:0:
222,193,242537,1,2,3:3:0:0:
105,165,242704,1,10,0:0:0:0:
84,304,242871,1,8,0:0:0:0:
111,292,242954,1,8,0:0:0:0:
140,290,243037,1,0,3:0:0:0:
169,295,243121,1,0,3:0:0:0:
195,307,243204,1,0,3:0:0:0:
217,326,243287,1,0,3:0:0:0:
234,365,243371,5,8,0:0:0:0:
270,344,243454,1,8,0:0:0:0:
312,338,243537,1,8,0:0:0:0:
256,192,243704,12,0,246371,0:0:0:0:
