osu file format v14

[General]
AudioFilename: All Over.mp3
AudioLeadIn: 0
PreviewTime: 29905
Countdown: 0
SampleSet: Normal
StackLeniency: 0.7
Mode: 1
LetterboxInBreaks: 0
WidescreenStoryboard: 0

[Editor]
Bookmarks: 44262
DistanceSpacing: 1.5
BeatDivisor: 4
GridSize: 32
TimelineZoom: 1.2

[Metadata]
Title:All Over
TitleUnicode:オール・オーヴァー
Artist:livetune adding Yano Anna
ArtistUnicode:livetune adding やのあんな
Creator:bank78952
Version:Oni
Source:魔法少女大戦
Tags:Magica Wars Mahou Shoujo Taisen kz anime opening
BeatmapID:923365
BeatmapSetID:427740

[Difficulty]
HPDrainRate:6
CircleSize:2
OverallDifficulty:6
ApproachRate:10
SliderMultiplier:1.4
SliderTickRate:1

[Events]
//Background and Video events
0,0,"bg.png",0,0
//Break Periods
//Storyboard Layer 0 (Background)
//Storyboard Layer 1 (Fail)
//Storyboard Layer 2 (Pass)
//Storyboard Layer 3 (Foreground)
//Storyboard Sound Samples

[TimingPoints]
120,428.571428571429,4,1,1,40,1,0
3548,-100,4,1,1,50,0,0
30977,-100,4,1,1,60,0,1
42977,-100,4,1,1,60,0,0

[HitObjects]
256,176,120,5,8,0:0:0:0:
256,176,227,1,8,0:0:0:0:
256,176,334,1,0,0:0:0:0:
256,176,441,1,0,0:0:0:0:
256,176,548,1,8,0:0:0:0:
256,176,762,1,8,0:0:0:0:
256,176,977,1,0,0:0:0:0:
256,176,1084,1,0,0:0:0:0:
256,176,1191,1,0,0:0:0:0:
256,176,1405,1,8,0:0:0:0:
256,176,1620,1,0,0:0:0:0:
256,176,1834,1,8,0:0:0:0:
256,176,1941,1,8,0:0:0:0:
256,176,2048,1,0,0:0:0:0:
256,176,2262,1,8,0:0:0:0:
272,176,2477,1,0,0:0:0:0:
288,176,2691,1,8,0:0:0:0:
288,176,2798,1,0,0:0:0:0:
288,176,2905,1,8,0:0:0:0:
272,176,3120,1,0,0:0:0:0:
272,176,3548,1,4,0:0:0:0:
256,176,3762,1,0,0:0:0:0:
272,176,3870,1,0,0:0:0:0:
272,176,3977,1,8,0:0:0:0:
272,176,4191,1,8,0:0:0:0:
288,176,4405,1,0,0:0:0:0:
288,176,4834,1,0,0:0:0:0:
288,176,5048,1,8,0:0:0:0:
288,192,5155,1,8,0:0:0:0:
304,192,5262,1,0,0:0:0:0:
288,192,5477,1,0,0:0:0:0:
288,192,5584,1,0,0:0:0:0:
288,192,5691,1,8,0:0:0:0:
288,192,5905,1,0,0:0:0:0:
288,192,6120,1,8,0:0:0:0:
320,192,6548,1,8,0:0:0:0:
352,192,6762,1,8,0:0:0:0:
352,192,6870,1,8,0:0:0:0:
352,192,6977,1,0,0:0:0:0:
352,192,7191,1,0,0:0:0:0:
352,192,7405,1,8,0:0:0:0:
352,192,7620,1,0,0:0:0:0:
352,192,7727,1,0,0:0:0:0:
352,192,7834,1,8,0:0:0:0:
352,192,7941,1,8,0:0:0:0:
352,192,8048,1,0,0:0:0:0:
384,192,8262,1,8,0:0:0:0:
352,192,8477,1,0,0:0:0:0:
352,192,8905,1,8,0:0:0:0:
352,192,9120,1,0,0:0:0:0:
352,192,9334,1,0,0:0:0:0:
352,192,9441,1,0,0:0:0:0:
352,192,9548,1,8,0:0:0:0:
384,192,9762,1,8,0:0:0:0:
384,192,9977,1,12,0:0:0:0:
384,192,10405,1,4,0:0:0:0:
224,192,10620,1,0,0:0:0:0:
256,192,10834,1,8,0:0:0:0:
256,192,11048,1,8,0:0:0:0:
256,192,11262,1,0,0:0:0:0:
256,192,11477,1,0,0:0:0:0:
256,192,11584,1,0,0:0:0:0:
256,192,11691,1,8,0:0:0:0:
256,192,11905,1,8,0:0:0:0:
288,192,12012,1,8,0:0:0:0:
288,192,12120,1,0,0:0:0:0:
288,192,12334,1,0,0:0:0:0:
288,192,12548,1,8,0:0:0:0:
256,192,12762,1,0,0:0:0:0:
288,192,12977,1,8,0:0:0:0:
288,192,13405,1,8,0:0:0:0:
288,192,13620,1,0,0:0:0:0:
288,192,14048,1,8,0:0:0:0:
288,192,14262,1,8,0:0:0:0:
288,192,14477,1,0,0:0:0:0:
288,192,14584,1,8,0:0:0:0:
288,192,14691,1,0,0:0:0:0:
288,192,14798,1,0,0:0:0:0:
288,192,14905,1,8,0:0:0:0:
288,192,15120,1,0,0:0:0:0:
288,192,15334,1,8,0:0:0:0:
288,192,15762,1,8,0:0:0:0:
288,192,15977,1,0,0:0:0:0:
288,192,16191,1,8,0:0:0:0:
288,192,16620,1,0,0:0:0:0:
288,192,16727,1,0,0:0:0:0:
288,192,16834,1,8,0:0:0:0:
288,192,17048,1,0,0:0:0:0:
288,192,17262,1,12,0:0:0:0:
288,192,17477,1,8,0:0:0:0:
320,192,17584,1,8,0:0:0:0:
320,192,17691,1,0,0:0:0:0:
320,192,17905,1,0,0:0:0:0:
320,192,18012,1,0,0:0:0:0:
320,192,18120,1,8,0:0:0:0:
320,192,18334,1,0,0:0:0:0:
320,192,18548,1,0,0:0:0:0:
320,192,18762,1,8,0:0:0:0:
320,192,18977,1,0,0:0:0:0:
320,192,19405,1,8,0:0:0:0:
352,192,19620,1,8,0:0:0:0:
352,192,19727,1,8,0:0:0:0:
352,192,19834,1,0,0:0:0:0:
352,192,20048,1,0,0:0:0:0:
352,192,20262,1,8,0:0:0:0:
352,192,20477,1,0,0:0:0:0:
352,192,20584,1,0,0:0:0:0:
352,192,20691,1,8,0:0:0:0:
352,192,20905,1,0,0:0:0:0:
352,192,21120,1,8,0:0:0:0:
352,192,21334,1,8,0:0:0:0:
352,192,21548,1,0,0:0:0:0:
352,192,21977,1,8,0:0:0:0:
352,192,22191,1,8,0:0:0:0:
352,192,22298,1,8,0:0:0:0:
352,192,22405,1,0,0:0:0:0:
352,192,22620,1,0,0:0:0:0:
352,192,22834,1,8,0:0:0:0:
352,192,23048,1,0,0:0:0:0:
352,192,23155,1,0,0:0:0:0:
352,192,23262,1,0,0:0:0:0:
352,192,23477,1,0,0:0:0:0:
352,192,23691,1,8,0:0:0:0:
288,192,23905,1,8,0:0:0:0:
352,192,24120,1,4,0:0:0:0:
384,192,24334,1,8,0:0:0:0:
352,192,24441,1,0,0:0:0:0:
352,192,24548,1,8,0:0:0:0:
352,192,24762,1,0,0:0:0:0:
352,192,24977,1,8,0:0:0:0:
352,192,25084,1,8,0:0:0:0:
352,192,25191,1,0,0:0:0:0:
352,224,25405,1,8,0:0:0:0:
352,224,25620,1,0,0:0:0:0:
256,192,25834,1,4,0:0:0:0:
352,224,26048,1,0,0:0:0:0:
288,192,26155,1,0,0:0:0:0:
352,224,26262,1,8,0:0:0:0:
352,224,26477,1,0,0:0:0:0:
352,224,26691,1,8,0:0:0:0:
352,224,26798,1,8,0:0:0:0:
384,224,26905,1,0,0:0:0:0:
384,224,27012,1,8,0:0:0:0:
384,224,27120,1,0,0:0:0:0:
384,224,27334,1,0,0:0:0:0:
384,224,27548,1,12,0:0:0:0:
384,224,27977,1,8,0:0:0:0:
384,224,28191,1,0,0:0:0:0:
384,224,28298,1,0,0:0:0:0:
384,224,28405,1,8,0:0:0:0:
384,224,28620,1,0,0:0:0:0:
384,224,28834,1,8,0:0:0:0:
384,224,28941,1,0,0:0:0:0:
384,224,29048,1,8,0:0:0:0:
384,224,29155,1,8,0:0:0:0:
384,224,29262,1,0,0:0:0:0:
384,224,30120,1,12,0:0:0:0:
384,224,30548,1,0,0:0:0:0:
384,224,30977,1,12,0:0:0:0:
416,224,31298,1,0,0:0:0:0:
416,224,31405,1,8,0:0:0:0:
352,224,31620,1,8,0:0:0:0:
352,224,31727,1,8,0:0:0:0:
384,224,31834,1,0,0:0:0:0:
416,224,32155,1,0,0:0:0:0:
416,224,32262,1,8,0:0:0:0:
448,224,32477,1,0,0:0:0:0:
448,224,32584,1,8,0:0:0:0:
448,224,32691,1,0,0:0:0:0:
384,224,32905,1,0,0:0:0:0:
384,224,33120,1,8,0:0:0:0:
384,224,33334,1,0,0:0:0:0:
416,224,33548,1,8,0:0:0:0:
384,224,33655,1,8,0:0:0:0:
384,224,33762,1,0,0:0:0:0:
384,224,33977,1,8,0:0:0:0:
416,224,34191,1,0,0:0:0:0:
416,224,34298,1,8,0:0:0:0:
416,224,34405,1,0,0:0:0:0:
416,224,34620,1,0,0:0:0:0:
416,224,34834,1,8,0:0:0:0:
416,224,35048,1,0,0:0:0:0:
416,224,35262,1,8,0:0:0:0:
416,224,35691,1,0,0:0:0:0:
416,224,35905,1,0,0:0:0:0:
416,224,36012,1,0,0:0:0:0:
416,224,36120,1,8,0:0:0:0:
416,224,36334,1,8,0:0:0:0:
448,224,36441,1,8,0:0:0:0:
416,224,36548,1,0,0:0:0:0:
416,224,36762,1,8,0:0:0:0:
416,224,36977,1,8,0:0:0:0:
416,224,37191,1,8,0:0:0:0:
416,224,37298,1,0,0:0:0:0:
416,224,37405,1,8,0:0:0:0:
416,224,37512,1,8,0:0:0:0:
416,224,37620,1,0,0:0:0:0:
416,224,37834,1,8,0:0:0:0:
416,224,38155,1,0,0:0:0:0:
416,224,38262,1,8,0:0:0:0:
416,224,38477,1,0,0:0:0:0:
416,224,38584,1,0,0:0:0:0:
416,224,38691,1,8,0:0:0:0:
416,224,39120,1,8,0:0:0:0:
448,224,39334,1,0,0:0:0:0:
448,224,39548,1,8,0:0:0:0:
416,224,39655,1,8,0:0:0:0:
448,224,39762,1,0,0:0:0:0:
448,224,39870,1,0,0:0:0:0:
448,224,39977,1,8,0:0:0:0:
448,224,40191,1,0,0:0:0:0:
448,224,40405,1,8,0:0:0:0:
448,224,40727,1,0,0:0:0:0:
448,224,40834,1,8,0:0:0:0:
480,224,41048,1,0,0:0:0:0:
480,224,41262,1,8,0:0:0:0:
480,224,41477,1,0,0:0:0:0:
480,224,41584,1,8,0:0:0:0:
480,224,41691,1,8,0:0:0:0:
480,224,41798,1,0,0:0:0:0:
480,224,41905,1,8,0:0:0:0:
480,224,42120,1,0,0:0:0:0:
480,224,42334,1,0,0:0:0:0:
480,224,42441,1,0,0:0:0:0:
480,224,42548,1,8,0:0:0:0:
480,224,42762,1,8,0:0:0:0:
480,224,42977,1,4,0:0:0:0:
