osu file format v14

[General]
AudioFilename: All Over.mp3
AudioLeadIn: 0
PreviewTime: 29905
Countdown: 0
SampleSet: Normal
StackLeniency: 0.7
Mode: 1
LetterboxInBreaks: 0
WidescreenStoryboard: 0

[Editor]
DistanceSpacing: 1.5
BeatDivisor: 4
GridSize: 32
TimelineZoom: 1.2

[Metadata]
Title:All Over
TitleUnicode:オール・オーヴァー
Artist:livetune adding Yano Anna
ArtistUnicode:livetune adding やのあんな
Creator:bank78952
Version:Muzukashii
Source:魔法少女大戦
Tags:Magica Wars Mahou Shoujo Taisen kz anime opening
BeatmapID:923364
BeatmapSetID:427740

[Difficulty]
HPDrainRate:7
CircleSize:2
OverallDifficulty:5
ApproachRate:10
SliderMultiplier:1.4
SliderTickRate:1

[Events]
//Background and Video events
0,0,"bg.png",0,0
//Break Periods
//Storyboard Layer 0 (Background)
//Storyboard Layer 1 (Fail)
//Storyboard Layer 2 (Pass)
//Storyboard Layer 3 (Foreground)
//Storyboard Sound Samples

[TimingPoints]
120,428.571428571429,4,1,1,40,1,0
3548,-100,4,1,1,50,0,0
30977,-100,4,1,1,60,0,1
42977,-100,4,1,1,60,0,0

[HitObjects]
288,192,120,5,8,0:0:0:0:
288,192,334,1,0,0:0:0:0:
288,192,441,1,0,0:0:0:0:
288,192,548,1,0,0:0:0:0:
288,192,762,1,8,0:0:0:0:
288,192,1405,1,8,0:0:0:0:
288,192,1620,1,8,0:0:0:0:
288,192,1727,1,8,0:0:0:0:
288,192,1834,1,8,0:0:0:0:
288,192,2048,1,0,0:0:0:0:
288,192,2477,1,0,0:0:0:0:
288,192,2691,1,8,0:0:0:0:
288,192,2905,1,0,0:0:0:0:
288,192,3120,1,8,0:0:0:0:
288,192,3548,1,4,0:0:0:0:
288,192,3977,1,8,0:0:0:0:
288,192,4191,1,0,0:0:0:0:
288,192,4405,1,8,0:0:0:0:
288,192,4834,1,8,0:0:0:0:
288,192,5048,1,8,0:0:0:0:
288,192,5477,1,0,0:0:0:0:
288,192,5691,1,8,0:0:0:0:
288,192,5905,1,8,0:0:0:0:
288,192,6120,1,0,0:0:0:0:
288,192,6548,1,0,0:0:0:0:
288,192,6762,1,8,0:0:0:0:
288,192,7191,1,8,0:0:0:0:
288,192,7405,1,0,0:0:0:0:
288,192,7512,1,0,0:0:0:0:
288,192,7620,1,0,0:0:0:0:
288,192,7834,1,8,0:0:0:0:
288,192,8262,1,8,0:0:0:0:
288,192,8477,1,0,0:0:0:0:
288,192,8905,1,8,0:0:0:0:
288,192,9334,1,0,0:0:0:0:
288,192,9548,1,8,0:0:0:0:
288,192,9762,1,8,0:0:0:0:
288,192,9977,1,12,0:0:0:0:
288,192,10405,1,4,0:0:0:0:
288,192,10834,1,8,0:0:0:0:
288,192,11048,1,8,0:0:0:0:
288,192,11262,1,0,0:0:0:0:
288,192,11691,1,0,0:0:0:0:
288,192,11905,1,8,0:0:0:0:
320,192,12334,1,0,0:0:0:0:
288,192,12548,1,8,0:0:0:0:
320,192,12762,1,8,0:0:0:0:
288,192,12977,1,0,0:0:0:0:
320,192,13405,1,8,0:0:0:0:
320,192,13620,1,0,0:0:0:0:
320,224,14048,1,8,0:0:0:0:
320,224,14262,1,8,0:0:0:0:
320,224,14477,1,0,0:0:0:0:
320,224,14691,1,0,0:0:0:0:
320,224,15120,1,8,0:0:0:0:
320,224,15334,1,0,0:0:0:0:
320,224,15762,1,0,0:0:0:0:
320,224,15977,1,0,0:0:0:0:
288,192,16191,1,8,0:0:0:0:
288,192,16834,1,0,0:0:0:0:
288,192,17262,1,12,0:0:0:0:
288,192,17691,1,0,0:0:0:0:
288,192,18120,1,8,0:0:0:0:
288,192,18334,1,0,0:0:0:0:
288,192,18548,1,0,0:0:0:0:
288,192,18762,1,8,0:0:0:0:
288,192,18977,1,0,0:0:0:0:
288,192,19405,1,8,0:0:0:0:
288,192,19834,1,0,0:0:0:0:
320,224,20048,1,0,0:0:0:0:
288,192,20262,1,8,0:0:0:0:
288,192,20477,1,0,0:0:0:0:
288,192,20905,1,8,0:0:0:0:
320,224,21120,1,8,0:0:0:0:
320,224,21334,1,0,0:0:0:0:
320,224,21548,1,0,0:0:0:0:
320,224,21977,1,8,0:0:0:0:
320,224,22191,1,8,0:0:0:0:
320,224,22405,1,0,0:0:0:0:
320,224,22834,1,8,0:0:0:0:
320,224,23262,1,8,0:0:0:0:
320,224,23477,1,0,0:0:0:0:
320,224,23691,1,8,0:0:0:0:
320,224,23905,1,8,0:0:0:0:
320,224,24334,1,0,0:0:0:0:
320,224,24548,1,8,0:0:0:0:
320,224,24977,1,8,0:0:0:0:
352,224,25191,1,8,0:0:0:0:
352,224,25405,1,0,0:0:0:0:
352,224,25620,1,8,0:0:0:0:
352,224,26048,1,8,0:0:0:0:
320,224,26262,1,0,0:0:0:0:
320,224,26691,1,8,0:0:0:0:
320,224,27120,1,0,0:0:0:0:
320,224,27548,1,8,0:0:0:0:
320,224,27762,1,8,0:0:0:0:
320,224,27870,1,8,0:0:0:0:
320,224,27977,1,8,0:0:0:0:
320,224,28191,1,0,0:0:0:0:
320,224,28405,1,0,0:0:0:0:
320,224,28834,1,8,0:0:0:0:
320,224,28941,1,8,0:0:0:0:
320,224,29048,1,8,0:0:0:0:
320,224,29262,1,0,0:0:0:0:
320,224,30120,1,12,0:0:0:0:
320,224,30548,1,0,0:0:0:0:
320,224,30977,1,12,0:0:0:0:
352,224,31405,1,0,0:0:0:0:
352,224,31620,1,8,0:0:0:0:
352,224,31834,1,0,0:0:0:0:
352,224,32262,1,8,0:0:0:0:
352,224,32477,1,0,0:0:0:0:
352,224,32691,1,0,0:0:0:0:
352,224,32905,1,8,0:0:0:0:
352,224,33012,1,8,0:0:0:0:
352,224,33120,1,8,0:0:0:0:
352,224,33334,1,8,0:0:0:0:
352,224,33548,1,0,0:0:0:0:
352,224,33977,1,0,0:0:0:0:
352,224,34191,1,8,0:0:0:0:
352,224,34405,1,0,0:0:0:0:
352,224,34620,1,0,0:0:0:0:
352,224,34834,1,8,0:0:0:0:
352,224,35048,1,0,0:0:0:0:
352,224,35262,1,8,0:0:0:0:
352,224,35691,1,8,0:0:0:0:
352,224,35905,1,0,0:0:0:0:
352,224,36120,1,8,0:0:0:0:
320,224,36334,1,0,0:0:0:0:
320,224,36441,1,0,0:0:0:0:
320,224,36548,1,0,0:0:0:0:
320,224,36762,1,0,0:0:0:0:
320,224,36977,1,8,0:0:0:0:
320,192,37405,1,0,0:0:0:0:
320,192,37834,1,8,0:0:0:0:
320,192,38048,1,8,0:0:0:0:
320,224,38262,1,0,0:0:0:0:
320,224,38477,1,0,0:0:0:0:
320,224,38691,1,8,0:0:0:0:
320,224,39120,1,8,0:0:0:0:
320,224,39334,1,0,0:0:0:0:
320,224,39548,1,8,0:0:0:0:
320,224,39762,1,0,0:0:0:0:
320,224,39870,1,0,0:0:0:0:
320,224,39977,1,0,0:0:0:0:
320,224,40191,1,0,0:0:0:0:
320,224,40405,1,8,0:0:0:0:
320,224,40834,1,0,0:0:0:0:
320,224,41048,1,8,0:0:0:0:
320,256,41262,1,8,0:0:0:0:
320,224,41691,1,0,0:0:0:0:
320,224,42120,1,8,0:0:0:0:
320,256,42334,1,0,0:0:0:0:
320,224,42548,1,8,0:0:0:0:
320,224,42977,1,4,0:0:0:0:
