osu file format v14

[General]
AudioFilename: BEATLESS - livetune adding NIRGILIS Dreaming Shout.mp3
AudioLeadIn: 0
PreviewTime: 60259
Countdown: 0
SampleSet: Normal
StackLeniency: 0.7
Mode: 0
LetterboxInBreaks: 0
WidescreenStoryboard: 1

[Editor]
Bookmarks: 15952,83336
DistanceSpacing: 0.8
BeatDivisor: 4
GridSize: 4
TimelineZoom: 1

[Metadata]
Title:Dreaming Shout
TitleUnicode:Dreaming Shout
Artist:livetune adding NIRGILIS
ArtistUnicode:livetune adding NIRGILIS
Creator:kristi71111
Version:Normal
Source:BEATLESS
Tags:
BeatmapID:583101
BeatmapSetID:254107

[Difficulty]
HPDrainRate:3
CircleSize:3.5
OverallDifficulty:4
ApproachRate:5.5
SliderMultiplier:1.4
SliderTickRate:1

[Events]
//Background and Video events
0,0,"Beatless.png",0,0
//Break Periods
//Storyboard Layer 0 (Background)
//Storyboard Layer 1 (Fail)
//Storyboard Layer 2 (Pass)
//Storyboard Layer 3 (Foreground)
//Storyboard Sound Samples

[TimingPoints]
1183,461.538461538462,4,1,0,50,1,0
60259,-83.3333333333333,4,1,0,50,0,1
104567,-100,4,1,0,50,0,0
222721,-100,4,1,0,50,0,1
267029,-100,4,1,0,50,0,0

[HitObjects]
48,144,1183,6,0,P|64:220|120:240,1,140
224,208,2106,1,8,2:0:0:0:
332,172,2567,1,8,2:0:0:0:
444,176,3029,6,0,P|435:109|375:79,1,140
264,60,3952,2,0,P|180:80|152:148,1,140
160,236,4875,2,0,P|260:272|296:244,1,140
368,188,5798,1,4,2:0:0:0:
420,88,6259,1,4,2:0:0:0:
344,4,6721,6,0,L|204:68|204:68,1,140
132,136,7644,1,8,2:0:0:0:
64,224,8105,1,8,2:0:0:0:
152,296,8567,2,0,L|316:296,1,140,0|0,0:0|0:0,0:0:0:0:
216,216,9490,2,0,L|376:216,1,140,0|4,0:0|0:0,0:0:0:0:
280,136,10413,6,0,L|140:136,1,140,0|0,0:0|0:0,0:0:0:0:
220,56,11336,2,0,L|380:56,1,140,0|4,0:0|0:0,0:0:0:0:
424,148,12259,6,0,P|364:184|300:220,1,140
208,276,13183,1,8,2:0:0:0:
108,328,13644,1,8,2:0:0:0:
16,264,14106,2,0,P|0:197|34:139,1,140
136,88,15029,2,0,L|212:88|280:88,1,140
388,88,15952,6,0,B|464:88|464:88|464:168,1,140
388,232,16875,2,0,L|280:324,1,140,0|4,0:0|0:0,0:0:0:0:
168,324,17798,2,0,P|112:312|64:244,1,140
172,212,18721,2,0,L|288:124,1,140,0|4,0:0|0:0,0:0:0:0:
396,116,19644,5,0,0:0:0:0:
444,216,20106,1,0,0:0:0:0:
384,312,20567,1,4,0:0:0:0:
272,328,21029,1,0,0:0:0:0:
160,320,21490,6,4,P|120:264|120:188,2,140,0|0|0,0:0|0:0|0:0,0:0:0:0:
272,328,22875,1,0,0:0:0:0:
356,252,23336,1,0,0:0:0:0:
324,144,23798,2,0,P|288:100|196:80,1,140
156,176,24721,6,0,L|120:252,2,70,0|0|0,0:0|0:0|0:0,0:0:0:0:
216,272,25644,2,0,L|296:284|376:296,1,140
284,204,26567,2,0,L|364:216|444:228,1,140
464,188,27259,6,0,P|468:144|376:80,2,140,0|0|0,0:0|0:0|0:0,0:0:0:0:
444,240,28413,1,0,0:0:0:0:
348,300,28875,2,0,P|260:316|196:276,1,140
284,204,29798,1,0,0:0:0:0:
176,176,30259,2,0,P|124:148|124:120,1,70
140,88,30721,6,0,P|200:56|284:64,1,140
308,164,31644,1,0,0:0:0:0:
248,260,32106,1,0,0:0:0:0:
304,356,32567,2,0,P|237:371|176:339,1,140
156,288,33259,2,0,L|136:204,1,70
120,108,33952,1,0,0:0:0:0:
204,36,34413,6,0,L|280:36|368:36,1,140
420,120,35336,2,0,L|264:120,1,140
204,204,36259,2,0,L|372:204,1,140
400,204,36952,2,0,P|428:232|412:276,1,70
324,304,37644,5,0,0:0:0:0:
212,304,38106,1,0,0:0:0:0:
268,208,38567,2,0,P|248:144|168:104,2,140
156,216,39952,2,0,P|88:244|16:216,1,140
28,168,40644,2,0,L|28:96,1,70
256,192,41336,12,0,43644,0:0:0:0:
340,88,44567,5,0,0:0:0:0:
228,84,45029,1,0,0:0:0:0:
140,152,45490,2,0,L|236:260,1,140
344,256,46413,2,0,L|437:151,1,140
360,68,47336,1,0,0:0:0:0:
248,68,47798,2,0,P|192:100|192:176,1,140
204,224,48490,6,0,P|240:264|300:264,2,105,0|0|0,0:0|0:0|0:0,0:0:0:0:
296,160,49644,1,0,0:0:0:0:
360,68,50106,1,0,0:0:0:0:
296,160,50567,2,0,L|208:276,1,140
100,272,51490,1,0,0:0:0:0:
24,188,51952,2,0,P|28:104|88:68,1,140
180,64,52875,5,0,0:0:0:0:
292,68,53336,1,0,0:0:0:0:
232,160,53798,1,0,0:0:0:0:
292,256,54259,1,0,0:0:0:0:
180,256,54721,1,0,0:0:0:0:
256,336,55183,2,0,L|412:336,1,140
476,256,56106,6,0,P|492:180|444:120,4,140,0|0|0|0|0,0:0|0:0|0:0|0:0|0:0,0:0:0:0:
388,324,58413,2,0,L|308:324|220:324,1,140
220,276,59106,1,0,0:0:0:0:
180,172,59567,2,0,P|168:140|180:76,1,70
260,148,60259,6,0,P|328:148|440:148,1,167.999994873047
504,260,61183,2,0,P|436:260|324:260,1,167.999994873047
420,156,62106,2,0,P|352:156|240:156,1,167.999994873047
336,260,63029,2,0,P|404:260|516:260,1,167.999994873047
428,148,63952,5,0,0:0:0:0:
504,260,64413,1,0,0:0:0:0:
368,260,64875,2,0,L|192:260,1,167.999994873047
132,256,65567,2,0,P|84:212|64:168,1,83.9999974365235
168,160,66144,1,0,0:0:0:0:
76,120,66490,2,0,P|120:72|164:52,1,83.9999974365235
204,60,66952,2,0,P|252:104|272:148,1,83.9999974365235
308,248,67644,5,0,0:0:0:0:
420,176,68106,1,0,0:0:0:0:
308,248,68567,2,0,P|284:160|320:84,1,167.999994873047
420,176,69490,5,0,0:0:0:0:
308,248,69952,1,0,0:0:0:0:
388,356,70413,2,0,P|304:376|228:352,1,167.999994873047
308,248,71336,6,0,B|348:144|264:88|264:88,2,167.999994873047
264,300,72490,1,0,0:0:0:0:
216,344,72721,2,0,P|128:336|68:256,1,167.999994873047
48,220,73413,2,0,P|40:152|56:124,1,83.9999974365235
64,76,73875,2,0,P|144:38|236:78,1,167.999994873047
360,204,75029,5,0,0:0:0:0:
496,204,75490,1,0,0:0:0:0:
424,92,75952,2,0,P|368:44|252:44,1,167.999994873047
156,96,76875,1,0,0:0:0:0:
96,216,77336,1,0,0:0:0:0:
192,312,77798,2,0,B|288:312|288:312|372:312,1,167.999994873047
460,224,78721,6,0,P|448:120|388:68,1,167.999994873047
336,188,79644,2,0,P|284:120|288:32,1,167.999994873047
406,77,80567,2,0,P|460:137|453:219,1,167.999994873047
364,320,81490,2,0,P|288:350|213:318,1,167.999994873047
216,184,82413,5,0,0:0:0:0:
340,128,82875,1,0,0:0:0:0:
236,40,83336,1,0,0:0:0:0:
