osu file format v14

[General]
AudioFilename: audio.mp3
AudioLeadIn: 0
PreviewTime: 236613
Countdown: 0
SampleSet: None
StackLeniency: 0.7
Mode: 0
LetterboxInBreaks: 0
WidescreenStoryboard: 0

[Editor]
Bookmarks: 100031,114800,121690,128613,129075,136459,144339,157921,221844,245382,250921,260152,261075,261998,266152,268921,272613,279998,280459,328575
DistanceSpacing: 3.3
BeatDivisor: 4
GridSize: 8
TimelineZoom: 2.6

[Metadata]
Title:Take Your Way -livetune Remix-
TitleUnicode:Take Your Way -livetune Remix-
Artist:livetune adding Fukase (from SEKAI NO OWARI)
ArtistUnicode:livetune adding Fukase (from SEKAI NO OWARI)
Creator:Shino -SNO-
Version:Light
Source:Devil Survivor 2
Tags:anime opening vocaoid
BeatmapID:1215842
BeatmapSetID:574023

[Difficulty]
HPDrainRate:5
CircleSize:4
OverallDifficulty:8
ApproachRate:9.2
SliderMultiplier:1.6
SliderTickRate:1

[Events]
//Background and Video events
0,0,"devilsurvivor.jpg",0,0
//Break Periods
2,30038,35499
2,144500,157345
//Storyboard Layer 0 (Background)
//Storyboard Layer 1 (Fail)
//Storyboard Layer 2 (Pass)
//Storyboard Layer 3 (Foreground)
//Storyboard Sound Samples

[TimingPoints]
300,461.538461538462,4,2,1,100,1,0
300,-66.6666666666667,4,2,1,100,0,0
13898,-133.333333333333,4,3,1,100,0,0
14527,-100,4,1,1,100,0,0
14667,-100,4,2,1,100,0,0
22430,-200,4,2,1,100,0,0
26064,-100,4,3,1,100,0,0
29354,-100,4,2,1,100,0,0
29429,-100,4,3,1,100,0,0
36058,-100,4,2,1,100,0,0
39735,-133.333333333333,4,2,1,100,0,0
40401,-200,4,2,1,100,0,0
43211,-100,4,2,1,100,0,0
45716,-133.333333333333,4,2,1,100,0,0
46217,-100,4,2,1,100,0,0
50105,-100,4,3,1,100,0,0
51491,-100,4,2,1,100,0,0
51812,-100,4,3,1,100,0,0
51986,-100,4,2,1,100,0,0
56096,-133.333333333333,4,2,1,100,0,0
58447,-100,4,2,1,100,0,0
60730,-66.6666666666667,4,2,1,100,0,0
60986,-100,4,2,1,100,0,0
63059,-200,4,3,1,35,0,0
63079,-200,4,2,1,100,0,0
64756,-100,4,3,1,100,0,0
66277,-100,4,2,1,100,0,0
66315,-100,4,3,1,100,0,0
66761,-100,4,3,1,100,0,1
66876,-100,4,3,1,100,0,0
73671,-133.333333333333,4,3,1,100,0,0
74600,-100,4,3,1,100,0,0
77358,-133.333333333333,4,3,1,100,0,0
81502,-100,4,3,1,100,0,1
81530,-100,4,3,1,100,0,0
84280,-133.333333333333,4,3,1,100,0,0
85195,-100,4,3,1,100,0,0
87977,-133.333333333333,4,3,1,100,0,0
89071,-100,4,3,1,100,0,0
90054,-133.333333333333,4,3,1,100,0,0
93184,-100,4,3,1,100,0,0
95030,-133.333333333333,4,3,1,100,0,0
97684,-100,4,3,1,100,0,0
99934,-100,4,2,1,70,0,0
112878,-100,4,3,1,60,0,0
113017,-100,4,2,1,100,0,0
113652,-100,4,3,1,100,0,0
114251,-100,4,2,1,100,0,0
114331,-100,4,3,1,100,0,0
114761,-100,4,3,1,50,0,1
114807,-100,4,3,1,100,0,1
115203,-100,4,3,1,50,0,1
115263,-100,4,3,1,100,0,1
115655,-100,4,3,1,50,0,1
115717,-100,4,3,1,100,0,1
116111,-100,4,3,1,50,0,1
116193,-100,4,3,1,100,0,1
116585,-100,4,3,1,50,0,1
116635,-100,4,3,1,100,0,1
117041,-100,4,3,1,50,0,1
117106,-100,4,3,1,100,0,1
117496,-100,4,3,1,50,0,1
117563,-100,4,3,1,100,0,1
117759,-100,4,3,1,100,0,1
117964,-100,4,3,1,50,0,1
118028,-100,4,3,1,100,0,1
118433,-100,4,3,1,50,0,1
118495,-100,4,3,1,100,0,1
118880,-100,4,3,1,50,0,1
118958,-100,4,3,1,100,0,1
119357,-100,4,3,1,50,0,1
119409,-100,4,3,1,100,0,1
119821,-100,4,3,1,50,0,1
119874,-100,4,3,1,100,0,1
120277,-100,4,3,1,50,0,1
120332,-100,4,3,1,100,0,1
120749,-100,4,3,1,50,0,1
120794,-100,4,3,1,100,0,1
120992,-100,4,3,1,100,0,1
121208,-100,4,3,1,50,0,1
121245,-100,4,3,1,100,0,1
121424,-100,4,2,1,100,0,1
121957,-100,4,3,1,100,0,1
122128,-100,4,3,1,50,0,1
122166,-100,4,3,1,100,0,1
122586,-100,4,3,1,50,0,1
122631,-100,4,3,1,100,0,1
123053,-100,4,3,1,50,0,1
123088,-100,4,3,1,100,0,1
123508,-100,4,3,1,50,0,1
123541,-100,4,3,1,100,0,1
123972,-100,4,3,1,50,0,1
124012,-100,4,3,1,100,0,1
124447,-100,4,3,1,50,0,1
124479,-100,4,3,1,100,0,1
124902,-100,4,3,1,50,0,1
124939,-100,4,3,1,100,0,1
125359,-100,4,3,1,50,0,1
125402,-100,4,3,1,100,0,1
125816,-100,4,3,1,50,0,1
125859,-100,4,3,1,100,0,1
126274,-100,4,3,1,50,0,1
126316,-100,4,3,1,100,0,1
126742,-100,4,3,1,50,0,1
126777,-100,4,3,1,100,0,1
127215,-100,4,3,1,50,0,1
127247,-100,4,3,1,100,0,1
127670,-100,4,3,1,50,0,1
127702,-100,4,3,1,100,0,1
128122,-100,4,3,1,50,0,1
128165,-100,4,3,1,100,0,1
128602,-100,4,3,1,50,0,1
128648,-100,4,3,1,100,0,1
128828,-100,4,2,1,100,0,1
129503,-100,4,3,1,100,0,0
129530,-100,4,3,1,50,0,1
129546,-100,4,3,1,100,0,1
129956,-100,4,3,1,50,0,1
130018,-100,4,3,1,100,0,1
130451,-100,4,3,1,50,0,1
130481,-100,4,3,1,100,0,1
130911,-100,4,3,1,50,0,1
130949,-100,4,3,1,100,0,1
131376,-100,4,3,1,50,0,1
131411,-100,4,3,1,100,0,1
131821,-100,4,3,1,50,0,1
131874,-100,4,3,1,100,0,1
132301,-100,4,3,1,50,0,1
132336,-100,4,3,1,100,0,1
132751,-100,4,3,1,50,0,1
132781,-100,4,3,1,100,0,1
133211,-100,4,3,1,50,0,1
133256,-100,4,3,1,100,0,1
133660,-100,4,3,1,50,0,1
133719,-100,4,3,1,100,0,1
134132,-100,4,3,1,50,0,1
134166,-100,4,3,1,100,0,1
134606,-100,4,3,1,50,0,1
134649,-100,4,3,1,100,0,1
135069,-100,4,3,1,50,0,1
135109,-100,4,3,1,100,0,1
135521,-100,4,3,1,50,0,1
135554,-100,4,3,1,100,0,1
135977,-100,4,3,1,50,0,1
136040,-100,4,3,1,100,0,1
136205,-100,4,2,1,100,0,1
136700,-100,4,3,1,100,0,1
136879,-100,4,3,1,50,0,1
136941,-100,4,3,1,100,0,1
137358,-100,4,3,1,50,0,1
137393,-100,4,3,1,100,0,1
137821,-100,4,3,1,50,0,1
137858,-100,4,3,1,100,0,1
138281,-100,4,3,1,50,0,1
138321,-100,4,3,1,100,0,1
138753,-100,4,3,1,50,0,1
138793,-100,4,3,1,100,0,1
139208,-100,4,3,1,50,0,1
139243,-100,4,3,1,100,0,1
139661,-100,4,3,1,50,0,1
139713,-100,4,3,1,100,0,1
140123,-100,4,3,1,50,0,1
140191,-100,4,3,1,100,0,1
140578,-100,4,3,1,50,0,1
140623,-100,4,3,1,100,0,1
141048,-100,4,3,1,50,0,1
141088,-100,4,3,1,100,0,1
141513,-100,4,3,1,50,0,1
141551,-100,4,3,1,100,0,1
141978,-100,4,3,1,50,0,1
142026,-100,4,3,1,100,0,1
142426,-100,4,3,1,50,0,1
142473,-100,4,3,1,100,0,1
142906,-100,4,3,1,50,0,1
142956,-100,4,3,1,100,0,1
143358,-100,4,3,1,50,0,1
143406,-100,4,3,1,100,0,1
143824,-100,4,2,1,100,0,1
143874,-100,4,3,1,100,0,1
144300,-100,4,3,1,100,0,0
157898,-100,4,2,1,100,0,0
162297,-200,4,2,1,100,0,0
164146,-100,4,2,1,100,0,0
171969,-100,4,3,1,100,0,0
173352,-100,4,2,1,100,0,0
173655,-100,4,3,1,100,0,0
173984,-100,4,2,1,100,0,0
177876,-133.333333333333,4,2,1,100,0,0
180761,-100,4,2,1,100,0,0
182583,-66.6666666666667,4,2,1,100,0,0
182838,-100,4,2,1,100,0,0
186706,-100,4,3,1,100,0,0
188053,-100,4,2,1,100,0,0
188226,-100,4,3,1,100,0,0
188607,-100,4,3,1,100,0,1
188678,-100,4,3,1,100,0,0
191342,-133.333333333333,4,3,1,100,0,0
191868,-100,4,3,1,100,0,0
195009,-133.333333333333,4,3,1,100,0,0
195530,-100,4,3,1,100,0,0
201004,-133.333333333333,4,3,1,100,0,0
201530,-100,4,3,1,100,0,0
202887,-100,4,2,1,100,0,0
202970,-100,4,3,1,100,0,0
203349,-100,4,3,1,60,0,1
203444,-100,4,3,1,100,0,0
206123,-133.333333333333,4,3,1,100,0,0
207300,-100,4,3,1,100,0,0
208867,-100,4,3,1,100,0,0
209808,-133.333333333333,4,3,1,100,0,0
211428,-100,4,3,1,100,0,0
211684,-133.333333333333,4,3,1,100,0,0
212838,-100,4,3,1,100,0,0
213300,-133.333333333333,4,3,1,100,0,0
213761,-100,4,3,1,100,0,0
214338,-133.333333333333,4,3,1,100,0,0
218838,-100,4,3,1,100,0,0
221261,-100,4,2,1,100,0,0
234732,-100,4,3,1,60,0,0
234797,-100,4,2,1,100,0,0
236607,-100,4,3,1,60,0,1
236643,-100,4,3,1,100,0,1
237044,-100,4,3,1,60,0,1
237094,-100,4,3,1,100,0,1
237524,-100,4,3,1,60,0,1
237573,-100,4,3,1,100,0,1
250898,-100,4,2,1,100,0,1
250953,-100,4,3,1,100,0,1
251365,-100,4,3,1,100,0,0
251376,-100,4,3,1,100,0,1
265677,-100,4,2,1,100,0,1
266156,-100,4,3,1,100,0,1
280421,-100,4,2,1,100,0,1
280494,-100,4,3,1,100,0,1
280913,-100,4,3,1,100,0,0
280915,-100,4,3,1,100,0,1
295198,-100,4,2,1,100,0,1
295240,-100,4,3,1,100,0,1
295684,-100,4,3,1,100,0,0
302581,-100,4,2,1,100,0,0
302851,-100,4,3,1,100,0,0
309977,-100,4,2,1,100,0,0
310019,-100,4,3,1,100,0,0
310431,-200,4,2,1,60,0,0

[HitObjects]
128,144,300,5,8,0:0:0:0:
176,248,761,1,8,0:0:0:0:
248,160,1223,1,8,0:0:0:0:
352,112,1453,2,0,P|376:60|348:12,1,60.0000022888184
376,152,1684,2,0,P|428:116|432:96,1,60.0000022888184,8|0,0:0|0:0,0:0:0:0:
424,122,1915,1,0,0:0:0:0:
328,264,2146,5,8,0:0:0:0:
460,208,2607,1,8,0:0:0:0:
444,356,3069,1,8,0:0:0:0:
320,264,3300,2,0,P|308:304|320:352,1,60.0000022888184
284,240,3530,2,0,P|248:272|248:304,1,60.0000022888184,8|0,0:0|0:0,0:0:0:0:
245,281,3761,1,0,0:0:0:0:
200,192,3992,5,8,0:0:0:0:
80,160,4453,1,8,0:0:0:0:
176,88,4915,1,8,0:0:0:0:
68,48,5146,2,0,P|44:48|8:72,1,60.0000022888184
92,80,5376,2,0,P|68:100|64:144,1,60.0000022888184,8|0,0:0|0:0,0:0:0:0:
60,126,5607,1,0,0:0:0:0:
156,216,5838,5,8,0:0:0:0:
248,56,6300,1,8,0:0:0:0:
316,204,6761,1,8,0:0:0:0:
140,284,6992,2,0,P|176:312|220:312,1,60.0000022888184
100,304,7223,2,0,P|104:340|124:364,1,60.0000022888184,8|0,0:0|0:0,0:0:0:0:
117,358,7453,1,0,0:0:0:0:
280,288,7684,5,8,0:0:0:0:
344,184,8146,1,8,0:0:0:0:
224,176,8607,1,8,0:0:0:0:
316,292,8838,2,0,P|376:280|392:268,1,60.0000022888184
320,348,9069,2,0,P|352:356|404:348,1,60.0000022888184,8|0,0:0|0:0,0:0:0:0:
378,355,9300,1,0,0:0:0:0:
460,200,9530,5,8,0:0:0:0:
360,80,9992,1,8,0:0:0:0:
264,212,10453,1,8,0:0:0:0:
140,116,10684,2,0,P|164:56|192:32,1,60.0000022888184
168,132,10915,2,0,P|208:100|240:96,1,60.0000022888184,8|0,0:0|0:0,0:0:0:0:
220,96,11146,1,0,0:0:0:0:
336,144,11376,5,8,0:0:0:0:
264,240,11838,1,8,0:0:0:0:
384,240,12300,1,8,0:0:0:0:
360,80,12530,2,0,P|356:36|348:20,1,60.0000022888184
312,100,12761,2,0,P|296:60|276:44,1,60.0000022888184,8|0,0:0|0:0,0:0:0:0:
284,49,12992,1,0,0:0:0:0:
160,176,13223,5,8,0:0:0:0:
40,160,13684,1,8,0:0:0:0:
248,72,14146,6,0,B|300:84|288:144,1,90.0000034332277,2|0,0:0|0:0,0:0:0:0:
320,208,14607,1,12,0:0:0:0:
128,256,15069,6,0,L|144:320,7,40,8|0|0|0|8|0|0|0,0:0|0:0|0:0|0:0|0:0|0:0|0:0|0:0,0:0:0:0:
72,188,15992,6,0,L|28:224,7,40,8|0|0|0|8|0|0|0,0:0|0:0|0:0|0:0|0:0|0:0|0:0|0:0,0:0:0:0:
152,196,16915,6,0,L|208:164,7,40,8|0|0|0|8|0|0|0,0:0|0:0|0:0|0:0|0:0|0:0|0:0|0:0,0:0:0:0:
132,116,17838,6,0,L|104:64,7,40,8|0|0|0|8|0|0|0,0:0|0:0|0:0|0:0|0:0|0:0|0:0|0:0,0:0:0:0:
240,208,18761,6,0,L|200:160,7,40,8|0|0|0|8|0|0|0,0:0|0:0|0:0|0:0|0:0|0:0|0:0|0:0,0:0:0:0:
328,240,19684,6,0,L|280:272,7,40,8|0|0|0|8|0|0|0,0:0|0:0|0:0|0:0|0:0|0:0|0:0|0:0,0:0:0:0:
408,236,20607,6,0,L|448:268,7,40,8|0|0|0|8|0|0|0,0:0|0:0|0:0|0:0|0:0|0:0|0:0|0:0,0:0:0:0:
364,156,21530,6,0,L|344:108,7,40,8|0|0|0|8|0|0|0,0:0|0:0|0:0|0:0|0:0|0:0|0:0|0:0,0:0:0:0:
472,204,22453,6,0,B|456:244|456:244|480:276|480:276|448:332,1,140,8|0,0:0|0:0,0:0:0:0:
354,324,23376,6,0,B|325:274|325:274|349:242|349:242|333:202,1,140,8|0,0:0|0:0,0:0:0:0:
224,256,24300,6,0,P|184:208|248:168,1,140,8|0,0:0|0:0,0:0:0:0:
198,97,25223,6,0,P|262:101|307:171,1,140,8|0,0:0|0:0,0:0:0:0:
400,116,26146,5,0,0:0:0:0:
400,148,26261,1,0,0:0:0:0:
400,180,26376,1,0,0:0:0:0:
400,208,26492,1,0,0:0:0:0:
400,236,26607,2,0,L|440:296,3,40
304,232,27069,5,0,0:0:0:0:
280,264,27184,1,0,0:0:0:0:
256,296,27300,1,0,0:0:0:0:
232,324,27415,1,0,0:0:0:0:
204,352,27530,2,0,L|144:344,3,40
96,244,27992,5,0,0:0:0:0:
132,200,28107,1,0,0:0:0:0:
168,156,28223,1,0,0:0:0:0:
204,112,28338,1,0,0:0:0:0:
240,64,28453,2,0,L|284:56,3,40
320,172,28915,5,0,0:0:0:0:
356,240,29030,1,0,0:0:0:0:
432,252,29146,1,0,0:0:0:0:
488,200,29261,1,0,0:0:0:0:
488,120,29376,2,0,L|448:72,1,40,4|0,0:0|0:0,0:0:0:0:
413,147,29607,2,0,L|361:123,1,40
344,48,29838,1,4,0:0:0:0:
200,224,36069,5,0,0:0:0:0:
264,192,36300,2,0,P|216:176|200:120,1,80
184,80,36761,1,0,0:0:0:0:
288,32,36992,1,2,0:0:0:0:
424,184,38376,6,0,P|432:216|408:256,1,80
356,208,38838,1,2,0:0:0:0:
216,272,39761,6,0,P|236:232|232:192,2,60.0000022888184
160,216,40453,1,0,0:0:0:0:
135,291,40684,2,0,P|163:339|223:355,1,120,2|0,0:0|0:0,0:0:0:0:
288,312,41607,2,0,B|360:312|400:264,1,120,2|0,0:0|0:0,0:0:0:0:
280,232,42530,1,2,0:0:0:0:
120,136,43223,6,0,P|132:96|192:88,1,80
192,152,43684,1,0,0:0:0:0:
200,160,43915,1,0,0:0:0:0:
200,160,44146,1,0,0:0:0:0:
200,160,44376,1,2,0:0:0:0:
344,128,45300,6,0,P|328:168|368:200,1,80
424,224,45761,2,0,P|400:256|320:272,1,120.000004577637,0|2,0:0|0:0,0:0:0:0:
176,192,47146,6,0,P|196:224|192:264,1,80
120,256,47607,2,0,P|128:304|160:332,1,80
232,328,48069,1,2,0:0:0:0:
296,216,48530,5,0,0:0:0:0:
296,216,48761,1,0,0:0:0:0:
296,216,48992,1,2,0:0:0:0:
352,64,49453,6,0,P|384:80|400:128,1,80
136,128,49915,1,0,0:0:0:0:
368,256,50146,5,0,0:0:0:0:
264,160,50376,1,0,0:0:0:0:
192,288,50607,1,0,0:0:0:0:
368,144,50838,1,0,0:0:0:0:
160,160,51069,1,0,0:0:0:0:
296,344,51300,1,0,0:0:0:0:
264,96,51530,1,4,0:0:0:0:
176,304,51761,1,4,0:0:0:0:
416,232,51992,1,2,0:0:0:0:
328,88,52453,5,0,0:0:0:0:
160,128,52915,2,0,P|168:64|184:40,1,80
272,216,53376,1,0,0:0:0:0:
416,160,53838,5,2,0:0:0:0:
352,328,54300,1,0,0:0:0:0:
320,136,54761,2,0,P|368:104|408:112,1,80
496,248,55223,1,0,0:0:0:0:
416,320,55453,1,0,0:0:0:0:
328,248,55684,5,2,0:0:0:0:
222,231,56146,2,0,P|289:263|329:247,1,120.000004577637
222,231,57069,1,0,0:0:0:0:
136,80,57530,5,2,0:0:0:0:
232,168,57992,2,0,P|200:112|248:64,1,120.000004577637
344,208,58915,1,0,0:0:0:0:
176,280,59376,6,0,P|208:312|288:312,1,120,6|0,0:0|0:0,0:0:0:0:
288,232,60069,1,0,0:0:0:0:
192,128,60761,6,0,B|216:112|216:80|216:80|240:104|280:104,1,120,2|0,0:0|0:0,0:0:0:0:
328,160,61223,2,0,P|344:144|312:48,1,120,6|0,0:0|0:0,0:0:0:0:
432,168,61915,1,0,0:0:0:0:
352,344,62376,5,0,0:0:0:0:
352,344,62606,1,0,0:0:0:0:
352,344,62838,1,0,0:0:0:0:
352,344,63070,2,0,B|304:320|364:244|364:244|320:332|268:304,1,240,14|0,0:0|0:0,0:0:0:0:
144,76,64915,5,0,0:0:0:0:
136,96,65030,1,0,0:0:0:0:
136,124,65146,1,0,0:0:0:0:
152,152,65261,1,0,0:0:0:0:
188,168,65376,1,0,0:0:0:0:
228,164,65492,1,0,0:0:0:0:
252,136,65607,1,0,0:0:0:0:
268,96,65723,1,0,0:0:0:0:
308,60,65838,1,0,0:0:0:0:
364,56,65953,1,0,0:0:0:0:
420,92,66069,1,0,0:0:0:0:
428,164,66184,1,0,0:0:0:0:
368,196,66300,5,4,0:0:0:0:
376,60,66761,6,0,P|424:108|416:132,1,80
356,140,67223,2,0,P|380:176|420:180,1,80
363,288,67684,1,0,0:0:0:0:
200,243,67915,1,0,0:0:0:0:
327,353,68146,1,0,0:0:0:0:
261,198,68376,1,0,0:0:0:0:
180,324,68607,6,0,P|136:328|104:280,1,80
84,240,69069,2,0,P|136:236|168:276,1,80
256,208,69530,1,0,0:0:0:0:
336,4,69992,5,0,0:0:0:0:
296,16,70107,1,0,0:0:0:0:
256,28,70223,1,0,0:0:0:0:
224,40,70338,1,0,0:0:0:0:
200,52,70453,6,0,P|192:88|164:128,1,80
164,196,70915,2,0,P|132:192|96:136,1,80
280,124,71376,1,0,0:0:0:0:
312,308,71607,1,0,0:0:0:0:
376,84,71838,1,0,0:0:0:0:
220,316,72069,1,0,0:0:0:0:
92,256,72300,5,0,0:0:0:0:
100,88,72530,1,0,0:0:0:0:
240,180,72761,1,0,0:0:0:0:
71,176,72992,1,0,0:0:0:0:
215,89,73223,1,0,0:0:0:0:
464,54,73684,6,0,P|480:66|456:54,1,120.000004577637
352,184,74838,6,0,B|400:196|400:196|448:172,1,80
416,84,75415,2,0,P|464:80|516:144,1,120
496,204,75992,2,0,L|509:224,4,20
492,208,76338,2,0,B|427:312,1,120
312,296,76915,1,0,0:0:0:0:
132,184,77376,6,0,P|180:152|164:92,1,120.000004577637
132,184,78300,5,0,0:0:0:0:
112,208,78415,1,0,0:0:0:0:
116,248,78530,1,0,0:0:0:0:
136,284,78646,1,0,0:0:0:0:
180,304,78761,1,0,0:0:0:0:
228,296,78876,1,0,0:0:0:0:
272,256,78992,1,0,0:0:0:0:
288,188,79107,1,0,0:0:0:0:
288,112,79223,6,0,P|304:60|372:36,1,120.000004577637
392,316,80146,2,0,B|448:276|448:276|436:216,1,120.000004577637
260,44,80838,1,0,0:0:0:0:
273,248,81069,1,0,0:0:0:0:
224,176,81184,5,0,0:0:0:0:
196,140,81300,1,0,0:0:0:0:
152,136,81415,1,0,0:0:0:0:
124,160,81530,6,0,P|140:200|104:208,1,80
40,208,81992,2,0,P|36:248|92:264,1,80
184,284,82453,1,0,0:0:0:0:
316,104,82684,1,0,0:0:0:0:
244,348,82915,1,0,0:0:0:0:
248,72,83146,1,0,0:0:0:0:
152,96,83376,6,0,P|180:144|160:172,1,80
156,264,83838,2,0,P|208:236|220:200,1,80
256,148,84300,2,0,B|308:176|308:176|292:248,1,120.000004577637
248,296,84876,5,0,0:0:0:0:
296,316,84992,1,0,0:0:0:0:
348,312,85107,1,0,0:0:0:0:
388,280,85223,6,0,B|400:244|400:244|456:200,1,80
360,172,85684,2,0,P|352:136|304:84,1,80
216,296,86146,1,0,0:0:0:0:
128,60,86376,1,0,0:0:0:0:
300,300,86607,1,0,0:0:0:0:
44,64,86838,1,0,0:0:0:0:
300,152,87069,6,0,P|336:156|408:192,1,80
220,228,87530,2,0,P|264:244|332:228,1,80
392,252,87992,2,0,B|512:272,2,120.000004577637
144,104,89607,6,0,P|184:100|224:60,1,80
296,56,90184,2,0,P|324:80|280:76,1,90.0000034332277
160,144,90761,6,0,L|236:156,1,60.0000022888184
228,160,91107,2,0,B|232:156|252:180|252:180|332:164,1,90.0000034332277
404,168,91684,6,0,L|380:224,1,60.0000022888184
376,236,92030,2,0,B|388:292|388:292|348:301,1,90.0000034332277
164,232,92607,6,0,P|168:292|108:280,1,120.000004577637
244,240,93992,6,0,P|296:256|276:256,1,320
416,100,95838,5,0,0:0:0:0:
332,104,96300,2,0,B|399:265|399:265|208:280,1,360.000013732911
140,180,97915,6,0,P|124:216|88:236,1,80
40,180,98376,2,0,P|16:236|24:280,1,80
128,304,98838,2,0,B|176:368|176:368|236:304,1,160
296,224,99530,1,0,0:0:0:0:
164,68,99992,5,8,0:0:0:0:
380,144,100453,1,8,0:0:0:0:
100,124,100915,1,8,0:0:0:0:
408,224,101376,1,8,0:0:0:0:
256,48,101838,5,8,0:0:0:0:
328,288,102300,1,8,0:0:0:0:
112,72,102761,1,8,0:0:0:0:
440,120,103223,1,8,0:0:0:0:
413,45,103684,5,8,0:0:0:0:
127,301,104146,1,8,0:0:0:0:
268,0,104607,1,8,0:0:0:0:
428,324,105069,1,8,0:0:0:0:
24,80,105530,5,8,0:0:0:0:
448,232,105992,1,8,0:0:0:0:
0,252,106453,1,8,0:0:0:0:
372,0,106915,1,8,0:0:0:0:
189,302,107376,5,0,0:0:0:0:
268,298,107530,1,0,0:0:0:0:
341,276,107684,1,0,0:0:0:0:
223,229,107838,5,0,0:0:0:0:
296,213,107992,1,0,0:0:0:0:
356,170,108146,1,0,0:0:0:0:
230,142,108300,5,0,0:0:0:0:
300,112,108453,1,0,0:0:0:0:
355,63,108607,1,0,0:0:0:0:
236,61,108761,5,0,0:0:0:0:
162,63,108915,1,0,0:0:0:0:
91,42,109069,1,0,0:0:0:0:
263,153,109223,5,0,0:0:0:0:
204,194,109376,1,0,0:0:0:0:
132,210,109530,1,0,0:0:0:0:
343,191,109684,5,0,0:0:0:0:
312,258,109838,1,0,0:0:0:0:
263,314,109992,1,0,0:0:0:0:
398,262,110146,5,0,0:0:0:0:
453,212,110300,1,0,0:0:0:0:
499,154,110453,1,0,0:0:0:0:
375,167,110607,5,0,0:0:0:0:
419,107,110761,1,0,0:0:0:0:
424,34,110915,1,0,0:0:0:0:
196,72,111069,6,0,L|220:48,7,20
148,92,111530,6,0,L|120:68,7,20
176,144,111992,6,0,L|208:144,7,20
120,168,112453,5,0,0:0:0:0:
109,171,112530,1,0,0:0:0:0:
114,180,112607,1,0,0:0:0:0:
104,180,112684,1,0,0:0:0:0:
110,191,112761,1,0,0:0:0:0:
101,192,112838,1,0,0:0:0:0:
108,201,112915,6,4,P|144:240|196:212,2,120,4|0|0,0:0|0:0|0:0,0:0:0:0:
340,307,114069,5,0,0:0:0:0:
405,209,114300,1,4,0:0:0:0:
227,154,114761,5,4,0:0:0:0:
89,179,114876,1,0,0:0:0:0:
189,221,114992,1,0,0:0:0:0:
72,254,115107,1,0,0:0:0:0:
152,307,115223,2,0,P|210:322|260:312,1,80,4|0,0:0|0:0,0:0:0:0:
260,208,115684,5,4,0:0:0:0:
284,100,115800,1,0,0:0:0:0:
373,167,115915,2,0,P|355:222|368:268,2,80,0|4|0,0:0|0:0|0:0,0:0:0:0:
132,80,116607,5,4,0:0:0:0:
56,160,116723,1,0,0:0:0:0:
168,92,116838,1,0,0:0:0:0:
100,176,116953,1,0,0:0:0:0:
236,145,117069,2,0,P|225:168|148:171,1,80,4|0,0:0|0:0,0:0:0:0:
336,216,117530,5,4,0:0:0:0:
384,320,117646,1,0,0:0:0:0:
304,332,117761,2,0,B|263:336|263:336|244:296,2,80,0|4|0,0:0|0:0|0:0,0:0:0:0:
320,92,118453,5,4,0:0:0:0:
427,182,118569,1,0,0:0:0:0:
261,158,118684,1,0,0:0:0:0:
466,109,118800,1,0,0:0:0:0:
440,28,118915,2,0,P|438:76|404:120,1,80,4|0,0:0|0:0,0:0:0:0:
276,120,119376,5,4,0:0:0:0:
188,48,119492,1,0,0:0:0:0:
156,140,119607,2,0,P|161:183|198:214,2,80,0|4|0,0:0|0:0|0:0,0:0:0:0:
249,86,120300,5,4,0:0:0:0:
322,208,120415,1,0,0:0:0:0:
384,80,120530,1,0,0:0:0:0:
320,239,120646,1,0,0:0:0:0:
368,168,120761,2,0,B|350:136|285:136|272:168,1,80,4|0,0:0|0:0,0:0:0:0:
129,232,121223,5,4,0:0:0:0:
0,180,121338,1,0,0:0:0:0:
128,120,121453,2,0,P|128:73|88:40,2,80,4|4|4,0:0|0:0|0:0,0:0:0:0:
265,77,122146,5,4,0:0:0:0:
376,144,122261,1,0,0:0:0:0:
216,100,122376,1,0,0:0:0:0:
336,168,122492,1,0,0:0:0:0:
397,66,122607,2,0,P|439:108|433:145,1,80,4|0,0:0|0:0,0:0:0:0:
384,248,123069,5,4,0:0:0:0:
384,348,123184,1,0,0:0:0:0:
305,292,123300,2,4,P|276:280|240:212,2,80,0|4|0,0:0|0:0|0:0,0:0:0:0:
131,139,123992,5,4,0:0:0:0:
245,40,124107,1,0,0:0:0:0:
189,199,124223,1,0,0:0:0:0:
168,45,124338,1,0,0:0:0:0:
236,118,124453,2,0,P|294:105|320:64,1,80,4|0,0:0|0:0,0:0:0:0:
370,243,124915,5,4,0:0:0:0:
292,172,125030,1,0,0:0:0:0:
288,295,125146,2,0,P|236:296|200:260,2,80,0|4|0,0:0|0:0|0:0,0:0:0:0:
168,176,125838,5,4,0:0:0:0:
252,56,125953,1,0,0:0:0:0:
244,200,126069,1,0,0:0:0:0:
332,88,126184,1,0,0:0:0:0:
164,40,126300,2,0,P|132:76|140:136,1,80,4|0,0:0|0:0,0:0:0:0:
279,270,126761,5,4,0:0:0:0:
164,272,126876,1,0,0:0:0:0:
208,168,126992,2,0,P|231:136|269:133,2,80,0|4|0,0:0|0:0|0:0,0:0:0:0:
92,67,127684,5,4,0:0:0:0:
101,191,127800,1,0,0:0:0:0:
206,106,127915,1,0,0:0:0:0:
50,59,128030,1,0,0:0:0:0:
26,132,128146,2,0,P|14:183|29:211,1,80,4|0,0:0|0:0,0:0:0:0:
64,328,128607,5,4,0:0:0:0:
132,264,128723,1,0,0:0:0:0:
204,304,128838,2,4,B|303:306,2,80
340,168,129530,2,0,P|380:180|404:176,3,40,4|0|0|0,0:0|0:0|0:0|0:0,0:0:0:0:
426,123,129992,2,0,P|444:136|452:200,1,80,4|0,0:0|0:0,0:0:0:0:
212,295,130453,6,0,L|165:265,1,40,4|0,0:0|0:0,0:0:0:0:
85,202,130684,2,0,P|140:213|158:190,2,80,0|4|0,0:0|0:0|0:0,0:0:0:0:
280,280,131376,2,0,P|304:312|324:320,3,40,4|0|0|0,0:0|0:0|0:0|0:0,0:0:0:0:
208,248,131838,2,0,P|251:198|288:209,1,80,4|0,0:0|0:0,0:0:0:0:
144,328,132300,6,0,L|101:303,1,40,4|0,0:0|0:0,0:0:0:0:
38,290,132530,2,0,P|71:246|119:242,2,80,0|4|0,0:0|0:0|0:0,0:0:0:0:
208,100,133223,2,0,P|232:100|256:108,3,40,4|0|0|0,0:0|0:0|0:0|0:0,0:0:0:0:
220,172,133684,2,0,B|235:206|235:206|216:280,1,80,4|0,0:0|0:0,0:0:0:0:
148,71,134146,6,0,L|182:42,1,40,4|0,0:0|0:0,0:0:0:0:
179,46,134376,2,0,P|224:30|248:54,2,80,0|4|0,0:0|0:0|0:0,0:0:0:0:
348,216,135069,2,0,L|352:268,3,40,4|0|0|0,0:0|0:0|0:0|0:0,0:0:0:0:
287,281,135530,2,0,P|241:237|237:215,1,80,4|0,0:0|0:0,0:0:0:0:
67,322,135992,6,0,L|66:274,1,40,4|0,0:0|0:0,0:0:0:0:
72,255,136223,2,4,L|144:187,2,80
208,88,136915,6,0,L|271:94,3,40,4|0|0|0,0:0|0:0|0:0|0:0,0:0:0:0:
228,180,137376,2,4,B|268:192|268:192|268:260,1,80,4|0,0:0|0:0,0:0:0:0:
24,112,137838,6,0,L|76:110,1,40,4|0,0:0|0:0,0:0:0:0:
80,108,138069,2,0,P|124:96|144:52,2,80
240,160,138761,6,0,P|296:144|300:136,3,40,4|0|0|0,0:0|0:0|0:0|0:0,0:0:0:0:
245,82,139223,2,0,B|188:76|188:76|140:112,1,80,4|0,0:0|0:0,0:0:0:0:
300,312,139684,6,0,L|346:310,1,40,4|0,0:0|0:0,0:0:0:0:
376,252,139915,2,0,P|408:304|398:346,2,80,0|4|0,0:0|0:0|0:0,0:0:0:0:
112,144,140607,6,0,P|104:192|104:200,3,40,4|0|0|0,0:0|0:0|0:0|0:0,0:0:0:0:
93,262,141069,2,0,P|158:242|182:203,1,80,4|0,0:0|0:0,0:0:0:0:
359,253,141530,6,0,L|311:252,1,40,4|0,0:0|0:0,0:0:0:0:
256,224,141761,2,0,P|252:248|301:318,2,80,0|4|0,0:0|0:0|0:0,0:0:0:0:
156,72,142453,6,0,L|103:84,3,40,4|0|0|0,0:0|0:0|0:0|0:0,0:0:0:0:
165,152,142915,2,0,P|204:144|228:104,1,80,4|0,0:0|0:0,0:0:0:0:
249,45,143376,5,4,0:0:0:0:
280,56,143492,1,0,0:0:0:0:
300,92,143607,1,0,0:0:0:0:
280,140,143723,1,0,0:0:0:0:
280,196,143838,1,4,0:0:0:0:
316,244,143953,1,0,0:0:0:0:
376,264,144069,1,0,0:0:0:0:
440,248,144184,1,0,0:0:0:0:
484,196,144300,5,4,0:0:0:0:
240,103,157915,5,0,0:0:0:0:
255,173,158146,2,0,P|297:155|303:91,1,80
312,56,158607,2,0,P|316:56|374:99,1,80
374,173,159069,2,0,L|424:167,3,40,2|0|0|0,0:0|0:0|0:0|0:0,0:0:0:0:
358,206,159530,2,0,L|391:242,3,40
316,191,159992,2,0,L|275:210,1,40
243,229,160223,6,0,P|239:276|256:312,1,80
296,336,160684,1,0,0:0:0:0:
350,289,160915,6,0,L|401:295,3,40,2|0|0|0,0:0|0:0|0:0|0:0,0:0:0:0:
341,258,161376,2,0,L|379:220,1,40
419,171,161607,5,0,0:0:0:0:
340,167,161838,2,0,P|367:106|383:102,1,80
451,93,162300,1,0,0:0:0:0:
368,32,162530,2,0,P|328:52|304:122,1,120,2|0,0:0|0:0,0:0:0:0:
332,184,163453,2,0,P|268:184|232:128,1,120,2|0,0:0|0:0,0:0:0:0:
158,64,164376,1,0,0:0:0:0:
94,133,164607,6,0,L|64:163,3,40,2|0|0|0,0:0|0:0|0:0|0:0,0:0:0:0:
133,210,165069,6,0,P|158:254|186:251,1,80
229,194,165530,2,0,P|261:239|237:272,1,80
211,321,165992,1,0,0:0:0:0:
211,321,166223,1,0,0:0:0:0:
313,319,166453,6,0,L|355:326,3,40,2|0|0|0,0:0|0:0|0:0|0:0,0:0:0:0:
297,267,166915,2,0,P|290:238|304:204,1,40
368,240,167146,6,0,P|362:183|329:172,1,80
256,143,167607,2,0,P|192:143|171:232,1,160
101,148,168300,6,0,L|64:110,3,40,2|0|0|0,0:0|0:0|0:0|0:0,0:0:0:0:
176,128,168761,2,0,L|184:81,1,40
151,202,168992,5,0,0:0:0:0:
228,202,169223,2,0,P|221:248|183:263,1,80
115,273,169684,2,0,P|141:327|190:324,1,80
232,252,170146,5,2,0:0:0:0:
288,344,170376,1,0,0:0:0:0:
344,256,170607,1,0,0:0:0:0:
216,320,170838,1,0,0:0:0:0:
296,200,171069,1,2,0:0:0:0:
364,328,171300,1,0,0:0:0:0:
216,252,171530,1,0,0:0:0:0:
400,184,171761,1,0,0:0:0:0:
199,73,171992,5,0,0:0:0:0:
88,251,172223,1,0,0:0:0:0:
322,192,172453,1,0,0:0:0:0:
127,60,172684,1,0,0:0:0:0:
203,280,172915,1,0,0:0:0:0:
358,86,173146,1,0,0:0:0:0:
73,104,173376,1,4,0:0:0:0:
265,280,173607,1,4,0:0:0:0:
330,53,173838,1,0,0:0:0:0:
424,208,174300,5,0,0:0:0:0:
344,332,174761,2,0,P|292:292|296:268,1,80
264,184,175223,1,0,0:0:0:0:
152,72,175684,5,0,0:0:0:0:
248,208,176146,1,0,0:0:0:0:
328,92,176607,2,0,P|280:112|248:96,1,80
376,168,177069,1,0,0:0:0:0:
460,224,177300,1,0,0:0:0:0:
380,304,177530,5,0,0:0:0:0:
260,316,177992,2,0,P|200:304|164:252,1,120.000004577637
128,148,178915,1,0,0:0:0:0:
232,80,179376,6,0,L|244:28,3,30.0000011444092,2|0|0|0,0:0|0:0|0:0|0:0,0:0:0:0:
275,156,179838,5,0,0:0:0:0:
376,88,180300,2,0,P|392:144|336:184,1,120.000004577637
216,248,181223,6,0,P|252:276|344:256,1,120,2|0,0:0|0:0,0:0:0:0:
400,228,181915,1,0,0:0:0:0:
224,316,182376,5,0,0:0:0:0:
224,316,182492,1,0,0:0:0:0:
224,316,182607,2,0,B|168:272|168:272|108:292,1,120.000004577637
76,344,183069,2,0,P|48:280|100:220,1,120,2|0,0:0|0:0,0:0:0:0:
132,180,183761,1,0,0:0:0:0:
232,100,184223,5,0,0:0:0:0:
232,100,184338,1,0,0:0:0:0:
232,100,184453,1,0,0:0:0:0:
216,224,184684,1,0,0:0:0:0:
348,156,184915,1,2,0:0:0:0:
152,312,185376,2,0,P|120:264|164:300,1,160
40,296,186300,1,0,0:0:0:0:
296,268,186761,5,0,0:0:0:0:
280,240,186876,1,0,0:0:0:0:
244,220,186992,1,0,0:0:0:0:
204,216,187107,1,0,0:0:0:0:
164,236,187223,1,0,0:0:0:0:
116,244,187338,1,0,0:0:0:0:
72,212,187453,1,0,0:0:0:0:
44,160,187569,1,0,0:0:0:0:
60,104,187684,1,0,0:0:0:0:
104,56,187800,1,0,0:0:0:0:
172,36,187915,1,0,0:0:0:0:
248,60,188030,1,0,0:0:0:0:
328,84,188146,5,4,0:0:0:0:
328,128,188261,5,0,0:0:0:0:
304,160,188376,1,0,0:0:0:0:
272,196,188492,1,0,0:0:0:0:
252,224,188607,6,0,P|296:248|304:220,1,80
308,160,189069,2,0,P|360:180|356:228,1,80
368,284,189530,1,0,0:0:0:0:
464,196,189761,1,0,0:0:0:0:
364,100,189992,1,0,0:0:0:0:
348,304,190223,1,0,0:0:0:0:
172,140,190453,5,0,0:0:0:0:
140,144,190569,1,0,0:0:0:0:
156,168,190684,1,0,0:0:0:0:
128,168,190800,1,0,0:0:0:0:
132,192,190915,1,0,0:0:0:0:
108,192,191030,1,0,0:0:0:0:
112,212,191146,1,0,0:0:0:0:
96,220,191261,1,0,0:0:0:0:
108,248,191376,2,0,B|250:224,1,120.000004577637
228,328,191953,5,0,0:0:0:0:
268,320,192068,1,0,0:0:0:0:
296,300,192184,1,0,0:0:0:0:
320,276,192300,6,0,P|336:244|312:196,1,80
256,164,192761,2,0,P|296:132|332:136,1,80
412,92,193223,1,0,0:0:0:0:
504,208,193453,1,0,0:0:0:0:
360,248,193684,1,0,0:0:0:0:
388,100,193915,1,0,0:0:0:0:
284,48,194146,6,0,L|256:136,1,80
156,92,194607,2,0,B|228:148,1,80
192,200,195069,2,0,B|224:164|224:164|300:208,2,120.000004577637
360,288,196453,5,0,0:0:0:0:
360,288,196569,1,0,0:0:0:0:
360,288,196684,2,0,P|392:260|388:208,1,80
272,168,197261,2,0,P|316:120|396:120,1,120
459,158,197838,1,0,0:0:0:0:
448,64,198184,2,0,P|376:84|328:36,1,120
272,40,198761,1,0,0:0:0:0:
228,168,199223,6,0,P|176:148|244:132,1,160
340,184,200146,5,0,0:0:0:0:
340,208,200261,1,0,0:0:0:0:
360,224,200376,1,0,0:0:0:0:
392,216,200492,1,0,0:0:0:0:
408,192,200607,1,0,0:0:0:0:
388,152,200723,1,0,0:0:0:0:
360,144,200838,1,0,0:0:0:0:
328,156,200953,1,0,0:0:0:0:
320,200,201069,6,0,P|260:192|260:120,1,120.000004577637
288,72,201992,2,0,P|224:60|164:136,1,160
136,204,202684,1,0,0:0:0:0:
68,140,202915,1,4,0:0:0:0:
48,228,203030,5,0,0:0:0:0:
68,264,203146,1,0,0:0:0:0:
100,280,203261,1,0,0:0:0:0:
136,288,203376,6,0,B|160:276|160:276|200:240,1,80,4|0,0:0|0:0,0:0:0:0:
244,268,203838,2,0,P|256:224|224:184,1,80
212,72,204300,1,0,0:0:0:0:
352,144,204530,1,0,0:0:0:0:
296,40,204761,1,0,0:0:0:0:
360,224,204992,1,0,0:0:0:0:
208,280,205223,5,0,0:0:0:0:
164,268,205338,1,0,0:0:0:0:
128,232,205453,1,0,0:0:0:0:
112,184,205569,1,0,0:0:0:0:
112,132,205684,1,0,0:0:0:0:
136,88,205800,1,0,0:0:0:0:
176,60,205915,1,0,0:0:0:0:
224,52,206030,1,0,0:0:0:0:
264,64,206146,6,0,B|240:112|240:112|316:124,1,120.000004577637
392,160,206723,5,0,0:0:0:0:
376,196,206838,1,0,0:0:0:0:
400,224,206954,1,0,0:0:0:0:
432,224,207069,6,0,P|472:196|472:168,1,60.0000022888184
480,108,207530,2,0,P|432:120|416:144,1,80
312,124,207992,1,0,0:0:0:0:
132,88,208223,1,0,0:0:0:0:
240,236,208453,1,0,0:0:0:0:
248,56,208684,1,0,0:0:0:0:
84,196,208915,6,0,P|68:256|80:280,1,80
144,244,209376,2,0,P|176:288|216:280,1,80
212,208,209838,2,0,P|164:168|104:176,2,120.000004577637
304,296,211222,5,0,0:0:0:0:
304,296,211337,1,0,0:0:0:0:
304,296,211453,2,0,P|348:280|364:232,1,80
308,196,212030,2,0,P|340:168|384:176,1,90.0000034332277
448,120,212607,6,0,B|460:88|460:88|416:72,1,60.0000022888184
435,79,212953,2,0,B|368:112|296:80,1,106.666666666667
248,160,213530,2,0,P|196:152|184:136,1,60.0000022888184
188,144,213876,2,0,B|140:88|140:88|112:168,1,120
184,256,214453,6,0,P|164:292|188:260,1,120.000004577637
372,284,215838,6,0,B|304:264|304:264|300:220|300:220|220:188|220:188|232:248,1,240.000009155274
76,240,217684,5,0,0:0:0:0:
68,156,218146,2,0,P|164:68|92:168,1,360.000013732911
272,124,219761,6,0,P|308:92|312:56,2,80
224,188,220453,1,0,0:0:0:0:
308,192,220684,2,0,P|284:252|188:264,1,160
348,68,221838,5,8,0:0:0:0:
176,128,222299,1,8,0:0:0:0:
272,272,222761,1,8,0:0:0:0:
408,192,223222,1,8,0:0:0:0:
280,80,223684,5,8,0:0:0:0:
144,220,224146,1,8,0:0:0:0:
324,328,224607,1,8,0:0:0:0:
460,144,225069,1,8,0:0:0:0:
168,92,225530,5,8,0:0:0:0:
385,301,225992,1,8,0:0:0:0:
116,152,226453,1,8,0:0:0:0:
416,220,226915,1,8,0:0:0:0:
132,296,227376,5,8,0:0:0:0:
396,80,227838,1,8,0:0:0:0:
68,248,228299,1,8,0:0:0:0:
440,148,228761,1,8,0:0:0:0:
323,302,229223,5,0,0:0:0:0:
228,360,229377,1,0,0:0:0:0:
208,264,229531,1,0,0:0:0:0:
176,328,229685,5,0,0:0:0:0:
264,240,229839,1,0,0:0:0:0:
336,344,229993,1,0,0:0:0:0:
144,288,230147,5,0,0:0:0:0:
316,220,230300,1,0,0:0:0:0:
280,356,230454,1,0,0:0:0:0:
428,244,230608,5,0,0:0:0:0:
392,136,230762,1,0,0:0:0:0:
512,176,230916,1,0,0:0:0:0:
380,256,231070,5,0,0:0:0:0:
360,88,231223,1,0,0:0:0:0:
512,136,231377,1,0,0:0:0:0:
344,208,231531,5,0,0:0:0:0:
416,80,231685,1,0,0:0:0:0:
504,224,231839,1,0,0:0:0:0:
360,304,231993,5,0,0:0:0:0:
192,276,232147,1,0,0:0:0:0:
264,168,232300,1,0,0:0:0:0:
264,316,232454,5,0,0:0:0:0:
180,188,232608,1,0,0:0:0:0:
356,196,232762,1,0,0:0:0:0:
448,136,232915,6,0,L|464:96,5,26.6666666666667
400,180,233376,6,0,L|352:168,5,26.6666666666667
440,208,233838,6,0,L|480:236,5,26.6666666666667
396,232,234300,5,0,0:0:0:0:
407,235,234377,1,0,0:0:0:0:
402,244,234454,1,0,0:0:0:0:
412,244,234531,1,0,0:0:0:0:
406,255,234608,1,0,0:0:0:0:
415,256,234685,1,0,0:0:0:0:
407,265,234762,6,4,P|360:294|321:255,2,120,4|0|0,0:0|0:0|0:0,0:0:0:0:
268,332,235684,6,0,B|180:328|180:328|148:288,1,120
208,236,236146,2,4,P|156:220|80:292,1,160
24,136,236723,5,0,0:0:0:0:
8,280,236838,1,0,0:0:0:0:
108,120,236953,1,0,0:0:0:0:
156,316,237069,2,0,P|172:272|144:240,1,80,4|0,0:0|0:0,0:0:0:0:
88,252,237530,2,0,P|96:212|152:180,1,80,4|0,0:0|0:0,0:0:0:0:
200,152,237992,2,0,L|208:124,4,20,4|0|0|0|0,0:0|0:0|0:0|0:0|0:0,0:0:0:0:
312,160,238453,5,4,0:0:0:0:
452,112,238569,1,0,0:0:0:0:
368,212,238684,1,0,0:0:0:0:
396,60,238800,1,0,0:0:0:0:
456,200,238915,2,0,P|440:260|408:276,1,80,4|0,0:0|0:0,0:0:0:0:
376,216,239376,2,0,P|352:280|424:344,1,160,4|4,0:0|0:0,0:0:0:0:
296,352,239953,5,0,0:0:0:0:
216,264,240069,1,0,0:0:0:0:
144,344,240184,1,0,0:0:0:0:
100,200,240300,1,4,0:0:0:0:
184,144,240530,6,0,P|144:104|92:104,1,80,0|4,0:0|0:0,0:0:0:0:
36,88,240992,2,0,P|60:32|112:16,1,80,0|4,0:0|0:0,0:0:0:0:
192,16,241453,1,0,0:0:0:0:
240,112,241684,1,4,0:0:0:0:
380,36,241915,1,0,0:0:0:0:
368,140,242146,5,4,0:0:0:0:
448,324,242376,1,0,0:0:0:0:
176,328,242607,1,4,0:0:0:0:
448,200,242838,1,0,0:0:0:0:
96,308,243069,1,4,0:0:0:0:
128,108,243530,5,4,0:0:0:0:
252,160,243646,1,0,0:0:0:0:
168,176,243761,1,0,0:0:0:0:
264,76,243876,1,0,0:0:0:0:
288,232,243992,1,4,0:0:0:0:
128,108,244453,6,0,B|84:112|84:168,1,80,4|0,0:0|0:0,0:0:0:0:
8,176,244915,2,0,P|32:220|104:236,1,120,4|0,0:0|0:0,0:0:0:0:
224,320,245607,1,0,0:0:0:0:
236,216,245838,2,0,L|220:184,5,20,4|0|0|0|0|0,0:0|0:0|0:0|0:0|0:0|0:0,0:0:0:0:
312,288,246300,1,4,0:0:0:0:
372,168,246530,1,0,0:0:0:0:
480,280,246761,1,4,0:0:0:0:
272,192,247223,6,4,B|192:132|192:132|216:76,1,160
88,72,248146,5,4,0:0:0:0:
48,104,248261,1,0,0:0:0:0:
44,160,248376,1,0,0:0:0:0:
84,204,248492,1,0,0:0:0:0:
144,212,248607,5,4,0:0:0:0:
192,180,248723,1,0,0:0:0:0:
224,128,248838,1,0,0:0:0:0:
252,72,248953,1,0,0:0:0:0:
308,40,249069,5,4,0:0:0:0:
372,44,249184,1,0,0:0:0:0:
424,76,249300,1,0,0:0:0:0:
456,128,249415,1,0,0:0:0:0:
456,192,249530,5,4,0:0:0:0:
324,216,249992,5,4,0:0:0:0:
216,292,250453,2,0,P|212:252|264:228,2,80,4|4|6,0:0|0:0|0:0,0:0:0:0:
128,252,251030,5,0,0:0:0:0:
176,136,251146,1,0,0:0:0:0:
48,224,251261,1,0,0:0:0:0:
72,92,251376,6,0,P|100:44|156:40,1,80,4|0,0:0|0:0,0:0:0:0:
248,80,251838,2,0,P|288:144|312:148,1,80,4|0,0:0|0:0,0:0:0:0:
512,164,252300,1,4,0:0:0:0:
464,56,252415,1,0,0:0:0:0:
404,148,252530,2,0,P|400:216|416:228,2,80,0|4|0,0:0|0:0|0:0,0:0:0:0:
176,228,253223,5,4,0:0:0:0:
320,280,253338,1,0,0:0:0:0:
212,152,253453,1,0,0:0:0:0:
248,328,253569,1,0,0:0:0:0:
296,156,253684,2,0,L|380:144,1,80,4|0,0:0|0:0,0:0:0:0:
408,68,254146,2,4,B|492:124|424:220,1,160
324,96,254723,5,0,0:0:0:0:
232,80,254838,1,0,0:0:0:0:
324,96,254953,1,0,0:0:0:0:
232,80,255069,2,0,B|232:128|188:176,1,80,4|0,0:0|0:0,0:0:0:0:
120,120,255530,2,0,P|120:168|140:192,1,80,4|0,0:0|0:0,0:0:0:0:
312,252,255992,5,4,0:0:0:0:
416,292,256107,1,0,0:0:0:0:
328,172,256223,2,0,P|384:164|420:204,2,80,0|4|0,0:0|0:0|0:0,0:0:0:0:
208,108,256915,5,4,0:0:0:0:
80,172,257030,1,0,0:0:0:0:
208,108,257146,1,0,0:0:0:0:
128,244,257261,1,0,0:0:0:0:
264,44,257376,2,4,P|288:76|280:140,1,80,4|0,0:0|0:0,0:0:0:0:
252,184,257838,2,0,P|316:204|360:136,2,160,4|4|4,0:0|0:0|0:0,0:0:0:0:
360,280,259223,6,0,L|376:248,4,20,4|0|0|0|0,0:0|0:0|0:0|0:0|0:0,0:0:0:0:
424,328,259684,2,0,P|468:268|460:224,1,120,4|0,0:0|0:0,0:0:0:0:
264,148,260376,1,0,0:0:0:0:
148,160,260607,6,0,P|148:212|180:240,1,80,4|0,0:0|0:0,0:0:0:0:
244,232,260953,2,0,P|232:280|148:312,1,120
328,100,261530,6,0,P|384:80|420:104,1,80,4|0,0:0|0:0,0:0:0:0:
388,156,261876,2,0,P|444:144|468:80,1,120
184,64,262453,5,4,0:0:0:0:
128,164,262569,1,0,0:0:0:0:
100,52,262684,1,0,0:0:0:0:
216,168,262800,1,0,0:0:0:0:
64,120,262915,2,0,P|48:168|84:220,1,80,4|0,0:0|0:0,0:0:0:0:
208,256,263376,5,4,0:0:0:0:
312,216,263492,1,0,0:0:0:0:
276,320,263607,2,0,L|372:324,2,80,0|4|0,0:0|0:0|0:0,0:0:0:0:
232,96,264300,5,4,0:0:0:0:
352,176,264415,1,0,0:0:0:0:
308,60,264530,1,0,0:0:0:0:
296,236,264646,1,0,0:0:0:0:
384,44,264761,2,0,L|408:124,1,80,4|0,0:0|0:0,0:0:0:0:
140,240,265223,5,4,0:0:0:0:
168,12,265453,1,4,0:0:0:0:
260,156,265684,2,4,L|328:112,2,80
328,264,266376,5,0,0:0:0:0:
327,189,266492,1,0,0:0:0:0:
328,264,266607,2,4,B|468:184|468:184|516:360,1,320
192,288,267761,6,0,P|216:328|268:332,1,80,0|4,0:0|0:0,0:0:0:0:
264,256,268223,2,0,P|224:216|176:208,1,80,0|4,0:0|0:0,0:0:0:0:
132,236,268684,2,0,P|132:180|216:128,1,160
376,152,269376,1,4,0:0:0:0:
412,0,269492,1,0,0:0:0:0:
312,116,269607,1,0,0:0:0:0:
476,44,269722,1,0,0:0:0:0:
324,268,269838,6,0,L|388:296,3,40,4|0|0|0,0:0|0:0|0:0|0:0,0:0:0:0:
424,248,270300,2,0,P|432:300|396:344,1,80,4|0,0:0|0:0,0:0:0:0:
228,144,270761,1,4,0:0:0:0:
132,216,270876,1,0,0:0:0:0:
244,244,270992,2,0,P|232:288|192:312,1,80,0|4,0:0|0:0,0:0:0:0:
336,300,271453,6,0,P|380:280|396:252,1,80,0|4,0:0|0:0,0:0:0:0:
464,224,271915,2,0,P|424:184|376:176,1,80,0|4,0:0|0:0,0:0:0:0:
328,204,272376,2,0,P|328:148|412:96,1,160
220,60,273069,5,4,0:0:0:0:
120,124,273184,1,0,0:0:0:0:
272,124,273300,1,0,0:0:0:0:
140,196,273415,1,0,0:0:0:0:
320,216,273530,6,0,L|360:204,3,40,4|0|0|0,0:0|0:0|0:0|0:0,0:0:0:0:
236,208,273992,2,0,P|244:264|284:292,1,80,4|0,0:0|0:0,0:0:0:0:
136,92,274453,2,0,L|108:144,1,40,4|0,0:0|0:0,0:0:0:0:
112,136,274684,2,0,P|64:144|44:96,2,80,0|4|0,0:0|0:0|0:0,0:0:0:0:
316,92,275376,6,0,L|372:68,3,40,4|0|0|0,0:0|0:0|0:0|0:0,0:0:0:0:
244,80,275838,2,0,P|248:128|288:152,1,80,4|0,0:0|0:0,0:0:0:0:
416,200,276300,2,0,L|400:240,1,40,4|0,0:0|0:0,0:0:0:0:
400,244,276530,2,0,P|360:276|312:268,2,80,0|4|0,0:0|0:0|0:0,0:0:0:0:
204,192,277223,6,0,L|156:192,3,40,4|0|0|0,0:0|0:0|0:0|0:0,0:0:0:0:
212,272,277684,2,0,P|268:244|280:212,1,80,4|0,0:0|0:0,0:0:0:0:
340,76,278146,2,0,L|376:104,1,40,4|0,0:0|0:0,0:0:0:0:
376,104,278376,2,0,L|400:196,1,80,0|4,0:0|0:0,0:0:0:0:
192,72,278838,6,0,P|180:140|204:164,1,80,0|4,0:0|0:0,0:0:0:0:
256,124,279300,2,0,P|240:196|216:208,1,80,0|4,0:0|0:0,0:0:0:0:
172,216,279761,2,4,P|196:256|296:236,1,160
336,160,280453,1,4,0:0:0:0:
116,96,280915,5,4,0:0:0:0:
36,204,281030,1,0,0:0:0:0:
184,128,281146,1,0,0:0:0:0:
0,144,281261,1,0,0:0:0:0:
172,200,281376,2,0,L|248:228,1,80,4|0,0:0|0:0,0:0:0:0:
376,132,281838,5,4,0:0:0:0:
388,240,281953,1,0,0:0:0:0:
452,152,282069,2,0,P|452:92|428:72,2,80,0|4|0,0:0|0:0|0:0,0:0:0:0:
172,132,282761,5,4,0:0:0:0:
284,192,282876,1,0,0:0:0:0:
224,72,282992,1,0,0:0:0:0:
240,256,283107,1,0,0:0:0:0:
96,112,283223,2,0,P|92:156|124:188,1,80,4|0,0:0|0:0,0:0:0:0:
344,92,283684,5,4,0:0:0:0:
464,56,283800,1,0,0:0:0:0:
432,168,283915,2,0,P|480:184|504:172,2,80,0|4|0,0:0|0:0|0:0,0:0:0:0:
184,240,284607,5,4,0:0:0:0:
68,196,284723,1,0,0:0:0:0:
184,240,284838,1,0,0:0:0:0:
120,96,284953,1,0,0:0:0:0:
240,292,285069,2,0,L|328:248,1,80,4|0,0:0|0:0,0:0:0:0:
272,108,285530,5,4,0:0:0:0:
368,44,285646,1,0,0:0:0:0:
380,160,285761,2,0,L|392:240,2,80,0|4|0,0:0|0:0|0:0,0:0:0:0:
168,272,286453,5,4,0:0:0:0:
280,184,286569,1,0,0:0:0:0:
272,300,286684,1,0,0:0:0:0:
184,152,286800,1,0,0:0:0:0:
328,100,286915,2,0,P|368:60|420:68,1,80,4|0,0:0|0:0,0:0:0:0:
408,208,287376,5,4,0:0:0:0:
452,312,287492,1,0,0:0:0:0:
308,204,287607,2,0,P|324:264|356:272,2,80,0|4|0,0:0|0:0|0:0,0:0:0:0:
80,120,288300,5,4,0:0:0:0:
212,84,288415,1,0,0:0:0:0:
136,184,288530,1,0,0:0:0:0:
212,84,288646,1,0,0:0:0:0:
232,188,288761,2,0,L|252:280,1,80,4|0,0:0|0:0,0:0:0:0:
360,92,289223,5,4,0:0:0:0:
472,144,289338,1,0,0:0:0:0:
372,200,289453,2,0,P|388:264|424:272,2,80,0|4|0,0:0|0:0|0:0,0:0:0:0:
120,136,290146,5,4,0:0:0:0:
232,60,290261,1,0,0:0:0:0:
120,208,290376,1,0,0:0:0:0:
268,124,290492,1,0,0:0:0:0:
140,288,290607,2,0,P|192:256|204:224,1,80,4|0,0:0|0:0,0:0:0:0:
408,212,291069,5,4,0:0:0:0:
476,312,291184,1,0,0:0:0:0:
324,184,291300,2,0,P|332:248|368:276,2,80,0|4|0,0:0|0:0|0:0,0:0:0:0:
56,296,291992,5,4,0:0:0:0:
156,180,292107,1,0,0:0:0:0:
16,232,292223,1,0,0:0:0:0:
108,128,292338,1,0,0:0:0:0:
140,304,292453,2,0,P|184:288|200:260,1,80,4|0,0:0|0:0,0:0:0:0:
340,80,292915,5,4,0:0:0:0:
440,120,293030,1,0,0:0:0:0:
260,80,293146,2,0,P|276:132|316:144,2,80,0|4|0,0:0|0:0|0:0,0:0:0:0:
416,264,293838,5,4,0:0:0:0:
376,300,293953,1,0,0:0:0:0:
320,300,294069,1,0,0:0:0:0:
260,272,294184,1,0,0:0:0:0:
200,228,294300,1,4,0:0:0:0:
124,200,294415,1,0,0:0:0:0:
48,240,294530,1,0,0:0:0:0:
28,328,294646,1,0,0:0:0:0:
104,384,294761,5,4,0:0:0:0:
196,336,294876,1,0,0:0:0:0:
216,236,294991,1,0,0:0:0:0:
152,172,295107,1,0,0:0:0:0:
80,100,295222,1,4,0:0:0:0:
96,16,295338,1,0,0:0:0:0:
196,4,295453,1,0,0:0:0:0:
232,96,295569,1,0,0:0:0:0:
152,172,295684,5,0,0:0:0:0:
304,148,296030,1,0,0:0:0:0:
448,200,296376,1,0,0:0:0:0:
216,320,296838,2,0,P|236:356|292:364,2,80
128,252,297530,5,0,0:0:0:0:
192,72,297876,1,0,0:0:0:0:
384,60,298223,1,0,0:0:0:0:
336,336,298684,2,0,P|380:332|408:308,2,80
192,340,299376,5,0,0:0:0:0:
336,256,299723,1,0,0:0:0:0:
496,336,300069,1,0,0:0:0:0:
324,136,300530,2,0,P|276:88|232:80,2,80
88,92,301223,5,0,0:0:0:0:
88,236,301569,1,0,0:0:0:0:
248,288,301915,1,0,0:0:0:0:
448,116,302376,2,0,P|512:148|512:176,2,80,0|4|4,0:0|0:0|0:0,0:0:0:0:
384,332,303069,5,0,0:0:0:0:
484,200,303415,1,0,0:0:0:0:
384,44,303761,1,0,0:0:0:0:
280,232,304223,2,0,P|300:280|332:288,2,80
64,208,304915,5,0,0:0:0:0:
192,328,305261,1,0,0:0:0:0:
348,228,305607,1,0,0:0:0:0:
64,68,306069,2,0,P|108:8|144:12,2,80
428,140,306761,5,0,0:0:0:0:
412,312,307107,1,0,0:0:0:0:
232,312,307453,1,0,0:0:0:0:
380,56,307915,2,0,P|308:48|272:68,2,80
56,36,308607,5,0,0:0:0:0:
40,204,308953,1,0,0:0:0:0:
172,328,309300,1,0,0:0:0:0:
264,104,309761,2,0,P|280:52|256:24,1,80
183,98,310453,6,0,B|56:56|56:56|64:168|64:168|211:200|156:280|162:348|36:369|1:276,1,600,0|4,0:0|0:0,0:0:0:0:
408,308,314146,6,0,B|368:48|368:48|288:196|288:196|380:352,1,600,0|4,0:0|0:0,0:0:0:0:
216,84,317838,6,0,B|160:24|76:76|76:152|-36:176|-36:176|40:196|80:300|140:376|212:308,1,600,0|4,0:0|0:0,0:0:0:0:
408,140,321530,6,0,B|528:200|584:264|380:464|272:332|312:160|480:188|456:336|456:336|496:352,1,560
256,192,325223,12,0,328569,0:0:0:0:
