osu file format v14

[General]
AudioFilename: audio.mp3
AudioLeadIn: 0
PreviewTime: 204217
Countdown: 0
SampleSet: Soft
StackLeniency: 0.6
Mode: 0
LetterboxInBreaks: 0
WidescreenStoryboard: 0

[Editor]
DistanceSpacing: 1.4
BeatDivisor: 4
GridSize: 4
TimelineZoom: 1.5

[Metadata]
Title:Take Your Way
TitleUnicode:Take Your Way
Artist:livetune adding Fukase (from SEKAI NO OWARI)
ArtistUnicode:livetune adding Fukase (from SEKAI NO OWARI)
Creator:Bearizm
Version:Special
Source:DEVIL SURVIVOR2 the ANIMATION
Tags:ATLUS ds2a opening op kz
BeatmapID:1824715
BeatmapSetID:872916

[Difficulty]
HPDrainRate:4.5
CircleSize:3.5
OverallDifficulty:8
ApproachRate:8.8
SliderMultiplier:2.59999990463257
SliderTickRate:1

[Events]
//Background and Video events
0,0,"BG.jpg",0,0
//Break Periods
//Storyboard Layer 0 (Background)
//Storyboard Layer 1 (Fail)
//Storyboard Layer 2 (Pass)
//Storyboard Layer 3 (Foreground)
//Storyboard Sound Samples

[TimingPoints]
0,447.761194029851,4,2,1,80,1,0
3582,-100,4,2,1,20,0,0
4925,-100,4,2,1,80,0,0
7164,-100,4,2,1,90,0,1
21268,-200,4,2,1,70,0,1
21492,-200,4,2,1,70,0,0
35820,-133.333333333333,4,2,1,80,0,0
50149,-100,4,2,1,90,0,1
63358,-100,4,2,1,60,0,1
63582,-100,4,2,1,90,0,1
80708,-100,4,2,0,57,0,1
80932,-100,4,2,0,90,0,1
81044,-100,4,2,0,57,0,1
81268,-100,4,2,1,90,0,1
81604,-100,4,2,0,57,0,1
81940,-100,4,2,1,90,0,1
82052,-100,4,2,0,57,0,1
82400,447.761194029851,4,2,1,90,1,0
96728,-133.333333333333,4,2,1,70,0,0
111056,-133.333333333333,4,2,1,80,0,0
124489,-400,4,2,1,80,0,0
125385,-100,4,2,1,90,0,1
138594,-100,4,2,1,60,0,1
138817,-100,4,2,1,90,0,1
155944,-100,4,2,0,57,0,1
156168,-100,4,2,0,90,0,1
156280,-100,4,2,0,57,0,1
156504,-100,4,2,1,90,0,1
156840,-100,4,2,0,57,0,1
157176,-100,4,2,1,90,0,1
157288,-100,4,2,0,57,0,1
157630,447.761194029851,4,2,1,80,1,0
157853,-1000,4,2,1,80,0,0
171958,-66.6666666666667,4,2,1,90,0,1
172182,-133.333333333333,4,2,1,90,0,1
172630,-66.6666666666667,4,2,1,90,0,1
172853,-133.333333333333,4,2,1,90,0,1
173301,-66.6666666666667,4,2,1,90,0,1
173525,-133.333333333333,4,2,1,90,0,1
173973,-66.6666666666667,4,2,1,90,0,1
174197,-133.333333333333,4,2,1,90,0,1
174644,-66.6666666666667,4,2,1,90,0,1
174868,-133.333333333333,4,2,1,90,0,1
175092,-66.6666666666667,4,2,1,90,0,1
175428,-66.6666666666667,4,2,1,5,0,1
175540,-66.6666666666667,4,2,1,90,0,1
175764,-133.333333333333,4,2,1,90,0,1
176212,-66.6666666666667,4,2,1,90,0,1
176435,-133.333333333333,4,2,1,90,0,1
176883,-66.6666666666667,4,2,1,90,0,1
177107,-133.333333333333,4,2,1,90,0,1
177555,-66.6666666666667,4,2,1,90,0,1
177779,-133.333333333333,4,2,1,90,0,1
178227,-66.6666666666667,4,2,1,90,0,1
178450,-133.333333333333,4,2,1,90,0,1
178674,-66.6666666666667,4,2,1,90,0,1
179010,-66.6666666666667,4,2,1,5,0,1
179122,-66.6666666666667,4,2,1,90,0,1
179346,-133.333333333333,4,2,1,90,0,1
179794,-66.6666666666667,4,2,1,90,0,1
180018,-133.333333333333,4,2,1,90,0,1
180465,-66.6666666666667,4,2,1,90,0,1
180689,-133.333333333333,4,2,1,90,0,1
181137,-66.6666666666667,4,2,1,90,0,1
181361,-133.333333333333,4,2,1,90,0,1
181809,-66.6666666666667,4,2,1,90,0,1
182032,-133.333333333333,4,2,1,90,0,1
182256,-66.6666666666667,4,2,1,90,0,1
182592,-66.6666666666667,4,2,1,5,0,1
182704,-66.6666666666667,4,2,1,90,0,1
182928,-133.333333333333,4,2,1,90,0,1
183376,-66.6666666666667,4,2,1,90,0,1
183600,-133.333333333333,4,2,1,90,0,1
184047,-66.6666666666667,4,2,1,90,0,1
184271,-133.333333333333,4,2,1,90,0,1
184719,-66.6666666666667,4,2,1,90,0,1
184943,-133.333333333333,4,2,1,90,0,1
186174,-133.333333333333,4,2,1,90,0,1
186286,-66.6666666666667,4,2,1,90,0,1
186510,-133.333333333333,4,2,1,90,0,1
186958,-66.6666666666667,4,2,1,90,0,1
187182,-133.333333333333,4,2,1,90,0,1
187630,-66.6666666666667,4,2,1,90,0,1
187853,-133.333333333333,4,2,1,90,0,1
188301,-66.6666666666667,4,2,1,90,0,1
188525,-133.333333333333,4,2,1,90,0,1
188973,-66.6666666666667,4,2,1,90,0,1
189197,-133.333333333333,4,2,1,90,0,1
189421,-66.6666666666667,4,2,1,90,0,1
189756,-66.6666666666667,4,2,1,5,0,1
189868,-66.6666666666667,4,2,1,90,0,1
190092,-133.333333333333,4,2,1,90,0,1
190540,-66.6666666666667,4,2,1,90,0,1
190764,-133.333333333333,4,2,1,90,0,1
191212,-66.6666666666667,4,2,1,90,0,1
191435,-133.333333333333,4,2,1,90,0,1
191883,-66.6666666666667,4,2,1,90,0,1
192107,-133.333333333333,4,2,1,90,0,1
192555,-66.6666666666667,4,2,1,90,0,1
192779,-133.333333333333,4,2,1,90,0,1
193003,-66.6666666666667,4,2,1,90,0,1
193338,-66.6666666666667,4,2,1,5,0,1
193450,-66.6666666666667,4,2,1,90,0,1
193674,-133.333333333333,4,2,1,90,0,1
194122,-66.6666666666667,4,2,1,90,0,1
194346,-133.333333333333,4,2,1,90,0,1
194794,-66.6666666666667,4,2,1,90,0,1
195018,-133.333333333333,4,2,1,90,0,1
195465,-66.6666666666667,4,2,1,90,0,1
195689,-133.333333333333,4,2,1,90,0,1
196137,-66.6666666666667,4,2,1,90,0,1
196361,-133.333333333333,4,2,1,90,0,1
196585,-66.6666666666667,4,2,1,90,0,1
196921,-66.6666666666667,4,2,1,5,0,1
197032,-66.6666666666667,4,2,1,90,0,1
197256,-133.333333333333,4,2,1,90,0,1
197704,-66.6666666666667,4,2,1,90,0,1
197928,-133.333333333333,4,2,1,90,0,1
198376,-66.6666666666667,4,2,1,90,0,1
198600,-133.333333333333,4,2,1,90,0,1
199047,-66.6666666666667,4,2,1,90,0,1
199271,-133.333333333333,4,2,1,90,0,1
199719,-66.6666666666667,4,2,1,90,0,1
199943,-133.333333333333,4,2,1,90,0,1
200167,-66.6666666666667,4,2,1,90,0,1
200503,-66.6666666666667,4,2,1,5,0,1
200615,-232.5,4,2,1,90,0,1
200727,-232.5,4,2,1,70,0,1
204217,447.761194029851,4,2,1,70,1,0
215075,-100,4,2,1,70,0,0
218545,-90.9090909090909,4,2,1,90,0,1
231754,-90.9090909090909,4,2,1,60,0,1
231978,-90.9090909090909,4,2,1,90,0,1
249105,-90.9090909090909,4,2,0,57,0,1
249328,-90.9090909090909,4,2,0,90,0,1
249440,-90.9090909090909,4,2,0,57,0,1
249664,-90.9090909090909,4,2,1,90,0,1
250000,-90.9090909090909,4,2,0,57,0,1
250336,-90.9090909090909,4,2,1,90,0,1
250448,-90.9090909090909,4,2,0,57,0,1
250790,447.761194029851,4,2,1,90,1,0
265230,-100,4,2,1,10,0,0

[Colours]
Combo1 : 255,164,164
Combo2 : 128,255,255
Combo3 : 53,154,255
Combo4 : 255,128,128

[HitObjects]
256,192,3582,12,2,4925,0:0:0:0:
176,61,5373,6,0,P|144:66|113:56,1,64.9999976158143,0|0,3:0|1:0,0:0:0:0:
235,4,5597,1,0,1:0:0:0:
235,4,5708,2,0,P|222:66|211:136,1,129.999995231629,0|0,1:0|0:0,0:0:0:0:
208,158,6044,1,0,1:0:0:0:
510,124,6268,6,0,P|472:70|393:84,1,129.999995231629,2|0,0:0|0:0,0:0:0:0:
363,139,6604,1,0,0:0:0:0:
426,194,6716,2,0,P|433:221|438:257,1,64.9999976158143,2|0,0:3|0:0,0:0:0:0:
272,301,6940,5,0,0:0:0:0:
272,301,7052,1,0,0:0:0:0:
272,301,7164,2,0,L|140:289,1,129.999995231629,4|0,3:2|0:0,0:0:0:0:
66,225,7500,1,8,0:0:0:0:
59,201,7611,2,0,P|56:165|68:134,1,64.9999976158143,8|0,3:0|0:0,0:0:0:0:
153,35,7835,2,0,L|164:166,1,129.999995231629,2|0,0:0|3:0,0:0:0:0:
350,70,8395,1,8,0:0:0:0:
350,70,8507,2,0,L|326:269,1,194.999992847443,8|0,3:0|0:0,0:0:0:0:
327,264,8955,6,0,P|405:249|448:343,1,194.999992847443,0|8,3:0|0:0,0:0:0:0:
378,319,9402,1,8,3:0:0:0:
509,135,9626,1,0,0:0:0:0:
437,28,9850,1,0,3:0:0:0:
337,109,10074,2,0,L|209:89,1,129.999995231629,8|8,0:0|3:0,0:0:0:0:
126,124,10410,2,0,P|93:181|114:242,1,129.999995231629,8|0,0:0|0:0,0:0:0:0:
51,295,10746,6,0,B|201:274|201:274|177:289|160:309,1,194.999992847443,0|8,3:0|0:0,0:0:0:0:
266,320,11194,2,0,P|282:257|246:207,1,129.999995231629,8|0,3:0|0:0,0:0:0:0:
153,314,11641,1,0,3:0:0:0:
338,376,11977,1,8,0:0:0:0:
338,376,12089,2,0,B|468:363|468:363|461:300,1,194.999992847443,8|0,3:0|0:0,0:0:0:0:
384,129,12537,6,0,B|371:255|371:255|389:216|424:210,1,194.999992847443,0|8,3:0|0:0,0:0:0:0:
435,201,12985,2,0,B|372:188|372:188|309:205|309:205|245:192,1,194.999992847443,8|0,3:0|0:0,0:0:0:0:
185,69,13432,2,0,B|197:101|190:132,1,64.9999976158143,0|0,3:0|0:0,0:0:0:0:
134,277,13656,2,0,P|164:221|230:220,1,129.999995231629,8|8,0:0|3:0,0:0:0:0:
248,375,13992,2,0,B|214:370|190:348|190:348|162:366|128:366,1,129.999995231629,8|0,0:0|0:0,0:0:0:0:
105,368,14328,1,0,3:0:0:0:
315,294,14664,5,8,0:0:0:0:
315,294,14776,2,0,B|457:280|457:280|415:317,1,194.999992847443,8|0,3:0|0:0,0:0:0:0:
396,329,15223,2,0,L|381:130,1,194.999992847443,0|8,3:0|0:0,0:0:0:0:
393,8,15671,2,0,L|407:202,1,194.999992847443,8|0,3:0|0:0,0:0:0:0:
409,230,16119,5,0,3:0:0:0:
224,289,16455,1,8,0:0:0:0:
224,289,16567,2,0,L|160:279,1,64.9999976158143,8|0,3:0|0:0,0:0:0:0:
29,368,16791,2,0,L|93:358,1,64.9999976158143
163,263,17014,2,0,B|177:223|177:223|154:139,1,129.999995231629,0|8,3:0|0:0,0:0:0:0:
131,143,17350,1,0,0:0:0:0:
131,143,17462,2,0,L|141:79,2,64.9999976158143,8|0|0,3:0|0:0|0:0,0:0:0:0:
290,187,17910,6,0,B|354:178|354:178|415:204|415:204|478:198,1,194.999992847443,0|8,3:0|0:0,0:0:0:0:
470,179,18358,2,0,B|443:148|443:148|457:303,1,194.999992847443,8|0,3:0|0:0,0:0:0:0:
459,329,18805,1,0,3:0:0:0:
286,311,19029,2,0,P|252:313|217:304,1,64.9999976158143,0|8,0:0|0:0,0:0:0:0:
102,346,19253,2,0,L|234:330,1,129.999995231629,8|0,3:0|0:0,0:0:0:0:
222,305,19589,1,0,0:0:0:0:
222,305,19701,6,0,B|201:255|201:255|219:180,1,129.999995231629,0|0,3:0|0:0,0:0:0:0:
228,152,20037,1,8,0:3:0:0:
432,303,20373,1,0,1:0:0:0:
502,244,20597,1,0,3:0:0:0:
469,159,20820,1,10,3:0:0:0:
378,163,21044,1,0,0:0:0:0:
355,252,21268,6,0,L|367:383,1,129.999995231629,4|0,0:0|0:0,0:0:0:0:
253,204,21940,2,0,L|265:335,1,129.999995231629,0|0,1:0|0:0,0:0:0:0:
186,380,22611,1,0,0:0:0:0:
84,264,23059,1,0,1:0:0:0:
84,264,23283,2,0,L|72:134,1,129.999995231629,0|0,0:0|1:0,0:0:0:0:
115,54,23955,5,0,0:0:0:0:
204,38,24179,1,0,0:0:0:0:
278,89,24402,1,0,1:0:0:0:
300,177,24626,1,0,0:0:0:0:
247,251,24850,2,0,L|255:317,1,64.9999976158143
441,309,25298,5,0,0:0:0:0:
258,332,25522,1,0,1:0:0:0:
440,284,25746,5,0,0:0:0:0:
244,347,25970,1,0,0:0:0:0:
431,259,26194,5,0,1:0:0:0:
236,370,26418,1,0,0:0:0:0:
412,236,26641,6,0,L|419:104,1,129.999995231629
350,44,27313,5,0,1:0:0:0:
350,44,27537,1,0,0:0:0:0:
265,77,27761,1,0,0:0:0:0:
180,111,27985,1,0,1:0:0:0:
98,71,28208,1,0,0:0:0:0:
98,71,28432,2,0,P|107:140|112:203,1,129.999995231629,0|0,1:0|0:0,0:0:0:0:
209,354,29328,5,0,0:0:0:0:
257,276,29552,1,0,0:0:0:0:
344,251,29776,1,0,1:0:0:0:
428,282,30000,1,0,0:0:0:0:
472,360,30223,2,0,P|477:295|484:230,1,129.999995231629,0|0,1:0|0:0,0:0:0:0:
361,88,31119,6,0,P|330:75|291:75,1,64.9999976158143,0|0,1:0|0:0,0:0:0:0:
186,169,31567,2,0,P|218:167|248:154,1,64.9999976158143,0|0,0:0|1:0,0:0:0:0:
83,109,32014,2,0,B|65:145|65:145|80:239,1,129.999995231629
58,322,32686,1,0,0:0:0:0:
141,358,32910,2,0,L|272:339,1,129.999995231629,0|0,1:0|0:0,0:0:0:0:
353,376,33582,1,0,0:0:0:0:
464,259,33805,6,0,L|332:242,1,129.999995231629,0|0,1:0|0:0,0:0:0:0:
272,29,34477,2,0,P|307:8|364:17,1,97.4999964237214,0|0,1:0|0:0,0:0:0:0:
361,15,34925,2,0,L|339:148,1,129.999995231629,0|2,1:0|1:3,0:0:0:0:
334,166,35485,1,0,0:0:0:0:
334,166,35597,1,0,0:0:0:0:
112,138,35820,6,0,P|77:207|109:267,1,146.250000214577,4|8,3:2|1:3,0:0:0:0:
70,349,36268,2,0,L|169:337,1,97.5000001430512,0|0,0:0|3:0,0:0:0:0:
300,371,36716,2,0,L|399:359,1,97.5000001430512,8|0,0:3|0:0,0:0:0:0:
460,293,37052,1,8,0:3:0:0:
443,282,37164,2,0,P|421:237|493:186,1,146.250000214577,8|0,1:3|0:0,0:0:0:0:
405,201,37611,5,2,3:2:0:0:
388,211,37723,2,0,P|339:219|299:196,1,97.5000001430512,8|0,0:3|1:0,0:0:0:0:
283,177,38059,1,8,0:3:0:0:
156,88,38283,2,0,P|167:144|172:183,1,97.5000001430512,0|0,3:0|0:0,0:0:0:0:
9,264,38731,2,0,P|49:236|96:239,1,97.5000001430512,8|0,3:2|0:0,0:0:0:0:
147,332,39067,2,0,P|145:284|115:247,1,97.5000001430512,0|0,3:0|0:0,0:0:0:0:
71,313,39402,5,0,3:0:0:0:
247,362,39626,1,0,0:0:0:0:
247,362,39738,2,0,L|392:346,1,146.250000214577,8|0,1:3|3:0,0:0:0:0:
429,181,40298,2,0,P|386:155|339:159,1,97.5000001430512,8|0,0:3|0:0,0:0:0:0:
319,174,40634,1,8,0:3:0:0:
319,174,40746,1,0,1:0:0:0:
224,24,40970,5,0,0:0:0:0:
224,24,41082,1,0,0:0:0:0:
224,24,41194,2,0,P|223:71|214:120,1,97.5000001430512,0|0,3:0|0:0,0:0:0:0:
175,188,41529,1,8,1:3:0:0:
221,326,41865,2,0,B|269:318|269:318|316:331|316:331|366:325,1,146.250000214577,0|0,3:0|0:0,0:0:0:0:
390,247,42313,2,0,P|377:296|374:342,1,97.5000001430512,0|8,3:0|0:3,0:0:0:0:
469,314,42649,1,0,3:0:0:0:
469,314,42761,1,8,0:3:0:0:
503,111,42985,6,0,P|476:66|383:80,1,146.250000214577,0|0,3:0|1:0,0:0:0:0:
377,90,43432,1,8,0:3:0:0:
231,16,43656,2,0,P|246:112|257:209,1,195.000000286102,0|0,3:0|0:0,0:0:0:0:
168,228,44216,1,8,0:0:0:0:
156,213,44328,2,0,P|111:191|65:195,1,97.5000001430512,8|0,0:3|0:0,0:0:0:0:
172,371,44776,6,0,L|268:361,1,97.5000001430512,0|8,3:0|0:0,0:0:0:0:
325,287,45111,2,0,L|421:297,1,97.5000001430512,8|0,1:3|0:0,0:0:0:0:
493,231,45447,2,0,P|485:163|420:140,1,146.250000214577,0|0,3:0|0:0,0:0:0:0:
348,80,45895,2,0,P|296:94|257:75,1,97.5000001430512,0|8,3:0|0:3,0:0:0:0:
148,96,46231,2,0,P|200:82|239:101,1,97.5000001430512,0|0,3:0|0:0,0:0:0:0:
216,244,46567,6,0,L|200:343,1,97.5000001430512,4|0,3:2|0:0,0:0:0:0:
194,369,46902,1,8,1:3:0:0:
40,88,47238,2,0,L|56:288,1,195.000000286102,0|0,3:0|0:0,0:0:0:0:
104,194,47798,1,8,0:0:0:0:
100,218,47910,2,0,L|88:314,1,97.5000001430512,8|0,1:3|0:0,0:0:0:0:
267,367,48358,6,0,P|263:343|256:320,1,48.7500000715256,0|0,3:0|1:0,0:0:0:0:
192,272,48582,1,0,1:0:0:0:
192,272,48694,2,0,P|256:276|296:212,1,146.250000214577,0|0,1:0|1:0,0:0:0:0:
228,24,49253,6,0,B|208:120|208:120|228:168,1,146.250000214577
295,212,49701,2,0,L|440:192,1,146.250000214577,2|0,0:3|0:0,0:0:0:0:
418,354,50149,6,0,P|331:343|217:332,1,194.999992847443,4|0,3:2|0:0,0:0:0:0:
151,279,50597,2,0,P|138:217|173:164,1,129.999995231629,8|0,3:0|0:0,0:0:0:0:
369,100,51044,1,0,3:0:0:0:
369,100,51156,2,0,P|307:119|247:91,1,129.999995231629,8|0,0:3|0:0,0:0:0:0:
313,37,51492,2,0,L|301:232,1,194.999992847443,8|0,3:0|0:0,0:0:0:0:
375,285,51940,6,0,B|437:266|437:266|497:295,1,129.999995231629,0|0,3:0|0:0,0:0:0:0:
322,360,52276,1,0,0:0:0:0:
296,355,52388,2,0,L|165:338,1,129.999995231629,8|0,3:0|0:0,0:0:0:0:
91,186,52835,1,0,3:0:0:0:
91,186,52947,2,0,P|26:199|-1:259,1,129.999995231629,8|0,0:3|0:0,0:0:0:0:
145,249,53283,2,0,P|139:182|137:120,1,129.999995231629,8|0,3:0|0:0,0:0:0:0:
168,33,53619,1,0,0:0:0:0:
235,95,53731,6,0,P|305:113|357:49,1,129.999995231629,0|0,3:0|0:0,0:0:0:0:
426,16,54067,1,0,0:0:0:0:
414,32,54179,2,0,P|388:103|381:164,1,129.999995231629,8|0,3:0|0:0,0:0:0:0:
512,290,54626,1,0,3:0:0:0:
512,290,54738,2,0,P|447:281|382:276,1,129.999995231629,8|0,0:3|0:0,0:0:0:0:
310,332,55074,2,0,P|259:360|191:341,1,129.999995231629,8|0,3:0|0:0,0:0:0:0:
54,222,55522,6,0,L|69:92,1,129.999995231629,0|0,3:0|0:0,0:0:0:0:
363,49,55970,1,8,3:0:0:0:
363,49,56082,2,0,L|347:180,1,129.999995231629
230,282,56418,1,0,3:0:0:0:
234,256,56530,2,0,L|250:125,1,129.999995231629,8|0,0:3|0:0,0:0:0:0:
185,64,56865,2,0,P|121:50|54:144,1,194.999992847443,8|0,3:0|0:0,0:0:0:0:
89,262,57313,6,0,B|112:202|112:202|82:144,1,129.999995231629,0|0,3:0|0:0,0:0:0:0:
13,207,57649,1,0,0:0:0:0:
13,207,57761,1,8,3:0:0:0:
157,335,57985,2,0,P|191:326|228:325,1,64.9999976158143
377,354,58208,1,0,3:0:0:0:
357,361,58320,2,0,B|312:372|312:372|233:346,1,129.999995231629,8|0,0:3|0:0,0:0:0:0:
366,258,58656,2,0,B|411:247|411:247|490:273,1,129.999995231629,8|0,3:3|0:0,0:0:0:0:
337,166,58992,1,0,0:0:0:0:
318,182,59104,6,0,L|183:166,1,129.999995231629,0|0,3:0|0:0,0:0:0:0:
105,111,59440,2,0,P|163:70|224:74,1,129.999995231629,8|0,0:3|0:0,0:0:0:0:
131,250,59776,2,0,B|133:250|128:249|97:226|91:194,1,64.9999976158143,8|0,0:3|0:0,0:0:0:0:
253,215,60000,1,0,3:0:0:0:
250,240,60111,2,0,L|240:372,1,129.999995231629,8|8,0:3|0:3,0:0:0:0:
467,311,60447,2,0,L|457:179,1,129.999995231629,0|0,3:0|0:0,0:0:0:0:
392,116,60783,1,8,0:3:0:0:
312,159,60895,2,0,P|244:167|199:95,1,129.999995231629,0|0,3:0|0:0,0:0:0:0:
8,338,61343,6,0,P|52:257|147:270,1,194.999992847443,8|0,3:0|0:0,0:0:0:0:
161,363,61791,1,0,3:0:0:0:
181,359,61902,2,0,P|250:347|314:342,1,129.999995231629,8|0,0:3|0:0,0:0:0:0:
395,301,62238,2,0,P|339:255|281:258,1,129.999995231629,8|0,3:0|0:0,0:0:0:0:
201,72,62686,6,0,L|209:204,1,129.999995231629,4|0,3:2|0:0,0:0:0:0:
369,128,63022,1,0,0:0:0:0:
366,156,63134,2,0,L|359:222,1,64.9999976158143,8|0,3:0|0:0,0:0:0:0:
268,309,63358,5,0,1:0:0:0:
243,304,63470,1,0,1:0:0:0:
163,329,63582,2,0,P|198:329|231:320,1,64.9999976158143,0|0,3:0|0:0,0:0:0:0:
117,154,63805,2,0,P|99:184|90:217,1,64.9999976158143,8|0,0:3|0:0,0:0:0:0:
292,201,64029,2,0,P|274:170|250:146,1,64.9999976158143,10|0,3:0|0:0,0:0:0:0:
89,58,64253,5,0,0:0:0:0:
114,52,64365,1,8,0:3:0:0:
195,93,64477,6,0,P|254:107|307:66,1,129.999995231629,4|0,3:2|0:0,0:0:0:0:
512,171,64925,2,0,P|462:132|400:145,1,129.999995231629,8|0,3:0|0:0,0:0:0:0:
346,338,65373,1,0,3:0:0:0:
346,338,65485,2,0,L|475:323,1,129.999995231629,8|0,0:3|0:0,0:0:0:0:
287,257,65820,2,0,P|230:253|183:312,1,129.999995231629,8|0,3:0|0:0,0:0:0:0:
196,224,66156,1,0,0:0:0:0:
199,198,66268,6,0,L|211:69,1,129.999995231629,0|0,3:0|0:0,0:0:0:0:
292,57,66604,1,0,0:0:0:0:
313,70,66716,2,0,P|378:81|440:23,1,129.999995231629,8|0,3:0|0:0,0:0:0:0:
365,245,67164,1,0,3:0:0:0:
365,244,67276,2,0,P|372:180|384:116,1,129.999995231629,8|0,0:3|0:0,0:0:0:0:
472,206,67611,2,0,P|482:270|486:334,1,129.999995231629,8|0,3:0|0:0,0:0:0:0:
409,373,67947,1,0,0:0:0:0:
340,323,68059,6,0,P|278:313|230:357,1,129.999995231629,0|0,3:2|0:0,0:0:0:0:
149,373,68395,1,0,0:0:0:0:
153,347,68507,2,0,L|171:201,1,129.999995231629,8|0,3:0|0:0,0:0:0:0:
42,89,68955,1,0,3:0:0:0:
42,89,69067,2,0,P|68:30|128:22,1,129.999995231629,8|0,0:3|0:0,0:0:0:0:
200,83,69402,2,0,P|267:74|332:68,1,129.999995231629,8|0,3:0|0:0,0:0:0:0:
480,216,69850,6,0,P|412:207|348:201,1,129.999995231629,0|0,3:0|0:0,0:0:0:0:
145,255,70298,1,8,3:0:0:0:
145,255,70410,2,0,P|185:309|247:303,1,129.999995231629
329,377,70746,1,0,3:0:0:0:
331,350,70858,2,0,P|337:280|345:217,1,129.999995231629,8|0,0:3|0:0,0:0:0:0:
233,88,71194,2,0,P|241:152|247:217,1,129.999995231629,8|0,3:0|0:0,0:0:0:0:
512,200,71641,2,0,P|499:140|381:124,1,194.999992847443,0|0,3:0|0:0,0:0:0:0:
367,140,72089,1,8,3:0:0:0:
434,313,72313,6,0,P|401:307|363:306,1,64.9999976158143
216,335,72537,1,0,3:0:0:0:
234,343,72649,2,0,B|278:355|278:355|359:331,1,129.999995231629,8|0,0:3|0:0,0:0:0:0:
243,134,72985,2,0,L|262:271,1,129.999995231629,8|0,3:0|0:0,0:0:0:0:
216,335,73320,1,8,0:0:0:0:
143,291,73432,5,0,3:0:0:0:
117,296,73544,2,0,L|52:311,1,64.9999976158143,8|0,0:3|0:0,0:0:0:0:
0,162,73768,1,8,0:0:0:0:
25,155,73880,2,0,L|151:125,1,129.999995231629,8|8,3:0|0:3,0:0:0:0:
215,68,74216,1,8,0:0:0:0:
281,120,74328,5,0,3:0:0:0:
276,146,74440,2,0,L|261:211,1,64.9999976158143,8|0,0:3|0:0,0:0:0:0:
434,304,74664,1,8,0:0:0:0:
439,278,74776,2,0,L|454:213,1,64.9999976158143,8|0,3:0|0:0,0:0:0:0:
272,344,75000,1,0,0:0:0:0:
198,305,75111,1,8,0:3:0:0:
133,358,75223,6,0,B|169:302|169:302|139:178,1,194.999992847443,0|0,3:0|0:0,0:0:0:0:
189,52,75671,2,0,B|153:108|153:108|183:232,1,194.999992847443,8|0,3:0|0:0,0:0:0:0:
382,296,76119,1,0,3:0:0:0:
378,270,76231,2,0,P|335:224|272:231,1,129.999995231629,8|0,0:3|0:0,0:0:0:0:
217,370,76567,2,0,P|224:336|227:303,1,64.9999976158143,8|0,3:0|0:0,0:0:0:0:
66,175,76791,5,0,0:0:0:0:
66,175,76902,1,8,0:3:0:0:
66,175,77014,2,0,P|137:194|199:94,1,194.999992847443,0|0,3:0|0:0,0:0:0:0:
201,106,77462,2,0,P|181:171|184:243,1,129.999995231629,8|0,3:0|0:0,0:0:0:0:
226,305,77798,1,0,0:0:0:0:
272,230,77910,5,0,3:0:0:0:
297,233,78022,2,0,L|363:243,1,64.9999976158143,8|0,0:3|0:0,0:0:0:0:
472,100,78246,1,0,0:0:0:0:
447,103,78358,2,0,L|381:113,1,64.9999976158143,8|0,3:0|0:0,0:0:0:0:
123,146,78582,5,0,0:0:0:0:
123,146,78694,1,8,0:3:0:0:
123,146,78805,2,0,P|112:81|218:44,1,194.999992847443,0|0,3:0|0:0,0:0:0:0:
279,101,79253,2,0,B|261:165|261:165|281:226|281:226|267:293,1,194.999992847443,8|0,3:0|0:0,0:0:0:0:
457,250,79701,1,0,3:0:0:0:
455,224,79813,2,0,P|437:179|360:162,1,129.999995231629,8|0,0:3|0:0,0:0:0:0:
265,314,80149,2,0,P|297:309|337:308,1,64.9999976158143,8|0,3:0|0:0,0:0:0:0:
191,228,80373,5,0,0:0:0:0:
166,220,80485,1,8,0:3:0:0:
93,262,80597,5,4,3:2:0:0:
99,288,80709,1,8,3:0:0:0:
105,314,80820,1,8,3:0:0:0:
177,355,80932,5,0,1:0:0:0:
197,337,81044,1,4,3:0:0:0:
216,318,81156,1,4,3:0:0:0:
217,236,81268,6,0,B|187:171|187:171|220:52,1,194.999992847443,0|4,3:0|3:0,0:0:0:0:
312,164,81716,2,0,L|385:158,1,64.9999976158143,4|4,3:0|3:0,0:0:0:0:
452,247,81940,2,0,L|387:252,1,64.9999976158143,2|4,3:0|3:0,0:0:0:0:
321,353,82164,2,0,L|394:347,1,64.9999976158143,4|4,3:0|3:0,0:0:0:0:
452,93,82400,6,0,P|421:32|334:47,1,129.999995231629,4|0,3:2|0:0,0:0:0:0:
296,75,82735,1,8,0:0:0:0:
270,73,82847,2,0,L|206:66,1,64.9999976158143,8|0,3:0|0:0,0:0:0:0:
83,208,83071,2,0,L|212:191,1,129.999995231629,2|0,0:0|3:0,0:0:0:0:
141,348,83631,1,8,0:0:0:0:
141,348,83743,2,0,L|270:364,1,129.999995231629,8|0,3:0|0:0,0:0:0:0:
457,310,84191,6,0,P|399:278|330:306,1,129.999995231629,0|0,3:0|0:0,0:0:0:0:
392,360,84526,1,8,0:0:0:0:
390,378,84638,1,8,3:0:0:0:
481,155,84862,1,0,0:0:0:0:
378,76,85086,1,0,3:0:0:0:
279,158,85310,2,0,L|149:144,1,129.999995231629,8|8,0:0|3:0,0:0:0:0:
97,226,85646,2,0,L|227:240,1,129.999995231629,8|0,0:0|0:0,0:0:0:0:
158,310,85982,6,0,L|149:116,1,194.999992847443,0|8,3:0|0:0,0:0:0:0:
205,43,86429,2,0,P|268:28|322:59,1,129.999995231629,8|0,3:0|0:0,0:0:0:0:
432,175,86877,1,0,3:0:0:0:
293,263,87213,1,8,0:0:0:0:
293,263,87325,2,0,B|271:214|271:214|293:141,1,129.999995231629,8|0,3:0|0:0,0:0:0:0:
361,308,87773,6,0,L|168:287,1,194.999992847443,0|8,3:0|0:0,0:0:0:0:
68,283,88220,2,0,B|113:369|113:369|166:289,1,194.999992847443,8|0,3:0|0:0,0:0:0:0:
123,216,88668,2,0,L|129:152,1,64.9999976158143,0|0,3:0|0:0,0:0:0:0:
79,19,88892,2,0,P|139:0|197:27,1,129.999995231629,8|8,0:0|3:0,0:0:0:0:
189,105,89228,2,0,P|129:126|72:99,1,129.999995231629,8|0,0:0|0:0,0:0:0:0:
269,80,89564,1,0,3:0:0:0:
495,196,89900,5,8,0:0:0:0:
495,196,90011,2,0,B|404:162|401:242|308:195,1,194.999992847443,8|0,3:0|0:0,0:0:0:0:
307,194,90459,2,0,P|338:181|358:290,1,194.999992847443,0|8,3:0|0:0,0:0:0:0:
271,310,90907,2,0,L|282:114,1,194.999992847443,8|0,3:0|0:0,0:0:0:0:
140,32,91355,6,0,L|147:162,1,129.999995231629,0|0,3:0|0:0,0:0:0:0:
74,217,91691,2,0,P|47:207|11:207,1,64.9999976158143,8|8,0:0|3:0,0:0:0:0:
112,320,91914,1,0,0:0:0:0:
137,316,92026,2,0,L|202:308,1,64.9999976158143
390,365,92250,2,0,B|407:321|407:321|382:243,1,129.999995231629,0|8,3:0|0:0,0:0:0:0:
480,254,92586,1,0,0:0:0:0:
480,254,92698,2,0,L|487:190,2,64.9999976158143,8|0|0,3:0|0:0|0:0,0:0:0:0:
350,91,93146,6,0,P|288:69|217:166,1,194.999992847443,0|8,3:0|0:0,0:0:0:0:
215,157,93594,2,0,P|277:179|348:82,1,194.999992847443,8|0,3:0|0:0,0:0:0:0:
167,98,94041,2,0,P|176:160|183:235,1,129.999995231629,0|0,3:0|0:0,0:0:0:0:
117,284,94377,1,8,0:0:0:0:
91,280,94489,2,0,L|26:271,1,64.9999976158143,8|0,3:0|0:0,0:0:0:0:
198,358,94713,1,0,0:0:0:0:
198,358,94825,1,0,0:0:0:0:
198,358,94937,6,0,L|326:340,1,129.999995231629,0|0,3:0|0:0,0:0:0:0:
462,296,95273,2,0,L|334:314,1,129.999995231629,8|0,0:3|0:0,0:0:0:0:
252,270,95608,1,0,1:0:0:0:
268,180,95832,1,0,3:0:0:0:
358,168,96056,1,10,3:0:0:0:
398,250,96280,1,0,0:0:0:0:
333,314,96504,1,0,0:0:0:0:
333,314,96728,6,0,L|320:168,1,146.250000214577,4|8,3:2|0:0,0:0:0:0:
393,77,97176,2,0,B|337:88|316:133|316:133|286:93|227:94,1,195.000000286102,0|0,3:0|3:0,0:0:0:0:
65,156,97847,2,0,P|51:204|67:252,1,97.5000001430512,0|0,0:0|3:0,0:0:0:0:
177,307,98295,1,8,0:0:0:0:
283,238,98519,2,0,L|382:253,1,97.5000001430512,0|0,3:0|0:0,0:0:0:0:
375,238,98855,1,0,1:0:0:0:
370,223,98967,1,0,3:0:0:0:
480,161,99191,5,0,0:0:0:0:
371,96,99414,1,0,3:0:0:0:
245,116,99638,1,0,0:0:0:0:
221,121,99749,1,0,1:0:0:0:
197,127,99861,1,0,3:0:0:0:
94,52,100086,1,0,1:0:0:0:
123,235,100310,6,0,L|142:380,1,146.250000214577,0|8,3:0|0:0,0:0:0:0:
142,380,100758,2,0,P|186:360|235:366,1,97.5000001430512,0|0,3:0|0:0,0:0:0:0:
428,327,101205,2,0,P|384:347|335:341,1,97.5000001430512,0|0,3:0|0:0,0:0:0:0:
274,230,101653,1,8,3:2:0:0:
276,103,101877,1,8,0:2:0:0:
274,230,102101,6,0,P|383:213|425:210,1,146.250000214577,0|8,3:0|0:0,0:0:0:0:
450,211,102549,1,0,3:0:0:0:
503,45,102773,1,0,0:0:0:0:
276,103,102997,1,0,3:2:0:0:
257,97,103108,1,8,0:0:0:0:
127,197,103332,1,0,0:0:0:0:
146,191,103443,1,8,3:2:0:0:
274,230,103668,1,0,0:0:0:0:
274,230,103780,1,0,0:0:0:0:
274,230,103892,6,0,P|265:271|258:329,1,97.5000001430512,0|0,3:0|0:0,0:0:0:0:
258,326,104228,2,0,P|206:311|141:371,1,146.250000214577,0|0,1:0|0:0,0:0:0:0:
339,373,104788,1,0,3:0:0:0:
339,373,105011,2,0,P|388:364|437:360,1,97.5000001430512,0|0,0:0|3:0,0:0:0:0:
474,89,105459,1,8,0:0:0:0:
378,172,105683,2,0,P|329:165|279:153,1,97.5000001430512,0|0,3:0|0:0,0:0:0:0:
252,147,106019,1,8,0:0:0:0:
252,147,106131,1,0,3:0:0:0:
195,68,106355,5,0,0:0:0:0:
102,98,106579,1,0,3:0:0:0:
102,195,106802,1,0,0:0:0:0:
195,226,107026,1,0,3:0:0:0:
195,226,107138,1,0,0:0:0:0:
195,226,107250,1,0,0:0:0:0:
14,321,107474,6,0,L|113:303,1,97.5000001430512,0|0,3:0|0:0,0:0:0:0:
133,309,107810,1,0,1:0:0:0:
133,309,107922,1,0,3:0:0:0:
257,333,108146,1,0,0:0:0:0:
381,357,108370,1,0,3:0:0:0:
441,245,108594,1,0,0:0:0:0:
355,152,108817,1,8,3:2:0:0:
240,206,109041,6,0,B|218:152|218:152|243:70|243:70|225:22,1,195.000000286102,0|0,3:0|0:0,0:0:0:0:
154,71,109601,1,8,0:0:0:0:
154,71,109713,1,0,3:0:0:0:
355,152,109937,2,0,L|451:137,1,97.5000001430512,0|0,1:0|0:0,0:0:0:0:
479,131,110273,1,8,0:0:0:0:
479,131,110385,1,0,3:0:0:0:
401,361,110608,1,8,3:2:0:0:
395,356,110832,1,0,0:0:0:0:
400,354,111056,6,0,L|255:341,1,146.250000214577,4|8,3:2|1:3,0:0:0:0:
196,258,111504,2,0,P|163:293|154:341,1,97.5000001430512,0|0,0:0|3:0,0:0:0:0:
297,249,111952,2,0,B|315:211|315:211|302:154,1,97.5000001430512,8|0,0:3|0:0,0:0:0:0:
219,73,112289,1,8,0:3:0:0:
236,91,112400,2,0,P|302:117|365:86,1,146.250000214577,0|0,1:0|0:0,0:0:0:0:
440,24,112847,5,0,3:0:0:0:
435,44,112959,2,0,P|425:98|421:147,1,97.5000001430512,8|0,0:3|1:0,0:0:0:0:
419,163,113295,1,0,0:0:0:0:
353,286,113519,2,0,P|305:300|260:288,1,97.5000001430512,0|0,3:0|0:0,0:0:0:0:
174,127,113967,2,0,P|210:161|222:206,1,97.5000001430512,8|0,3:2|0:0,0:0:0:0:
126,362,114302,2,0,P|137:313|170:280,1,97.5000001430512,0|0,3:0|0:0,0:0:0:0:
260,288,114638,5,0,3:0:0:0:
84,175,114862,1,0,0:0:0:0:
84,175,114974,2,0,B|65:131|65:131|89:36,1,146.250000214577,8|0,1:3|3:0,0:0:0:0:
221,113,115534,2,0,B|237:158|237:158|222:205,1,97.5000001430512,8|0,0:3|0:0,0:0:0:0:
212,229,115870,1,8,0:3:0:0:
212,229,115982,1,8,1:3:0:0:
364,327,116205,5,0,0:0:0:0:
364,327,116317,1,0,0:0:0:0:
364,327,116429,2,0,L|266:317,1,97.5000001430512,0|0,3:0|0:0,0:0:0:0:
237,313,116765,1,8,1:3:0:0:
451,268,117101,2,0,B|432:218|432:218|462:130,1,146.250000214577,0|0,3:0|0:0,0:0:0:0:
408,54,117549,2,0,P|368:32|311:37,1,97.5000001430512,0|8,3:0|0:3,0:0:0:0:
291,45,117885,1,0,3:0:0:0:
291,45,117997,1,8,0:3:0:0:
208,216,118220,6,0,P|152:226|101:156,1,146.250000214577,0|0,3:0|1:0,0:0:0:0:
102,133,118668,1,8,0:3:0:0:
291,45,118892,2,0,B|269:153|269:153|297:179|294:231,1,195.000000286102,0|0,3:0|0:0,0:0:0:0:
208,216,119452,1,8,0:0:0:0:
208,216,119564,1,8,1:3:0:0:
224,353,119788,1,0,0:0:0:0:
349,298,120011,6,0,L|446:311,1,97.5000001430512,0|0,3:0|0:0,0:0:0:0:
512,302,120347,2,0,L|415:289,1,97.5000001430512,8|0,1:3|0:0,0:0:0:0:
370,200,120683,2,0,P|376:150|460:120,1,146.250000214577,0|0,3:0|0:3,0:0:0:0:
471,128,121131,2,0,P|422:119|373:109,1,97.5000001430512,0|8,3:0|0:3,0:0:0:0:
195,56,121467,2,0,P|242:45|290:37,1,97.5000001430512,0|0,3:0|0:0,0:0:0:0:
245,253,121802,6,0,L|225:350,1,97.5000001430512,4|0,3:2|0:0,0:0:0:0:
220,373,122138,1,8,1:3:0:0:
220,373,122474,2,0,L|203:177,1,195.000000286102,0|0,3:0|0:0,0:0:0:0:
163,275,123034,1,8,0:0:0:0:
166,251,123146,2,0,L|179:155,1,97.5000001430512,8|0,0:3|0:0,0:0:0:0:
321,6,123594,6,0,L|314:54,1,48.7500000715256,0|0,3:0|1:0,0:0:0:0:
347,141,123817,1,0,1:0:0:0:
368,137,123929,2,0,L|513:117,1,146.250000214577,0|0,1:0|1:0,0:0:0:0:
317,271,124489,6,0,L|252:264,1,64.9999976158143,0|2,0:0|0:3,0:0:0:0:
317,271,125385,6,0,P|226:282|124:299,1,194.999992847443,4|0,3:2|0:0,0:0:0:0:
61,233,125832,2,0,P|38:170|59:112,1,129.999995231629,8|0,3:0|0:0,0:0:0:0:
314,29,126280,1,0,3:0:0:0:
314,29,126392,2,0,L|301:159,1,129.999995231629,8|0,0:3|0:0,0:0:0:0:
280,145,126728,2,0,B|243:122|243:122|394:110,1,194.999992847443,8|0,3:0|0:0,0:0:0:0:
464,39,127176,6,0,P|494:99|478:161,1,129.999995231629,0|0,3:0|0:0,0:0:0:0:
510,261,127511,1,0,0:0:0:0:
484,258,127623,2,0,L|354:245,1,129.999995231629,8|0,3:0|0:0,0:0:0:0:
152,343,128071,1,0,3:0:0:0:
152,343,128183,2,0,L|282:330,1,129.999995231629,8|0,0:3|0:0,0:0:0:0:
354,245,128519,2,0,P|336:175|258:168,1,129.999995231629,8|0,3:0|0:0,0:0:0:0:
233,83,128855,1,0,0:0:0:0:
195,165,128967,6,0,P|206:228|215:297,1,129.999995231629,0|0,3:0|0:0,0:0:0:0:
59,369,129302,1,0,0:0:0:0:
62,342,129414,2,0,P|70:277|81:213,1,129.999995231629,8|0,3:0|0:0,0:0:0:0:
5,53,129862,1,0,3:0:0:0:
5,53,129974,2,0,P|61:62|121:4,1,129.999995231629,8|0,0:3|0:0,0:0:0:0:
205,78,130310,2,0,P|259:44|321:55,1,129.999995231629,8|0,3:0|0:0,0:0:0:0:
450,172,130758,6,0,L|430:307,1,129.999995231629,0|0,3:0|0:0,0:0:0:0:
122,344,131205,1,8,3:0:0:0:
121,343,131317,2,0,P|102:282|129:224,1,129.999995231629
247,218,131653,1,0,3:0:0:0:
260,233,131765,2,0,P|278:293|251:351,1,129.999995231629,8|0,0:3|0:0,0:0:0:0:
190,288,132101,2,0,L|206:93,1,194.999992847443,8|0,3:0|0:0,0:0:0:0:
232,8,132549,6,0,L|221:138,1,129.999995231629,0|0,3:0|0:0,0:0:0:0:
298,187,132885,1,0,0:0:0:0:
316,169,132997,2,0,P|354:157|432:193,1,129.999995231629,8|0,3:0|0:0,0:0:0:0:
381,363,133444,1,0,3:0:0:0:
381,363,133556,2,0,L|250:351,1,129.999995231629,8|0,0:3|0:0,0:0:0:0:
53,278,133892,2,0,L|182:289,1,129.999995231629,8|0,3:0|0:0,0:0:0:0:
318,310,134228,1,0,0:0:0:0:
327,286,134340,6,0,B|343:237|343:237|325:161,1,129.999995231629,0|0,3:0|0:0,0:0:0:0:
266,74,134676,2,0,P|330:54|392:77,1,129.999995231629,8|0,0:3|0:0,0:0:0:0:
229,164,135011,2,0,P|196:165|165:157,1,64.9999976158143,8|0,0:3|0:0,0:0:0:0:
53,278,135235,1,0,3:0:0:0:
49,252,135347,2,0,L|36:123,1,129.999995231629,8|8,0:3|0:3,0:0:0:0:
242,34,135683,2,0,L|229:163,1,129.999995231629,0|0,3:0|0:0,0:0:0:0:
289,232,136019,1,8,0:3:0:0:
360,175,136131,6,0,P|433:172|473:226,1,129.999995231629,0|0,3:0|0:0,0:0:0:0:
233,371,136579,2,0,L|34:352,1,194.999992847443,8|0,3:0|0:0,0:0:0:0:
123,315,137026,1,0,3:0:0:0:
130,290,137138,2,0,B|141:246|141:246|117:163,1,129.999995231629,8|0,0:3|0:0,0:0:0:0:
61,89,137474,2,0,P|129:70|181:97,1,129.999995231629,8|0,3:0|0:0,0:0:0:0:
348,28,137922,6,0,P|338:94|331:160,1,129.999995231629,4|0,3:2|0:0,0:0:0:0:
512,218,138258,1,0,0:0:0:0:
491,203,138370,2,0,P|461:194|427:194,1,64.9999976158143,8|0,3:0|0:0,0:0:0:0:
308,258,138594,5,0,1:0:0:0:
334,255,138705,1,0,1:0:0:0:
363,335,138817,2,0,L|428:342,1,64.9999976158143,0|0,3:0|0:0,0:0:0:0:
235,309,139041,2,0,L|170:302,1,64.9999976158143,8|0,0:3|0:0,0:0:0:0:
0,291,139265,2,0,L|65:298,1,64.9999976158143,10|0,3:0|0:0,0:0:0:0:
94,204,139489,5,0,0:0:0:0:
97,178,139601,1,8,0:3:0:0:
26,132,139713,6,0,L|156:118,1,129.999995231629,4|0,3:2|0:0,0:0:0:0:
363,210,140161,2,0,L|233:196,1,129.999995231629,8|0,3:0|0:0,0:0:0:0:
218,36,140608,1,0,3:0:0:0:
218,36,140720,2,0,P|276:-1|333:13,1,129.999995231629,8|0,0:3|0:0,0:0:0:0:
436,0,141056,2,0,P|426:65|418:133,1,129.999995231629,8|0,3:0|0:0,0:0:0:0:
512,307,141504,6,0,P|504:242|494:178,1,129.999995231629,0|0,3:0|0:0,0:0:0:0:
416,212,141840,1,0,0:0:0:0:
397,228,141952,2,0,P|330:241|280:197,1,129.999995231629,8|0,3:0|0:0,0:0:0:0:
74,290,142400,1,0,3:0:0:0:
74,290,142511,2,0,P|130:257|198:278,1,129.999995231629,8|0,0:3|0:0,0:0:0:0:
201,368,142847,2,0,B|243:361|243:361|284:372|284:372|328:365,1,129.999995231629,8|0,3:0|0:0,0:0:0:0:
397,303,143183,1,0,0:0:0:0:
345,228,143295,6,0,B|328:186|328:186|344:100,1,129.999995231629,0|0,3:0|0:0,0:0:0:0:
187,6,143743,2,0,B|204:48|204:48|188:134,1,129.999995231629,8|0,3:0|0:0,0:0:0:0:
3,235,144191,1,0,3:0:0:0:
3,235,144302,2,0,P|37:177|104:179,1,129.999995231629,8|0,0:3|0:0,0:0:0:0:
179,224,144638,2,0,B|163:307|163:307|180:349,1,129.999995231629,8|0,3:0|0:0,0:0:0:0:
393,308,145086,6,0,L|264:297,1,129.999995231629,0|0,3:0|0:0,0:0:0:0:
367,138,145534,1,8,3:0:0:0:
367,138,145646,2,0,L|496:127,1,129.999995231629
301,68,145982,1,0,3:0:0:0:
284,50,146094,2,0,P|220:40|170:83,1,129.999995231629,8|0,0:3|0:0,0:0:0:0:
56,24,146429,2,0,P|72:105|77:154,1,129.999995231629,8|0,3:0|0:0,0:0:0:0:
92,340,146877,2,0,P|147:350|200:305,1,129.999995231629,0|0,3:0|0:0,0:0:0:0:
207,281,147213,1,0,0:0:0:0:
207,281,147325,1,8,3:0:0:0:
329,354,147549,6,0,P|321:324|317:288,1,64.9999976158143
462,194,147773,1,0,3:0:0:0:
460,219,147885,2,0,L|449:357,1,129.999995231629,8|0,0:3|0:0,0:0:0:0:
321,150,148220,2,0,L|332:288,1,129.999995231629,8|0,3:0|0:0,0:0:0:0:
260,337,148556,1,8,0:0:0:0:
186,283,148668,5,0,3:0:0:0:
161,281,148780,2,0,P|128:283|97:292,1,64.9999976158143,8|0,0:3|0:0,0:0:0:0:
5,157,149004,1,8,0:0:0:0:
27,166,149116,2,0,P|83:172|145:126,1,129.999995231629,8|8,3:0|0:3,0:0:0:0:
184,50,149452,1,8,0:0:0:0:
235,124,149564,5,0,3:0:0:0:
232,147,149676,2,0,L|224:211,1,64.9999976158143,8|0,0:3|0:0,0:0:0:0:
376,39,149900,1,8,0:0:0:0:
373,64,150012,2,0,L|364:128,1,64.9999976158143,8|0,3:0|0:0,0:0:0:0:
496,318,150235,1,0,0:0:0:0:
422,279,150347,1,8,0:3:0:0:
357,332,150459,6,0,B|221:342|221:342|265:304,1,194.999992847443,0|0,3:0|0:0,0:0:0:0:
63,264,150907,2,0,B|199:254|199:254|155:292,1,194.999992847443,8|0,3:0|0:0,0:0:0:0:
276,215,151355,1,0,3:0:0:0:
271,189,151467,2,0,L|255:60,1,129.999995231629,8|0,0:3|0:0,0:0:0:0:
402,98,151802,2,0,L|394:162,1,64.9999976158143,8|0,3:0|0:0,0:0:0:0:
162,131,152026,5,0,0:0:0:0:
162,131,152138,1,8,0:3:0:0:
162,131,152250,2,0,B|124:132|99:119|99:119|117:252,1,194.999992847443,0|0,3:0|0:0,0:0:0:0:
63,326,152698,2,0,P|123:344|180:316,1,129.999995231629,8|0,3:0|0:0,0:0:0:0:
209,228,153034,1,0,0:0:0:0:
269,295,153146,1,0,3:0:0:0:
295,291,153258,2,0,B|361:283|360:283,1,64.9999976158143,8|0,0:3|0:0,0:0:0:0:
512,223,153482,1,0,0:0:0:0:
486,219,153594,2,0,B|420:211|421:211,1,64.9999976158143,8|0,3:0|0:0,0:0:0:0:
164,178,153817,5,0,0:0:0:0:
164,178,153929,1,8,0:3:0:0:
164,178,154041,2,0,P|164:126|281:84,1,194.999992847443,0|0,3:0|0:0,0:0:0:0:
331,159,154489,2,0,B|284:252|364:255|330:346,1,194.999992847443,8|0,3:0|0:0,0:0:0:0:
102,289,154937,1,0,3:0:0:0:
123,299,155049,2,0,B|167:318|167:318|248:303,1,129.999995231629,8|0,0:3|0:0,0:0:0:0:
176,227,155385,2,0,L|171:163,1,64.9999976158143,8|0,3:0|0:0,0:0:0:0:
61,132,155608,5,0,0:0:0:0:
87,135,155720,1,8,0:3:0:0:
151,81,155832,5,4,3:2:0:0:
141,56,155944,1,8,3:0:0:0:
130,32,156056,1,8,3:0:0:0:
52,4,156168,5,0,1:0:0:0:
36,25,156280,1,4,3:0:0:0:
20,47,156392,1,4,3:0:0:0:
34,128,156504,6,0,L|228:103,1,194.999992847443,0|4,3:0|3:0,0:0:0:0:
300,159,156952,2,0,P|290:190|288:223,1,64.9999976158143,4|4,3:0|3:0,0:0:0:0:
401,336,157176,2,0,P|379:311|351:293,1,64.9999976158143,2|4,3:0|3:0,0:0:0:0:
197,334,157400,2,0,P|228:327|258:312,1,64.9999976158143,4|4,3:0|3:0,0:0:0:0:
380,210,157630,5,4,1:2:0:0:
200,240,157853,6,0,L|169:236,1,25.9999990463257,0|0,3:0|1:0,0:0:0:0:
447,35,158525,6,0,L|421:38,1,25.9999990463257,0|0,3:0|1:0,0:0:0:0:
173,321,159197,6,0,L|142:317,1,25.9999990463257,0|0,3:0|1:0,0:0:0:0:
420,116,159868,6,0,L|394:119,1,25.9999990463257,0|0,3:0|1:0,0:0:0:0:
90,110,160540,6,0,L|107:113,1,12.9999995231629,0|0,3:0|1:0,0:0:0:0:
102,112,161212,5,4,1:2:0:0:
405,189,161435,6,0,L|401:220,1,25.9999990463257,0|0,3:0|1:0,0:0:0:0:
69,289,162107,6,0,L|73:320,1,25.9999990463257,0|0,3:0|1:0,0:0:0:0:
487,147,162779,6,0,L|483:178,1,25.9999990463257,0|0,3:0|1:0,0:0:0:0:
151,247,163451,6,0,L|155:278,1,25.9999990463257,0|0,3:0|1:0,0:0:0:0:
412,371,164122,6,0,L|413:355,1,12.9999995231629,0|0,3:0|1:0,0:0:0:0:
412,358,164794,5,4,1:2:0:0:
252,76,165018,6,0,L|256:48,1,25.9999990463257,0|0,3:0|1:0,0:0:0:0:
201,384,165689,6,0,L|205:356,1,25.9999990463257,0|0,3:0|1:0,0:0:0:0:
340,40,166361,6,0,L|344:12,1,25.9999990463257,0|0,3:0|1:0,0:0:0:0:
289,348,167032,6,0,L|293:320,1,25.9999990463257,0|0,3:0|1:0,0:0:0:0:
117,140,167704,6,0,L|118:152,1,12.9999995231629,0|0,3:0|1:0,0:0:0:0:
118,152,168376,5,4,1:2:0:0:
374,283,168600,6,0,L|400:281,1,25.9999990463257,0|0,3:0|1:0,0:0:0:0:
62,306,169271,6,0,L|88:304,1,25.9999990463257,0|0,3:0|1:0,0:0:0:0:
466,213,169943,6,0,L|492:211,1,25.9999990463257,0|0,3:0|1:0,0:0:0:0:
154,236,170614,6,0,L|180:234,1,25.9999990463257,0|0,3:0|1:0,0:0:0:0:
414,106,171286,5,0,3:0:0:0:
414,106,171398,1,0,0:0:0:0:
414,106,171510,1,8,1:3:0:0:
414,106,171958,6,0,L|316:97,1,97.5000001430512,4|0,1:2|0:0,0:0:0:0:
84,351,172182,6,0,L|180:340,1,97.5000001430512,0|0,3:0|0:0,0:0:0:0:
368,21,172630,6,0,L|270:12,1,97.5000001430512,0|0,1:0|0:0,0:0:0:0:
38,266,172853,6,0,L|134:255,1,97.5000001430512,0|0,3:0|0:0,0:0:0:0:
399,121,173301,6,0,L|301:112,1,97.5000001430512,0|0,1:0|0:0,0:0:0:0:
69,366,173525,6,0,L|165:355,1,97.5000001430512,0|0,3:0|0:0,0:0:0:0:
353,36,173973,6,0,L|255:27,1,97.5000001430512,0|0,1:0|0:0,0:0:0:0:
23,281,174197,6,0,L|119:270,1,97.5000001430512,0|0,3:0|0:0,0:0:0:0:
119,269,174644,6,0,P|123:210|106:179,1,97.5000001430512,0|0,1:0|0:0,0:0:0:0:
57,187,174868,6,0,L|105:177,1,48.7500000715256,0|0,3:0|0:0,0:0:0:0:
407,121,175092,6,0,B|381:40|381:40|296:71|305:169|368:200,1,292.500000429154,2|0,1:3|0:0,0:0:0:0:
356,297,175540,6,0,L|368:200,1,97.5000001430512,4|0,1:2|0:0,0:0:0:0:
52,64,175764,6,0,L|64:160,1,97.5000001430512,0|0,3:0|0:0,0:0:0:0:
448,334,176212,6,0,L|460:237,1,97.5000001430512,0|0,1:0|0:0,0:0:0:0:
152,91,176435,6,0,L|164:187,1,97.5000001430512,0|0,3:0|0:0,0:0:0:0:
371,312,176883,6,0,L|383:215,1,97.5000001430512,0|0,1:0|0:0,0:0:0:0:
67,79,177107,6,0,L|79:175,1,97.5000001430512,0|0,3:0|0:0,0:0:0:0:
463,349,177555,6,0,L|475:252,1,97.5000001430512,0|0,1:0|0:0,0:0:0:0:
167,106,177779,6,0,L|179:202,1,97.5000001430512,0|0,3:0|0:0,0:0:0:0:
179,202,178227,6,0,P|224:188|272:198,1,97.5000001430512,0|0,1:0|0:0,0:0:0:0:
285,151,178450,6,0,L|271:200,1,48.7500000715256,0|0,3:0|0:0,0:0:0:0:
454,358,178674,6,0,B|434:172|434:172|482:217|482:217|464:252,1,292.500000429154,2|0,1:3|0:0,0:0:0:0:
367,263,179122,6,0,L|463:252,1,97.5000001430512,4|0,1:2|0:0,0:0:0:0:
130,166,179346,6,0,L|33:177,1,97.5000001430512,0|0,3:0|0:0,0:0:0:0:
391,173,179794,6,0,L|487:161,1,97.5000001430512,0|0,1:0|0:0,0:0:0:0:
153,75,180018,6,0,L|56:86,1,97.5000001430512,0|0,3:0|0:0,0:0:0:0:
382,248,180465,6,0,L|478:236,1,97.5000001430512,0|0,1:2|0:0,0:0:0:0:
145,151,180689,6,0,L|48:162,1,97.5000001430512,0|0,3:0|0:0,0:0:0:0:
406,158,181137,6,0,L|502:146,1,97.5000001430512,0|0,1:0|0:0,0:0:0:0:
168,60,181361,6,0,L|71:71,1,97.5000001430512,0|0,3:0|0:0,0:0:0:0:
71,70,181809,6,0,P|95:116|95:165,1,97.5000001430512,0|0,1:0|0:0,0:0:0:0:
46,155,182032,6,0,L|95:161,1,48.7500000715256,0|0,3:0|0:0,0:0:0:0:
465,210,182256,6,0,B|466:166|423:120|423:120|447:179|453:260|403:297,1,292.500000429154,2|0,1:3|0:0,0:0:0:0:
393,199,182704,6,0,L|403:295,1,97.5000001430512,4|0,1:2|0:0,0:0:0:0:
117,104,182928,6,0,L|127:8,1,97.5000001430512,0|0,3:0|0:0,0:0:0:0:
301,224,183376,6,0,L|311:320,1,97.5000001430512,0|0,1:0|0:0,0:0:0:0:
25,129,183600,6,0,L|35:33,1,97.5000001430512,0|0,3:0|0:0,0:0:0:0:
408,214,184047,6,0,L|418:310,1,97.5000001430512,0|0,1:0|0:0,0:0:0:0:
132,119,184271,6,0,L|142:23,1,97.5000001430512,0|0,3:0|0:0,0:0:0:0:
316,239,184719,6,0,L|326:335,1,97.5000001430512,0|0,1:0|0:0,0:0:0:0:
40,144,184943,6,0,L|50:48,1,97.5000001430512,0|0,3:0|0:0,0:0:0:0:
393,37,185391,5,8,1:3:0:0:
416,72,185502,1,0,1:0:0:0:
418,115,185614,1,0,3:0:0:0:
401,154,185726,1,0,3:0:0:0:
285,174,185838,5,2,1:3:0:0:
255,143,185950,1,0,1:0:0:0:
244,102,186062,1,0,3:0:0:0:
254,60,186174,1,0,1:0:0:0:
333,100,186286,6,0,L|348:197,1,97.5000001430512,4|0,1:2|0:0,0:0:0:0:
34,339,186510,6,0,L|18:241,1,97.5000001430512,0|0,3:0|0:0,0:0:0:0:
348,85,186958,6,0,L|363:182,1,97.5000001430512,0|0,1:0|0:0,0:0:0:0:
49,324,187182,6,0,L|33:226,1,97.5000001430512,0|0,3:0|0:0,0:0:0:0:
363,70,187630,6,0,L|378:167,1,97.5000001430512,0|0,1:0|0:0,0:0:0:0:
64,309,187854,6,0,L|48:211,1,97.5000001430512,0|0,3:0|0:0,0:0:0:0:
378,55,188301,6,0,L|393:152,1,97.5000001430512,0|0,1:0|0:0,0:0:0:0:
79,294,188525,6,0,L|63:196,1,97.5000001430512,0|0,3:0|0:0,0:0:0:0:
63,197,188973,6,0,P|120:201|155:180,1,97.5000001430512,0|0,1:0|0:0,0:0:0:0:
105,188,189197,6,0,L|153:181,1,48.7500000715256,0|0,3:0|0:0,0:0:0:0:
469,140,189421,6,0,B|455:88|407:65|407:65|358:95|339:177|385:235,1,292.500000429154,2|0,1:3|0:0,0:0:0:0:
384,234,189868,6,0,L|288:227,1,97.5000001430512,4|0,1:2|0:0,0:0:0:0:
0,37,190092,6,0,L|96:44,1,97.5000001430512,0|0,3:0|0:0,0:0:0:0:
404,254,190540,6,0,L|307:246,1,97.5000001430512,0|0,1:0|0:0,0:0:0:0:
20,57,190764,6,0,L|116:64,1,97.5000001430512,0|0,3:0|0:0,0:0:0:0:
423,273,191212,6,0,L|326:265,1,97.5000001430512,0|0,1:0|0:0,0:0:0:0:
39,76,191435,6,0,L|135:83,1,97.5000001430512,0|0,3:0|0:0,0:0:0:0:
442,292,191883,6,0,L|345:284,1,97.5000001430512,0|0,1:0|0:0,0:0:0:0:
58,95,192107,6,0,L|154:102,1,97.5000001430512,0|0,3:0|0:0,0:0:0:0:
155,102,192555,6,0,P|166:149|151:195,1,97.5000001430512,0|0,1:0|0:0,0:0:0:0:
102,200,192779,6,0,L|151:194,1,48.7500000715256,0|0,3:0|0:0,0:0:0:0:
495,157,193003,6,0,B|432:95|361:125|361:125|330:209|397:260,1,292.500000429154,2|0,1:3|0:0,0:0:0:0:
380,354,193450,6,0,L|392:256,1,97.5000001430512,4|0,1:2|0:0,0:0:0:0:
128,36,193674,6,0,L|115:133,1,97.5000001430512,0|0,3:0|0:0,0:0:0:0:
395,359,194122,6,0,L|407:261,1,97.5000001430512,0|0,1:0|0:0,0:0:0:0:
143,41,194346,6,0,L|130:138,1,97.5000001430512,0|0,3:0|0:0,0:0:0:0:
410,364,194794,6,0,L|422:266,1,97.5000001430512,0|0,1:0|0:0,0:0:0:0:
158,46,195018,6,0,L|145:143,1,97.5000001430512,0|0,3:0|0:0,0:0:0:0:
425,369,195465,6,0,L|437:271,1,97.5000001430512,0|0,1:0|0:0,0:0:0:0:
173,51,195689,6,0,L|160:148,1,97.5000001430512,0|0,3:0|0:0,0:0:0:0:
160,147,196137,6,0,P|106:131|62:146,1,97.5000001430512,0|0,1:0|0:0,0:0:0:0:
58,94,196361,6,0,L|67:142,1,48.7500000715256,0|0,3:0|0:0,0:0:0:0:
114,383,196585,6,0,P|171:345|58:350,1,292.500000429154,2|0,1:3|0:0,0:0:0:0:
147,304,197032,6,0,L|51:317,1,97.5000001430512,4|0,1:2|0:0,0:0:0:0:
365,86,197256,6,0,L|460:72,1,97.5000001430512,0|0,3:0|0:0,0:0:0:0:
132,319,197704,6,0,L|36:332,1,97.5000001430512,0|0,1:0|0:0,0:0:0:0:
350,101,197928,6,0,L|445:87,1,97.5000001430512,0|0,3:0|0:0,0:0:0:0:
117,334,198376,6,0,L|21:347,1,97.5000001430512,0|0,1:0|0:0,0:0:0:0:
335,116,198600,6,0,L|430:102,1,97.5000001430512,0|0,3:0|0:0,0:0:0:0:
102,349,199047,6,0,L|6:362,1,97.5000001430512,0|0,1:0|0:0,0:0:0:0:
320,131,199271,6,0,L|415:117,1,97.5000001430512,0|0,3:0|0:0,0:0:0:0:
416,116,199719,6,0,P|437:158|432:206,1,97.5000001430512,0|0,1:0|0:0,0:0:0:0:
479,216,199943,6,0,L|430:206,1,48.7500000715256,0|0,3:0|0:0,0:0:0:0:
211,366,200167,6,0,B|142:340|142:340|90:366|90:366|28:295|70:218,1,292.500000429154,10|0,0:3|0:0,0:0:0:0:
251,186,200615,6,0,B|321:210|448:175|433:60|433:60|390:18|305:27|270:96|270:96|306:100|350:133|375:198|363:267|288:329|177:315|131:220|169:143,1,900,4|2,3:2|0:0,0:0:0:0:
163,157,207127,5,0,0:0:0:0:
258,198,207351,1,2,0:0:0:0:
358,169,207575,1,2,0:0:0:0:
415,82,207799,1,2,0:0:0:0:
48,40,209590,5,2,0:0:0:0:
112,312,210485,5,2,0:0:0:0:
488,144,211381,5,2,0:0:0:0:
488,144,213172,5,2,0:0:0:0:
404,104,214067,5,2,0:0:0:0:
43,321,214963,5,2,0:0:0:0:
256,192,215075,12,2,218097,0:3:0:0:
43,321,218545,6,0,P|145:307|256:295,1,214.499998678207,4|0,3:2|0:0,0:0:0:0:
272,203,218993,2,0,B|238:140|238:140|264:74,1,142.999999118805,8|0,3:0|0:0,0:0:0:0:
491,123,219440,1,0,3:0:0:0:
491,123,219552,2,0,L|471:266,1,142.999999118805,8|0,0:3|0:0,0:0:0:0:
512,349,219888,2,0,P|477:302|381:307,1,142.999999118805,8|0,3:0|0:0,0:0:0:0:
334,366,220224,1,0,0:0:0:0:
310,364,220336,6,0,L|166:348,1,142.999999118805,0|0,3:0|0:0,0:0:0:0:
8,324,220672,1,0,0:0:0:0:
31,335,220784,2,0,B|80:354|80:354|164:322,1,142.999999118805,8|0,3:0|0:0,0:0:0:0:
66,97,221231,1,0,3:0:0:0:
66,97,221343,2,0,B|80:240|80:239,1,142.999999118805,8|0,0:3|0:0,0:0:0:0:
215,36,221679,2,0,B|201:179|201:178,1,142.999999118805,8|0,3:0|0:0,0:0:0:0:
263,247,222015,1,0,0:0:0:0:
339,194,222127,6,0,P|414:195|454:246,1,142.999999118805,0|0,3:0|0:0,0:0:0:0:
390,351,222463,1,0,0:0:0:0:
367,345,222575,2,0,B|319:337|319:337|273:352|273:352|227:345,1,142.999999118805,8|0,3:0|0:0,0:0:0:0:
63,351,223022,1,0,3:0:0:0:
63,351,223134,2,0,B|43:259|43:259|65:213,1,142.999999118805,8|0,0:3|0:0,0:0:0:0:
80,91,223470,2,0,B|100:183|100:183|78:229,1,142.999999118805,8|0,3:0|0:0,0:0:0:0:
367,190,223918,6,0,L|509:172,1,142.999999118805,0|0,3:0|0:0,0:0:0:0:
204,132,224366,1,8,3:0:0:0:
204,132,224478,2,0,P|133:116|75:148,1,142.999999118805
196,343,224814,1,0,3:0:0:0:
215,334,224925,2,0,P|264:280|265:214,1,142.999999118805,8|0,0:3|0:0,0:0:0:0:
34,242,225261,2,0,P|55:311|112:345,1,142.999999118805,8|0,3:0|0:0,0:0:0:0:
150,238,225597,1,0,0:0:0:0:
146,213,225709,6,0,L|124:-3,1,214.499998678207,0|0,3:0|0:0,0:0:0:0:
240,27,226157,2,0,L|254:169,1,142.999999118805,8|0,3:0|0:0,0:0:0:0:
459,266,226605,1,0,3:0:0:0:
459,266,226717,2,0,P|412:211|338:219,1,142.999999118805,8|0,0:3|0:0,0:0:0:0:
165,310,227052,2,0,L|307:293,1,142.999999118805,8|0,3:0|0:0,0:0:0:0:
139,226,227388,1,0,0:0:0:0:
146,202,227500,6,0,B|161:151|161:151|129:65,1,142.999999118805,0|0,3:0|0:0,0:0:0:0:
262,6,227836,2,0,B|247:57|247:57|279:143,1,142.999999118805,8|0,0:3|0:0,0:0:0:0:
419,42,228172,2,0,L|348:53,1,71.4999995594025,8|0,0:3|0:0,0:0:0:0:
455,177,228396,1,0,3:0:0:0:
430,175,228508,2,0,L|288:162,1,142.999999118805,8|8,0:3|0:3,0:0:0:0:
206,303,228843,2,0,L|348:290,1,142.999999118805,0|0,3:0|0:0,0:0:0:0:
426,342,229179,1,8,0:3:0:0:
476,264,229291,6,0,B|497:222|497:222|476:129,1,142.999999118805,0|0,3:0|0:0,0:0:0:0:
213,11,229739,2,0,L|258:220,1,214.499998678207,8|0,3:0|0:0,0:0:0:0:
192,286,230187,1,0,3:0:0:0:
167,283,230299,2,0,L|96:274,1,71.4999995594025,8|0,0:3|0:0,0:0:0:0:
0,145,230522,1,0,0:0:0:0:
25,142,230634,2,0,L|96:133,1,71.4999995594025,8|0,3:0|0:0,0:0:0:0:
397,101,230858,5,0,0:0:0:0:
394,120,230970,1,0,0:3:0:0:
391,139,231082,2,0,L|372:282,1,142.999999118805,4|0,3:2|0:0,0:0:0:0:
206,36,231418,1,0,0:0:0:0:
210,60,231530,2,0,B|218:130,1,71.4999995594025,8|0,3:0|0:0,0:0:0:0:
153,198,231754,5,0,1:0:0:0:
125,196,231866,1,0,1:0:0:0:
42,237,231978,2,0,P|28:270|26:306,1,71.4999995594025,0|0,3:0|0:0,0:0:0:0:
200,278,232202,2,0,P|213:306|217:346,1,71.4999995594025,8|0,0:3|0:0,0:0:0:0:
377,180,232425,2,0,P|363:213|361:249,1,71.4999995594025,10|0,3:0|0:0,0:0:0:0:
465,322,232649,5,0,0:0:0:0:
438,317,232761,1,8,0:3:0:0:
358,365,232873,6,0,L|216:346,1,142.999999118805,4|0,3:2|0:0,0:0:0:0:
125,196,233321,2,0,L|267:215,1,142.999999118805,8|0,3:0|0:0,0:0:0:0:
449,129,233769,1,0,3:0:0:0:
449,129,233881,2,0,P|426:53|357:44,1,142.999999118805,8|0,0:3|0:0,0:0:0:0:
297,98,234217,2,0,B|246:113|246:113|155:101,1,142.999999118805,8|0,3:0|0:0,0:0:0:0:
17,285,234664,6,0,P|75:238|141:251,1,142.999999118805,0|0,3:0|0:0,0:0:0:0:
239,190,235000,1,0,0:0:0:0:
233,215,235112,2,0,B|221:286|213:358,1,142.999999118805,8|0,3:0|0:0,0:0:0:0:
433,282,235560,1,0,3:0:0:0:
433,282,235672,2,0,B|421:211|413:139,1,142.999999118805,8|0,0:3|0:0,0:0:0:0:
466,63,236008,2,0,P|421:15|343:29,1,142.999999118805,8|0,3:0|0:0,0:0:0:0:
286,91,236343,1,0,0:0:0:0:
193,80,236455,6,0,L|50:65,1,142.999999118805,0|0,3:0|0:0,0:0:0:0:
118,123,236791,1,0,0:0:0:0:
129,145,236903,2,0,B|151:188|151:188|122:285,1,142.999999118805,8|0,3:0|0:0,0:0:0:0:
333,340,237351,1,0,3:0:0:0:
333,340,237463,2,0,L|188:346,1,142.999999118805,8|0,0:3|0:0,0:0:0:0:
351,249,237799,2,0,B|389:259|410:287|410:287|427:255|465:242,1,142.999999118805,8|0,3:0|0:0,0:0:0:0:
389,22,238246,6,0,L|402:168,1,142.999999118805,0|0,3:0|0:0,0:0:0:0:
314,322,238694,2,0,L|301:179,1,142.999999118805,8|0,3:0|0:0,0:0:0:0:
58,71,239142,1,0,3:0:0:0:
58,71,239254,2,0,L|71:217,1,142.999999118805,8|0,0:3|0:0,0:0:0:0:
185,270,239590,2,0,P|150:206|76:210,1,142.999999118805,8|0,3:0|0:0,0:0:0:0:
20,288,239925,1,0,0:0:0:0:
82,359,240037,2,0,B|128:352|128:352|174:367|174:367|222:359,1,142.999999118805,0|0,3:0|0:0,0:0:0:0:
248,353,240373,1,0,0:0:0:0:
248,353,240485,1,8,3:0:0:0:
411,289,240709,6,0,L|341:280,1,71.4999995594025
256,189,240933,1,0,3:0:0:0:
256,162,241045,2,0,P|292:104|364:100,1,142.999999118805,8|0,0:3|0:0,0:0:0:0:
465,202,241381,2,0,B|457:154|457:154|472:108|472:108|465:62,1,142.999999118805,8|0,3:0|0:0,0:0:0:0:
387,9,241717,1,8,0:0:0:0:
361,98,241828,5,0,3:0:0:0:
332,93,241940,2,0,L|261:82,1,71.4999995594025,8|0,0:3|0:0,0:0:0:0:
103,192,242164,1,8,0:0:0:0:
129,195,242276,2,0,L|271:217,1,142.999999118805,8|8,3:0|0:3,0:0:0:0:
298,306,242612,1,8,0:0:0:0:
387,282,242724,5,0,3:0:0:0:
400,260,242836,2,0,P|409:226|404:189,1,71.4999995594025,8|0,0:3|0:0,0:0:0:0:
308,37,243060,1,8,0:0:0:0:
310,61,243172,2,0,L|317:133,1,71.4999995594025,8|0,3:0|0:0,0:0:0:0:
103,192,243396,1,0,0:0:0:0:
19,147,243508,1,8,0:3:0:0:
22,238,243619,6,0,B|33:379|33:379|79:324,1,214.499998678207,0|0,3:0|0:0,0:0:0:0:
234,236,244067,2,0,B|223:377|223:377|177:322,1,214.499998678207,8|0,3:0|0:0,0:0:0:0:
46,140,244515,1,0,3:0:0:0:
70,143,244627,2,0,B|103:150|132:178|132:178|157:147|190:139,1,142.999999118805,8|0,0:3|0:0,0:0:0:0:
142,0,244963,2,0,P|130:34|127:72,1,71.4999995594025,8|0,3:0|0:0,0:0:0:0:
378,126,245187,5,0,0:0:0:0:
378,126,245299,1,8,0:3:0:0:
378,126,245411,2,0,P|343:54|218:60,1,214.499998678207,0|0,3:0|0:0,0:0:0:0:
264,191,245858,2,0,B|293:235|293:235|272:324,1,142.999999118805,8|0,3:0|0:0,0:0:0:0:
189,367,246194,1,0,0:0:0:0:
115,310,246306,1,0,3:0:0:0:
89,313,246418,2,0,L|17:322,1,71.4999995594025,8|0,0:3|0:0,0:0:0:0:
78,169,246642,1,0,0:0:0:0:
104,172,246754,2,0,L|176:181,1,71.4999995594025,8|0,3:0|0:0,0:0:0:0:
447,213,246978,5,0,0:0:0:0:
447,213,247090,1,8,0:3:0:0:
447,213,247202,2,0,B|418:191|409:162|409:162|392:317,1,214.499998678207,0|0,3:0|0:0,0:0:0:0:
503,133,247649,2,0,P|455:78|328:108,1,214.499998678207,8|0,3:0|0:0,0:0:0:0:
206,21,248097,1,0,3:0:0:0:
213,45,248209,2,0,P|223:126|227:189,1,142.999999118805,8|0,0:3|0:0,0:0:0:0:
148,230,248545,2,0,P|117:215|75:213,1,71.4999995594025,8|0,3:0|0:0,0:0:0:0:
194,361,248769,5,0,0:0:0:0:
220,357,248881,1,8,0:3:0:0:
274,281,248993,5,4,3:2:0:0:
258,260,249105,1,8,3:0:0:0:
241,239,249217,1,8,3:0:0:0:
148,230,249328,5,0,1:0:0:0:
137,255,249440,1,4,3:0:0:0:
128,280,249552,1,4,3:0:0:0:
168,365,249664,6,0,L|380:336,1,214.499998678207,0|4,3:0|3:0,0:0:0:0:
443,227,250112,2,0,P|410:227|373:215,1,71.4999995594025,4|4,3:0|3:0,0:0:0:0:
259,92,250336,2,0,P|277:123|283:158,1,71.4999995594025,2|4,3:0|3:0,0:0:0:0:
235,319,250560,2,0,P|254:284|280:264,1,71.4999995594025,4|4,3:0|3:0,0:0:0:0:
502,127,250790,6,0,P|430:127|376:109,1,129.999995231629,4|0,3:2|0:0,0:0:0:0:
293,37,251125,1,8,0:0:0:0:
289,62,251237,2,0,L|279:126,1,64.9999976158143,8|0,3:0|0:0,0:0:0:0:
102,35,251461,2,0,L|121:167,1,129.999995231629,2|0,0:0|3:0,0:0:0:0:
336,287,252021,1,8,0:0:0:0:
336,287,252133,2,0,P|318:216|205:198,1,194.999992847443,8|0,3:0|0:0,0:0:0:0:
194,368,252581,6,0,B|259:358|259:358|319:384|319:384|382:376,1,194.999992847443,0|8,3:0|0:0,0:0:0:0:
466,366,253028,1,8,3:0:0:0:
507,152,253252,1,0,0:0:0:0:
388,97,253476,1,0,3:0:0:0:
290,184,253700,2,0,L|161:169,1,129.999995231629,8|8,0:0|3:0,0:0:0:0:
75,256,254036,2,0,L|204:271,1,129.999995231629,8|0,0:0|0:0,0:0:0:0:
390,304,254372,6,0,P|333:375|248:344,1,194.999992847443,0|8,3:0|0:0,0:0:0:0:
316,173,254819,2,0,B|296:215|296:215|312:296,1,129.999995231629,8|0,3:0|0:0,0:0:0:0:
481,117,255267,1,0,3:0:0:0:
316,173,255603,1,8,0:0:0:0:
316,173,255715,2,0,P|252:179|202:141,1,129.999995231629,8|0,3:0|0:0,0:0:0:0:
180,30,256163,6,0,L|162:230,1,194.999992847443,0|8,3:0|0:0,0:0:0:0:
30,123,256610,2,0,L|48:323,1,194.999992847443,8|0,3:0|0:0,0:0:0:0:
138,353,257058,2,0,P|166:342|201:342,1,64.9999976158143,0|0,3:0|0:0,0:0:0:0:
373,243,257282,2,0,P|315:276|257:261,1,129.999995231629,8|8,0:0|3:0,0:0:0:0:
244,168,257618,2,0,P|301:134|359:149,1,129.999995231629,8|0,0:0|0:0,0:0:0:0:
162,224,257954,1,0,3:0:0:0:
16,35,258290,5,8,0:0:0:0:
16,35,258401,2,0,B|68:17|107:53|107:53|134:14|194:12,1,194.999992847443,8|0,3:0|0:0,0:0:0:0:
371,124,258849,2,0,B|318:106|279:142|279:142|253:103|193:101,1,194.999992847443,0|8,3:0|0:0,0:0:0:0:
203,193,259297,2,0,L|214:323,1,129.999995231629,8|0,3:0|0:0,0:0:0:0:
431,359,259745,6,0,L|442:229,1,129.999995231629,0|0,3:0|0:0,0:0:0:0:
398,153,260081,2,0,P|366:141|335:142,1,64.9999976158143,8|8,0:0|3:0,0:0:0:0:
321,32,260304,1,0,0:0:0:0:
297,34,260416,2,0,P|266:47|244:70,1,64.9999976158143
126,17,260640,2,0,L|140:149,1,129.999995231629,0|8,3:0|0:0,0:0:0:0:
81,234,260976,1,0,0:0:0:0:
62,220,261088,2,0,P|39:211|-5:213,2,64.9999976158143,8|0|0,3:0|0:0|0:0,0:0:0:0:
244,324,261536,6,0,P|321:341|386:254,1,194.999992847443,0|8,3:0|0:0,0:0:0:0:
253,170,261984,2,0,P|225:243|302:320,1,194.999992847443,8|0,3:0|0:0,0:0:0:0:
426,177,262431,2,0,B|382:161|343:177|343:177|343:108|284:89,1,194.999992847443,0|8,3:0|0:0,0:0:0:0:
264,85,262879,1,8,3:0:0:0:
137,11,263103,2,0,P|148:39|148:76,1,64.9999976158143
253,170,263327,6,0,P|188:151|131:180,1,129.999995231629,0|0,3:0|0:0,0:0:0:0:
50,105,263663,2,0,P|37:177|34:240,1,129.999995231629,8|0,0:3|0:0,0:0:0:0:
123,271,263998,1,0,1:3:0:0:
27,356,264222,1,0,3:0:0:0:
286,334,264446,1,4,1:2:0:0:
256,128,265118,5,2,0:0:0:0:
256,192,265230,12,0,270715,0:0:0:0:
