osu file format v14

[General]
AudioFilename: audio.mp3
AudioLeadIn: 0
PreviewTime: 115597
Countdown: 1
SampleSet: Normal
StackLeniency: 0.7
Mode: 0
LetterboxInBreaks: 0
WidescreenStoryboard: 1

[Editor]
Bookmarks: 57997,249997
DistanceSpacing: 1.5
BeatDivisor: 4
GridSize: 4
TimelineZoom: 1.3

[Metadata]
Title:never ender
TitleUnicode:never ender
Artist:livetune
ArtistUnicode:livetune
Creator:Inversal
Version:Forever
Source:
Tags:
BeatmapID:1439541
BeatmapSetID:680862

[Difficulty]
HPDrainRate:7
CircleSize:4
OverallDifficulty:8
ApproachRate:9
SliderMultiplier:1.6
SliderTickRate:1

[Events]
//Background and Video events
0,0,"Miku Wallpaper - Miku Hatsune Wallpaper.jpg",0,0
//Break Periods
//Storyboard Layer 0 (Background)
//Storyboard Layer 1 (Fail)
//Storyboard Layer 2 (Pass)
//Storyboard Layer 3 (Foreground)
//Storyboard Sound Samples

[TimingPoints]
397,400,4,1,0,100,1,0
13197,-200,4,1,0,100,0,0
38797,-133.333333333333,4,1,0,100,0,0
51197,-66.6666666666667,4,1,0,100,0,0
51597,-100,4,1,0,100,0,0
63597,-50,4,1,0,100,0,0
63997,-200,4,1,0,100,0,0
64397,-79.9999999999999,4,1,0,100,0,1
75597,-79.9999999999999,4,1,0,100,0,0
77197,-100,4,1,0,100,0,0

[HitObjects]
256,192,397,5,0,0:0:0:0:
256,192,1197,1,0,0:0:0:0:
256,192,1997,1,0,0:0:0:0:
256,192,2797,1,0,0:0:0:0:
160,104,3597,5,0,0:0:0:0:
160,104,4397,1,0,0:0:0:0:
160,104,5197,1,0,0:0:0:0:
160,104,5997,1,0,0:0:0:0:
388,184,6797,5,0,0:0:0:0:
388,184,7597,1,0,0:0:0:0:
388,184,8397,1,0,0:0:0:0:
388,184,9197,1,0,0:0:0:0:
152,288,9997,5,0,0:0:0:0:
152,288,10797,1,0,0:0:0:0:
152,288,11597,1,0,0:0:0:0:
152,288,12397,1,0,0:0:0:0:
284,232,13197,6,0,L|408:244,1,120
472,312,13997,2,0,P|500:248|484:192,1,120
408,148,14797,1,0,0:0:0:0:
284,232,15597,2,0,L|232:224,1,40
128,192,15997,2,0,L|167:185,1,40
8,84,16397,6,0,L|128:96,1,120
332,72,17197,2,0,L|212:60,1,120
392,152,17997,1,0,0:0:0:0:
416,144,18797,1,0,0:0:0:0:
444,136,19597,6,0,P|472:192|456:256,1,120
288,308,20397,2,0,L|412:316,1,120
216,248,21197,5,0,0:0:0:0:
104,304,21997,2,0,P|100:328|104:352,1,40
60,180,22397,2,0,P|64:204|60:228,1,40
140,120,22797,6,0,L|272:128,1,120
344,88,23597,1,0,0:0:0:0:
480,236,24397,6,0,P|452:220|420:220,1,60
392,244,24797,2,0,P|362:242|336:226,1,60
320,184,25197,1,0,0:0:0:0:
292,312,25397,1,0,0:0:0:0:
208,200,25597,1,0,0:0:0:0:
216,280,25797,1,0,0:0:0:0:
128,160,25997,6,0,L|0:148,1,120
112,40,26797,2,0,L|240:52,1,120
312,92,27597,5,0,0:0:0:0:
140,156,28397,2,0,L|184:152,1,40
296,216,28797,2,0,L|252:212,1,40
368,296,29197,2,0,P|432:296|480:264,1,120
504,180,29997,1,0,0:0:0:0:
208,80,30797,5,0,0:0:0:0:
356,188,31397,1,0,0:0:0:0:
273,228,31597,2,0,L|201:220,2,60
350,278,32397,5,0,0:0:0:0:
125,120,32997,1,0,0:0:0:0:
208,80,33197,2,0,L|280:88,2,60
131,30,33997,5,0,0:0:0:0:
267,86,34597,1,0,0:0:0:0:
209,167,34797,2,0,L|201:228,2,60
256,192,35597,12,0,38397,0:0:0:0:
162,110,38797,6,0,P|90:109|42:77,2,120.000004577637
243,59,39997,1,0,0:0:0:0:
283,146,40197,1,0,0:0:0:0:
324,232,40397,6,0,P|396:231|444:199,2,120.000004577637
193,298,41797,1,0,0:0:0:0:
110,248,41997,6,0,L|31:255,1,60.0000022888184
228,159,42397,1,0,0:0:0:0:
228,159,42797,2,0,P|185:144|152:144,1,60.0000022888184
314,194,43197,2,0,P|348:164|364:135,1,60.0000022888184
238,250,43597,6,0,L|257:370,2,120.000004577637
325,65,44797,1,0,0:0:0:0:
325,65,45197,6,0,P|390:68|440:33,2,120.000004577637
234,101,46397,1,0,0:0:0:0:
274,194,46597,1,0,0:0:0:0:
179,233,46797,6,0,P|114:236|64:201,2,120.000004577637
274,194,47797,1,0,0:0:0:0:
332,277,47997,2,0,L|328:347,1,60.0000022888184
429,291,48397,6,0,L|432:231,1,60.0000022888184
382,94,48797,2,0,L|378:153,1,60.0000022888184
302,42,49197,2,0,P|255:37|207:53,1,90.0000034332277
178,85,49597,2,0,L|115:77,1,60.0000022888184
2,187,49997,6,0,L|127:175,1,120.000004577637
195,245,50597,1,0,0:0:0:0:
282,193,50797,2,0,P|290:160|282:112,1,60.0000022888184
195,245,51197,2,0,P|281:290|359:257,1,180.000006866455
389,220,51597,6,0,P|377:264|385:311,1,80
464,160,51997,2,0,P|476:116|468:69,1,80
332,32,52397,2,0,P|320:76|328:123,1,80
352,148,52697,1,0,0:0:0:0:
352,148,52797,2,0,L|244:140,1,80
104,72,53197,6,0,P|120:120|112:160,1,80
200,196,53597,2,0,P|166:233|127:246,1,80
144,336,53997,2,0,P|94:325|63:298,1,80
24,284,54297,1,0,0:0:0:0:
24,284,54397,2,0,L|16:228,1,40
146,205,54597,2,0,L|138:257,1,40
240,312,54797,6,0,P|280:292|324:296,1,80
472,320,55197,2,0,P|432:340|388:336,1,80
372,216,55597,2,0,P|412:196|456:200,1,80
496,228,55897,1,0,0:0:0:0:
496,228,55997,2,0,L|484:136,1,80
296,72,56397,6,0,P|252:80|216:116,1,80
372,216,56797,2,0,P|387:173|373:124,1,80
208,212,57197,2,0,P|236:246|286:259,1,80
292,168,57597,1,0,0:0:0:0:
124,252,57797,1,0,0:0:0:0:
0,156,57997,6,0,L|8:76,1,80
92,4,58397,1,0,0:0:0:0:
124,252,58597,1,0,0:0:0:0:
208,48,58797,1,0,0:0:0:0:
0,156,58997,1,0,0:0:0:0:
200,308,59197,1,0,0:0:0:0:
148,140,59397,1,0,0:0:0:0:
136,196,59497,1,0,0:0:0:0:
124,252,59597,5,0,0:0:0:0:
248,96,59797,1,0,0:0:0:0:
288,340,59997,1,0,0:0:0:0:
148,140,60197,1,0,0:0:0:0:
352,232,60397,1,0,0:0:0:0:
352,232,60597,2,0,L|300:224,2,40
448,272,60897,1,0,0:0:0:0:
428,220,60997,1,0,0:0:0:0:
428,164,61097,1,0,0:0:0:0:
460,116,61197,5,0,0:0:0:0:
432,120,61297,1,0,0:0:0:0:
404,124,61397,1,0,0:0:0:0:
376,128,61497,1,0,0:0:0:0:
312,192,61597,5,0,0:0:0:0:
264,184,61697,1,0,0:0:0:0:
216,172,61797,1,0,0:0:0:0:
168,160,61897,1,0,0:0:0:0:
100,92,61997,5,0,0:0:0:0:
124,148,62097,1,0,0:0:0:0:
116,208,62197,1,0,0:0:0:0:
84,260,62297,1,0,0:0:0:0:
32,292,62397,2,0,L|-20:284,3,40
216,352,62797,5,0,0:0:0:0:
276,344,62897,1,0,0:0:0:0:
372,200,63097,5,0,0:0:0:0:
312,192,63197,1,0,0:0:0:0:
168,268,63397,1,0,0:0:0:0:
116,280,63497,1,0,0:0:0:0:
34,249,63597,6,0,P|-6:201|71:166,1,160
53,246,63997,6,0,L|25:250,1,20
60,160,64397,6,0,L|168:172,1,100
192,176,64697,1,0,0:0:0:0:
132,272,64797,2,0,L|240:260,1,100
332,200,65197,2,0,P|320:252|348:304,1,100
412,348,65497,1,0,0:0:0:0:
488,244,65597,2,0,L|428:236,1,50
404,120,65797,2,0,L|456:116,1,50
304,16,65997,6,0,L|296:116,1,100
332,200,66297,1,0,0:0:0:0:
208,104,66397,2,0,P|152:88|96:88,1,100
16,240,66797,2,0,P|72:256|128:256,1,100
192,208,67097,1,0,0:0:0:0:
252,304,67197,2,0,P|256:328|252:360,1,50
333,249,67397,2,0,P|329:225|333:193,1,50
405,45,67597,6,0,P|413:94|408:144,1,100
331,199,67897,1,0,0:0:0:0:
236,76,67997,2,0,L|120:68,1,100
8,220,68397,2,0,L|120:212,1,100
196,260,68697,1,0,0:0:0:0:
112,316,68797,2,0,P|112:344|120:368,1,50
292,272,68997,2,0,P|292:244|284:220,1,50
264,356,69197,6,0,P|328:356|368:320,1,100
316,136,69597,2,0,P|252:136|212:172,1,100
416,108,69997,2,0,P|384:52|332:35,1,100
224,155,70297,1,0,0:0:0:0:
224,155,70397,2,0,L|152:148,1,50
48,108,70597,2,0,L|108:100,1,50
148,240,70797,6,0,L|24:260,1,100
216,308,71097,1,0,0:0:0:0:
314,291,71197,2,0,L|194:311,1,100
408,224,71597,2,0,P|400:276|432:328,1,100
500,260,71897,1,0,0:0:0:0:
332,168,71997,2,0,L|264:172,1,50
432,104,72197,2,0,L|368:92,1,50
191,47,72397,6,0,P|207:94|195:142,1,100
120,208,72698,1,0,0:0:0:0:
295,265,72798,2,0,L|196:272,1,100
24,264,73197,2,0,P|8:216|20:164,1,100
96,104,73497,1,0,0:0:0:0:
195,142,73597,2,0,L|260:136,1,50
345,260,73797,2,0,L|295:264,1,50
392,180,73997,6,0,L|516:168,1,100
491,170,74297,1,0,0:0:0:0:
328,96,74397,2,0,L|444:84,1,100
216,324,74797,2,0,P|196:272|204:220,1,100
292,184,75097,1,0,0:0:0:0:
152,144,75197,2,0,P|124:144|88:160,1,50
8,244,75397,2,0,P|36:244|72:228,1,50
20,104,75597,5,0,0:0:0:0:
28,64,75697,1,0,0:0:0:0:
292,184,75897,5,0,0:0:0:0:
284,144,75997,1,0,0:0:0:0:
144,184,76197,1,0,0:0:0:0:
132,224,76297,1,0,0:0:0:0:
164,296,76397,5,0,0:0:0:0:
204,288,76497,1,0,0:0:0:0:
244,296,76597,1,0,0:0:0:0:
324,344,76797,2,0,P|372:344|416:312,1,100
440,148,77197,6,0,L|452:240,1,80
348,80,77597,2,0,L|332:176,1,80
316,260,77997,1,0,0:0:0:0:
240,104,78197,1,0,0:0:0:0:
240,104,78297,1,0,0:0:0:0:
240,104,78397,2,0,P|212:88|180:84,1,40
132,204,78597,2,0,P|150:197|167:185,1,40
40,164,78797,6,0,P|28:208|40:248,1,80
112,308,79197,2,0,L|196:312,1,80
264,236,79597,1,0,0:0:0:0:
416,312,79797,1,0,0:0:0:0:
416,312,79897,1,0,0:0:0:0:
416,312,79997,2,0,P|424:336|420:368,1,40
364,200,80197,2,0,P|356:224|360:256,1,40
432,120,80397,6,0,L|328:108,1,80
192,64,80797,2,0,L|288:56,1,80
144,148,81197,1,0,0:0:0:0:
64,112,81397,1,0,0:0:0:0:
64,112,81497,1,0,0:0:0:0:
64,112,81597,2,0,P|56:80|60:56,1,40
144,148,81797,2,0,P|152:180|148:204,1,40
116,276,81997,6,0,L|216:280,1,80
264,212,82397,2,0,P|312:228|340:260,1,80
420,208,82797,2,0,P|430:257|416:297,1,80
392,328,83097,1,0,0:0:0:0:
392,328,83197,2,0,L|308:332,1,80
400,116,83597,6,0,P|448:116|484:136,1,80
316,72,83997,2,0,L|216:64,1,80
140,60,84397,1,0,0:0:0:0:
240,192,84597,1,0,0:0:0:0:
240,192,84697,1,0,0:0:0:0:
240,192,84797,2,0,P|252:164|252:132,1,40
316,256,84997,2,0,P|344:244|366:222,1,40
168,328,85197,6,0,L|268:336,1,80
96,260,85597,2,0,P|68:308|72:348,1,80
192,228,85997,1,0,0:0:0:0:
60,128,86197,1,0,0:0:0:0:
60,128,86297,1,0,0:0:0:0:
60,128,86397,2,0,L|8:120,1,40
180,64,86597,2,0,L|128:60,1,40
284,192,86797,6,0,P|324:192|376:164,1,80
448,108,87197,2,0,P|448:156|468:192,1,80
416,340,87597,2,0,P|416:292|400:260,1,80
324,316,87897,1,0,0:0:0:0:
324,316,87997,2,0,L|244:308,1,80
151,195,88397,5,0,0:0:0:0:
171,229,88497,1,0,0:0:0:0:
173,268,88597,1,0,0:0:0:0:
158,305,88697,1,0,0:0:0:0:
119,331,88797,2,0,L|67:327,1,40
0,272,88997,1,0,0:0:0:0:
252,200,89197,1,0,0:0:0:0:
312,212,89297,1,0,0:0:0:0:
372,224,89397,2,0,P|404:216|424:200,1,40
294,117,89597,1,0,0:0:0:0:
484,276,89997,5,0,0:0:0:0:
